#TITLE:Gargoyle;
#SUBTITLE:Original Mix;
#ARTIST:Sanxion7;
#TITLETRANSLIT:;
#SUBTITLETRANSLIT:;
#ARTISTTRANSLIT:;
#GENRE:Techno;
#CREDIT:Sync by HellRazoR;
#BANNER:Gargoyle-bn.png;
#BACKGROUND:Gargoyle-bg.png;
#LYRICSPATH:;
#CDTITLE:;
#MUSIC:Gargoyle.ogg;
#OFFSET:-0.039;
#SAMPLESTART:84.900;
#SAMPLELENGTH:12.900;
#SELECTABLE:YES;
#BPMS:0.000=150.000,84.000=75.000,148.000=150.000;
#STOPS:147.750=0.018
;
#BGCHANGES:0.000=Gargoyle-bg.png=1.000=0=0=1=====,
16.000=In The Groove Rebirth/902_JumpBack.mpg=1.000=0=0=1=====,
32.000=In The Groove Rebirth/1135_JumpBack.mpg=1.000=0=0=1=====,
48.000=In The Groove Rebirth/1128_JumpBack.mpg=1.000=0=0=1=====,
80.000=Gargoyle-bg.png=1.000=0=0=1=====,
84.000=In The Groove Rebirth/882_JumpBack.mpg=1.000=0=0=1=====,
100.000=In The Groove Rebirth/901_JumpBack.mpg=1.000=0=0=1=====,
116.000=In The Groove Rebirth/800_JumpBack.mpg=1.000=0=0=1=====,
132.000=In The Groove Rebirth/821_JumpBack.mpg=0.400=0=0=1=Kaleidoscope2x2====,
148.000=In The Groove Rebirth/900_JumpBack.mpg=1.000=0=0=1=====,
180.000=In The Groove Rebirth/901_JumpBack.mpg=1.000=0=0=1=====,
212.000=Gargoyle-bg.png=1.000=0=0=1=====,
99999=-nosongbg-=1.000=0=0=0 // don't automatically add -songbackground-
;
#BGCHANGES2:16.000=white flash=1.000=0=0=1=====,
48.000=white flash=1.000=0=0=1=====,
80.000=white flash=1.000=0=0=1=====,
84.000=white flash=0.200=0=0=1=====,
100.000=white flash=2.000=0=0=1=====,
116.000=flash=1.000=0=0=1====0^0^1^1=,
132.000=flash=1.000=0=0=1====1^0^0^1=,
148.000=white flash=1.000=0=0=1=====,
212.000=white flash=1.000=0=0=1=====,
;
#KEYSOUNDS:;

//---------------dance-single - R. Uchima----------------
#NOTES:
     dance-single:
     R. Uchima:
     Beginner:
     1:
     0.112,0.134,0.118,0.000,0.000:
0000
0000
0000
0000
,
0000
0000
0000
0000
,
0000
0000
0000
0000
,
0000
0000
0000
0000
,
1000
0000
0000
0000
,
0100
0000
0000
0000
,
1000
0000
0000
0000
,
0010
0000
0000
0000
,
1001
0000
0000
0000
,
1000
0000
0000
0000
,
0010
0000
0000
0000
,
0100
0000
0000
0000
,
0110
0000
0000
0000
,
1001
0000
0000
0000
,
0110
0000
0000
0000
,
1000
0000
0001
0000
,
1001
0000
0000
0000
,
1001
0000
0000
0000
,
0110
0000
0000
0000
,
0010
0000
0100
0000
,
0110
0000
0000
0000
,
1001
0000
0000
0000
,
1000
0000
0100
0000
,
0010
0000
0001
0000
,
1000
0000
1000
1000
,
1000
0000
0001
0001
,
0001
0000
0010
0010
,
0010
0000
0100
0100
,
0100
0000
0010
0000
,
0110
0000
1000
0000
,
1000
0000
0001
0000
,
0100
0000
0010
0000
,
1000
0000
0001
0000
,
1001
0000
0010
0000
,
0001
0000
0001
0000
,
1000
0000
1000
0000
,
0010
0000
0100
0010
,
0110
0000
0000
0000
,
1000
0000
1000
0000
,
1000
0000
0000
0000
,
0001
0000
0001
0000
,
0001
0000
0000
0000
,
0010
0000
0010
0000
,
0010
0000
0000
0000
,
0100
0000
0000
0000
,
1001
0000
0000
0000
,
0100
0000
0100
0000
,
0100
0000
0000
0000
,
0010
0000
0010
0000
,
0010
0000
0000
0000
,
1000
0000
1000
0000
,
1000
0000
0000
0000
,
0001
0000
0001
0000
,
1001
0000
0000
0000
;

//---------------dance-single - R. Uchima----------------
#NOTES:
     dance-single:
     R. Uchima:
     Easy:
     4:
     0.252,0.290,0.151,0.067,0.000:
0000
0000
0000
0000
,
0000
0000
0000
0000
,
0000
0000
0000
0000
,
0000
0000
0000
0000
,
1000
0100
1000
0010
,
0100
0001
0010
0001
,
0100
0010
0100
0001
,
1000
0000
0001
0000
0010
0000
0022
0033
,
0001
0100
0010
0100
,
0010
1000
0100
0010
,
0001
0100
0001
0010
,
0001
0000
1000
0000
0100
0000
2200
3300
,
0100
0110
0000
0010
,
0001
0101
0000
0100
,
0010
1010
0000
1000
,
0100
1100
0000
1000
,
0001
0101
0000
0001
,
1000
1010
0000
1000
,
0100
0110
0000
1000
,
0001
0011
0000
1100
,
2002
0000
0000
0000
0MM0
0000
0000
3003
,
0220
0000
0000
0000
0000
0000
0000
0330
,
0010
1000
0100
1000
,
0010
0100
0001
0100
,
0001
0001
1000
1000
,
0110
0010
0100
1000
,
0001
0100
0001
0010
,
0001
1000
0100
1000
,
0010
0010
0100
0100
,
0101
0000
0001
0010
0001
0000
0010
0100
,
0010
0000
0100
1000
0100
0000
1000
0010
,
1000
0000
0010
0100
0010
0000
0100
0010
,
0100
0000
0010
1000
0010
0000
1000
0001
,
1001
0000
0001
0100
0001
0000
0100
0010
,
0100
0000
0010
1000
0010
0000
1000
0100
,
1000
0000
0100
0010
0100
0000
0010
0001
,
0010
0000
0001
0100
0010
0100
0010
1000
,
0100
0000
1000
0000
0000
0010
0000
0000
,
0100
0000
0000
0001
0000
0000
0010
0000
,
0001
0000
0100
0000
0000
0010
0000
0000
,
1000
0000
0000
0100
0000
0000
0010
0000
,
0001
0000
0100
0000
0000
0010
0000
0010
,
0000
0000
1000
0000
0000
0100
0000
0100
,
0000
0000
0010
0000
0000
0001
0000
0000
,
0100
0000
0010
1000
,
1010
0000
1000
0000
0000
0100
0000
0000
,
0010
0000
0000
0001
0000
0000
0100
0000
,
0001
0000
1000
0000
0000
0100
0000
0000
,
1000
0000
0000
0010
0000
0000
1000
0000
,
0001
0000
0100
0000
0000
0001
0000
0001
,
0000
0000
1000
0000
0000
1000
0000
1000
,
0000
0000
0100
0000
0000
0010
0000
0000
,
0001
0000
0100
0001
,
0110
0000
0000
0000
;

//---------------dance-single - R. Uchima----------------
#NOTES:
     dance-single:
     R. Uchima:
     Medium:
     6:
     0.388,0.356,0.328,0.109,0.139:
0000
0000
0000
0000
,
0000
0000
0000
0000
,
1001
0000
0000
0000
0000
0000
0000
0001
,
1000
0000
0000
0000
0000
0000
0001
0000
1000
0000
0000
0010
0000
0000
0100
0000
,
0110
0000
0100
0101
0000
0000
0001
0000
,
0001
0010
0000
0110
0000
0000
0100
0000
,
0100
1000
0000
1100
0000
0000
1000
0000
,
1000
0010
0000
0110
0000
0000
0200
0301
,
1000
0001
0000
0011
0000
0000
0010
0001
,
0100
0010
0000
0110
0000
0000
0010
1000
,
0100
1000
0000
1100
0000
0000
0100
0010
,
0001
0100
0000
0101
0000
0000
0002
0103
,
0101
0000
0000
0000
0100
0000
0000
0000
0010
0000
0000
1000
0000
0000
0010
0000
,
0100
0000
0000
0000
0001
0000
0000
0000
0010
0000
0000
0100
0000
0000
1000
0000
,
0100
0000
0000
0000
1000
0000
0000
0000
0010
0000
0000
0100
0000
0000
0010
0000
,
0100
0000
0000
0000
0001
0000
0000
0000
1000
0000
0000
0100
0000
0000
1000
0000
,
0001
0000
0000
0000
0010
0000
0000
0000
0001
0000
0000
0100
0000
0000
0010
0000
,
0100
0000
0000
0000
0010
0000
0000
0000
1000
0000
0000
0001
0000
0000
0100
0000
,
0001
0000
0000
0000
0010
0000
0000
0000
0001
0000
0000
1000
0000
0000
0010
0000
,
1000
0000
0000
0000
0100
0000
0000
0000
1000
0000
0000
0010
0000
0000
0100
0000
,
0220
0000
0000
0000
0000
0330
0010
0000
0100
0000
0000
0001
0000
0000
1000
0000
,
2002
0000
0000
0000
0000
0000
0000
3003
,
0002
0000
0010
0000
0000
1000
0000
0000
0100
0000
0000
1000
0000
0000
0010
0000
,
2003
0000
0100
0000
0000
0001
0000
0001
0000
0000
0010
0000
0000
0001
0000
0001
,
3002
0000
0100
0000
0000
1000
0000
0000
0010
0000
0000
0000
0100
0000
0000
0013
,
0021
0000
0001
0000
0000
0100
0000
0000
1000
0000
0000
0100
0000
0000
0100
0000
,
0230
0000
1000
0000
0000
0010
0000
0000
0001
0000
0000
0010
0000
0000
1000
0000
,
2300
0000
0001
0000
0000
0100
0000
0100
0000
0000
0001
0000
0000
0010
0000
0010
,
3020
0000
0000
0000
1000
0000
0000
0000
0000
0000
0100
0000
0000
0000
0000
0000
0001
0000
0000
0000
0000
0000
0100
0000
0100
0000
0000
0100
0000
0000
0130
0000
,
0110
1000
1100
0001
,
0101
0010
1001
0100
,
0011
0110
1100
1001
,
0011
0101
1010
1100
,
0110
0010
0100
0000
1100
1000
0100
0000
,
0110
0010
0100
0000
0011
0010
0001
0000
,
0101
0001
0100
0000
0110
0010
0100
0000
,
1010
0000
0000
0000
1000
0000
0000
0000
0010
0000
0000
0000
0000
0000
0000
0000
1100
0000
0000
0000
1000
0000
0000
0000
0001
0000
0000
1000
0000
0000
0001
0000
,
1000
0100
1000
0000
1000
0010
0000
0010
,
0100
0000
0100
0001
0000
0001
0010
0100
,
1000
0100
1000
0000
1000
0010
0000
0010
,
0100
0000
0100
0001
0000
0001
0010
0100
,
0010
0100
1000
0000
0100
1000
0000
1100
,
0000
0100
0010
0000
0010
0001
0000
0011
,
0000
0001
0100
0000
0100
0010
0000
0010
,
1000
0000
1000
0010
1000
0100
1000
0001
,
1000
0000
0001
0000
0001
0100
0000
0100
,
0010
0000
0010
1000
0000
1000
0100
1000
,
0010
0100
0010
0000
0010
1000
0000
1000
,
0100
0000
0100
0010
0000
0010
0001
0010
,
0100
1000
0100
0000
0100
0010
0000
0110
,
0000
0010
0001
0000
0001
0100
0000
0101
,
0000
0001
1000
0000
1000
0010
0000
0010
,
0100
0000
0000
0000
0100
0000
0001
0000
0010
0000
0000
0100
0000
0000
1000
0000
,
1100
0000
0000
0000
;

//---------------dance-single - R. Uchima & D. Bernardone----------------
#NOTES:
     dance-single:
     R. Uchima & D. Bernardone:
     Hard:
     8:
     0.522,0.512,0.328,0.059,0.483:
0000
0000
0000
0000
,
0000
0000
0000
0000
,
1001
0000
0000
0000
0000
0000
0000
0010
,
0110
0000
0000
0000
0000
0000
0100
0001
0100
0000
0100
0010
0000
0010
1000
0000
,
1010
1000
0010
0110
0000
0100
0001
0010
,
0100
0010
0001
1001
0000
1000
0100
0001
,
0100
0010
0001
0011
0000
0001
0100
0010
,
0100
0010
1000
1010
0000
1000
0002
0103
,
0010
0000
0100
0001
0100
0000
0101
0000
0000
0000
1000
0000
0010
0000
0100
0000
,
0001
0000
0010
0100
1000
0000
1100
0000
0000
0000
0100
0000
1000
0000
0010
0000
,
0100
0000
0001
0100
0010
0000
0110
0000
0000
0000
0010
0000
1000
0000
0100
0000
,
1000
0000
0010
0100
0010
0000
0110
0000
0000
0000
0100
0000
0020
0000
1030
0000
,
0001
0000
1000
0100
0010
0000
0001
0000
0100
0000
0000
0010
0000
0000
1000
0000
,
0100
0000
1000
0100
1000
0000
0010
0000
0100
0000
0000
0001
0000
0000
0010
0000
,
0001
0000
0010
0001
0010
0000
0001
0000
0100
0000
0000
0010
0000
0000
1000
0000
,
0100
0000
0010
0100
0010
0000
0001
0000
0100
0000
0000
0010
0000
0000
0100
0000
,
0010
0000
1000
0100
0010
0000
0000
0000
0011
0000
0000
0110
0000
0000
1100
0000
,
0100
0000
1000
0100
1000
0000
0000
0000
1010
0000
0000
0110
0000
0000
1010
0000
,
1000
0000
0100
0010
0001
0000
0000
0000
0011
0000
0000
0101
0000
0000
1010
0000
,
1000
0000
0100
0010
0001
0000
0000
0000
0101
0000
0000
0110
0000
0000
2020
0000
,
0000
0000
0000
0000
3030
0000
1000
0001
1000
0000
1000
0001
0000
0001
0100
0000
,
0202
0000
0000
0000
,
0303
0000
0100
0000
000M
0010
0000
0M00
1000
0000
00M0
0100
0000
0000
0010
0001
,
M000
0000
0001
0000
00M0
0100
0000
0010
0000
000M
1000
0000
0000
0100
000M
0010
,
0000
M000
0001
0000
00M0
0100
0000
0000
0010
000M
0000
1000
0010
0100
M000
0100
,
0101
0000
0001
0000
0M00
0010
0000
M000
0100
0000
000M
1000
0000
0000
0010
0100
,
M000
0000
0010
0000
000M
1000
0000
00M0
0100
0000
0000
0010
M000
0000
0001
0010
,
M000
0000
0100
000M
0000
1000
000M
0010
0000
0000
0100
0000
M000
0001
0000
0100
,
M000
0000
0000
0000
0010
0000
000M
0000
0M00
0000
1000
0000
0000
0000
0000
0000
0100
0000
00M0
0000
0000
0000
1000
0001
1000
0000
1000
0100
0000
0100
0010
0000
,
0011
0000
1000
0000
0010
0100
0000
0001
0100
0000
0010
1000
0000
0100
1000
0010
,
0000
0100
0001
0000
1000
0010
0000
0100
0010
0000
0100
0001
0000
0010
0001
0100
,
0000
0010
0100
0000
0001
1000
0000
1100
0000
0010
0100
0000
0010
0001
0000
1010
,
0000
0001
1000
0000
0100
1000
0000
0010
0010
0000
1000
0100
0010
0001
0000
0100
,
0110
0000
1000
0000
0100
0001
0000
0100
0010
0000
0100
1000
0000
0100
0001
0100
,
0000
0010
1000
0000
0010
0001
0000
0010
0100
0000
0100
0010
0000
1000
0010
0001
,
0000
0100
0010
0000
0001
0010
0000
1000
0000
0100
0010
0000
1000
0010
0000
1001
,
0000
0000
0001
0000
0100
0000
0000
0000
0010
0000
0100
0000
0000
0000
1000
0000
0100
0000
0000
0000
0001
0000
0010
0100
0010
0000
0010
0001
0000
0001
1000
0000
,
1100
0000
0010
0001
0100
1000
0100
0001
,
0010
0100
0010
0001
1000
0010
0100
0101
,
0000
1000
0010
0100
0010
1000
0100
0001
,
0100
0010
0001
1000
0010
0100
0010
1010
,
0000
0001
1000
0100
0001
0100
0000
0010
,
0000
0100
0001
0000
0100
1000
0000
0101
,
0000
0010
1000
0000
0010
0100
0000
1000
,
0100
0000
0001
0010
1000
0001
0000
0100
,
1000
0010
0010
1000
0100
0100
0001
0100
,
0100
1000
0010
0010
0100
0001
0010
1100
,
0000
0001
0001
0100
0010
0010
0001
1000
,
1000
0100
0001
0001
0100
0010
0001
1010
,
0000
1000
1000
0010
0100
0100
0000
1000
,
0100
0001
0010
0100
1000
1000
0000
0101
,
0010
0100
1000
0100
0010
0010
0100
0010
,
2001
0000
0000
0000
3100
0000
0010
0001
1000
0000
0001
0100
0000
0100
0010
0000
,
0101
0000
0000
0000
;

//---------------dance-single - R. Uchima----------------
#NOTES:
     dance-single:
     R. Uchima:
     Challenge:
     12:
     1.000,1.000,0.269,0.958,1.000,729.000,32.000,114.000,0.000,0.000,0.000,1.000,1.000,0.269,0.958,1.000,729.000,32.000,114.000,0.000,0.000,0.000: // measure 1
0000
0000
0000
0000
,  // measure 2
0000
0000
0000
0000
,  // measure 3
1001
0000
0000
0000
0000
0000
0000
0011
,  // measure 4
1100
0000
0000
0000
0000
0000
0000
0000
0000
0000
0000
0000
0100
1000
0100
1000
0100
0000
0000
0000
1000
0000
0001
0000
0000
0000
0001
0000
0100
0000
0000
0000
,  // measure 5
0101
0000
0100
0001
1000
0000
0001
0010
0100
0000
0010
0100
1000
0000
0100
0010
,  // measure 6
0001
0000
0010
0001
0010
0000
0001
0100
0010
0000
0100
0010
1000
0000
0010
1000
,  // measure 7
0100
0000
1000
0001
0010
0000
0001
0010
0100
0000
0010
0001
0100
0000
0001
1000
,  // measure 8
0100
0000
1000
0100
0010
0000
0100
1000
0010
0000
1000
0010
2000
0000
3001
0000
,  // measure 9
1000
0000
0010
1000
0010
0000
0010
0100
0010
0000
0010
0001
0010
0000
0010
0100
,  // measure 10
0001
0000
0001
1000
0100
0000
0100
1000
0100
0000
0100
0010
0100
0000
0100
0001
,  // measure 11
0100
0000
0100
0010
0001
0000
0001
0010
0001
0000
0001
1000
0001
0000
0001
0100
,  // measure 12
0001
0000
1000
0010
1000
0000
1000
0001
1000
0000
1000
0100
2000
0000
3001
0000
,  // measure 13
1100
0000
0100
0010
0001
0000
0010
0001
0100
0000
0100
1000
0000
1000
0100
0001
,  // measure 14
0010
0000
0110
0000
1100
0000
0100
1000
0001
0000
0001
0010
0000
0010
1000
0010
,  // measure 15
0001
0000
0010
0001
1000
0000
0010
0100
0001
0000
0100
0001
0000
0001
0010
1000
,  // measure 16
0010
0000
0110
0000
1100
0000
0100
0010
0001
0000
1000
0010
0000
0010
0001
0010
,  // measure 17
1000
0000
1000
0100
1000
0000
0010
0100
0001
0000
0001
0010
0000
0010
0100
0001
,  // measure 18
0100
0000
0101
0000
0110
0000
0010
0001
0010
0000
0010
1000
0000
1000
0010
0001
,  // measure 19
0100
0000
0001
0100
0010
0000
0100
0010
1000
0000
0010
0100
0000
0100
1000
0100
,  // measure 20
0010
0000
0110
0000
1010
0000
1000
0100
0010
0000
0010
0001
0000
0001
0100
1000
,  // measure 21
0200
0000
0000
0000
0000
0000
0000
0000
0000
0000
0000
0000
0310
0100
0010
0100
0010
0000
0000
0000
0100
0000
0001
0000
0000
0000
0001
0000
0010
0000
0000
0000
,  // measure 22
2200
0000
0000
0000
0000
0000
0000
0000
0000
0000
0000
0000
0000
0000
0000
0000
0000
0000
0000
0000
0000
0000
0000
0000
0000
0000
0000
0000
0000
0000
0000
0000
0000
0000
0000
0000
0000
0000
0000
0000
0000
0000
0000
0000
0000
0000
0000
0000
0000
0000
0000
0000
0000
0000
0000
0000
0000
0000
0000
0000
0000
0000
0000
3000
,  // measure 23
2000
0000
0000
0300
0020
0000
0000
3000
0200
0000
0000
0030
0002
0000
0000
0300
0200
0000
0000
0003
2000
0000
0000
0300
0200
0000
0000
3000
0020
0000
0000
0300
2000
0000
0000
0030
0200
0000
0000
3000
0002
0000
0000
0300
2000
0000
0000
0003
0020
0000
0000
3000
0002
0000
0000
0030
0200
0000
0000
0003
0020
0000
0000
0300
,  // measure 24
0200
0000
0000
0030
0002
0000
0000
0300
2000
0000
0000
0003
0200
0000
0000
3000
0020
0000
0000
0300
0002
0000
0000
0030
0200
0000
0000
0003
0020
0000
0000
0300
0002
0000
0000
0030
2000
0000
0000
0003
0200
0000
0000
3000
0002
0000
0000
0300
0020
0000
0000
0003
2000
0000
0000
0030
0020
0000
0000
3000
0002
0000
0000
0030
,  // measure 25
0200
0000
0000
0003
0020
0000
0000
0300
2000
0000
0000
0030
0200
0000
0000
3000
0002
0000
0000
0300
0200
0000
0000
0003
0020
0000
0000
0300
2000
0000
0000
0030
0020
0000
0000
3000
0002
0000
0000
0030
0200
0000
0000
0003
0020
0000
0000
0300
0200
0000
0000
0030
2000
0000
0000
0300
0200
0000
0000
3000
0002
0000
0000
0303
,  // measure 26
0021
0000
0000
0000
0002
0000
0000
0030
0200
0000
0000
0003
0002
0000
0000
0300
0020
0000
0000
0003
0200
0000
0000
0030
2000
0000
0000
0300
0020
0000
0000
3000
0002
0000
0000
0030
2000
0000
0000
0003
0200
0000
0000
3000
0002
0000
0000
0300
0020
0000
0000
0003
0200
0000
0000
0030
0002
0000
0000
0300
0200
0000
0000
0003
,  // measure 27
2000
0000
0000
0300
0020
0000
0000
3000
0200
0000
0000
0030
0002
0000
0000
0300
0020
0000
0000
0003
0200
0000
0000
0030
0002
0000
0000
0300
0200
0000
0000
0003
0020
0000
0000
0300
2000
0000
0000
0030
0020
0000
0000
3000
0200
0000
0000
0030
2000
0000
0000
0300
0020
0000
0000
3000
0200
0000
0000
0030
0002
0000
0000
0300
,  // measure 28
2000
0000
0000
0003
0200
0000
0000
3000
0002
0000
0000
0300
0200
0000
0000
0003
0020
0000
0000
0300
0002
0000
0000
0030
0200
0000
0000
0003
2000
0000
0000
0300
0002
0000
0000
3000
0020
0000
0000
0003
2000
0000
0000
0030
0200
0000
0000
3000
0020
0000
0000
0300
0002
0000
0000
0030
0200
0000
0000
0003
0002
0000
0000
0300
,  // measure 29
2000
0000
0000
0003
0002
0000
0000
3000
0020
0000
0000
0003
2000
0000
0000
0030
0020
0000
0000
3000
0200
0000
0000
0030
2000
0000
0000
0300
0020
0000
0000
3000
2000
0000
0000
0030
0002
0000
0000
3000
1003
0000
0000
0000
0001
1000
0001
1000
0001
0000
0000
0000
1000
0000
0100
0000
0000
0000
0100
0000
0010
0000
0000
0000
,  // measure 30
0110
0000
0100
0010
0001
0000
0000
1000
0001
0010
0100
1000
0000
0000
0000
1000
0100
0000
0010
0100
1000
0000
0000
0001
1000
0100
0010
0001
0000
0000
0000
1000
,  // measure 31
0001
0000
0010
0100
0010
0000
0000
0001
0100
0010
0100
0001
0000
0000
0000
0001
1000
0000
0010
0100
0010
0000
0000
1000
0010
0100
0010
1000
0000
0000
0000
0001
,  // measure 32
1000
0000
0100
0010
0001
0000
0000
0100
1000
0100
0001
0100
0000
0000
0000
0100
0001
0000
0010
0100
1000
0000
0000
0010
0001
0010
1000
0010
0000
0000
0000
1000
,  // measure 33
0001
0000
0010
0001
0100
0000
0000
0010
1000
0100
0001
0100
0000
0000
0000
0100
1000
0000
0100
1000
0010
0000
0000
0100
0001
0010
1000
0010
0000
0000
0001
0000
,  // measure 34
1010
0000
1000
0010
0100
0000
0010
1000
0100
0010
0001
0100
0010
0000
1000
0100
0010
0000
0001
0100
0010
0000
0100
0001
0010
0100
1000
0010
0100
0000
0001
0100
,  // measure 35
0001
0000
0010
0100
1000
0000
0010
0100
0010
0001
0010
1000
0100
0000
1000
0010
1000
0000
0100
0010
0001
0000
0100
0010
0100
1000
0100
0001
0010
0000
0001
0100
,  // measure 36
0001
0000
0100
1000
0100
0000
0010
1000
0100
0001
0100
1000
0001
0000
1000
0010
1000
0000
0010
0001
0010
0000
0100
0001
0010
1000
0010
0001
1000
0000
0001
0100
,  // measure 37
0001
0000
0000
0000
0010
0000
1000
0000
0010
0000
0000
0000
0001
0000
0010
0000
1000
0000
0010
0000
0100
0000
0001
0000
0100
0000
0000
0000
1000
0000
0001
0000
0010
0000
0000
0000
0001
0000
1000
0000
0010
0000
0000
0000
1000
0100
1000
0100
1000
0000
0000
0000
0100
0000
0010
0000
0000
0000
0010
0000
0001
0000
0000
0000
,  // measure 38
0101
0000
0100
0000
1010
0000
1000
0100
0010
0001
0010
0100
1000
0010
0100
0000
,  // measure 39
0001
0000
0010
0000
0101
0000
0001
0010
0100
1000
0100
0010
0001
0100
0101
0000
,  // measure 40
0001
0000
1000
0000
1100
0000
0100
0010
0001
1000
0010
0100
0001
1000
0100
0000
,  // measure 41
1000
0000
0001
0000
0011
0000
0010
0100
1000
0001
0100
0010
1000
0001
1001
0000
,  // measure 42
1000
0000
0010
0000
1010
0000
0001
0100
0010
1000
0100
0010
1000
0010
0001
0000
,  // measure 43
0100
0000
0001
0000
0101
0000
1000
0010
0100
1000
0100
0001
0010
0001
1001
0000
,  // measure 44
1000
0000
0001
0000
0101
0000
1000
0010
0100
0010
1000
0100
0001
0100
0010
0000
,  // measure 45
0001
0000
1000
0000
1100
0000
0001
0100
0010
0100
0001
0100
1000
0100
0110
0000
,  // measure 46
1001
0000
1000
0100
0010
0001
0100
0010
0100
1000
0100
0001
0010
0001
1000
0100
,  // measure 47
0001
0100
0010
0001
0100
0010
0001
0010
1000
0001
0100
0001
1000
0010
0200
0000
,  // measure 48
0301
0100
0001
0010
0001
1000
0010
1000
0100
1000
0001
0010
0100
1000
0001
1000
,  // measure 49
0001
0100
1000
0100
1000
0100
0001
0010
0100
0010
1000
0010
0001
0010
0200
0000
,  // measure 50
1300
0001
1000
0100
0010
0100
0001
0100
0010
0100
1000
0001
0100
0010
0001
0010
,  // measure 51
0100
0010
1000
0100
0010
1000
0010
0100
1000
0001
0010
0100
0001
0100
0020
0000
,  // measure 52
0031
0010
0100
0001
0100
1000
0010
0100
0001
0100
0010
0001
0010
1000
0100
0010
,  // measure 53
1000
0000
0010
0000
0001
0000
1000
0000
0100
0000
1000
0000
0100
1000
0100
1000
0100
0000
0000
0000
1000
0000
0010
0000
0000
0000
0010
0000
0001
0000
0000
0000
,  // measure 54
0011
0000
0000
0000
;

//---------------dance-double - D. Bernardone----------------
#NOTES:
     dance-double:
     D. Bernardone:
     Easy:
     4:
     0.281,0.291,0.210,0.135,0.000:
00000000
00000000
00000000
00000000
,
00000000
00000000
00000000
00000000
,
20010000
00000000
00000000
00000000
,
30010000
00000000
00100000
00001000
,
00010000
00000100
00000010
00000010
,
00000001
00000100
00001000
00001000
,
00010000
00001000
00100000
00100000
,
01000000
10000000
00010000
01010000
,
10000000
01000000
00010000
00010000
,
00001000
00000100
00000010
00000010
,
00001000
00000100
00010000
00010000
,
00001000
01000000
00100000
10100000
,
00020000
00130000
00001000
00010000
,
00000200
00000310
00000001
00000100
,
00002000
00013000
00001000
00100000
,
02000000
03010000
00001000
01000000
,
00200000
10300000
01000000
00010000
,
00002000
00003100
00000010
00001000
,
00000002
00000103
00000010
00010000
,
00012000
01000000
00010000
00103000
,
02100000
00000000
13000000
00010000
,
00202000
00000000
00000000
00303000
,
00010000
00000100
00000010
00000001
,
00001000
00000010
00010000
00001000
,
00100000
01000000
10000000
00100000
,
01100000
00010000
00100000
01000000
,
00010000
00001000
00000100
00000010
,
00001000
00000001
00000010
00000100
,
00001000
00000000
00000010
00000000
00000100
00000000
00001000
00001000
,
00010000
00011000
01000000
01100000
,
00010000
10010000
00001000
00011000
,
00000100
00000110
00001000
00001001
,
00000100
00000110
00001001
00000110
,
00001000
00001100
00010000
00010010
,
00001000
01001000
00100000
10100000
,
00010000
01010000
00100000
00101000
,
00010000
00000000
00011000
00000000
00020000
00000000
00000100
00000100
,
00030010
00001000
00000001
00000000
,
00000010
00000010
00000010
00000100
,
00010000
00001000
01000000
00000000
,
00100000
10000000
00100000
10100000
,
00010000
01000000
00001000
00000000
,
00010000
00010000
00010000
00000100
,
00000010
00000000
00000001
00000000
,
00000100
00001000
00010000
01000000
,
10000000
00100000
01000000
00001000
,
00010000
00000100
00000010
00000001
,
00001000
00000010
00000100
00001000
,
00010000
01000000
00010000
00001000
,
00000010
00001000
00010000
00100000
,
01000000
00001000
00010000
00000100
,
00000010
00000001
00000100
00001000
,
00020000
00000000
00031000
01000000
,
20020000
30030000
00000000
00000000
;

//---------------dance-double - D. Bernardone----------------
#NOTES:
     dance-double:
     D. Bernardone:
     Medium:
     7:
     0.411,0.582,0.126,0.118,0.126:
00000000
00000000
00000000
00000000
,
00000000
00000000
00000000
00000000
,
10010000
00000000
M00M0000
00000000
00000000
00000000
00000000
00000001
,
00000100
00000000
00000000
00000000
00000000
00000000
00000010
00001000
00000010
00000000
00001000
00000100
00000000
00000100
00010000
00000000
,
00001000
01000000
00010000
00000000
00110000
00000000
01010000
00000000
,
01000000
00001000
00100000
00000000
01100000
00000000
10010000
00000000
,
00010000
00100000
00001000
00000000
00011000
00000000
00010100
00000000
,
00000100
00000010
00000001
00000000
00000101
00000000
00000120
00002030
,
00003100
00010000
00000100
00010000
00001000
00000000
01000000
00000000
,
00010000
00100000
01000000
10000000
00010000
00000000
01000000
00000000
,
00001000
00010000
00000100
00000010
00000001
00000000
00000100
00000000
,
00000010
00010000
00001000
00010000
00001000
00000000
00200000
00320000
,
10030000
01000000
00100000
00001000
00010000
00001000
00010000
00000000
,
00000010
00001000
00000100
00001000
00000001
00000010
00000100
00000000
,
00001000
00000010
00010000
00001000
00100000
00010000
01000000
00000000
,
00100000
00000000
01000000
00010000
10000000
00000000
00100000
00000000
01000000
00000000
00010000
00000000
00100000
00000000
00000000
00000000
,
00001000
00010000
00000100
00001000
00000010
00000100
00000010
00000000
,
00000100
00000001
00000010
00000100
00001000
00000010
00000010
00000000
,
00010000
00001000
00100000
00010000
01000000
00100000
00100000
00000000
,
10000000
01000000
00100000
00010000
01000000
00001000
00001000
00000000
,
00020000
00000000
00000000
00000000
00000000
00000000
00031000
00010000
00001000
00000000
00010000
00000100
00000000
00000100
00001000
00000000
,
00002002
00000000
00000000
00003003
,
00000001
00000100
00010000
00100000
,
10000000
00100000
00001000
00000010
,
00000001
00001000
00000010
00000100
,
00010000
01000000
00200000
20300000
,
30100000
00001000
00000020
00000032
,
00000013
00010000
02000000
23000000
,
30010000
00000000
01000000
00000000
00100000
01000000
00100000
01000000
,
10010000
00000000
00000000
M0000000
00010000
00000000
00010000
00000000
01000000
00000000
00000000
0M000000
00001000
00000000
00001000
00000000
,
00010000
00000000
00000000
000M0000
00000100
00000000
00000100
00000000
00000010
00000000
00000000
000000M0
00000001
00000000
00000001
00000000
,
00000100
00000000
00000000
00000M00
00000010
00000000
00000010
00000000
00010000
00000000
00000000
000M0000
00001000
00000000
00001000
00000000
,
01000000
00000000
00000000
0M000000
00100000
00000000
00100000
00000000
10000000
00000000
00000000
M0000000
01000000
00000000
01000000
00000000
,
01100000
00000000
00100000
00000000
00001000
00010000
00001000
00000000
00010000
00000000
00000010
00000000
00000100
00000001
00000100
00000000
,
00000001
00000000
00001000
00000000
00000010
00001000
00000010
00000000
00010000
00001000
00100000
00010000
01000000
01000000
01000000
00000000
,
00100000
10000000
01000000
10000000
00010000
00010000
00010000
00000000
01000000
00001000
00010000
00000100
00001000
00001000
00001000
00000000
,
00000010
00000100
00000001
00001000
00000100
00000100
00000100
00000000
00000020
00000000
00000000
00000000
00000001
00000000
00000100
00000000
,
00000031
00000010
00000100
00000000
00001000
00000010
00000000
00000010
,
00000100
00000000
00000100
00001000
00000000
00001000
00010000
00100000
,
00000000
01000000
00010000
00000000
00010000
00100000
00000000
00100000
,
01000000
00000000
01000000
00010000
00000000
00010000
00001000
00000010
,
00000000
00000001
00000100
00000000
00000100
00001000
00000000
00001000
,
00000000
00010000
00001000
00000000
00100000
00010000
00000000
10010000
,
00000000
01000000
00100000
00000000
00100000
10000000
00000000
10000000
,
01000000
00000000
01000000
00010000
00001000
00010000
00000010
00000100
,
00000001
00000001
00000010
00000000
00000010
00001000
00000000
00001000
,
00100000
00000000
00010000
01000000
00000000
10000000
01000000
00010000
,
00000000
00100000
01000000
00000000
00010000
00001000
00000000
00010000
,
00000010
00000000
00000100
00000001
00000000
00000010
00001000
00010000
,
00000000
00001000
01000000
00000000
00010000
10000000
00000000
10000000
,
00000000
01000000
00010000
00000000
00001000
00000100
00000000
00001001
,
00000000
00000001
00000010
00000000
00000100
00010000
00000000
00001000
,
01000000
00000000
10000000
01000000
00001000
00010000
00000100
00000010
,
00001001
0000M00M
00000000
00000000
;

//---------------dance-double - R. Uchima & edited by D. Bernardone----------------
#NOTES:
     dance-double:
     R. Uchima & edited by D. Bernardone:
     Hard:
     9:
     0.623,0.735,0.193,0.109,0.559:
00000000
00000000
00000000
00000000
,
00000000
00000000
00000000
00000000
,
00011000
00000000
00000000
00000000
00000000
00000000
00000000
00001000
,
01000000
00000000
00000000
00000000
00000000
00000000
01000000
00010000
01000000
00000000
01000000
00100000
00000000
00100000
10000000
00000000
,
11000000
01000000
00100000
00110000
00010000
01000000
00001000
00010000
,
00000100
00001000
00000010
00000110
00000100
00000001
00000010
00000100
,
00001000
00000100
00010000
00010100
00000100
01000000
00001000
00100000
,
00010000
10000000
01000000
01100000
00100000
00010000
02000000
03100000
,
01000000
00010000
00100000
00101000
00001000
00010000
00000010
00010000
,
00000001
00001000
00000100
00000110
00000010
00000001
00001000
00000100
,
00100000
00001000
01000000
01001000
00001000
10000000
01000000
00100000
,
00000100
00010000
00001000
00101000
00100000
00001000
00020000
00030100
,
00010100
00000000
00000100
00010000
00000100
00000000
00001000
00000000
00000010
00000000
00000100
00001000
00000000
00001000
00010000
00000000
,
00000100
00000000
00001000
00000100
00010000
00000000
00100000
00000000
00010000
00000000
00001000
00100000
00000000
00100000
00010000
00000000
,
01000000
00000000
00100000
10000000
00010000
00000000
00100000
00000000
00001000
00000000
00010000
00001000
00000000
00001000
00100000
00000000
,
01000000
00000000
00100000
01000000
00010000
00000000
00001000
00000000
00001000
00000000
00010000
00000100
00000000
00000100
00001000
00000000
,
00000010
00000000
00000100
00000001
00001000
00000000
00000100
00000000
00010000
00000000
00001000
00100000
00000000
00100000
01000000
00000000
,
10000000
00000000
00100000
01000000
00100000
00000000
10000000
00000000
00010000
00000000
01000000
00001000
00000000
00001000
00100000
00000000
,
00001000
00000000
00010000
00000100
00001000
00000000
00000010
00000000
00000100
00000000
00001000
00010000
00000000
00010000
00100000
00000000
,
00010000
00000000
00001000
00100000
00010000
00000000
01000000
00000000
00100000
00000000
10000000
01000000
00000000
01000000
00100000
00000000
,
00202000
00000000
00000000
00000000
00000000
00303000
00001000
00010000
00001000
00000000
00001000
01000000
00000000
01000000
00000100
00000000
,
02000200
00000000
00000000
00000000
00000000
00000000
00000000
03000300
,
00020000
00000000
00001000
00000000
00000000
00000010
00000000
00000000
00000001
00000000
00000000
00000100
00000000
00000000
00001000
00001000
,
00032000
00000000
00010000
00000000
00000000
00100000
00000000
00100000
00000000
00000000
10000000
00000000
00000000
01000000
00000000
01000000
,
00023000
00000000
00000100
00000000
00000000
01000000
00000000
00000000
00000100
00000000
00000000
00000010
00000001
00000001
00000000
00030001
,
00001002
00000000
00010000
00000000
00000000
00100000
00000000
00000000
00010000
00000000
00000000
00001000
00000003
00000000
00011000
00000000
,
20010000
00000000
00001000
00000000
00000000
00000100
00000000
00000000
00001000
00000000
00000000
00010000
30000000
00000000
00011000
00000000
,
00021000
00000000
00100000
00000000
00000000
00000010
00000000
00000100
00000000
00000000
01000000
00000000
00000000
00000100
00000000
00000010
,
00030020
00000000
00000000
00000000
00010000
00000000
00000000
00000000
00000000
00000000
00100000
00000000
00000000
00000000
00000000
00000000
10000030
00000000
00000000
00000000
00000000
00000000
00100000
00000010
00100000
00000000
00000010
00010000
00000000
00010000
00001000
00000000
,
00011000
00001000
00010000
00000010
00000100
00001000
00010000
00100000
01000000
00001000
00010000
01000000
00100000
00001000
00010000
00001000
,
01000000
00100000
01000000
00000100
00010000
00000100
01000000
00100000
01000000
00000100
00001000
00000100
01000000
00100000
01000000
00010000
,
00100000
01000000
00100000
00010000
00100000
00001000
00100000
00000100
00100000
00000001
00100000
00000010
00010000
00000010
00001000
00001000
,
00000010
00000100
00000010
00001000
00000010
00010000
00000010
00100000
00000010
10000000
00000010
01000000
00000100
01000000
00001000
00001000
,
01001000
00001000
01000000
01000000
00100000
10000000
10000000
01000000
00100000
00100000
00010000
00100000
00100000
00001000
00010000
00010000
,
00000100
00001000
00000010
00000010
00010000
00000100
00000100
00001000
00000001
00000001
00000100
00000010
00000010
00001000
00000100
00000100
,
00010000
00001000
00100000
00100000
00010000
01000000
01000000
00100000
00100000
00010000
00001000
00001000
00100000
00010000
00010000
01000000
,
01000000
00000000
00100000
00000000
00010000
00000000
00010000
00000000
00000100
00000000
00001000
00000000
00001000
00000000
00000010
00000000
00000100
00000000
00000100
00000000
00001000
00000000
00000100
00000010
00000100
00000000
00000010
00001000
00000000
00001000
00000100
00000000
,
00010100
00010000
00001000
00100000
00010000
01000000
00100000
01000000
,
00001000
00010000
00000100
00001000
00000001
00000100
00000010
00000010
,
00010000
00001000
01000000
00000100
00010000
00000010
00100000
00001000
,
01000000
00000100
00010000
00000010
00100000
00001000
01000000
01000000
,
00010000
10000000
00001000
00001000
00010000
00000001
00000001
00001000
,
00001000
00000001
00010000
00010000
00001000
10000000
10000000
00010000
,
00010000
01000000
00100000
00100000
10000000
01000000
01000000
00100000
,
00010000
00010000
01000000
00001000
00100000
00001000
00010000
00001000
,
00010100
00000000
00000100
00000000
00100000
00000000
00000100
00001000
00000010
00000000
00000100
00000000
00001000
00000000
00000100
00000000
,
00000001
00000000
00010000
00000000
00000100
00000000
00001000
00000010
00010000
00000000
00001000
00000000
01000000
00000000
00100000
00000000
,
10000000
00000000
00001000
00000000
10000000
00000000
00100000
01000000
00010000
00000000
01000000
00000000
00100000
00000000
00010000
00000000
,
00000100
00000000
00001000
00000000
00000010
00000000
01000000
00001000
00010000
00000000
00000010
00000000
00001000
00000000
00000100
00000000
,
00000001
00000000
00000100
00000000
00010000
00000000
00001000
00100000
00010000
00000000
01000000
00000000
00100000
00000000
00010000
00000000
,
00001000
00000000
01000000
00000000
00000100
00000000
00100000
00001000
01000000
00000000
00000100
00000000
00100000
00000000
00000010
00000000
,
00001000
00000000
00000010
00000000
00000100
00000000
00001000
00010000
00000100
00000000
00000010
00000000
00000001
00000000
00010000
00000000
,
00000010
00000000
00000100
00000000
00001000
00000000
00010000
00001000
00100000
00000000
00100000
01000000
00000000
01000000
00010000
00000000
,
00011000
00000000
00000000
00000000
;

//---------------dance-double - R. Uchima----------------
#NOTES:
     dance-double:
     R. Uchima:
     Challenge:
     12:
     0.857,0.980,0.135,0.042,1.000:
00000000
00000000
00000000
00000000
,
00000000
00000000
00000000
00000000
,
00011000
00000000
00000000
00000000
00000000
00000000
00000000
00101000
,
00110000
00000000
00000000
00000000
00000000
00000000
00000000
00000000
00000000
00000000
00000000
00000000
00010000
10000000
00010000
10000000
00010000
00000000
00000000
00000000
10000000
00000000
01000000
00000000
00000000
00000000
01000000
00000000
00100000
00000000
00000000
00000000
,
01100000
00000000
01000000
00100000
00010000
00000000
00110000
00000000
00100000
00000000
00010000
00100000
00001000
00000000
00100000
00000000
,
00001000
00000000
00010000
00000100
00000010
00000000
00000011
00000000
00000001
00000000
00001000
00000010
00010000
00000000
00001000
00000000
,
01000000
00000000
00010000
10000000
01000000
00000000
01100000
00000000
00100000
00000000
00010000
01000000
00001000
00000000
00100000
00000000
,
00001000
00000000
00010000
00000100
00001000
00000000
00001100
00000000
00000100
00000000
00000010
00000001
00000200
00000000
00000310
00000000
,
00000100
00000000
00000010
00010000
00001000
00010000
00001000
00000000
00010000
00000000
01000000
00100000
00010000
00100000
00010000
00000000
,
00100000
00000000
00000100
00010000
00000100
00001000
00000100
00000000
00000100
00000000
00000010
00000001
00000100
00000010
00001000
00000000
,
00000100
00000000
00010000
00000100
00010000
00001000
00010000
00000000
01000000
00000000
00100000
00010000
01000000
00010000
00100000
00000000
,
00010000
00000000
10000000
00100000
10000000
00010000
00100000
00000000
00001000
00000000
00010000
00000100
00000020
00000000
00000031
00000000
,
00000011
00000000
00000010
00000001
00000100
00000000
00000100
00000010
00001000
00000000
00001000
00000100
00000000
00000100
00010000
00001000
,
00100000
00000000
00010000
01000000
00100000
00000000
01000000
00100000
10000000
00000000
10000000
01000000
00000000
01000000
00010000
01000000
,
00100000
00000000
01000000
00100000
00001000
00000000
00100000
00001000
00010000
00000000
00010000
00000100
00000000
00000100
00000010
00000001
,
00001000
00000000
00000010
00000100
00000001
00000000
00000100
00000010
00001000
00000000
00000010
00010000
00000000
00010000
00001000
01000000
,
00100000
00000000
01000000
00100000
10000000
00000000
00100000
10000000
00010000
00000000
00100000
00001000
00000000
00100000
00000100
00010000
,
00000010
00000000
00010000
00000010
00000100
00000000
00000010
00001000
00000001
00000000
00000001
00001000
00000000
00000001
00010000
00000010
,
00010000
00000000
00001000
00100000
01000000
00000000
10000000
01000000
00100000
00000000
00100000
10000000
00000000
00100000
00010000
00100000
,
00001000
00000000
00100000
00001000
00010000
00000000
00001000
00010000
00000010
00000000
00000010
00001000
00000000
00000001
00010000
00000100
,
00020000
00000000
00000000
00000000
00000000
00000000
00000000
00000000
00000000
00000000
00000000
00000000
00030010
00010000
00000010
00010000
00000010
00000000
00000000
00000000
00010000
00000000
00000100
00000000
00000000
00000000
00000100
00000000
01000000
00000000
00000000
00000000
,
M200020M
M000000M
M000000M
M000000M
,
M010000M
00010000
00100000
00001000
M001000M
00001000
00010000
00000010
M001000M
00001000
00100000
00001000
M001000M
00000010
00010000
00000010
,
M001000M
00001000
00100000
00001000
M001000M
00000010
00010000
00001000
M010000M
00010000
00100000
00001000
M001000M
00000010
00001000
00000010
,
M001000M
00001000
00100000
00001000
M001000M
00000010
00010000
00001000
M010000M
00001000
00010000
00000010
M001000M
00001000
00100000
00001000
,
M001100M
00010000
00001000
00010000
M000001M
00001000
00000010
00010000
M000100M
00100000
00010000
00100000
M000100M
00010000
00001000
00000010
,
M000100M
00010000
00100000
00010000
M000100M
00100000
00010000
00100000
M000001M
00001000
00000010
00100000
M001000M
00100000
00001000
00010000
,
M000001M
00010000
00000010
00100000
M000001M
00100000
00001000
00010000
M000001M
00001000
00000010
00010000
M000001M
00100000
00001000
00100000
,
M001000M
00000000
00100000
00000000
00001000
00000000
00010000
00000000
M000100M
00000000
00000010
00000000
00001000
00000000
00010000
00000000
M010000M
00000000
00010000
00000000
00001000
00000000
00010000
00001000
M001000M
00000000
00001000
00100000
00000000
00100000
00000010
00000000
,
M310031M
00000000
00000000
00000000
00000000
00000000
00000000
00000000
01000000
00001000
00010000
00001000
00000000
00000000
00000000
00000000
10000000
00000000
01000000
00100000
00010000
00000000
00000000
00000000
00100000
00001000
00010000
00000100
00000000
00000000
00000000
00000000
,
00000010
00000000
00000001
00001000
00000010
00000000
00000000
00000000
00000100
00000001
00000010
00000100
00000000
00000000
00000000
00000000
00010000
00000000
00000100
00010000
00001000
00000000
00000000
00000000
00010000
00001000
00100000
00010000
00000000
00000000
00000000
00000000
,
00010000
00000000
10000000
01000000
00100000
00000000
00000000
00000000
01000000
00100000
00001000
00010000
00000000
00000000
00000000
00000000
00001000
00000000
00010000
00000010
00001000
00000000
00000000
00000000
00000001
00000100
00000010
00001000
00000000
00000000
00000000
00000000
,
00000100
00000000
00010000
00001000
00100000
00000000
00000000
00000000
00001000
01000000
00100000
10000000
00000000
00000000
00000000
00000000
00100000
00000000
01000000
00001000
00010000
00000000
00000000
00000000
00001000
00010000
00000100
00001000
00000000
00000000
00000000
00000000
,
00001100
00000000
00001000
00000100
00000010
00000000
00000001
00000100
00000010
00001000
00000100
00010000
00001000
00000000
00000000
00000000
00100000
00000000
00010000
01000000
00100000
00000000
01000000
00100000
01000000
00010000
00100000
00001000
00010000
00000000
00000000
00000000
,
00010000
00000000
00001000
00100000
00010000
00000000
00100000
00010000
00100000
00001000
00010000
00000100
00000010
00000000
00000000
00000000
00000001
00000000
00000100
00000010
00000100
00000000
00000010
00001000
00000100
00010000
00001000
01000000
00100000
00000000
00000000
00000000
,
01000000
00000000
00100000
10000000
01000000
00000000
10000000
01000000
00100000
00001000
00010000
00000100
00001000
00000000
00000000
00000000
00000010
00000000
00000100
00000001
00000010
00000000
00000001
00000010
00000100
00010000
00001000
00100000
00010000
00000000
00000000
00000000
,
01000000
00000000
00000000
00000000
00001000
00000000
00010000
00000000
00000100
00000000
00000000
00000000
00001000
00000000
00000100
00000000
00000010
00000000
00001000
00000000
00000010
00000000
00000001
00000000
00001000
00000000
00000000
00000000
00000000
00000000
00000000
00000000
00000001
00000000
00000000
00000000
00001000
00000000
00000010
00000000
00000100
00000000
00000000
00000000
00000010
00001000
00000010
00001000
00000010
00000000
00000000
00000000
00010000
00000000
00001000
00000000
00000000
00000000
00001000
00000000
01000000
00000000
00000000
00000000
,
01100000
00000000
00100000
10000000
01000000
00000000
10000000
00100000
01000000
00001000
00100000
00001000
00010000
00000100
00000010
00000100
,
00001000
00000000
00000001
00000100
00000010
00000000
00000100
00000010
00001000
00000100
00010000
00001000
01000000
00001000
00100000
00010000
,
10000000
00000000
00100000
10000000
00010000
00000000
01000000
00100000
10000000
00010000
01000000
00001000
00100000
00001000
00010000
00000100
,
00000010
00000000
00000100
00000010
00000001
00000000
00001000
00000100
00010000
00001000
01000000
00100000
10000000
01000000
00100000
01000000
,
10000000
00000000
01000000
10000000
00100000
00000000
01000000
00001000
00100000
00000100
00010000
00000100
00001000
00000001
00000100
00000010
,
00000100
00000000
00000010
00000100
00000001
00000000
00000100
00000010
00010000
00000100
00100000
00001000
00100000
00010000
10000000
01000000
,
00100000
00000000
01000000
00100000
00010000
00000000
00100000
00010000
01000000
00001000
01000000
00000100
00010000
00000001
00001000
00000010
,
00001000
00000000
00000010
00001000
00000100
00000000
00001000
00000100
00000010
00000001
00000100
00000010
00010000
00000010
00100000
00000000
,
00101000
00000000
00001000
01000000
00010000
00000000
01000000
00100000
10000000
00010000
01000000
00001000
00100000
00000010
00010000
00000100
,
00001000
00000000
00000100
00010000
00000100
00000000
00010000
00000010
00001000
00000010
00010000
00001000
01000000
00010000
10000000
00100000
,
01000000
00000000
00100000
10000000
00010000
00000000
10000000
00010000
01000000
00001000
01000000
00000010
00010000
00000100
00001000
00000001
,
00000100
00000000
00000001
00001000
00000100
00000000
00001000
00000001
00001000
00000010
00010000
00000010
01000000
00001000
01000000
00010000
,
00100000
00000000
00010000
10000000
00100000
00000000
10000000
00100000
01000000
00010000
01000000
00001000
01000000
00000100
00010000
00000010
,
00000100
00000000
00000010
00000100
00000001
00000000
00000100
00000010
00001000
00000100
00010000
00000010
00100000
00001000
01000000
00100000
,
10000000
00000000
00100000
10000000
00010000
00000000
10000000
00001000
00010000
00000010
00010000
00000001
00001000
00000001
00010000
00000100
,
00010000
00000000
00000000
00000000
00001000
00000000
00000000
00000000
00100000
00000000
00000000
00000000
00001000
00100000
00001000
00100000
00001000
00000000
00000000
00000000
00100000
00000000
00000100
00000000
00000000
00000000
01000000
00000000
00000010
00000000
00000000
00000000
,
00011000
00000000
00000000
00000000
;
