#TITLE:Galaxy9;
#SUBTITLE:;
#ARTIST:KaW;
#TITLETRANSLIT:;
#SUBTITLETRANSLIT:;
#ARTISTTRANSLIT:;
#GENRE:House;
#CREDIT:Sync by HellRazoR;
#BANNER:Galaxy9-bn.png;
#BACKGROUND:Galaxy9-bg.png;
#LYRICSPATH:;
#CDTITLE:;
#MUSIC:Galaxy9.ogg;
#OFFSET:-0.066;
#SAMPLESTART:28.558;
#SAMPLELENGTH:15.820;
#SELECTABLE:YES;
#DISPLAYBPM:143.000;
#BPMS:0.000=143.000,147.250=146.000,147.750=143.000;
#STOPS:;
#BGCHANGES:0.000=Galaxy9-bg.png=1.000=0=0=1=====,
16.000=In The Groove Rebirth/206_JB_HD.mpg=1.000=0=0=1=====,
32.000=In The Groove Rebirth/262_JB_HD.mpg=1.000=0=0=1=====,
48.000=In The Groove Rebirth/791_JumpBack.mpg=1.000=0=0=1=====,
63.500=Galaxy9-bg.png=1.000=1=0=1===CrossFade==,
68.000=In The Groove Rebirth/311_JB_HD.mpg=1.000=0=0=1=====,
84.000=In The Groove Rebirth/308_JB_HD.mpg=1.000=0=0=1===SlideLeft==,
100.000=In The Groove Rebirth/508_JB_HD.mpg=0.700=1=0=1=SongBgWithMovieViz==CrossFade==,
116.000=In The Groove Rebirth/401_JB_HD.mpg=1.000=0=0=1=====,
132.000=In The Groove Rebirth/204_JB_HD.mpg=1.000=0=0=1=====,
148.000=In The Groove Rebirth/262_JB_HD.mpg=1.000=0=0=1===SlideUp==,
164.000=In The Groove Rebirth/308_JB_HD.mpg=1.000=0=0=1=====,
180.000=In The Groove Rebirth/206_JB_HD.mpg=1.000=0=0=1=====,
196.000=In The Groove Rebirth/401_JB_HD.mpg=1.000=0=0=1===SlideDown==,
212.000=In The Groove Rebirth/519_JB_HD.mpg=0.700=1=0=1=SongBgWithMovieViz==CrossFade==,
228.000=In The Groove Rebirth/791_JumpBack.mpg=1.000=0=0=1=====,
244.000=In The Groove Rebirth/311_JB_HD.mpg=1.000=0=0=1=====,
260.000=In The Groove Rebirth/204_JB_HD.mpg=1.000=0=0=1===SlideUp==,
276.000=In The Groove Rebirth/415_JB_HD.mpg=1.000=0=0=1===SlideRight==,
292.000=Galaxy9-bg.png=1.000=0=0=1=====,
99999=-nosongbg-=1.000=0=0=0 // don't automatically add -songbackground-
;
#BGCHANGES2:16.000=white flash=1.000=0=0=1=====,
32.000=white flash=1.000=0=0=1=====,
48.000=yellow flash=1.000=0=0=1=====,
116.000=white flash=1.000=0=0=1=====,
132.000=white flash=1.000=0=0=1=====,
145.750=yellow flash=1.000=0=0=1=====,
164.000=white flash=1.000=0=0=1=====,
180.000=white flash=1.000=0=0=1=====,
228.000=white flash=1.000=0=0=1=====,
244.000=yellow flash=1.000=0=0=1=====,
292.000=white flash=1.000=0=0=1=====,
;
#KEYSOUNDS:;

//---------------dance-single - R. Woods----------------
#NOTES:
     dance-single:
     R. Woods:
     Beginner:
     1:
     0.112,0.146,0.064,0.072,0.000:
0000
0000
0000
0000
,
0000
0000
0000
0000
,
0000
0000
0000
0000
,
0000
0000
0000
0000
,
0100
0000
0000
0000
,
0010
0000
0001
0000
,
0010
0000
0000
0000
,
0010
0000
0100
0000
,
0010
0000
0000
0000
,
0010
0000
0001
0000
,
0010
0000
0000
0000
,
0010
0000
0000
0000
,
1001
0000
0000
0000
,
0100
0000
0000
0000
,
0001
0000
0000
0000
,
0010
0000
0000
0000
,
0100
0000
0000
0000
,
1000
0000
1000
0000
,
1000
0000
0000
0000
,
0001
0000
0001
0000
,
0001
0000
0000
0000
,
1000
0000
1000
0000
,
1000
0000
0000
0000
,
0001
0000
0001
0000
,
0001
0000
0000
0000
,
1001
0000
0000
0000
,
0000
0000
0000
0000
,
0000
0000
0000
0000
,
0000
0000
0000
0000
,
0010
0000
0000
0000
,
0001
0000
0000
0000
,
1000
0000
0000
0000
,
0010
0000
0000
0000
,
0110
0000
0000
0000
,
0001
0000
0001
0000
,
0001
0000
0000
0000
,
1000
0000
0001
0000
,
1000
0000
0000
0000
,
0100
0000
0000
0000
,
0010
0000
0000
0000
,
0001
0000
0000
0000
,
1001
0000
0000
0000
,
0001
0000
0001
0000
,
0100
0000
0000
0000
,
0010
0000
0010
0000
,
2000
0000
0000
3000
,
0002
0000
0000
0003
,
2000
0000
0000
3000
,
0002
0000
0000
0003
,
0200
0000
0000
0300
,
0020
0000
0000
0030
,
0200
0000
0000
0300
,
0020
0000
0000
0030
,
0110
0000
0000
0000
,
0000
0000
0000
0000
,
0000
0000
0000
0000
,
0000
0000
0000
0000
,
0110
0000
0000
0000
,
0001
0000
0000
0000
,
0000
1000
0000
1000
,
0000
1000
1000
0000
,
1001
0000
0000
0000
,
0010
0000
0000
0000
,
0100
0000
0000
0000
,
0001
0000
0001
0000
,
0001
0000
0000
0000
,
1000
0000
0010
0000
,
1000
0000
0000
0000
,
0002
0000
0000
0000
,
0003
0000
0000
0000
,
0100
0000
0010
0000
,
1000
0000
0000
0000
,
0001
0001
0001
0000
,
1001
0000
0000
0000
;

//---------------dance-single - R. Woods & S. Venkat----------------
#NOTES:
     dance-single:
     R. Woods & S. Venkat:
     Challenge:
     10:
     0.748,0.801,0.185,0.225,0.999:
0000
0000
0000
0000
,
0000
0000
0000
0000
,
0000
0000
0000
0000
,
0000
0000
0000
0000
0000
0000
0000
0000
0000
0000
0000
1000
0001
0000
0001
0000
,
1000
0000
0000
0000
0100
0000
0000
1000
0000
0010
0000
0100
0001
0000
0000
0000
,
0100
0000
0000
0000
0010
0000
0000
1000
0000
0001
0000
0010
0100
0000
0000
0000
,
1000
0000
0000
0000
0100
0000
0000
0010
0000
0001
0000
1000
0010
0000
0000
0000
,
0100
0000
0000
0000
0001
0000
0000
0000
0000
0001
0000
1000
0100
0000
0100
0000
,
1001
0000
0000
0000
0100
0000
0000
0001
0000
0100
0000
0010
1000
0000
0001
0000
,
0010
0000
0100
0000
1000
0000
0000
1000
0000
0100
0000
0010
0001
0000
0100
0000
,
0010
0000
1000
0000
0001
0000
0000
0001
0000
1000
0000
0010
0100
0000
0001
0000
,
1000
0000
0100
0000
0001
0000
0000
0000
0000
0100
0000
1000
0010
0000
0010
0000
,
1001
0000
0100
0000
0001
0000
0000
0100
0000
0001
0100
0000
0001
0000
1000
0000
,
0100
0000
0010
0000
0001
0000
0000
0010
0000
0100
1000
0000
0001
0000
0100
0000
,
0010
0000
1000
0000
0001
0000
0000
0010
0000
0100
1000
0000
0100
0000
1000
0000
,
0010
0000
0000
0000
0000
0000
0100
0000
0000
0000
0000
0000
0001
0000
0000
0000
0000
0000
0000
0000
0000
1000
0000
0000
0000
0000
0000
0100
0000
0000
1000
0000
0000
0000
0000
0000
0001
0000
1000
0000
0001
0000
2000
0000
0000
0000
0000
0000
,
0000
000M
0000
0000
30M0
0000
0000
0M00
0000
0000
M000
0000
0000
0000
0000
0000
,
1000
0100
0000
1000
0000
0000
0100
0000
0000
1000
0100
0000
0010
0001
0010
0001
,
0000
0010
0001
0000
0010
0001
0000
1000
0001
1000
0001
1000
0001
1000
0010
0100
,
0010
0000
1000
0001
0000
0010
0100
0000
1000
0100
0000
0000
0100
1000
0000
1000
,
0100
0000
0010
0001
0000
1000
0001
0000
0100
0010
0100
0010
0100
0010
1000
0001
,
0010
0100
0000
0100
1000
0000
1000
0100
0000
0010
0001
0000
0001
0100
0000
0010
,
1000
0000
1000
0010
0000
0000
0100
0001
1000
0001
1000
0001
0100
0001
0010
0100
,
1000
0010
0000
0100
0001
0000
0101
0000
0000
0001
0100
0000
0010
0100
0000
0001
,
1000
0100
0010
0100
1000
0001
0100
0010
1000
0001
0010
0100
1000
0010
0100
0001
,
0202
M000
00M0
M000
0000
00M0
0000
M000
0000
0000
00M0
0000
0000
0000
M000
0000
,
0000
0000
0000
00M0
0000
0000
0000
0000
0000
M000
0000
0000
0303
0000
0000
0000
,
22M0
0000
0000
0300
0002
0000
0000
0003
,
0020
0000
0000
0000
0000
0000
0030
0000
0200
0000
3000
0310
0001
0000
0001
0000
,
0011
0000
1000
0100
0010
0001
1000
0100
,
0001
0100
1000
0010
0001
0010
1000
0100
,
0010
0001
0100
1000
0100
0001
1000
0010
,
1000
0100
0000
0010
0001
0000
1000
0100
0000
0010
0001
0000
1000
0010
0000
0100
,
0101
0000
0100
0010
1000
0000
0000
0101
0000
0100
0010
0000
1010
0000
0001
0100
,
0010
0000
1000
0100
0010
0000
0001
0010
0000
0010
0001
0000
0011
0000
0010
0100
,
1000
0001
0000
0100
0010
0000
0000
1010
0000
0100
0001
0000
1010
0000
2000
0200
,
0000
0000
0000
0000
0000
0000
0000
0000
0000
0000
0000
0000
0001
0000
0000
0000
0000
0000
0000
0000
0000
0001
0000
0000
3300
0000
0000
0000
0000
0000
0000
0000
0000
0000
0000
0000
1000
0000
0001
0000
1000
0000
0001
0000
0000
0000
0000
0000
,
0100
0000
0001
0100
0000
0100
0010
0000
1000
0010
0000
0010
1000
0000
0001
0010
,
0000
0010
0001
0010
0000
0100
0010
0000
0001
1000
0000
1000
0100
0000
0100
1000
,
0100
1000
0001
0100
0000
0001
0100
0000
0010
1000
0000
0010
1000
0000
1000
0010
,
0100
0000
0000
0001
0000
0000
0010
0000
0000
0001
0000
0000
0010
0000
0000
0000
0000
0000
0000
0000
0000
0100
0000
0000
0000
0000
0000
1000
0000
0000
0100
0000
0000
0010
0000
0000
0001
0000
1000
0000
0001
0000
1000
0000
0000
0000
0000
0000
,
1001
0000
1000
0100
0000
0100
0010
0000
0001
0010
0000
0010
0001
0000
1000
0010
,
0000
0010
1000
0010
0000
0100
0010
0000
1000
0001
0000
0001
0100
0000
0100
0001
,
0100
0001
1000
0100
0000
1000
0100
0000
0010
0001
0000
0010
0001
0000
0001
0010
,
0100
0000
0000
1000
0000
0000
0010
0000
0000
1000
0000
0000
0010
0000
0000
0100
0000
0000
0000
0000
0000
0001
0000
0000
0000
0000
0000
0100
0000
0000
0010
0000
0000
1000
0000
0000
0001
0000
1000
0000
0001
0000
1000
0000
0000
0000
0000
0000
,
1001
0000
0100
0010
1000
0000
0001
0100
0010
0000
1000
0010
0100
0000
0001
1000
,
0100
0000
0010
0100
1000
0000
0001
0010
0001
0000
1000
0100
0010
0000
0100
1000
,
0001
0000
0100
0010
1000
0000
0010
0100
0001
0000
1000
0010
0100
0000
0001
1000
,
0100
0000
0010
0100
1000
0000
0001
0010
0011
0000
0001
0000
MM00
0000
1000
0100
,
0000
1000
0100
0010
0001
0000
0010
0100
1000
0000
0001
1000
0100
0000
0010
0001
,
1000
0000
0010
0100
0001
0000
0100
0010
1000
0000
0001
0100
0001
0000
1000
0001
,
0010
0000
0100
1000
0001
0000
0010
0001
0010
0000
0001
1000
0100
0000
0010
0001
,
1000
0000
0010
0100
0101
0000
0001
0100
0000
0001
0010
0100
1000
0001
0100
0010
,
2020
0M00
000M
0M00
0000
000M
0000
0M00
0000
0000
000M
0000
0000
0000
0M00
0000
,
0000
0000
0000
000M
0000
0000
0000
0000
0000
0M00
0000
0000
3030
0000
0000
0000
,
220M
0300
0002
0003
,
0020
0000
0000
0000
0030
0000
0000
0000
0200
0000
0000
0000
0000
0000
0000
3300
,
MM11
0000
0000
0000
0001
0010
0000
0100
0000
0000
0100
0000
1000
0100
0000
0100
,
1000
0000
0000
0000
0001
0000
0000
0000
0000
0100
0010
0000
1000
0010
1000
0010
,
1000
0000
0001
0000
2002
0000
0000
3003
0100
0000
0220
0000
0000
0330
1000
0000
,
0001
0000
0202
0000
0000
0303
2020
3000
4030
0040
0000
0000
0000
0000
0000
3000
,
0130
0000
0001
0100
0010
0000
1000
0100
0000
0100
0010
0001
1000
0000
0001
0000
,
0100
0000
0010
1000
0001
0000
1000
0100
0000
0100
0010
0001
1000
0000
0010
0100
,
0001
0000
1000
0100
0010
0000
0100
1000
0000
1000
0001
0100
0010
0000
0100
0010
,
1000
0010
0100
0001
1000
0100
0010
0100
1000
0001
0010
0100
1000
0010
0100
0001
,
2000
3100
1000
0100
1000
0100
1000
0010
,
0000
0010
0100
0001
0010
0100
0010
0001
,
1000
0100
1000
0100
1000
0100
1000
0010
,
0000
0000
001M
0000
0000
0000
0M1M
0000
0000
0000
MM1M
0000
MM20
0000
M000
0030
,
1000
0000
0000
0000
0001
0000
0000
1000
0000
1000
0000
1000
0001
0000
0000
0000
,
1000
0100
0000
0000
0010
0000
0000
0100
0000
1000
0000
0001
0010
0000
0000
0000
,
0001
0000
0000
0000
0100
0000
0000
0100
0000
0001
0000
0100
0010
0000
1000
0000
,
0010
0100
0001
0100
0010
0000
1000
0001
0000
1000
0001
0010
0100
1000
0001
0200
,
0010
0000
0000
00M0
0000
0000
0000
0000
0000
0000
0000
0000
0000
0000
0000
0300
;

//---------------dance-single - R. Woods----------------
#NOTES:
     dance-single:
     R. Woods:
     Easy:
     4:
     0.269,0.266,0.080,0.136,0.000:
0000
0000
0000
0000
,
0000
0000
0000
0000
,
0000
0000
0000
0000
,
0000
0000
0000
0000
,
0100
0010
0100
0010
,
1000
0010
1000
0010
,
0100
0001
0100
0001
,
1000
0001
0020
0030
,
1001
0100
0001
1000
,
0010
0100
0001
1000
,
0100
0010
0001
0010
,
0100
1000
0001
0010
,
0001
0100
0010
1000
,
0001
0100
0001
1000
,
0100
0010
0100
1000
,
0001
0010
0100
2000
,
3000
0000
0000
0000
,
0110
0001
1000
0010
,
0100
0100
0010
0010
,
1000
0100
0010
0001
,
1000
1000
0001
0001
,
0100
0010
1000
0001
,
0010
0010
0100
0100
,
1000
0001
0100
0010
,
4000
0000
0000
3000
,
1001
0000
0000
0000
,
0000
0000
0000
0000
,
0200
0000
0000
0000
,
0020
0000
0000
0000
0000
0000
0000
0000
0000
0000
0000
0030
0010
0000
0300
0000
,
1001
0100
0100
0100
,
0010
0010
0010
0010
,
0100
0100
0001
0001
,
1000
1000
1000
1000
,
1001
1000
0100
0010
,
0001
1000
0100
0010
,
0001
1000
0010
0100
,
0001
0001
0001
0002
,
0003
1000
0000
0010
,
0000
0001
0000
0010
,
0000
1000
0000
0100
,
0000
0001
0000
0100
,
2100
0000
3002
0000
,
2003
0000
3200
0000
,
0320
0000
0032
0000
,
2003
0000
3020
0000
,
0130
0001
0100
0001
,
1000
0010
1000
0010
,
0100
0001
0100
0001
,
1000
0010
0010
1001
,
1000
0100
1000
0100
,
0010
0001
0010
0001
,
1000
0100
1000
0100
,
0010
0001
0010
0100
,
1001
0000
0000
0000
,
0000
0000
0000
0000
,
2000
0000
0000
0000
,
0002
0000
0000
0000
,
0010
3003
0000
0000
,
0100
0000
0000
0000
,
0000
0000
0001
0000
0000
0001
0000
0000
,
0000
0001
0000
0001
0000
0000
0000
0000
,
1001
0100
0100
0100
,
0010
0010
0010
0010
,
1000
0100
0010
0100
,
4000
0000
0000
3000
,
1001
0000
0000
0010
,
0010
0100
0001
0010
,
0100
0100
1000
0010
,
0200
0000
0000
0301
,
0001
0100
0001
0100
,
0010
1000
0010
1000
,
0001
0100
0001
0100
,
0040
0000
0000
0030
,
0020
0000
0000
0030
;

//---------------dance-single - R. Woods----------------
#NOTES:
     dance-single:
     R. Woods:
     Medium:
     6:
     0.386,0.502,0.144,0.337,0.012:
0000
0000
0000
0000
,
0000
0000
0000
0000
,
0000
0000
0000
0000
,
0000
0000
0000
0000
,
0200
0000
0000
0000
,
0310
0000
0010
0000
0001
0010
0100
1000
,
0200
0000
0000
0000
0310
0100
0010
0001
,
0000
0001
0000
0001
0000
0000
0000
0000
,
1001
0000
0100
0000
0100
0001
0100
0010
,
0000
0010
0000
0010
0000
0000
0000
0000
,
1000
0100
1000
0000
0100
1000
0100
0010
,
0000
0010
0000
0010
0000
0000
0010
0000
,
1001
1000
0100
1000
,
0001
0100
0010
1000
,
0100
1000
0001
0100
,
0010
0100
0001
1002
,
0003
0000
0000
0000
,
1000
0100
0001
0100
,
1000
0010
0001
0010
,
1000
0100
0001
0100
,
1000
0010
0100
0100
,
0001
0100
1000
0100
,
0001
0010
1000
0010
,
0001
0100
1000
0100
,
0004
4000
0000
0000
0000
0000
0000
0000
0000
0000
0000
0000
0000
0000
3003
0000
,
0220
0000
0000
0000
0000
0000
0000
0330
,
1200
0000
0320
0032
0020
0000
0000
0030
,
2000
0003
3002
0203
0002
0000
0000
0300
,
0020
0003
0230
2300
0200
0000
0000
3300
,
1100
0100
0010
0001
,
0100
0000
0010
0000
1000
0001
1000
0000
,
0010
0100
0001
0010
,
0100
0000
1000
0000
0001
1000
0001
0000
,
1000
0100
1000
0100
0000
0010
0001
0010
,
0000
0100
1000
0002
0000
0000
0003
0000
,
0001
0100
0001
0100
0000
0010
1000
0010
,
0000
0100
0001
2000
0000
0000
0000
3000
,
1100
0001
0100
0010
,
1000
0001
1000
0000
0010
0000
0100
0000
,
0001
0000
0010
0000
0100
0000
0010
0001
,
1000
0000
1001
0000
0000
0110
0000
0000
,
1001
0100
0010
1000
,
0001
0000
0010
0000
0100
0000
0010
0001
,
0010
0100
1000
0010
,
0100
0001
1000
0100
,
0210
1000
0010
0001
,
2000
0300
0001
0000
0010
0000
0100
0000
,
0002
3000
0100
0000
1000
0000
0010
0000
,
0200
0003
0010
0000
0010
0000
0310
0000
,
2000
0100
0010
0001
,
0020
3000
1000
0000
0100
0000
0001
0000
,
0200
0030
1000
0000
0010
0000
0001
0000
,
0301
0000
0000
0000
0001
0000
1000
0000
0004
4000
0000
0000
0000
0000
3003
0000
,
0220
0000
0000
0000
0000
0000
0000
0330
,
1200
0000
0320
0032
0020
0000
0000
0030
,
2000
0003
3002
0203
0002
0000
0000
0300
,
0020
0003
0230
2300
0200
0000
0000
3300
,
1100
1000
0001
0100
,
0000
0100
0001
1000
,
0000
0000
1001
0000
0000
0110
0000
0000
,
0000
1001
0000
0110
0200
0000
0000
0300
,
0001
0000
0001
0000
0001
0000
0001
1000
,
0100
0000
0100
0000
0100
0010
0001
1000
,
0010
0000
0010
0000
0010
0000
0010
0100
,
0001
0000
0001
0000
1000
0100
0010
0001
,
1000
0100
0010
0001
,
1000
0000
0100
0000
0010
0001
1000
0010
,
0100
0000
0001
0000
1000
0000
0010
0100
,
0000
0100
0000
0100
0000
0100
0000
0100
,
0010
0010
0100
0001
,
0010
0010
0100
1000
,
0010
0010
0100
0001
,
0040
0400
0000
0000
0000
0000
0000
0000
0000
0000
0000
0000
0000
0000
0330
0000
,
2000
0000
0000
0000
0000
0000
0000
0000
0000
3000
0000
0000
0000
0000
0000
0000
;

//---------------dance-single - R. Woods----------------
#NOTES:
     dance-single:
     R. Woods:
     Hard:
     9:
     0.534,0.645,0.217,0.201,0.241:
0000
0000
0000
0000
,
0000
0000
0000
0000
,
0000
0000
0001
0001
,
2000
0000
0000
0000
0000
0000
0010
3010
,
0010
0100
0010
0100
0010
0100
0010
1000
,
0000
1000
0000
1000
0001
1000
0100
0010
,
0001
0100
0001
0100
0001
0100
0001
0010
,
0000
0000
0010
0000
0000
0000
0010
0000
0000
0000
0002
0000
2000
0000
0000
3003
,
1001
0100
0010
1000
0001
0100
0010
1000
,
0100
0010
0001
1000
0100
0010
0001
1000
,
0010
0100
0001
1000
0010
0100
0001
1000
,
0100
0000
0000
0000
0100
0000
0000
0000
0100
0000
0000
0010
0100
0000
0100
0000
,
1001
0000
0001
0000
0100
0000
0010
1000
0000
1000
0010
0000
0100
0000
0001
0000
,
0010
0000
0100
0000
1000
0000
0001
0010
0000
0010
0001
0000
1000
0000
0010
0000
,
0100
0000
0010
0000
1000
0000
0100
0010
0000
0010
0100
0000
1000
0000
0001
0000
,
0100
0000
0000
0000
0000
0000
0010
0000
0000
0000
0000
0000
1000
0000
0000
0000
0000
0000
0001
0000
0000
0100
0000
0000
0000
0000
0000
0100
0000
0000
0010
0000
0000
0000
0000
0000
2000
0000
0002
0000
0000
0000
0000
0000
0000
0000
0000
0000
,
0003
0000
0000
0000
0000
0000
0000
0000
0000
0000
0000
0000
0000
0000
0000
0000
0000
0000
0000
0000
0000
0000
0000
0000
0000
0000
0000
0000
0000
0000
0000
0000
0200
0000
0000
0000
0000
0000
0000
0000
0000
0000
0000
0000
0000
0000
0000
0000
0000
0000
0000
0000
0000
0000
0000
0000
0000
0000
0000
0000
0000
0000
0000
3300
,
1100
0000
0000
0010
0000
0000
0001
0000
0000
0010
0000
0000
0100
0000
0000
1000
,
0000
0000
0010
0000
0000
0100
0000
0000
0001
1000
0000
0001
1000
0000
0001
1000
,
0000
0001
0000
0010
0000
0000
0100
0000
0000
1000
0100
0000
0010
0001
0000
1000
,
0100
0000
1000
0100
1000
0100
1000
0400
4000
0000
0000
0000
0000
0000
0000
3000
,
0310
0001
0000
0010
0001
0000
0010
0001
0000
0010
0100
0000
0010
0100
0000
0010
,
0100
0000
1000
0100
0000
1000
0100
1000
0100
1000
0000
0100
1000
0000
0001
0000
,
0100
0010
0000
0100
0010
0000
0100
0010
0000
1000
0001
0000
1000
0001
0000
4000
,
0004
0000
0000
0000
0000
0000
0000
0000
0000
0000
0000
0000
0000
0000
0000
3003
,
0110
0000
0000
0000
,
0002
0000
0000
0000
,
0200
0000
0000
0000
,
0020
0000
0330
0103
,
1010
0100
0001
1000
,
0100
0010
0100
1000
,
0001
0100
0010
1000
,
0001
0000
0000
0001
0000
0000
0002
0000
0000
0100
0000
0000
0200
0000
0000
0010
,
1000
0300
0103
0000
0001
1000
0100
0000
,
1000
0000
0010
0000
0100
0000
0001
0100
0000
0100
0010
0000
1000
0000
0100
0000
,
0010
0000
0100
0000
1000
0000
0001
0100
0000
0100
0010
0000
1000
0000
0100
0000
,
0010
0000
0000
0000
0000
0000
0000
0000
0000
0000
0000
0000
0010
0000
0000
0000
0000
0000
0000
0000
0000
0100
0000
0000
0000
0000
0000
0100
0000
0000
1000
0000
0000
0000
0000
0000
0002
0000
2000
0000
0000
0000
0000
0000
0000
0000
0000
0000
,
3003
0110
1001
0110
,
0101
1010
1100
0011
,
1001
1010
0011
1100
,
0000
0000
1011
0000
0000
1101
0000
0000
,
1111
0000
0000
0000
1000
0010
0100
0001
,
1000
0100
0010
0100
1000
0001
0100
0010
,
1000
0100
1000
0010
0100
0001
0010
0100
,
1000
0000
0000
0000
0001
1000
0000
0001
0000
4000
0004
0000
0000
0000
0000
0003
,
3200
0000
0301
0100
1000
0100
0001
0100
,
2000
0000
3001
0100
1000
0100
0001
0100
,
2000
0000
3100
0001
1000
0100
0010
0001
,
0020
0000
1030
0010
0001
0100
1000
0100
,
0002
0000
0103
0010
1000
0100
0001
0100
,
2000
0000
3010
0100
0001
1000
0100
0001
,
0200
0000
1300
0010
0100
0001
1000
0100
,
0010
0000
0001
0010
0001
0000
0010
0004
0040
0000
0000
0000
0000
0000
0033
0000
,
1100
0000
0000
0000
,
0002
0000
0000
0000
,
0200
0000
0000
0000
,
0020
0000
0000
0333
,
1111
0000
0000
0000
,
0001
0100
0010
1000
,
0001
0000
0101
0000
0000
0111
0000
0000
,
0000
M111
0000
1111
0000
M0M0
0000
0000
,
1010
0000
0100
0001
0010
0100
1000
0001
,
0100
0000
0001
1000
0100
0010
0001
0100
,
0010
0000
1000
0010
0100
0001
0010
0100
,
4000
0400
0000
0000
0000
0000
0000
0000
0000
0000
0000
0000
0000
0000
0000
3000
,
0310
0100
0010
0100
0010
0100
0010
0001
,
0000
0001
0000
0001
1000
0001
0100
0010
,
1000
0100
1000
0100
1000
0100
1000
0010
,
0000
0000
0010
0000
0000
0000
0010
0000
0000
0000
2000
0000
0002
0000
0000
0003
,
0001
3000
0000
0000
0100
0000
0000
0000
0010
0000
0000
0000
1000
0000
0000
0000
0001
0000
0000
0000
0100
0000
0000
0000
0010
0000
0000
0000
1000
0000
0000
0000
,
0100
0010
0001
1000
0100
0010
0001
1000
,
0010
0100
0001
1000
0010
0100
0001
1000
,
0400
4000
0000
0000
0000
0000
0000
0000
3300
0000
0000
0010
0100
0000
0100
0000
,
1001
0000
0000
0000
;

//---------------dance-double - M. Simmons----------------
#NOTES:
     dance-double:
     M. Simmons:
     Easy:
     4:
     0.338,0.352,0.185,0.233,0.000:
00000000
00000000
00000000
00000000
,
00000000
00000000
00000000
00000000
,
00000000
00000000
00000000
00000000
,
00000000
00000000
00000000
00000000
,
00100000
01000000
00010000
10000000
,
20000000
01000000
01000000
31000000
,
00100000
00001000
00010000
00000100
,
00000020
00000001
00000001
00000031
,
00000001
00000100
00000010
00010000
,
00000200
00010000
00010000
00010300
,
00010000
01000000
10000000
00100000
,
20000000
02000000
03000000
30100000
,
10010000
01000000
00001000
00010000
,
00000100
00010000
00001000
00010000
,
00001000
00000100
00000010
00001000
,
00000200
00010000
00001000
00010300
,
00002000
00000000
00000000
000M0000
00000000
000M0000
00000000
00000000
,
00013000
00010000
00001000
00010000
,
00000100
00001000
00000010
00000100
,
00000001
00001000
00000100
00010000
,
00001000
01000000
00100000
00100000
,
01000000
00001000
00010000
00001000
,
00100000
00010000
01000000
00001000
,
00010000
00000100
00000010
00000010
,
00000001
00000100
00000010
00000010
,
00002002
00000000
00000000
00003003
,
00000220
00000000
00000000
00000330
,
00020020
00000000
00000000
00030030
,
00202000
00000000
00000000
00303000
,
00001000
00100000
00010000
01000000
,
00100000
10000000
01000000
00100000
,
00001000
00010000
00000100
00001000
,
00000010
00000100
00000001
00001000
,
00001001
00000001
00001000
00000100
,
00000010
00001000
00010000
00100000
,
10000000
00010000
01000000
00100000
,
01000000
00010000
10000000
01000000
,
01100000
02000000
00000000
00100000
00000000
00000000
03100000
00000000
,
10010000
20000000
00000000
00010000
00000000
00000000
30010000
00000000
,
00110000
00200000
00000000
00010000
00000000
00000000
00301000
00000000
,
00011000
00020000
00000000
00000100
00000000
00000000
00031000
00000000
,
00011000
00010100
00001000
00000100
,
00001000
00000010
00000100
00000010
,
00001000
00000100
00010000
00001000
,
00001000
01000000
01000000
01100000
,
10010000
11000000
01000000
00100000
,
00001000
00010000
00001000
00010000
,
00000100
00001000
00000010
00000100
,
00000001
00000010
00000010
00000010
,
00000001
00000100
00000010
00010000
,
00001000
00100000
00010000
01000000
,
00100000
01000000
01000000
01000000
,
00010000
00100000
00100000
00100000
,
00202000
00000000
00000000
00303000
,
00022000
00000000
00000000
00033000
,
00020200
00000000
00000000
00030300
,
00002200
00000000
00000000
00003300
,
00001000
00000010
00000100
00000001
,
00001000
00000100
00010000
00001000
,
00100000
01000000
10000000
00100000
,
00010000
00001000
00000010
00000001
,
00001001
00000000
00001000
00000000
,
00000010
00000000
00010000
00000100
,
00002100
00000000
00003010
00000000
,
00012000
00000000
01003000
01000000
,
00100000
10000000
01000000
00100000
,
00010000
01000000
00001000
00010000
,
00001000
00100000
00010000
01000000
,
00001000
00000100
00001000
00010000
,
00001000
00010000
00000100
00000010
,
00000001
00000100
00000010
00001000
,
00000001
00000010
00000001
00000100
,
00000010
00001000
00000100
00001000
,
00001100
00000000
00000000
00000000
;

//---------------dance-double - M. Simmons----------------
#NOTES:
     dance-double:
     M. Simmons:
     Medium:
     7:
     0.372,0.410,0.040,0.128,0.048:
00000000
00000000
00000000
00000000
,
00000000
00000000
00000000
00000000
,
00000000
00000000
00000000
00000000
,
00000000
00000000
00000000
00000000
,
10000000
00000000
01000000
00000000
00100000
00010000
00000000
00100000
,
00000000
00001000
00000000
00010000
00000000
00000100
00000010
00000001
,
00000100
00000000
00000010
00000000
00010000
00001000
00000000
00100000
,
00000000
00010000
00000000
01000000
00000000
00010000
10000000
01000000
,
10000000
00000000
00100000
00000000
01000000
00010000
00000000
00100000
,
00000000
00001000
00000000
00010000
00000000
00000100
00001000
00000010
,
00000100
00000000
00000001
00000000
00001000
00000100
00000000
00020000
,
00000000
00001000
00000000
00000100
00000000
00000010
00000000
00000010
,
00030010
00000000
00001000
00000000
00000010
00000100
00000001
00000010
,
00000000
00000100
00000000
00002000
00000000
00003001
00000100
00000010
,
00000100
00000000
00000100
00000000
00000001
00001000
00000000
00000100
,
00000000
00010000
00000000
00002000
00000000
01003000
00010000
00100000
,
00000000
000MMMM0
00000000
00000000
00000000
00000000
00000000
00000000
,
00010000
00000000
00000000
00000000
00100000
00000000
00000000
00000000
00001000
00000000
00010000
00000100
00001000
00000000
00000000
00000000
,
00000010
00000000
00000000
00000000
00000010
00000000
00000000
00000000
00000100
00000000
00000001
00001000
00000100
00000000
00000000
00000000
,
00010000
00000000
00000000
00000000
00010000
00000000
00000000
00000000
00001000
00000000
00100000
00010000
01000000
00000000
00000000
00000000
,
00100000
00000000
00000000
00000000
00100000
00000000
00000000
00000000
10000000
00000000
01000000
00000000
00100000
00010000
00000000
00100000
,
00010000
00000000
00000000
00000000
00010000
00000000
00000000
00000000
00100000
00000000
00001000
00010000
00000100
00000000
00000000
00000000
,
00001000
00000000
00000000
00000000
00001000
00000000
00000000
00000000
00000010
00000000
00000100
00000001
00001000
00000000
00000000
00000000
,
00000100
00000000
00000000
00000000
00000100
00000000
00000000
00000000
00001000
00000000
00000010
00010000
00001000
00000000
00000000
00000000
,
00010000
00001000
00000000
00010000
00001000
00000000
00010000
00001000
00000000
00010000
00001000
00000000
00010000
00000000
00001000
00000000
,
00022000
00000000
00000000
00000000
,
00100000
00000000
00000000
00000000
,
00000010
00000000
00000000
00000000
,
01000000
00000000
00000000
00033000
,
00001000
00010000
00000100
00001000
,
00000010
00000000
00000100
00000000
00000001
00001000
00000100
00001000
,
00000100
00010000
00001000
00100000
,
00010000
00000000
01000000
00000000
00010000
00100000
00001000
00100000
,
00001000
00021000
00000100
00000000
,
00000010
00000100
00031000
00000000
,
00010000
00010200
00001000
00000000
,
00010000
01000000
00010300
00000000
,
00001000
00010000
00000100
00000100
00000100
00001000
00000010
00000000
,
00000100
00000001
00001000
00000100
,
00010000
00001000
00100000
00100000
00100000
00010000
01000000
00000000
,
00100000
10000000
01000000
10000000
,
01000000
00010000
00001000
00001000
00001000
00010000
00000100
00000000
,
00001000
00000010
00000001
00000010
,
00001000
00000100
00000001
00000001
00000001
00000100
00010000
00000000
,
00001000
00000000
00021000
00000000
00000000
00001000
00031000
00000000
,
00010000
01000000
10000000
00100000
,
00010000
00001000
00000010
00000001
,
00000100
00000010
00000100
00000001
,
00001000
00000100
00010000
00001000
,
01000000
00100000
00010000
00001000
,
00010000
00000100
00001000
00000010
,
00000100
00000001
00001000
00000100
,
00020000
00001000
00000000
00001000
00001000
00000100
00030100
00000000
,
00020200
00000000
00000000
00000000
,
00001000
00000000
00000000
00000000
,
00100000
00000000
00000000
00000000
,
00000010
00000000
00000000
00030300
,
00000100
00010000
00100000
10000000
,
01000000
00010000
00001000
00000100
,
00000001
00000000
00002000
00000000
00000000
00000100
00003000
00020000
,
00000000
00000100
00000000
00030100
00004000
00000000
00000000
00000000
,
00003010
00000000
00000100
00000000
00000001
00000000
00001000
00000100
,
00000000
00010000
00001000
00100000
00000000
00010000
01000000
00000000
,
00100000
01000000
00010000
10000000
,
01000000
00100000
00000000
00010000
00100000
00010000
00100000
00000000
,
00001000
00000000
00010000
00000000
00000100
00000000
00000010
00000002
,
00000000
00001000
00000000
00010000
00000000
00001000
00000003
00000001
,
00000010
00000000
00000100
00000000
00000001
00000000
00000100
00020000
,
00000000
00001000
00000000
00000010
00000000
00000100
00000000
00000000
,
00031000
00000000
00100000
00000000
00010000
00000000
01000000
00200000
,
00000000
10000000
00000000
01000000
00000000
00010000
00300000
00100000
,
10000000
00000000
01000000
00000000
00100000
00000000
00010000
00100000
,
00000000
00100000
00000000
00100000
00000000
00010000
00100000
00001000
,
00010000
00000000
00000000
00000000
;

//---------------dance-double - M. Simmons----------------
#NOTES:
     dance-double:
     M. Simmons:
     Hard:
     9:
     0.476,0.469,0.104,0.048,0.201:
00000000
00000000
00000000
00000000
,
00000000
00000000
00000000
00000000
,
00000000
00000000
00000000
00000000
,
00000000
00000000
00000000
00000000
,
10000000
01000000
00100000
00000000
00010000
01000000
00100000
00000000
,
10000000
01000000
00010000
00001000
00000100
00000010
00010000
00000000
,
00000100
00001000
00000010
00000000
00000100
00000001
00001000
00000000
,
00000200
00010000
00000000
01000000
00000000
00100000
00000000
00010300
,
00001000
00000000
00010000
00100000
01000000
00010000
00100000
00000000
,
01000000
00010000
00000000
01000000
10000000
00010000
01000000
00000000
,
00100000
00010000
00100000
01000000
00001000
00010000
00000100
00000000
,
00001000
00000010
00000000
00000100
00000010
00000100
00000010
00000100
,
00000001
00000000
00001000
00000000
00010000
00000000
10000000
10000000
,
00000000
10000000
00000000
10000000
01000000
00000000
10000000
00010000
,
00100000
00000000
00001000
00000000
00000100
00000000
00001000
00000100
,
00000000
00000001
00000000
00000010
00000100
00010000
00000010
00000100
,
00002000
00000000
00MM0M00
00003000
,
00001000
00000000
00000000
00000100
00000000
00000000
00000010
00000000
00000000
00000100
00000000
00000000
00000001
00000010
00000000
00000010
,
00000001
00000000
00001000
00000000
00000000
00000100
00000000
00000000
00000000
00020000
00000000
00031000
00100000
01000000
00000000
10000000
,
00100000
00000000
00000000
01000000
00000000
00000000
00001000
00000000
00000000
00010000
00000000
00000000
00000100
00000000
00000000
00001000
,
00000000
00000000
00000040
00000000
00000000
00000000
00000030
00000100
00000010
00000000
00000000
00001000
00000000
00000000
00000100
00000000
,
00001100
00000000
00000000
00001000
00000000
00000000
00100000
00000000
00000000
00001000
00000000
00000000
00000100
00000010
00000000
00000010
,
00000100
00000000
00040000
00000000
00000000
00000000
00030000
00000000
00000000
00002000
00000000
00013000
00001000
00010000
00000000
00001000
,
00100000
00000000
00000000
01000000
00000000
00000000
10000000
00000000
00000000
00100000
00000000
00000000
01000000
00010000
00000000
00010000
,
01000000
00004000
00000000
00003000
00040000
00000000
00030000
00000000
,
00011000
00000000
00000000
000MM0M0
00000000
00000000
00000000
00000000
,
00011010
00000000
00000000
00000MMM
00000000
00000000
00000000
00000000
,
00000111
00000000
00000000
00MM0M00
00000000
00000000
00000000
00000000
,
00110100
00000000
00000000
0M000000
M0000000
00000000
00000000
00000000
,
01000000
10000000
00100000
00010000
00001000
00100000
10000000
00100000
,
00010000
01000000
00001000
00000100
00000010
00001000
00000100
00000010
,
00001000
00100000
01000000
10000000
00010000
00100000
01000000
00010000
,
00001000
00010000
00000100
00001000
00000010
00000001
00000010
00000000
,
00000100
00000010
00001000
00000010
00000000
00010000
00001000
00010000
,
00000000
01000000
00100000
01000000
00000000
10000000
00100000
00000000
,
01000000
00010000
00100000
01000000
00000000
00001000
00000100
00000010
,
00000000
00000001
00000100
00000010
00000000
00001000
00000010
00000000
,
00000100
00000000
00000000
00000001
00000000
00000000
00001000
00000000
00000000
00000100
00000000
00000000
00010000
00000000
00000000
00000000
,
00001000
00000000
00000000
01000000
00000000
00000000
00100000
00000000
00000000
10000000
00000000
00000000
01000000
00000000
00000000
00000000
,
00100000
00000000
00000000
00010000
00000000
00000000
01000000
00000000
00000000
00100000
00000000
00000000
00010000
00000000
00000000
00000000
,
00001000
00000000
00000000
00000010
00000000
00000000
00000001
00000000
00000000
00000100
00000000
00000000
00000010
00000000
00000010
00000000
,
00000010
00000000
00000000
00010000
00000000
00000000
00001000
00000000
00000000
00000100
00000000
00000000
00000010
00000000
00000000
00000000
,
00010000
00000000
00000000
00001000
00000000
00000000
00100000
00000000
00000000
01000000
00000000
00000000
10000000
00000000
00000000
00000000
,
00100000
00000000
00000000
00010000
00000000
00000000
00100000
00000000
00000000
01000000
00000000
00000000
00001000
00000000
00000000
00000000
,
00010000
00000000
00000000
00000100
00000000
00000000
00010000
00000000
00000000
00001000
00000000
00000000
00010000
00000000
00010000
00000000
,
00010000
00000000
00001000
00000000
00100000
00000000
00000000
00000000
00010000
00000000
01000000
00000000
00100000
01000000
00000000
00100000
,
01000000
00010000
00100000
00001000
00010000
00000000
00001000
00001000
,
00001000
00000000
00010000
00000000
00000100
00000000
00001000
00000000
00000010
00000000
00000100
00000000
00000001
00000010
00000000
00000001
,
00000010
00000100
00001000
00000010
00000001
00000000
00000010
00000010
,
00000010
00000000
00010000
00000000
00001000
00000000
00100000
00000000
00010000
00000000
01000000
00000000
00100000
10000000
00000000
00100000
,
10000000
01000000
00100000
10000000
00100000
00000000
00100000
00001000
,
00010000
00000000
00100000
00000000
00010000
00000000
00001000
00000000
00000100
00000000
00000010
00000000
00001000
00000100
00000000
00001000
,
00000100
00000010
00000001
00000010
00001000
00000000
00000010
00000010
,
00000010
00000000
00000000
00MMM000
00000000
00000000
00000000
00000000
,
00111000
00000000
00000000
MMM00000
00000000
00000000
00000000
00000000
,
11100000
00000000
00000000
00M0MM00
00000000
00000000
00000000
00000000
,
00101100
00000000
00000000
00000M00
000M0000
00000000
00000000
00000000
,
00000100
00010000
00000100
00000010
00001000
00010000
00100000
10000000
,
01000000
00010000
01000000
10000000
01000000
00100000
00001000
01000000
,
00100000
00010000
00001000
00000010
00000100
00000001
00000100
00001000
,
00000000
00001010
00000000
00000110
00000040
00000000
00000000
00000000
,
00001030
00000100
00010000
00001000
00000000
00100000
00010000
01000000
,
00000000
00100000
10000000
01000000
00000000
00100000
00110000
00000000
,
00001000
00010000
00000100
00000010
00000000
00001000
00000010
00000001
,
00000000
00000100
00000010
00000001
00000000
00000010
00001010
00000000
,
00010000
00001000
00100000
00010000
01000000
00100000
10000000
02000000
,
00000000
10000000
00000000
00100000
00000000
00010000
00000000
03100000
,
01000000
10000000
00100000
01000000
00010000
00100000
00001000
00020000
,
00000000
00001000
00000000
00000100
00000000
00000010
00000000
00030000
,
00010000
00001000
00000100
00000010
00001000
00000001
00000010
00001000
,
00000000
00010000
00000000
00100000
00000000
10000000
00000000
01000000
,
00010000
01000000
10000000
00100000
01000000
00100000
01000000
00100000
,
00000000
00010000
00000000
00001000
00000000
00000010
00000100
00001000
,
00010010
00000000
00000000
00000000
;

//---------------dance-double - D. Bernardone----------------
#NOTES:
     dance-double:
     D. Bernardone:
     Challenge:
     10:
     0.725,0.802,0.321,0.128,0.614:
00000000
00000000
00000000
00000000
,
00000000
00000000
00000000
00000000
,
00000000
00000000
00000000
00000000
,
00000000
00000000
00000000
00000000
,
00012000
00000000
20003000
00000000
30020000
00000000
01030000
00001000
,
00000000
01001000
00000000
01000000
00001000
00000010
00000001
00000100
,
00000002
00000000
00020003
00000000
00032000
00000000
00013000
00000100
,
00000000
00010100
00000000
00100100
00000000
00010000
10010000
00000000
,
10100000
00100000
01000000
00001000
00010000
00001000
00000100
00000001
,
00000000
00001100
00000000
00000100
00010000
00100000
10000000
01000000
,
10000000
00100000
01000000
00001000
00010000
00001000
00000010
00000001
,
00000000
00001010
00000000
01010000
00000000
10000000
00100000
00000000
,
10010000
00000000
10000000
00000000
01000000
00000000
00100000
00010000
01000000
00001000
00010000
00000000
00010100
00000000
00000000
000M0000
,
00000100
00000000
00001000
00000000
00000001
00000000
00000100
00000010
00001000
00000100
00010000
00000000
01001000
00000000
00000000
0000M000
,
01000000
00000000
00010000
00000000
10000000
00000000
01000000
00100000
00001000
00010000
00001000
00000000
00010010
00000000
00000000
000000M0
,
00010000
00000000
00000100
00000000
00001000
00000000
00000001
00000010
00000100
00000010
00000001
00000000
00002200
00003300
00000100
00010000
,
00000000
000000M0
0000M000
00000000
00020000
00000M00
0000M000
00000000
00000000
00000000
00000000
00000000
00000000
00000000
00000000
00000000
,
00031000
00100000
00000000
00010000
10000000
00000000
01100000
00000000
01000000
00001000
00010000
00001000
00010000
00000100
00000000
00001000
,
00000001
00000000
00000010
00000100
00001000
00000100
00010000
00000000
00001000
00100000
00000000
01000000
10000000
00010000
10000000
00100000
,
01000000
00001000
00000000
00100000
00010000
00000000
01010000
00000000
01000000
00001000
00010000
00000010
00001000
00000100
00000000
00000100
,
00000010
00000000
00000001
00001000
00000010
00000100
00000010
00010000
00001000
00010000
00001000
00000000
00100000
00010000
00100000
00010000
,
00100000
01000000
00000000
01000000
10000000
00000000
10010000
00000000
00010000
01000000
00010000
00100000
00001000
00010000
00000000
00010000
,
00000010
00000000
00000100
00000001
00001000
00000100
00000010
00000000
00000100
00010000
00000000
00001000
00100000
00010000
00100000
00010000
,
10000000
01000000
00000000
10000000
00000000
00000000
00010000
00000000
01000000
00010000
01000000
00001000
00010000
00001000
00010000
00000100
,
00001000
00000100
00000010
00000001
00001000
00000010
00000100
00000010
00001000
00000100
00010000
00001000
00010000
00001000
00010000
00000000
,
01001000
01000000
00100000
10000000
00000000
10000000
01000000
00010000
,
00001000
00000100
00000001
00000010
00000000
00000010
00000001
00000100
,
00001000
00010000
01000000
10000000
00000000
10000000
00100000
00010000
,
00000000
00000000
00001000
00000000
00000010
00000000
00000001
00000000
00000000
00000000
00000101
000000M0
000M0000
00000000
00M00110
00000000
,
MM001001
00000001
00000100
00001000
00000000
00010000
00100000
10000000
,
00000000
10000000
01000000
00010000
00000000
00001000
00000010
00000001
,
00000000
00001001
00000000
00011000
00000000
00001000
01000000
10000000
,
00000000
10000000
01000000
00010000
00000000
00110000
00000000
00000000
,
01100000
10010000
00000000
01010000
00000000
01000000
00010000
00000100
,
00000000
00000010
00010000
00100000
00000000
01000000
00001000
00000010
,
00000000
00011000
00000000
00100100
00000000
00010000
00000100
00000001
,
00000000
00000001
00000100
00001000
00000000
00000010
00000200
00000000
,
00000301
00000000
00001000
00000100
00000000
00000100
00010000
00000000
00001000
00100000
00001000
00100000
00010000
00000000
01000000
00100000
,
00000000
00100000
10000000
00010000
10000000
00010000
10000000
00000000
00100000
01000000
00000000
01000000
00001000
00000000
00010000
00000010
,
00001000
00000010
00001000
00000001
00000000
00000001
00000010
00000000
00000100
00001000
00000000
00000100
00010000
00000000
00001000
01000000
,
00010000
01000000
00010000
10000000
00000000
10000000
01000000
00000000
00100000
00001000
00000000
00001000
01000000
00000000
00010000
10000000
,
01000000
00000000
00100000
00001000
00100000
00001000
00100000
00000000
00001000
00010000
00001000
00010000
00001000
00000000
00010000
00000100
,
00010000
00000100
00010000
00000010
00001000
00000010
00001000
00000000
00000001
00000010
00000000
00000100
00001000
00000000
00000100
00010000
,
00001000
00010000
00001000
01000000
00000000
01000000
00010000
00000000
10000000
01000000
10000000
01000000
10000000
00000000
00010000
01000000
,
00010000
01000000
00010000
00100000
00010000
00100000
00010000
00000000
01000000
00001000
00000000
00001000
00010000
00000000
00001000
00010000
,
00000100
00000000
00000010
00000000
00000001
00000000
00000100
00000000
00001000
00000000
00010000
00001000
00000000
00001000
00100000
00000000
,
01000000
00000000
10000000
00000000
00100000
00000000
00010000
00000000
00001000
00000000
00010000
00000100
00000000
00000100
00000010
00000000
,
00000001
00000000
00000100
00000000
00001000
00000000
00010000
00000000
00100000
00000000
10000000
00010000
00000000
10000000
00010000
00000000
,
10000000
00000000
01000000
00000000
00010000
00000000
00001000
00000000
00000010
00000000
00000001
00001000
00000000
00000001
00001000
00000000
,
00000010
00000000
00000100
00000000
00001000
00000000
00010000
00000000
01000000
00000000
10000000
00100000
00000000
10000000
00010000
00000000
,
01000000
00000000
00100000
00000000
00010000
00000000
00001000
00000000
00000010
00000000
00000001
00000100
00000000
00000001
00001000
00000000
,
00000100
00000000
00000010
00000000
00001000
00000000
00010000
00000000
01000000
00000000
10000000
00010000
00000000
10000000
00010000
00000000
,
01010000
00000000
01000000
00100000
01000000
00000000
00001000
00010000
00001000
00000000
00000010
00000100
00000010
00000000
00000001
00000000
,
00001001
00000001
00000010
00000100
00000000
00010000
00001000
00100000
,
01000000
10000000
00100000
00010000
00000000
00001000
00000010
00000001
,
00000100
00000001
00000000
00010010
00000000
00010000
00001000
00100000
,
00000000
01000000
10000000
00010000
00000000
10010000
00000000
00000000
,
01100000
10010000
00000000
11000000
00000000
01000000
00100000
00001000
,
00000000
00010000
00000010
00000100
00000000
00000100
00000001
00000010
,
00000000
00000010
00000100
00010000
00000000
00001000
01000000
00100000
,
00000000
00100000
10000000
01000000
00000000
01100000
00000000
00000000
,
00010000
00000000
01000000
00000000
00001000
00000000
00010000
00000010
00001000
00000001
00000010
00000000
00000100
00000000
00000100
00000000
,
00001000
00000000
00000010
00000000
01000000
00000000
00010000
10000000
01000000
00100000
01000000
00000000
10000000
00000000
10000000
00000000
,
00010000
00000000
01000000
00000000
00000010
00000000
00001000
00000001
00000010
00000100
00000010
00000000
00000001
00000000
00000001
00000000
,
00000100
00000010
00000100
00000010
00010000
00001000
00010000
00001000
00100000
01000000
00100000
01000000
10000000
00100000
01000000
00010000
,
00100000
01000000
10000000
00100000
00010000
00001000
00000010
00000001
,
00000000
00000001
00000000
00000100
00000010
00010000
00001000
00010000
,
02000000
00000000
23000000
00000000
30020000
00000000
01030000
00001000
,
00000000
00011000
00000000
00101000
00000000
00100000
02000000
00000000
,
13000000
00000000
00000000
00000000
00001000
00000000
00000000
00001000
00010000
00001000
00000000
00010000
00000100
00000000
00000000
00000000
,
00010000
00000000
00000000
00000000
00000001
00000000
00000000
00000001
00001000
00000010
00000000
00000010
00000100
00000000
00000000
00000000
,
00000010
00000000
00000000
00000000
00100000
00000000
00000000
00100000
00010000
10000000
00000000
10000000
00100000
00000000
00000000
00000000
,
01000000
00000000
00000000
00000000
00000100
00000000
00000000
00000100
00001000
00000001
00000000
00000001
00000010
00000000
00000000
00000000
,
00002200
00000000
00000000
00000000
,
00003300
00000000
00000000
00000000
;
