#TITLE:Etude for a Dragon;
#SUBTITLE:;
#ARTIST:Draigun;
#TITLETRANSLIT:;
#SUBTITLETRANSLIT:;
#ARTISTTRANSLIT:;
#GENRE:Electronic Score;
#CREDIT:Sync by HellRazor;
#BANNER:Etude for a Dragon-bn.png;
#BACKGROUND:Etude for a Dragon-bg.png;
#LYRICSPATH:;
#CDTITLE:;
#MUSIC:Etude for a Dragon.ogg;
#OFFSET:-0.023;
#SAMPLESTART:66.818;
#SAMPLELENGTH:12.000;
#SELECTABLE:YES;
#BPMS:0=132,267.5=130.5,268=129,268.5=127.5,269=125.8,269.5=124.1,270=122.4,270.5=121.2,271=119.2,271.5=117.2,272=115.2,272.5=113.2,273=111.2,273.5=109.2,274=107.5,274.5=105.8,275=104.1,275.5=102.5,276=101;
#STOPS:;
#BGCHANGES:0.000=Etude for a Dragon-bg.png=1.000=0=0=1=====,
20.000=In The Groove Rebirth/207_JB_HD.mpg=1.000=0=0=1=====,
21.000=In The Groove Rebirth/261_JB_HD.mpg=1.000=0=0=1=====,
22.000=In The Groove Rebirth/269_JB_HD.mpg=1.000=0=0=1=====,
36.000=In The Groove Rebirth/270_JB_HD.mpg=1.000=0=0=1=====,
37.000=In The Groove Rebirth/307_JB_HD.mpg=1.000=0=0=1=====,
38.000=In The Groove Rebirth/881_JumpBack.mpg=1.000=0=0=1=====,
52.000=In The Groove Rebirth/264_JB_HD.mpg=1.000=0=0=1=====,
53.000=In The Groove Rebirth/250_JB_HD.mpg=1.000=0=0=1=====,
54.000=In The Groove Rebirth/207_JB_HD.mpg=1.000=0=0=1=====,
68.000=In The Groove Rebirth/261_JB_HD.mpg=1.000=0=0=1=====,
84.000=In The Groove Rebirth/881_JumpBack.mpg=1.000=0=0=1=====,
100.000=In The Groove Rebirth/250_JB_HD.mpg=1.000=0=0=1=====,
116.000=In The Groove Rebirth/270_JB_HD.mpg=1.000=0=0=1===FadeDown==,
132.000=In The Groove Rebirth/264_JB_HD.mpg=1.000=0=0=1=====,
144.000=In The Groove Rebirth/264_JB_HD.mpg=0.700=0=0=1=====,
145.000=In The Groove Rebirth/264_JB_HD.mpg=0.400=0=0=1=====,
146.000=In The Groove Rebirth/264_JB_HD.mpg=0.100=0=0=1=====,
147.000=Etude for a Dragon-bg.png=2.000=0=0=1=====,
148.000=In The Groove Rebirth/307_JB_HD.mpg=1.000=0=0=1=====,
164.000=In The Groove Rebirth/270_JB_HD.mpg=1.000=0=0=1=====,
180.000=In The Groove Rebirth/269_JB_HD.mpg=1.000=0=0=1=====,
196.000=In The Groove Rebirth/250_JB_HD.mpg=1.000=0=0=1=====,
212.000=In The Groove Rebirth/261_JB_HD.mpg=1.000=0=0=1=====,
228.000=In The Groove Rebirth/207_JB_HD.mpg=1.000=0=0=1=====,
244.000=In The Groove Rebirth/881_JumpBack.mpg=1.000=0=0=1=====,
260.000=In The Groove Rebirth/307_JB_HD.mpg=1.000=0=0=1=====,
272.000=In The Groove Rebirth/307_JB_HD.mpg=0.700=0=0=1=====,
274.000=In The Groove Rebirth/307_JB_HD.mpg=0.600=0=0=1=====,
276.000=Etude for a Dragon-bg.png=1.000=1=0=1===CrossFade==,
99999=-nosongbg-=1.000=0=0=0 // don't automatically add -songbackground-
;
#BGCHANGES2:35.000=white flash=2.000=0=0=1=====,
68.000=white flash=1.000=0=0=1=====,
132.000=white flash=1.000=0=0=1=====,
147.000=white flash=2.000=0=0=1=====,
148.000=yellow flash=1.000=0=0=1=====,
212.000=white flash=1.000=0=0=1=====,
;
#KEYSOUNDS:;

//---------------dance-single - R. Woods----------------
#NOTES:
     dance-single:
     R. Woods:
     Beginner:
     1:
     0.096,0.132,0.015,0.000,0.000:
0000
0000
0000
0000
,
0000
0000
0000
0000
,
0000
0000
0000
0000
,
1000
0000
0000
0000
,
0001
0000
0000
0000
,
0010
0000
0010
0000
,
0000
0000
0000
0000
,
0001
0000
0000
0000
,
1000
0000
0000
0000
,
0010
0000
0010
0000
,
0000
0100
0000
0100
,
0000
0100
0000
0100
,
0000
0100
0000
0100
,
0001
0000
0001
0000
,
0000
1000
0000
1000
,
0000
0001
0000
0001
,
0000
0100
0000
0100
,
0010
0000
0000
0000
,
1000
0000
0000
0000
,
0010
0000
0000
0000
,
0100
0000
0000
0000
,
0001
0000
0000
0000
,
0010
0000
0000
0000
,
0100
0000
0000
0000
,
1000
0000
0000
0000
,
0010
0000
0010
0000
,
0010
0000
0000
0000
,
1000
0000
0001
0000
,
0010
0000
0000
0000
,
0100
0000
1000
0000
,
0010
0000
0000
0000
,
0100
0000
0001
0000
,
0010
0000
0010
0000
,
1001
0000
0000
0000
,
0000
0000
0000
0000
,
0100
0000
0000
0000
,
0001
0000
0000
0000
,
1001
0000
0000
0000
,
0001
0000
0000
0000
,
1000
0000
0100
0000
,
0010
0000
0000
0000
,
0100
0000
0100
0000
,
0010
0000
0000
0000
,
0001
0000
0010
0000
,
0100
0000
0000
0000
,
0001
0000
0000
0000
,
1000
0000
0000
0000
,
0001
0000
0000
0000
,
0010
0000
0010
0000
,
0010
0000
0000
0000
,
0001
0000
1000
0000
,
0100
0000
0000
0000
,
0010
0010
0010
0010
,
0010
0000
0000
0000
,
0001
0000
0000
0000
,
1000
0000
0000
0000
,
0001
0000
0000
0000
,
0100
0000
0000
0000
,
0010
0000
0000
0000
,
1000
0000
0000
0000
,
0100
0000
0000
0010
,
0010
0000
0000
0000
,
0000
0000
0000
0000
,
0001
0000
0000
0000
,
0010
0000
0000
0000
,
0100
0000
0000
0000
,
0000
0000
0000
0000
,
1000
0000
0000
0000
,
0010
0000
0000
0000
,
0100
0000
0000
0000
;

//---------------dance-single - R. Woods & S. Venkat----------------
#NOTES:
     dance-single:
     R. Woods & S. Venkat:
     Challenge:
     11:
     0.867,0.962,0.229,0.742,0.780:
0000
0000
0000
0000
,
0000
0000
0000
0000
,
0000
0000
0000
0000
,
0000
0000
0000
0000
,
0000
0000
0000
0000
,
0020
0000
0000
0030
0200
0000
0000
0300
0020
0000
0000
0030
0100
0000
0100
0000
,
0000
0110
0000
0101
0000
1001
0000
1100
,
0000
0011
0000
1010
0000
0201
0000
0020
,
0030
2000
3000
0020
0030
0301
1001
0000
,
1000
0100
0010
0000
0001
0000
0010
0100
0000
1000
0200
0000
0000
0000
2000
0000
,
3000
0020
0030
0002
0003
0020
0300
0002
,
0003
0200
0300
2000
3000
0200
0300
0002
,
0033
2002
3003
0202
0303
2020
0030
3001
,
0001
0000
1000
0000
0100
0000
0010
0100
0000
0010
0200
0000
0000
0000
0002
0000
,
0300
2000
0003
0002
3000
0200
0003
0010
,
0300
0000
0110
0000
1000
0000
0100
1000
0000
0100
1000
0000
0100
0000
0000
0000
,
1000
0001
0100
0001
0100
0110
1010
0100
,
1001
0000
0100
0010
0100
0001
1000
0010
0100
0000
0001
1000
0001
0100
0010
0100
,
0001
0000
0010
0001
1000
0100
0010
0001
0200
0000
0301
0000
2000
0000
3100
0000
,
0110
0000
0100
0010
0001
0010
0100
1000
0010
0000
0100
0010
1000
0001
0010
0100
,
1000
0000
0001
0100
0010
1000
0001
0100
0020
0000
1030
0000
0200
0000
0310
0000
,
0011
0000
1000
0100
0010
0100
0001
0100
0010
0000
0100
1000
0001
0100
0010
0100
,
1000
0000
0100
0001
0100
0010
1000
0001
0020
0000
0031
0000
0200
0000
0310
0000
,
1010
0000
0001
0010
0100
0010
0100
1000
0100
1000
0010
0100
0010
0100
0001
0100
,
1000
0100
0010
0100
0001
1000
0001
1000
0100
0010
0001
0100
0010
1000
0100
0000
,
1100
0000
0100
0000
0010
0000
0001
0000
1000
0000
0100
0000
0010
0000
0001
0010
0001
0000
1000
0000
0100
0000
0010
0000
0001
0000
1000
0000
0100
0000
0010
0001
,
0010
0000
0100
0000
1000
0000
0001
0000
0100
0000
0010
0000
1000
0000
0010
0100
0010
0000
1000
0000
0001
0000
0100
0000
0010
0000
1000
0000
0001
0000
0010
0001
,
0010
0000
0100
0000
1000
0000
0001
0000
0010
0000
0100
0000
1000
0000
0001
0010
0001
0000
1000
0000
0010
0000
0100
0000
0001
0000
1000
0000
0010
0000
0100
0001
,
0100
0000
0010
0000
1000
0000
0001
0000
0010
0000
0100
0000
1000
0000
0001
0100
0001
0000
1000
0000
0100
0000
0010
0000
0001
0000
1000
0000
0010
0000
0100
0001
,
0100
0000
0010
0000
1000
0000
0001
0000
0010
0000
0100
0000
1000
0000
0010
1000
0010
0000
0100
0000
0001
0000
0100
0000
0010
0000
1000
0000
0100
0000
0010
0001
,
0010
0000
0001
0000
1000
0000
0010
0000
0100
0000
0001
0000
0010
0000
0100
1000
0100
0000
1000
0000
0001
0000
0100
0000
0010
0000
1000
0000
0100
0000
0010
0001
,
0010
0000
0001
0000
0100
0000
0010
0000
1000
0000
0010
0000
0100
0000
0010
0100
0010
0000
1000
0000
0100
0000
0010
0000
0001
0000
0010
0000
0100
0000
0010
0100
,
0010
0000
0001
0000
0100
0000
0010
0000
1000
0000
0100
0000
0010
0000
0100
0010
0100
0000
1000
0000
0010
0000
0100
0000
0001
0000
0010
0000
0100
0000
1000
0001
,
1000
0000
0001
0000
0010
0000
0001
0010
0000
0001
0010
0000
0100
0000
1000
0000
,
0001
0010
0001
0100
0001
1000
0001
1000
,
0100
0000
1000
0000
0010
0100
0001
0010
0000
0000
0100
0000
1000
0000
0002
0000
,
0010
0000
0000
0000
0010
0000
0000
0000
0023
0000
0000
0000
0001
0000
0000
0000
0001
0000
0000
0000
0032
0000
0000
0000
0100
0000
0000
0000
0100
0000
0000
0000
0203
0000
0000
0000
2000
0000
0300
0000
0000
0000
0002
0000
0000
3000
0000
0000
,
1003
0100
0010
0100
0001
0000
1000
0000
0100
0010
0001
0010
0100
0000
1000
0000
,
0001
0000
0100
0000
0010
0000
1000
0000
0001
0000
0000
0000
0010
0000
0000
0000
0001
0000
0100
0000
0010
0000
1000
0000
0001
0000
0100
0000
0010
0000
1000
0001
,
2000
0100
0100
3100
2000
0100
0100
3100
,
0020
0000
0000
0000
0130
0000
0000
0000
1000
0000
0000
0000
0000
0000
0000
0000
0001
0000
0100
0000
0010
0000
1000
0000
0001
0000
0010
0000
0100
0000
1000
0001
,
1000
0100
0010
0001
1000
0000
0100
0000
0010
0001
1000
0010
0100
0000
0001
0000
,
1000
0000
0100
0000
1000
0000
0001
0000
0100
0000
0000
0000
0010
0000
0000
0000
1000
0000
0100
0000
0010
0000
0001
0000
1000
0000
0100
0000
0010
0000
0001
1000
,
0002
0103
2000
3100
0002
0103
0020
0130
,
0002
0013
0100
0000
1001
0100
1001
0110
,
1000
0100
1000
0001
0100
0000
0010
0000
1000
0010
0100
0001
1000
0000
0100
0000
,
0010
0000
0001
0000
1000
0000
0010
0000
0100
0000
0000
0000
0001
0000
0000
0000
1000
0000
0100
0000
0010
0000
0001
0000
1000
0000
0010
0000
0100
0000
0001
1000
,
0002
0100
0100
0103
0002
0100
0100
0103
,
0020
0000
0000
0000
0130
0000
0000
0000
0002
0000
0000
0000
1003
0000
0000
0000
0100
0000
0010
0000
0001
0000
1000
0000
0010
0000
0100
0000
0001
0000
1000
0001
,
1000
0001
0100
0010
1000
0000
0001
0000
0010
0100
1000
0001
0100
0000
0010
0000
,
1000
0000
0100
0000
0010
0000
0001
0000
1000
0000
0000
0000
0010
0000
0000
0000
0100
0000
0001
0000
0010
0000
0100
0000
1000
0000
0001
0000
1000
0000
0010
0100
,
0020
1030
0200
1300
0020
1030
0002
1003
,
2001
0000
0000
0000
0200
0000
3300
0000
0200
0000
0002
0300
2000
0003
0020
3000
,
0031
0000
0010
0000
0001
0010
0001
0100
0010
0000
1000
0000
0001
0000
0010
0000
,
0021
0000
0200
0030
0002
0300
0200
0003
2000
0300
0200
3000
0020
0300
0002
0033
,
1000
0000
0010
0000
0001
0000
0010
0001
0010
0100
1000
0000
0100
0000
0001
0000
,
0201
0000
0020
0300
0200
0030
0020
0300
0002
0030
2000
0003
0200
3000
0002
0303
,
1010
0000
0010
0000
1000
0010
1000
0010
0100
0000
0001
0000
0010
0000
0001
0000
,
2000
0000
0100
3000
0020
0000
0100
0030
2000
0000
0001
3000
0200
0000
0010
0300
,
1000
0000
0100
0000
1000
0000
0100
1000
0000
0100
1000
0000
0100
0000
0010
0000
,
0021
0000
0100
0030
1000
0000
0001
0000
0200
0000
0000
0300
0120
0000
0130
0000
,
1001
0000
0001
0000
1000
0000
0001
1000
0000
0001
1000
0000
0100
0000
1000
0000
,
0010
1000
0001
1000
0100
0010
0001
0010
,
0002
0100
0103
0010
2000
3100
0010
0001
,
2000
0010
0002
3000
0013
0100
1000
0001
,
1001
0000
1000
0001
0100
0000
0001
1000
0100
0000
0001
0000
0100
0000
1000
0000
,
0001
0100
1000
0100
0010
1000
0100
0010
,
0001
0100
0010
0100
0001
0100
1000
0100
,
0020
0230
0320
0230
0302
2003
3002
2000
,
0010
0000
3000
0000
0000
0000
0000
0003
;

//---------------dance-single - R. Woods----------------
#NOTES:
     dance-single:
     R. Woods:
     Easy:
     4:
     0.276,0.292,0.038,0.275,0.000:
0000
0000
0000
0000
,
0000
0000
0000
0000
,
0000
0000
0000
0000
,
0000
0000
0000
0000
,
0000
0000
0000
0000
,
0020
0000
0000
0030
0200
0000
0000
0300
0020
0000
0000
0030
0000
0000
0000
0000
,
1000
1000
0001
0001
,
1000
1000
0001
0001
,
0100
0010
1000
1001
,
0020
0000
0000
0030
0200
0000
0000
0300
0020
0000
0000
0030
0000
0000
0000
0000
,
0100
1001
0000
0100
,
0000
0010
0000
0001
,
0000
0000
1000
0000
0001
0000
0000
0001
,
0020
0000
0000
0030
0200
0000
0000
0300
0020
0000
0000
0030
0000
0000
0000
0000
,
0010
0001
1000
0001
,
0100
0001
1000
0001
,
0010
0001
1001
0000
,
1000
0100
0010
0001
,
1000
0010
0100
0100
,
0001
1000
0010
0100
,
0001
0010
0100
0100
,
1000
0001
0100
0010
,
1000
0100
0010
0010
,
0001
1000
0010
1000
,
0100
0010
0001
0001
,
1000
0100
1000
1000
,
0001
0100
0001
0001
,
1000
0010
1000
1000
,
0001
0010
0001
0001
,
1000
0001
1000
0001
,
0100
0010
1000
0100
,
0010
0001
1000
0001
,
0002
0000
0000
0000
0000
0000
0000
0000
2000
0000
0000
0000
0000
0000
0000
3003
,
1001
0000
0000
0000
,
0020
0000
0000
0030
0200
0000
0000
0300
1000
0000
0000
0000
1000
0000
0000
0000
,
0100
1000
0001
0100
,
0020
0000
0000
0000
0000
0030
0110
0000
,
0001
1000
0001
0100
,
0010
1000
0100
0010
,
0002
0003
2000
3000
,
0020
0030
0200
0302
,
0013
0100
0010
0001
,
1000
0010
0100
0001
,
2000
3000
0200
0300
,
0020
0030
0002
0023
,
0130
1000
0010
0100
,
0001
0010
0100
1000
,
0002
0003
0200
0300
,
0020
0000
0030
0000
2000
0000
3002
0003
,
0001
0100
0001
1000
,
0010
0100
0001
1000
,
0200
0300
0020
0030
,
0002
0003
2000
3002
,
0103
0000
0001
0000
,
1000
0000
0100
0000
,
0010
0000
0001
0000
,
1000
0000
0010
0000
,
0100
0100
0100
0010
,
1000
0001
1000
0010
,
0100
0001
0001
0001
,
1000
0100
0000
0100
,
1000
0000
0001
0000
,
0100
0001
0001
0001
,
1000
0000
0100
0000
,
0010
0100
0100
0100
,
1000
0000
0001
0000
,
1000
0001
0010
0001
,
0100
0000
0001
1000
,
0020
0000
0230
0000
,
1000
0000
0000
0300
0000
0000
0000
0000
;

//---------------dance-single - D. Bernardone----------------
#NOTES:
     dance-single:
     D. Bernardone:
     Hard:
     8:
     0.474,0.475,0.145,0.076,0.069:
0000
0000
0000
0000
,
0000
0000
0000
0000
,
0000
0000
0000
0000
,
0000
0000
0000
0000
,
0000
0000
0000
0000
,
1000
0000
0001
0001
0100
0000
1000
0000
0200
0000
0300
0000
0000
0000
0000
0000
,
0000
0000
0000
0000
,
0000
0000
0000
0000
,
0000
0000
0000
0110
,
0001
0000
1000
1000
0100
0000
0010
0000
0100
0000
0000
0000
1001
0000
0000
0000
,
0000
0101
0000
1100
,
0000
1010
0000
0011
,
0000
0000
1001
0000
0000
0000
0110
0001
,
0001
0000
0100
0100
0010
0000
1000
0000
0100
0000
0000
0000
0110
0000
0000
0000
,
1000
1100
0001
0101
,
0001
0000
1000
0000
0100
0010
0100
0010
0001
1000
0000
0100
1000
0000
0000
0000
,
0001
0000
1001
0000
0000
0110
0110
0000
,
0001
0100
1000
0100
0001
0000
0100
0000
,
1000
0100
0010
1000
0100
0010
1000
0010
,
0100
0000
1000
0000
0001
0100
0010
0000
,
1000
0100
0001
0000
0100
0010
1000
0010
,
0100
1000
0020
0130
,
0010
0100
1000
0000
0100
0010
0001
0010
,
0100
0000
0001
0000
0010
0100
0010
0000
,
1000
0010
0001
0000
0100
0010
0100
0001
,
1000
0100
0001
0100
1000
0100
0001
0000
,
0100
0010
0001
0100
0010
0001
0010
0100
,
0001
0010
1000
0010
0001
0010
1000
0000
,
0010
0100
1000
0000
0010
0100
1000
0100
,
0001
0010
0100
0001
0100
0010
0001
0000
,
1000
0100
0010
0001
0100
1000
0100
0010
,
1000
0010
0100
1000
0100
0010
1000
0100
,
0010
0001
0010
1000
0010
0100
0010
0001
,
1000
1000
0100
0000
0010
0001
1000
0000
,
0100
0001
0100
0000
0100
0010
0100
1000
,
0100
0000
0010
0000
0001
1000
0001
1000
0010
1000
0000
1000
0001
0000
1000
0000
,
0001
0100
1000
0100
0001
0010
1000
0010
0001
1001
0000
0000
,
1000
0001
0100
0000
010M
1000
0010
0000
,
M010
0001
0100
010M
1000
0010
0100
0001
,
2000
0100
3100
0010
0200
1000
1300
0000
,
0001
0010
0100
0010
1000
0010
0100
0010
,
0001
1000
0100
0000
M100
0001
0010
0000
,
001M
1000
0100
M100
0001
1000
0010
0100
,
0001
0010
1000
0001
0100
1000
0001
0000
,
1000
0010
0100
0000
0110
0010
0110
1000
,
1000
0001
0100
010M
1000
001M
0100
01MM
,
1000
0001
0100
1000
0100
0001
1000
0000
,
0100
0001
0100
0000
1000
0010
1000
0000
,
0001
0000
0010
0000
0110
0000
0000
0000
1000
0000
0010
0000
1000
0000
0001
0010
,
0001
1000
0100
M100
0001
M010
0100
M1M0
,
0001
0010
1000
0010
0001
1000
0001
0000
,
1000
0010
0001
1000
0100
0001
1000
0000
,
0100
0001
1000
0010
0100
1000
0010
0000
,
0100
0001
0100
0000
1000
0100
1000
0000
,
0100
0001
0100
1000
0100
0001
1000
0200
,
0001
1000
0001
1300
,
0010
0100
0010
0000
0001
0010
1000
0001
,
0002
0010
1000
0100
,
0013
0100
0010
0000
1000
0010
0100
1000
,
0001
0100
1000
0000
0001
0010
1000
0000
,
0001
0100
1000
0001
0010
1000
1001
0000
,
0001
0010
0001
0000
0010
1000
0010
0000
,
0001
0010
1000
0010
0001
0010
0100
0010
,
0002
0013
2000
3010
,
0001
0100
1000
0000
0100
0010
0100
0001
,
1000
0100
0001
0000
1000
0010
0001
0000
,
1000
0100
0001
1000
0010
0001
1000
0010
,
0200
1300
0200
0301
,
1000
0010
0001
0010
1000
0100
0001
0010
,
0100
0000
0000
0000
;

//---------------dance-single - R. Woods----------------
#NOTES:
     dance-single:
     R. Woods:
     Medium:
     6:
     0.349,0.347,0.069,0.099,0.054:
0000
0000
0000
0000
,
0000
0000
0000
0000
,
0000
0000
0000
0000
,
0000
0000
0000
0000
,
0000
0000
0000
0000
,
0020
0000
0000
0030
0200
0000
0000
0300
0020
0000
0000
0030
0000
0000
0010
0000
,
0000
0010
0000
0100
0000
0100
0000
0010
,
0000
0010
0000
1000
0000
1000
0000
0001
,
0000
0001
0000
0010
0000
0010
0000
0000
,
0020
0000
0000
0030
0200
0000
0000
0300
0020
0000
0000
0030
0010
0000
0000
0000
,
0100
0010
1000
0010
,
0001
0010
0100
0010
,
1000
0000
0010
0000
0001
0000
0001
0010
,
0020
0000
0000
0030
0200
0000
0000
0300
0020
0000
0000
0030
0001
0000
0000
0000
,
1000
0001
0010
0001
,
0100
0001
1000
0001
,
1000
0000
1001
0000
1000
0010
0010
0100
,
0110
0100
0001
1000
,
0010
0100
0001
0100
,
0010
1000
0100
1000
,
0001
0000
0010
0000
0001
0100
0010
1000
,
0100
1000
0001
0100
,
0010
0000
0100
0000
0001
0000
1000
0100
,
0010
0100
0010
0001
,
2000
0000
0000
0000
0000
0000
0000
3000
,
0001
0000
0000
0000
0000
0000
0000
1000
0001
0000
0000
0000
0000
0000
0000
0100
,
0001
0000
0000
0000
0000
0000
0000
1000
0010
0000
0000
0000
0000
0000
0000
0100
,
0010
0000
0000
0000
0000
0000
0000
0100
0001
0000
0000
0000
0000
0000
0000
0010
,
0001
0000
0000
0000
0000
0000
0000
1000
0100
0000
0000
0000
0000
0000
0000
0010
,
0100
0000
0000
0000
0100
0000
0000
0100
1000
0000
0000
0000
0001
0000
0000
0001
,
0100
0000
0000
0000
0010
0000
0000
0010
1000
0000
0000
0000
1001
0000
0000
0000
,
1100
0000
0000
0000
0100
0000
0000
1000
0001
0000
0000
0000
0001
0000
0000
0100
,
0010
0000
0000
0000
0010
0000
0000
1000
0001
0000
0000
0000
1001
0000
0000
0000
,
0100
0000
0000
0000
,
0001
1000
0100
0000
1000
0010
0100
0001
,
0010
0100
0010
0001
,
0100
0000
0000
0000
0000
0000
0110
0100
,
1002
0103
0001
0100
,
0010
1000
0001
0100
,
0010
1000
0100
0000
0100
0010
0001
0000
,
1000
0001
0010
0000
0010
0100
1000
0000
,
0001
0100
0001
1000
,
0010
0100
0001
1000
,
0100
0010
0001
0100
0010
0000
0010
0000
,
1000
0010
0100
0001
1000
0000
1000
0000
,
0010
1000
0010
0100
,
0001
0010
0001
0100
,
0010
1000
0100
1000
0010
1000
0001
0000
,
0001
0010
0100
1000
0001
0100
0001
0000
,
1000
0100
1000
0001
,
0010
0001
1000
0100
,
1000
0010
0100
0010
1000
0001
1000
0000
,
0001
0100
0001
0100
0010
1000
0010
0000
,
1000
0100
1000
0000
0001
0000
0000
0000
,
0001
0010
0001
0100
,
0010
0100
0001
1000
,
0100
0010
0100
0000
1000
0001
1000
0010
,
0010
0100
0010
1000
,
0001
0010
0001
0000
1000
0100
1000
0001
,
0010
0100
1000
0001
,
0100
0010
1000
0000
0001
0000
0101
0000
,
0110
0100
0010
1000
,
0001
0010
0100
0000
0010
0001
0100
0000
,
0010
1000
0001
0100
,
0010
1000
0100
0000
1000
0001
0100
0000
,
0010
1000
0010
0100
,
0001
0010
0100
0000
1000
0100
0010
0000
,
0001
0100
0001
0010
,
0100
1000
0002
0200
,
0010
0000
0000
0303
;

//---------------dance-double - R. Woods----------------
#NOTES:
     dance-double:
     R. Woods:
     Medium:
     6:
     0.389,0.528,0.260,0.329,0.000:
00000000
00000000
00000000
00000000
,
00000000
00000000
00000000
00000000
,
00000000
00000000
00000000
00000000
,
00000000
00000000
00000000
00000000
,
00000000
00000000
00000000
00000000
,
00002000
00000000
00000000
00003000
00020000
00000000
00000000
00030000
00002000
00000000
00000000
00003000
00000000
00000000
00000000
00000000
,
00000000
00000000
00000000
00000000
,
00011000
02001000
00010000
03001000
,
00021000
00000100
00030010
00001010
,
00002002
00000000
00000000
00003003
00000220
00000000
00000000
00000330
00002002
00000000
00000000
00000003
00000010
00000000
00003000
00000000
,
00001000
00000010
00010000
00001000
,
01000000
00010000
00100000
01000000
,
00100000
00000000
00001000
00000000
01000000
00000000
00100000
10000000
,
20020000
00000000
00000000
30030000
02200000
00000000
00000000
03300000
20020000
00000000
00000000
30000000
00100000
00000000
00030000
00000000
,
00001000
00010000
00000100
00001000
,
00000010
00000020
00000230
00000001
00000010
00000300
00000000
00000000
,
00001000
00000000
00000100
00000000
00010000
00011000
00011000
00010000
,
00001000
01000000
00001000
00010000
,
00000010
00001000
00000100
00010000
,
00001000
01000000
00001000
00010000
,
00000010
00000000
00001000
00000000
00000100
00001000
00000001
00000100
,
00000010
00000100
00000010
00001000
,
00000001
00000100
00001000
00010000
,
01000000
01000000
00100000
00100000
,
00010000
00000000
01000000
00000000
00001000
00010000
00000100
00000010
,
00000002
00000000
00000100
00000003
00002001
00000000
00000100
00003000
,
00020010
00000000
00001000
00030000
00102000
00000000
01000000
01003000
,
00200000
00000000
01000000
00300000
20100000
00000000
01000000
30000000
,
10020000
00000000
01000000
00030000
01000000
00001000
00010000
00000010
,
00002000
00000000
00000100
00003000
00002010
00000000
00000100
00003000
,
00010020
00000000
00001000
00000030
00010100
00000100
00001000
00000010
,
00000002
00000013
00002000
00003100
,
00020010
00000000
00001000
00030000
00110000
00000000
20100000
00010000
,
00010000
00000000
00000000
00000000
,
30200000
00000000
02300000
00000000
,
03002000
00000000
00000000
00000000
,
00020000
00000000
00000010
00100000
,
00000010
00033000
00000000
00000000
00001000
00000000
00010000
00000000
,
00000020
00000100
00002030
00000001
,
00003100
00010000
00001000
00010000
00000100
00010000
00001000
00010000
,
00000010
00001000
00000100
00010000
,
00001000
00010000
00001000
00100000
,
00020000
10000000
02030000
00010000
,
03001000
00100000
01000000
00100000
00001000
00100000
00010000
00100000
,
00001000
00010000
00010010
00001100
,
00002001
00003100
00000002
00000103
,
00000010
00001000
00000100
00010000
,
00001000
01000000
00010000
01000000
00001000
01000000
00010000
01000000
,
00100000
00000000
10000000
00000000
00010000
00000000
00100000
01000000
,
10000000
01000000
10000000
00010000
,
00100000
00001000
00010000
00000100
,
00000010
00000001
00000100
00000001
00000010
00000001
00001000
00000100
,
00010000
00000000
00001000
00000000
00100000
01000000
10000000
00000000
,
10010000
01000000
10100000
00010000
,
00101000
01000000
00110000
00001000
,
00010100
00000010
00001001
00000100
,
00000001
00000100
00000010
00000000
00001000
00000100
00000010
00000001
,
00000001
00000100
00000001
00001000
,
00000010
00010000
00001000
01000000
,
00100000
01000000
00100000
10000000
,
00010000
00100000
00001000
00010100
,
00001010
00000100
00000010
00001000
,
00000010
00000000
00010000
00000000
00001000
00000000
01000000
00100000
,
10000000
01000000
10000000
00010000
,
00100000
00000000
00001000
00000000
00010000
00000000
00000100
00001000
,
00000010
00000100
00000010
00001000
,
00000100
00010000
00001000
00000100
,
00000001
00000100
00000010
00010000
,
00001000
00100000
00010000
01000000
,
10000000
00000000
00000000
00000000
;

//---------------dance-double - R. Woods----------------
#NOTES:
     dance-double:
     R. Woods:
     Easy:
     4:
     0.246,0.396,0.176,0.191,0.000:
00000000
00000000
00000000
00000000
,
00000000
00000000
00000000
00000000
,
00000000
00000000
00000000
00000000
,
00000000
00000000
00000000
00000000
,
00000000
00000000
00000000
00000000
,
00002000
00000000
00000000
00003000
00020000
00000000
00000000
00030000
00002000
00000000
00000000
00003000
00000000
00000000
00000000
00000000
,
00000000
00000000
00000000
00000000
,
00001000
01000000
00001000
00010000
,
00000100
00000010
00000001
00001000
,
00002002
00000000
00000000
00003003
00000200
00000000
00000000
00000300
00002002
00000000
00000000
00003003
00000010
00000000
00000000
00000000
,
00000000
00001000
00000000
00000100
,
00000000
00010000
00000000
00001000
,
00000000
01000000
00000000
00100000
,
20020000
00000000
00000000
30030000
02000000
00000000
00000000
03000000
20020000
00000000
00000000
30030000
00100000
00000000
00000000
00000000
,
00000000
00001000
00000000
00010000
,
00000000
00000000
00000200
00000000
00000010
00000300
00000100
00000000
,
00000000
00010000
00010000
00011000
,
00001000
01000000
00001000
00010000
,
00000020
00000000
00000230
00000000
,
00000301
00000100
00000001
00001000
,
00000020
00000000
00002030
00000000
,
00003001
00000100
00000010
00001000
,
00000200
00000000
00020300
00000000
,
00031000
01000000
00100000
10000000
,
00020000
01030000
00002000
00013000
,
00011000
00000000
00010100
00000000
,
00010010
00000000
00001010
00000000
,
00000110
00000000
00000101
00000000
,
00000011
00000000
00001001
00000000
,
00001100
00000000
00010100
00000000
,
00011000
00000000
01001000
00000000
,
01100000
01000000
00100000
10000000
,
01000000
00100000
00001000
00010000
,
00000100
00000000
00000000
00000000
,
00000010
00000000
00000000
00000000
,
00001000
00000000
00000000
00000000
,
00010000
00000000
00000000
00011000
,
00010000
00000000
00001000
00010000
,
00000020
00000030
00001000
00000100
,
00001000
00001000
00000100
00000100
,
00010000
00010000
00001000
00001000
,
00100000
00010000
20000000
30000000
,
00010000
10000000
02000000
03000000
,
10000000
01000000
10000000
00100000
,
01000000
00010000
01010000
00000000
,
01001000
01000000
00001000
00010000
,
00000010
00000100
00000001
00001000
,
00000100
00010000
00000100
00010000
,
00000010
00001000
00000001
00000010
,
00000100
00001000
00000100
00010000
,
00001000
00010000
00001000
00100000
,
01000000
10000000
01000000
00100000
,
00010000
01000000
00001000
00010000
,
00011000
00000000
00001000
00000000
,
00100000
01000000
10000000
00000000
,
00010000
00000000
01000000
00000000
,
00001000
00010000
00000010
00000000
,
00000100
00000000
00000001
00000000
,
00000010
00000100
00001000
00000000
,
00000010
00000000
00010000
00000000
,
00001000
00100000
01000000
10000000
,
10010000
00000000
00000000
00000000
,
00100000
00000000
00010000
00000000
,
00001000
00000000
00000000
00000000
,
00000100
00000000
00000010
00000000
,
00001000
00000000
00000000
00000000
,
00000100
00000000
00010000
00000000
,
00001000
00000000
00000000
00000000
,
01000000
00000000
00100000
00000000
,
01000000
00000000
00000000
00000000
;

//---------------dance-double - R. Woods & D. Bernardone----------------
#NOTES:
     dance-double:
     R. Woods & D. Bernardone:
     Hard:
     8:
     0.463,0.450,0.130,0.161,0.031:
00000000
00000000
00000000
00000000
,
00000000
00000000
00000000
00000000
,
00000000
00000000
00000000
00000000
,
00000000
00000000
00000000
00000000
,
00000000
00000000
00000000
00000000
,
00002000
00000000
00010000
00003000
00000200
00000000
00010000
00000300
00002000
00000000
00000000
00003000
00000000
00000000
00000000
00000000
,
00010000
00001000
00010000
00001000
,
00100000
00010000
10000000
01000000
,
00010000
00001000
00000100
00000101
,
00002001
00000000
00000000
00003000
00000200
00000000
00000000
00000300
00002000
00000000
00000000
00003000
00000100
00000000
00000000
00000000
,
00010000
00001000
00010000
00001000
00100000
00010000
00100000
00010000
,
10000000
01000000
10000000
01000000
00010000
01000000
00010000
00001000
,
00000100
00001000
00000100
00000001
00000100
00000001
00000100
00000010
,
00000020
00000000
00000000
00000030
00000200
00000000
00000000
00000300
00000020
00000000
00000000
00000030
00000000
00000000
00000000
00000000
,
00010000
00001000
00010000
00000100
00001000
00000010
00001000
00000010
,
00000100
00000000
00000001
00000000
00000010
00000000
00000000
00000010
00000000
00000000
00000010
00000000
00000000
00000010
00000000
00000000
,
00000100
00000000
00001001
00000000
00000010
00001001
00001001
00000000
,
00000001
00000010
00000100
00010000
00000010
00000100
00000001
00000000
,
00001000
00000010
00000001
00000000
00000010
00010000
00100000
01000000
,
00001000
00000000
00000100
00000000
00000001
00000010
00000010
00000000
,
00000100
00010000
00000010
00000000
00010000
00001000
01000000
00010000
,
00100000
00000000
01000000
00000000
10000000
01000000
00001000
00000000
,
01000000
00010000
00001000
00010000
01000000
00100000
10000000
00100000
,
01000000
00000000
10000000
00000000
00100000
00010000
00001000
00000000
,
01000000
00100000
00010000
00000000
00001000
00000010
00000001
00000010
,
00000100
00000100
00010000
00010000
00100000
00100000
01000000
01000000
,
10000000
01000000
00001000
01000000
00100000
00010000
00100000
00010000
,
00001000
00001000
00000010
00000010
00000100
00000100
00001000
00001000
,
00000010
00000001
00000010
00000100
00001000
00010000
00100000
01000000
,
10000000
10000000
01000000
01000000
00001000
00001000
00010000
00010000
,
00000001
00000010
00010000
00000010
00001000
00010000
00001000
00000010
,
00000001
00000001
00000100
00000100
00001000
00001000
00010000
00010000
,
00000100
00000010
00001000
00010000
00100000
00010000
00001000
00000010
,
00000002
00001003
00002000
00003001
,
00000010
00002000
00010000
00000000
10003000
00100000
00010000
00001000
,
00020000
01000000
00001000
00030010
,
00000100
00000001
00000100
00000010
00001000
00000010
00010000
00000100
00010000
00011000
00000000
00000000
,
10000000
01000000
00010000
00000000
00000001
00000100
00001000
00000000
,
10000000
01000000
00010000
00000000
00000001
00000100
00001000
00000100
,
00000001
00001010
00000100
00110000
,
00100000
00001000
00001000
00000000
00000100
00000001
00001000
00000000
,
00000001
00000010
00001000
00000000
10000000
00100000
00010000
00000000
,
00000001
00000010
00001000
00000000
10000000
00100000
00010000
00100000
,
20000000
01000000
00010000
31000000
20000000
00100000
31000000
00000000
,
10010000
00000000
01001000
00000000
00011000
00000100
00000110
00000000
,
00000001
00001000
00000100
00000000
01000000
00010000
10000000
00000000
,
01000000
00010000
00001000
00000000
10000000
01000000
00010000
00000000
,
00000010
00000100
00001000
00010000
00100000
00000000
00010000
00000000
,
00001000
00001000
00000100
00000000
00010000
00010000
01000000
00100000
,
10000000
00010000
00100000
00000000
00000010
00001000
00000001
00000000
,
00000010
00001000
00010000
00000000
00000001
00000010
00001000
00000000
,
00010000
00100000
01000000
10000000
01000000
00100000
00010000
00000000
,
00001000
00000100
00000010
00000001
00000010
00000100
00001000
00000000
,
00011000
01000000
10010000
01100000
,
01001000
00000100
00010000
00000000
00010100
00000001
00001000
00000000
,
00000010
00000100
00000010
00001000
,
00000001
00000000
00000010
00000000
00000100
00001000
00000020
00010000
,
00010030
00000100
00010000
00001000
,
00100000
00000000
01000000
00000000
10000000
00010000
00100000
00010000
,
01000000
00010000
00100000
00001000
,
00010000
00000000
00000100
00000000
00000010
00000001
00000100
00001000
,
00010000
00001000
00010000
00100000
,
10000000
00010000
00010000
00000000
00100000
01000000
10000000
00010000
,
10000000
01000000
00010000
00001000
,
00000100
00000000
00000001
00000000
00000010
00000100
00001000
00000100
,
00000010
00000001
00000100
00001000
,
00010000
00000000
01000000
00000000
10000000
00100000
01000000
00100000
,
00010000
00001000
00010000
00000100
,
00002000
00003020
00000230
00002300
,
00023000
00030000
00000000
00000000
;

//---------------dance-double - R. Woods----------------
#NOTES:
     dance-double:
     R. Woods:
     Challenge:
     9:
     0.566,0.638,0.535,0.283,0.180:
00000000
00000000
00000000
00000000
,
00000000
00000000
00000000
00000000
,
00000000
00000000
00000000
00000000
,
00010000
00001000
00010000
00000100
,
00001000
00000200
02000000
00000000
,
00100010
00011000
00100010
00000300
,
00000100
00001000
03010000
00001000
,
00011000
01000100
00011000
00100010
,
00011000
00110000
01100000
22000000
,
00100000
00001000
00100000
33000000
,
11000000
01100000
00110000
00011000
,
00010010
00001001
00010001
00010100
,
00101000
01000100
00011000
00020002
,
00000010
00001000
00000010
00030003
,
00010001
00011000
10001000
00011000
,
01100000
00011000
00000110
00001001
,
00010010
00000000
00000000
00000000
00100100
00000000
00000000
00000000
02001000
00000000
00100000
00000000
00100000
00000000
00010000
03000000
,
10000000
01000000
10000000
01000000
00100000
00000000
01000000
00000000
00100000
00010000
00100000
00001000
00100000
00000000
00001000
00000000
,
00010000
00000100
00010000
00000000
00000010
00001000
00000010
00000000
00010000
00000100
00010000
00000000
00001000
00100000
00001000
00000000
,
00100000
01000000
00100000
00010000
00100000
00000000
00001000
00000000
00010000
00000100
00001000
00000010
00000100
00000000
00000001
00000000
,
00000010
00000100
00000010
00000000
00000100
00001000
00000100
00000000
00010000
00001000
00010000
00000000
00100000
01000000
00100000
00000000
,
10000000
00100000
10000000
00100000
01000000
00000000
00001000
00000000
00010000
00001000
00010000
00000100
00000010
00000000
00000001
00000000
,
00000100
00000010
00000100
00000000
00001000
00010000
00001000
00000000
00100000
01000000
00100000
00000000
00010000
10000000
01000000
00000000
,
00010000
00001000
00010000
00000010
00001000
00000000
00000010
00000000
00000100
00000001
00001000
00000100
00010000
00000000
00001000
00000000
,
00010000
00001000
00100000
00000000
00010000
00100000
01000000
00000000
00100000
01000000
10000000
00000000
00010000
01000000
00100000
00000000
,
01200000
00000000
00010000
00300000
00001000
00000000
00010000
00001000
01000000
00000000
00100000
00000000
01000000
00000000
00001000
01000000
,
00100000
00000000
00010000
00000000
00100000
00000000
01000000
00100000
10000000
00000000
00010000
00000000
01000000
00000000
00100000
10000000
,
01000000
00000000
00100000
00000000
00010000
00000000
00100000
01000000
00010000
00000000
00001000
00000000
00100000
00000000
00010000
00100000
,
00001000
00000000
00010000
00000000
00000100
00000000
00001000
00000100
00000010
00000000
00000100
00000000
00001000
00000000
00000001
00000100
,
00000010
00000000
00001000
00000000
00000001
00000000
00000100
00000010
00001000
00000000
00000010
00000000
00010000
00000000
00001000
00010000
,
00001000
00000000
01000000
00000000
00100000
00000000
10000000
00100000
01000000
00000000
00010000
00000000
01000000
00000000
00001000
00010000
,
00000100
00000000
00000010
00000000
00000100
00000000
00000010
00000001
00001000
00000000
00000100
00000000
00010000
00000000
00001000
00100000
,
01000000
00000000
10000000
00000000
00010000
00000000
10000000
01000000
00100000
00000000
00001000
00000000
00010000
00000000
00001000
00000000
,
00021000
00000001
00001000
00000100
,
00030020
00000100
00001000
00010000
,
00200030
10000000
00010000
01000000
,
00000200
00000000
00000000
00000000
00000000
00000000
00000000
00000000
00000000
00000000
00000000
00000000
00011000
00000000
00000000
00300300
,
01000010
00011000
01000010
00101000
,
00010010
00000000
00001100
00000000
00000001
00000100
00001000
00010000
,
02000000
10000000
10000000
03000000
00020000
00100000
00100000
00030000
,
00100010
00000000
00011000
00000000
00001010
00000100
00000010
00010000
,
00011000
01010000
00011000
00110000
,
01001000
00000000
10010000
00000000
10000000
01000000
00010000
00001000
,
00000100
00000001
00001000
00000001
00000100
00000010
00001000
00000100
,
00010000
00001000
01000000
00001000
00100000
01000000
01100000
00000000
,
00100100
00011000
00100100
00001010
,
00110000
00000000
01001000
00000000
00000100
01000000
00001000
00010000
,
00000200
00010000
00010000
00000300
00200000
00000010
00300010
00000000
,
00100010
00000000
00011000
00000000
00101000
01000000
00100000
00001000
,
00011000
00001100
00011000
00001010
,
00100100
00000000
10010000
00000000
01000000
00000100
00010000
00001000
,
00010000
00000001
00001000
00000001
00010000
00000001
00000010
00001000
,
00010000
00001000
00000100
00001000
00010000
00000100
00000010
00000000
,
00100200
00010000
00100000
00001000
,
00000320
00000032
00000203
00002300
,
00023000
01000000
00001000
00230000
,
20300000
00000000
32000000
00000000
03200000
00301000
00010000
00000100
,
00000200
00010000
00000010
00001000
,
00000302
00000203
00002300
00003020
,
00000230
00001000
00000001
00000320
,
00020030
00000000
00032000
00000000
00103000
01000000
10000000
00010000
,
10010000
01000000
00010000
00100000
,
00000010
00000000
00000100
00000000
00000001
00001000
00000100
00000010
,
00000001
00001000
00000010
00010000
,
00001000
00000000
01000000
00000000
00010000
10000000
01000000
00100000
,
00100000
01000000
00100000
00001000
,
10000000
00000000
00100000
00000000
01000000
00010000
10000000
00010000
,
02000000
10000000
00100000
00001000
,
00000200
00000000
00100000
00001000
,
00000010
00000000
03000300
00000000
;
