#TITLE:EternuS;
#SUBTITLE:;
#ARTIST:Sanxion7;
#TITLETRANSLIT:;
#SUBTITLETRANSLIT:;
#ARTISTTRANSLIT:;
#GENRE:Trance;
#CREDIT:Sync by HellRazoR;
#BANNER:EternuS-bn.png;
#BACKGROUND:EternuS-bg.png;
#LYRICSPATH:;
#CDTITLE:;
#MUSIC:EternuS.ogg;
#OFFSET:-0.529;
#SAMPLESTART:55.400;
#SAMPLELENGTH:13.320;
#SELECTABLE:YES;
#BPMS:0.000=140.000;
#STOPS:;
#BGCHANGES:0.000=EternuS-bg.png=1.000=0=0=1=====,
16.000=In The Groove Rebirth/882_JumpBack.mpg=1.000=1=0=1=SongBgWithMovieViz==CrossFade==,
32.000=In The Groove Rebirth/406_JB_HD.mpg=1.000=0=0=1=====,
48.000=In The Groove Rebirth/264_JB_HD.mpg=1.000=0=0=1=====,
60.000=EternuS-bg.png=1.000=1=0=1===CrossFade==,
64.000=In The Groove Rebirth/873_JumpBack.mpg=1.000=0=0=1=====,
80.000=In The Groove Rebirth/902_JumpBack.mpg=1.000=0=0=1=====,
96.000=In The Groove Rebirth/1154_JumpBack.mpg=1.000=0=0=1=====,
112.000=In The Groove Rebirth/882_JumpBack.mpg=1.000=0=0=1=====,
124.000=EternuS-bg.png=0.700=1=0=1===CrossFade==,
128.000=In The Groove Rebirth/503_JB_HD.mpg=1.000=1=0=1===CrossFade==,
144.000=In The Groove Rebirth/419_JB_HD.mpg=1.000=0=0=1===FadeDown==,
160.000=In The Groove Rebirth/264_JB_HD.mpg=1.000=0=0=1=====,
176.000=In The Groove Rebirth/902_JumpBack.mpg=1.000=0=0=1=====,
192.000=In The Groove Rebirth/419_JB_HD.mpg=0.400=1=0=1=Kaleidoscope2x2==CrossFade==,
221.917=In The Groove Rebirth/419_JB_HD.mpg=1.000=0=0=1=Kaleidoscope2x2====,
222.000=EternuS-bg.png=1.000=0=0=1===FadeRight==,
224.000=In The Groove Rebirth/503_JB_HD.mpg=1.000=1=0=1=SongBgWithMovieViz==CrossFade==,
240.000=In The Groove Rebirth/882_JumpBack.mpg=1.000=1=0=1=SongBgWithMovieViz==CrossFade==,
256.000=EternuS-bg.png=1.000=0=0=1=====,
99999=-nosongbg-=1.000=0=0=0 // don't automatically add -songbackground-
;
#BGCHANGES2:160.000=white flash=1.000=0=0=1=====,
224.000=white flash=1.000=0=0=1=====,
256.000=white flash=1.000=0=0=1=====,
;
#KEYSOUNDS:;

//---------------dance-single - M. Simmons----------------
#NOTES:
     dance-single:
     M. Simmons:
     Hard:
     9:
     0.589,0.539,0.151,0.017,1.000,471.000,18.000,2.000,31.000,0.000,0.000,0.589,0.539,0.151,0.017,1.000,471.000,18.000,2.000,31.000,0.000,0.000:
0000
0000
0000
0000
,
0000
0000
0000
0000
,
0000
0000
0000
0000
,
0000
0000
0000
0000
0000
0000
0000
0000
0000
0001
0010
0100
,
1000
0000
0000
0010
0000
0000
0100
0000
0000
0001
0010
0100
,
1000
0000
0000
0010
0000
0000
0100
0000
0000
0001
0000
0010
,
0001
1000
0010
0100
,
0010
1000
0010
0100
0001
0100
0010
1000
0001
0010
1000
0010
,
0001
0000
0001
1000
0000
0010
0100
0000
0001
0010
0100
1000
,
0001
0000
0100
0001
0000
1000
0010
0000
0000
0110
0000
0010
,
0100
1001
0110
0011
,
1100
0000
0000
0011
0000
0000
1000
0000
0000
0010
0100
0010
,
0100
0000
0001
0010
0000
0100
1000
0000
0000
0001
0100
0001
,
1000
0000
0100
0010
0000
0100
1000
0000
0000
1001
0000
1000
,
0001
0010
0100
0010
,
0001
0100
1000
0100
0001
1000
0100
0010
0001
0010
1000
0010
,
0001
0000
1000
0100
0000
0010
0001
0000
1000
0010
0000
0100
,
0010
0000
0100
0001
0000
1000
0100
0000
0010
0001
0010
0100
,
1000
0000
0001
0010
0000
0100
0010
0000
0100
1000
0000
0001
,
0100
0000
0010
1000
0000
0010
0100
0000
0001
0010
0001
0100
,
0001
0000
1000
0100
0000
0010
0001
0000
1000
0010
1000
0100
,
1000
0000
0001
0100
0000
0001
0010
0000
0000
1001
0000
0010
,
0100
0011
1100
1010
,
1000
0001
0100
0010
0100
0001
0010
0100
1000
0010
0100
0010
,
1000
0000
0001
0010
0000
0100
1000
0000
0001
0100
0000
0010
,
0100
0000
0001
1000
0000
1002
0000
0000
0013
0100
0000
0010
,
0001
0000
1000
0010
0000
0100
0001
0000
0010
0100
0000
1100
,
0000
0000
0001
0010
0001
1000
0001
0000
0100
0001
0100
0010
,
0100
0000
0001
0010
0000
0100
0010
0000
0001
1000
0000
0000
,
1000
0000
0010
0100
0000
0010
1000
0000
0000
1001
0000
0001
,
0100
0000
0001
0010
0000
0100
1000
0000
0000
1001
0000
0000
,
0100
0001
1000
0100
0010
0001
0100
0001
1000
0010
0001
0010
,
0100
0000
0001
0100
1000
0100
0001
0M00
0001
0100
1000
0100
,
0001
0M00
0001
0010
1000
0010
0001
00M0
0001
0010
1000
0010
,
0001
00M0
1000
0100
0001
0100
1000
0M00
1000
0100
0001
0100
,
1000
0M00
1000
0010
0001
0010
1000
00M0
1000
0010
0001
0010
,
1000
00M0
0100
0010
0001
0100
0010
0M00
0010
0100
0001
1000
,
0100
M000
0100
1000
0010
0100
0001
0M00
0001
0010
0001
1000
,
0001
M000
0001
0010
0100
0010
0001
00M0
0001
0100
0010
0100
,
0001
0M00
0001
1000
0100
0010
0001
00M0
0001
0010
0100
1000
,
0010
M000
0010
0100
0001
0010
0001
00M0
0001
0100
0001
0010
,
0100
00M0
0100
1000
0010
1000
0100
M000
0100
1000
0010
0100
,
0010
0M00
0010
0100
0001
0010
0001
00M0
0001
0100
0001
0010
,
0100
00M0
0100
1000
0010
0100
0001
0M00
0001
1000
0100
1000
,
0001
M000
0010
0100
1000
0100
0010
0M00
0001
1000
0010
0001
,
0010
000M
1000
0001
0010
0001
0100
000M
0010
1000
0010
1000
,
0010
000M
1000
0100
0010
0100
1000
0M00
0010
0001
0010
1000
,
0001
M000
0001
0100
0010
1000
0100
M000
0001
0100
1000
0100
,
0001
0100
1000
0001
,
0100
0010
0100
0001
,
1000
0100
0010
0100
,
1000
0000
0000
0001
0000
0000
0010
0000
0000
0001
0010
0100
,
1000
0100
0010
0001
,
1000
0000
0000
0010
0000
0000
0100
0000
0000
0001
0000
0010
,
0100
1000
0001
0010
,
0001
0100
0010
0100
0001
1000
0010
1000
0001
0010
0100
1000
,
0100
0010
0001
1000
,
0100
0000
0000
1000
0000
0000
0001
0000
0000
0100
0000
0010
,
1000
0001
0010
0001
,
0100
0010
0100
0001
0000
1000
0010
1000
0001
1000
0000
0010
,
1000
0001
0011
0100
,
0110
0000
0001
0000
1100
0000
0001
1000
,
0010
0000
0000
0100
0000
0001
0010
0000
0000
0100
0000
1000
,
0001
0100
0010
0100
0001
1000
0100
0010
0001
0100
0010
1000
,
0002
0003
0000
0000
;

//---------------dance-single - M. Simmons----------------
#NOTES:
     dance-single:
     M. Simmons:
     Beginner:
     1:
     0.079,0.161,0.067,0.000,0.000,58.000,8.000,0.000,0.000,0.000,0.000,0.079,0.161,0.067,0.000,0.000,58.000,8.000,0.000,0.000,0.000,0.000:
0000
0000
0000
0000
,
0000
0000
0000
0000
,
0000
0000
0000
0000
,
0000
0000
0000
0000
,
0000
0000
0000
0000
,
0000
0000
0000
0000
,
0000
0000
0000
0000
,
0000
0000
0000
0000
,
1000
0000
1000
0000
,
0001
0000
0000
0000
,
1001
0000
0000
0000
,
0000
0000
0000
0000
,
0110
0000
0010
0000
,
0110
0000
0010
0000
,
0110
0000
0000
0000
,
0000
0000
0000
0000
,
1001
0000
0000
0000
,
0001
0000
0000
0000
,
0010
0000
0000
0000
,
0100
0000
0000
0000
,
1000
0000
0000
0000
,
0001
0000
0000
0000
,
0100
0000
0000
0000
,
0010
0000
0000
0000
,
0100
0000
0000
0000
,
0001
0000
0000
0000
,
1000
0000
0000
0000
,
0100
0000
0000
0000
,
0010
0000
0000
0000
,
0001
0000
0000
0000
,
0010
0000
0000
0000
,
0100
0000
0000
0000
,
0110
0000
0000
0000
,
0001
0000
0000
0000
,
1000
0000
0000
0000
,
0001
0000
0000
0000
,
0100
0000
0000
0000
,
0001
0000
0000
0000
,
1000
0000
0000
0000
,
0100
0000
0000
0000
,
0010
0000
0000
0000
,
0001
0000
0000
0000
,
0010
0000
0000
0000
,
0100
0000
0000
0000
,
1000
0000
0000
0000
,
0010
0000
0000
0000
,
0100
0000
0000
0000
,
0010
0000
0000
0000
,
1001
0000
0000
0000
,
0001
0000
0000
0000
,
0010
0000
0000
0000
,
0001
0000
0000
0000
,
1000
0000
0000
0000
,
0010
0000
0000
0000
,
0100
0000
0000
0000
,
0010
0000
0000
0000
,
1000
0000
0000
0000
,
0100
0000
0000
0000
,
1000
0000
0000
0000
,
0100
0000
0000
0000
,
1000
0000
0000
0000
,
0001
0000
0000
0000
,
0100
0000
0000
0000
,
0001
0000
0000
0000
,
0110
0000
0000
0000
;

//---------------dance-single - M. Simmons----------------
#NOTES:
     dance-single:
     M. Simmons:
     Easy:
     4:
     0.206,0.244,0.168,0.101,0.000,140.000,20.000,12.000,0.000,0.000,0.000,0.206,0.244,0.168,0.101,0.000,140.000,20.000,12.000,0.000,0.000,0.000:
0000
0000
0000
0000
,
0000
0000
0000
0000
,
0000
0000
0000
0000
,
0000
0000
0000
0000
,
0000
0000
0000
0000
,
0000
0000
0000
0000
,
0000
0000
0000
0000
,
0000
0000
0000
0000
,
0001
1000
0001
0100
,
0002
0000
0023
0000
,
0130
1000
0100
0010
,
0002
0000
2003
0000
,
3100
1000
0020
0000
,
0130
0001
0020
0000
,
0130
0010
0100
0010
,
0220
0000
0000
0330
,
0001
0100
0001
1000
,
0100
0010
0001
1000
,
1001
0100
0010
0100
,
0001
1000
0100
0010
,
0110
1000
0001
0100
,
0001
1000
0010
0100
,
0001
0010
0100
0010
,
0200
0000
0010
0000
,
0310
0001
1000
0010
,
0100
0010
1000
0001
,
1001
0001
0100
0010
,
0100
0001
0010
0100
,
0110
0100
1000
0001
,
0100
0010
1000
0001
,
0010
0100
0010
0100
,
2000
0000
0001
0000
,
3010
0000
0100
0000
,
0010
0000
1000
0000
,
0001
0000
0010
0000
,
0100
0000
1000
0001
,
1000
0000
0010
0000
,
0100
0000
0010
0000
,
1000
0000
0100
0000
,
0010
0000
0001
0100
,
0001
0000
1000
0000
,
0100
0000
0010
0000
,
0100
0000
1000
0000
,
0010
0000
0100
0010
,
0100
0000
0010
0000
,
1000
0000
0001
0000
,
0100
0000
0001
0000
,
0010
0000
0100
0100
,
0100
0000
0000
0000
,
0110
0000
0000
0000
,
1001
0000
0000
0000
,
0101
0000
0000
0000
,
0011
0000
0000
0000
,
1001
0000
0000
0000
,
1010
0000
0000
0000
,
0110
0000
0000
0000
,
1100
0000
0000
0000
,
1001
0000
0000
0000
,
0101
0000
0000
0000
,
0110
0000
0000
0000
,
0011
0000
0000
0000
,
0110
0000
0100
0000
,
1100
0000
0000
0000
,
1000
0001
1000
0001
,
2002
0000
3003
0000
;

//---------------dance-single - M. Simmons----------------
#NOTES:
     dance-single:
     M. Simmons:
     Medium:
     6:
     0.319,0.431,0.134,0.017,0.147,248.000,16.000,2.000,0.000,0.000,3.000,0.319,0.431,0.134,0.017,0.147,248.000,16.000,2.000,0.000,0.000,3.000:
0000
0000
0000
0000
,
0000
0000
0000
0000
,
0000
0000
0000
0000
,
0000
0000
0000
0000
,
0000
0000
0000
0000
,
0000
0000
0000
0000
,
0000
0000
0000
0000
,
0000
0000
0000
0000
,
0001
0010
0100
0010
,
0001
0000
0000
1000
0000
0000
0100
0000
1000
0100
0000
0000
,
0010
0001
1000
0010
,
0100
0000
0000
0010
0000
0000
1000
0000
0000
0001
1000
0001
,
1000
0000
0000
1001
0000
0000
1001
0000
0000
0001
0010
0001
,
0010
0000
0000
0110
0000
0000
0110
0000
0000
0100
0000
0100
,
1000
0001
1000
0010
,
0400
0000
0000
0000
,
0310
1000
0001
0100
,
0001
0000
0000
0010
0000
0000
0100
0000
0000
0100
0000
0010
,
0100
1000
0001
0100
,
0010
0000
0000
1000
0000
0000
0001
0000
0000
0001
0010
0001
,
0010
0000
0000
0001
0000
0000
0100
0000
0000
0100
0010
0100
,
0010
0000
0000
0010
0000
0000
1000
0000
0000
1000
0000
0100
,
1000
1000
0001
0100
,
0004
0000
0000
0000
,
1003
0100
0010
0100
,
1000
0000
0100
1000
0000
1001
0000
0000
0000
0001
0000
0000
,
0001
0000
0000
0100
0000
0000
0010
0000
1000
0010
0000
1010
,
0000
0000
0000
0100
0000
0000
0010
0000
0100
0000
0000
0010
,
0100
0000
0000
0001
0000
0000
1000
0000
0100
1000
0000
0000
,
0100
0000
0000
0010
0000
0000
0001
0000
0000
1000
0000
0001
,
1000
0100
1000
0010
,
0200
0004
0000
0000
0000
0000
0000
0000
0000
0000
0000
0000
,
0303
1000
0100
0010
,
0001
0010
0100
0010
,
0001
1000
0010
1000
,
0100
1000
0010
0100
,
1001
0001
0100
0010
,
1000
0100
0010
0100
,
1000
0010
0100
0001
,
0010
0001
0100
0001
,
1001
0001
0100
0010
,
1000
0100
0010
0100
,
1000
0010
0100
0001
,
0100
0001
0100
0010
,
1010
0100
0001
1000
,
1001
0010
0100
1000
,
0110
0100
0110
0010
,
1001
1001
0110
0110
,
0010
1000
0001
0100
,
0001
1000
0100
0010
,
0100
1000
0001
0100
,
0010
0000
0000
0100
0000
0000
0001
0000
0000
1000
0000
0001
,
1000
0100
0010
0100
,
1000
0000
0000
0001
0000
0000
0100
0000
0000
0001
0000
0100
,
0001
1000
0100
1000
,
0010
0000
0000
0100
0000
0000
0010
0000
0000
0100
0001
0100
,
0001
1000
0100
0010
,
0100
1000
0001
0100
,
0010
1000
0010
0100
,
0001
0000
0000
0010
0000
0000
0100
0000
0000
1000
0000
0100
,
1000
0000
0000
0001
0000
0000
0100
0000
0000
0010
0000
0100
,
0010
0000
0100
0000
0001
0000
1000
0100
,
0010
0001
1000
0010
,
0100
0001
0100
0001
0100
0001
0100
0001
0100
0001
0100
0001
,
0200
0300
0000
0000
;

//---------------dance-double - M. Simmons----------------
#NOTES:
     dance-double:
     M. Simmons:
     Challenge:
     10:
     0.624,0.647,0.420,0.025,0.949,467.000,50.000,3.000,80.000,2.000,0.000,0.624,0.647,0.420,0.025,0.949,467.000,50.000,3.000,80.000,2.000,0.000: // measure 1
00000000
00000000
00000000
00000000
,  // measure 2
00000000
00000000
00000000
00000000
,  // measure 3
00000000
00000000
00000000
00000000
,  // measure 4
00000000
00000000
00000000
00000000
00000000
00000000
00000000
00000000
00000000
00001000
00010000
00001000
,  // measure 5
00010000
00000000
00000000
00011000
00000000
00000000
01000100
00000000
00000000
00010000
00001000
00010000
,  // measure 6
00001000
00000000
00000000
00011000
00000000
00000000
00100010
00000000
00000000
00000100
00000000
00010000
,  // measure 7
00100000
01000000
00001000
00000010
,  // measure 8
00000001
00000100
00000010
00001000
00000100
00010000
00001000
00100000
00010000
01000000
00100000
10000000
,  // measure 9
01000000
00000000
00000000
01100000
00000000
00000000
00110000
00000000
00000000
00100000
00000000
00001000
,  // measure 10
00010000
00000000
00000000
00010100
00000000
00000000
00001010
00000000
00000000
00011000
00000000
00001000
,  // measure 11
00000100
00001000
00010000
00100000
,  // measure 12
01000000
00000000
00000000
00001000
00000000
00000000
00000100
00000000
00000000
00000001
00000010
00001000
,  // measure 13
00010000
00000000
00000000
01000000
00000000
00000000
10000000
00000000
00000000
00100000
00010000
00001000
,  // measure 14
00000100
00000000
00000000
00000010
00000000
00000000
00001000
00000000
00000000
00001001
00000000
00000001
,  // measure 15
00001000
00000100
00000010
00001000
,  // measure 16
00010000
00001000
10000000
00001000
00010000
00000100
00010000
00000001
00010000
00001000
00100000
00001000
,  // measure 17
00010000
00000000
00100000
01000000
00000000
01000000
00001000
00000000
00001000
00100000
00000000
00100000
,  // measure 18
01000000
00000000
01000000
00010000
00000000
00010000
00000100
00000000
00000000
00000110
00000000
00000010
,  // measure 19
00000001
00000000
00000001
00001000
00000000
00001000
00000100
00000000
00000100
00010000
00000000
00010000
,  // measure 20
00100000
00000000
00100000
01000000
00000000
01000000
10000000
00000000
10000000
01000000
00010000
00100000
,  // measure 21
00001000
00000000
00001000
00100000
00000000
00100000
01000000
00000000
01000000
00010000
00001000
00000100
,  // measure 22
00000010
00000000
00000010
00000001
00000000
00000001
00000010
00000000
00000000
00001010
00000000
00000001
,  // measure 23
00001000
00000000
00000001
00001000
00000000
00000001
00001000
00000000
00000001
00001000
00000000
00000001
,  // measure 24
00000100
00000010
00001000
00000100
00010000
00001000
00100000
00010000
01000000
00100000
10000000
01000000
,  // measure 25
10000000
00000000
00010000
01000000
00000000
00010000
00100000
00000000
00010000
01000000
00000000
00001000
,  // measure 26
00010000
00000000
00000100
00000010
00000000
00001001
00000000
00000000
00000000
00011000
00000000
00000000
,  // measure 27
10010000
00000000
00010000
01000000
00000000
01000000
00100000
00000000
00100000
00010000
00000000
00011000
,  // measure 28
00000000
00000000
00010000
00000100
00010000
00000010
00010000
00000000
00010000
00000100
00010000
00000010
,  // measure 29
00010000
00000000
00000100
00010000
00000000
00000100
00000010
00000000
00000001
00001000
00000000
00000000
,  // measure 30
00001001
00000000
00000010
00000100
00000000
00000010
00010000
00000000
00000000
00011000
00000000
00001000
,  // measure 31
00010000
00000100
00010000
00001000
01000000
00100000
10000000
01000000
00100000
00010000
10000000
00100000
,  // measure 32
01000000
00001000
00010000
00000100
00000010
00000001
00001000
00000010
00000100
00000010
00001000
00000001
,  // measure 33
00000010
00000000
00000100
00010000
00001000
01000000
00100000
00000000
01000000
00001000
00010000
00000100
,  // measure 34
00000010
00000000
00000100
00010000
00001000
01000000
00100000
00000000
01000000
00001000
00010000
00000100
,  // measure 35
00000010
00000000
00000001
00010000
00001000
00000100
00000010
00000000
00010000
00001000
00000100
00000010
,  // measure 36
00010000
00000000
00001000
00000100
00000010
00010000
00001000
00000000
00000100
00000010
00010000
00001000
,  // measure 37
00000100
00000000
00001000
00010000
01000000
10000000
00100000
00000000
01000000
00001000
00100000
01000000
,  // measure 38
10000000
00000000
00001000
00010000
01000000
10000000
00100000
00000000
01000000
00001000
00010000
00100000
,  // measure 39
01000000
00000000
00000100
000MM010
00000001
00000100
000MM010
00000000
00100000
010MM000
10000000
00100000
,  // measure 40
010MM000
00000000
00000100
000MM010
00000001
00000100
000MM010
00000000
00100000
010MM000
10000000
00100000
,  // measure 41
010MM000
00000000
00001000
00010000
00001000
00100000
01000000
00000000
00100000
00001000
00010000
00001000
,  // measure 42
00000100
00000000
00000010
00010000
00001000
00010000
00100000
00000000
01000000
00001000
00010000
00001000
,  // measure 43
00000100
00000000
00000010
MMMM1000
00000001
00000010
00000100
00000000
00001000
MMMM0010
00000100
00000001
,  // measure 44
00000010
00000000
00000100
MMMM1000
00000010
00000100
00000001
00000000
00000010
MMMM0100
00001000
00000010
,  // measure 45
00000100
00000000
00001000
MM0100MM
00100000
00010000
MM0010MM
00000000
00010000
MM0010MM
00000100
00001000
,  // measure 46
MM0100MM
00000000
00001000
MM0100MM
00100000
00010000
MM0010MM
00000000
00010000
MM0010MM
00000100
00001000
,  // measure 47
MM0100MM
00000000
00001000
01M000M0
10000000
01000000
00M010M0
00000000
00010000
00M001M0
00000001
00000100
,  // measure 48
00M100M0
00000000
00001000
01M000M0
10000000
01000000
00M010M0
00000000
00010000
00M001M0
00000001
00000100
,  // measure 49
00M100M0
00011000
00110000
01001000
,  // measure 50
00010010
01000100
00010010
00000101
,  // measure 51
00011000
00100000
00001000
00100000
,  // measure 52
00100100
00001010
00001001
00000110
,  // measure 53
00011000
01001000
10010000
01100000
,  // measure 54
10001000
00000000
00010010
00000000
00001001
00000000
00010000
00010000
,  // measure 55
00100000
01000100
00010100
00001010
,  // measure 56
00011000
00010100
02000200
00010000
,  // measure 57
03011300
00100000
01000000
00011000
,  // measure 58
00001100
00000100
00000001
00000011
,  // measure 59
00010001
00000100
00000010
00010000
,  // measure 60
01100000
00000000
00000000
01000000
00000000
00000000
10001000
00000000
00000000
10000000
00001000
10000000
,  // measure 61
00001000
00000000
00010000
00000100
00010000
00001000
00010000
00000000
00001000
01000000
00001000
00010000
,  // measure 62
00001000
00000000
00010000
00000100
00010000
00001000
00010000
00000000
00001000
01000000
00001000
00010000
,  // measure 63
00001000
00000000
00010000
00000100
00000010
00000001
00000100
00000000
00000010
00001000
00000100
00000010
,  // measure 64
00000001
00000100
00000010
00001000
00000100
00010000
00001000
00100000
00010000
01000000
00100000
10000000
,  // measure 65
02000000
03000000
00000000
00000000
;

//---------------dance-double - M. Simmons----------------
#NOTES:
     dance-double:
     M. Simmons:
     Hard:
     9:
     0.513,0.539,0.504,0.008,0.588:
00000000
00000000
00000000
00000000
,
00000000
00000000
00000000
00000000
,
00000000
00000000
00000000
00000000
,
00000000
00000000
00000000
00000000
,
00101000
00011000
01001000
00000000
,
00010010
00011000
00010100
00000000
,
00011000
01000100
00100010
00011000
,
00001000
00010000
00000100
00010000
00001000
01000000
00100000
01000000
00001000
00010000
00000100
00000010
,
00000001
00000010
00000100
00010000
,
00001000
00000000
00000000
01000000
00000000
00000000
00100000
00000000
00000000
10000000
00000000
10000000
,
00010000
00100000
01000000
00100000
,
00001000
00000000
00000000
00010000
00000000
00000000
00000100
00000000
00000000
00000010
00000100
00010000
,
00001000
00011000
00110000
00000000
,
00010000
00011000
00001010
00000000
,
00001001
00000000
00000110
00000000
,
00000001
00000010
00000001
00000100
00000001
00000010
00000001
00000100
00000001
00000010
00000001
00000100
,
00000010
00000000
00000010
00001000
00000000
00001000
00000100
00000000
00000100
00010000
00000000
00010000
,
00001000
00000000
00001000
01000000
00000000
01000000
00100000
00000000
00100000
00010000
00000000
00010000
,
00001000
00000000
00001000
00100000
00000000
00100000
01000000
00000000
01000000
10000000
00000000
10000000
,
00010000
00000000
00010000
01000000
00000000
01000000
00001000
00000000
00001000
00010000
00001000
00010000
,
00001000
00000000
00001000
00010000
00000000
00010000
00000100
00000000
00000100
00000010
00000100
00000010
,
00000100
00000000
00000100
00000010
00000000
00000010
00000001
00000000
00000000
00001001
00000000
00001000
,
00000001
00000000
00000001
00000100
00000000
00000100
00001000
00000000
00001000
00010000
00000000
00010000
,
00001000
00010000
00001000
01000000
00001000
00010000
00001000
01000000
00001000
00010000
00001000
01000000
,
00001000
00011000
00101000
00110000
,
11000000
00000000
10000000
00010000
00000000
10010000
00000000
00000000
00000000
01100000
00000000
00000000
,
01100000
00000000
00000000
01001000
00000000
00000000
00011000
00000000
00010000
00000100
00000000
00010100
,
00000000
00000000
00000100
00000000
00000000
00000100
00000000
00000000
00000100
00000000
00000000
00000100
,
00000010
00000000
00000000
00001010
00000000
00000000
00000101
00000000
00000001
00001000
00000000
00000000
,
00000110
00000000
00000000
00001010
00000000
00000000
00010010
00000000
00000000
00011000
00000000
00001000
,
01000000
00100000
10000000
01000000
,
00010000
00001000
00010000
00000100
00010000
00001000
01000000
00001000
00010000
00000100
00010000
00001000
,
01000000
00000000
00010000
10000000
01000000
00000000
10010000
00000000
00010000
00100000
00000000
00000000
,
01100000
01010000
00110000
00101000
,
00011000
00000000
00010000
00000100
00010000
00000000
00011000
00000000
00010000
00000010
00000000
00000000
,
00000110
00001001
00000110
00001010
,
00001100
00000000
00000100
00010000
00001000
00000000
00011000
00000000
00001000
01000000
00000000
00000000
,
01001000
00110000
01001000
10010000
,
01100000
00000000
01000000
00001000
01000000
00000000
01010000
00000000
00010000
00100000
00000000
00000000
,
01100000
00101000
00010100
00001010
,
00000001
00000000
00000010
00000100
00001000
00000001
00000100
00000000
00000100
00000010
00000000
00010000
,
00000010
00000000
00000100
00000001
00001000
00000100
00010000
00000000
00010000
00001000
00000000
00001000
,
00010000
00000000
00001000
00100000
00010000
10000000
01000000
00000000
00100000
00010000
00000000
01000000
,
00001000
00000000
00010000
00000100
00010000
00001000
00010000
00000000
00001000
00010000
00001000
00010000
,
00001000
00000000
00010000
00000100
00000010
00000100
00001000
00000000
00000001
00000100
00000000
00000001
,
00000010
00000000
00000100
00001000
00000100
00010000
00001000
00000000
00001000
01000000
00000000
00100000
,
10000000
00000000
00010000
00100000
01000000
10000000
00100000
00000000
00010000
00001000
00000000
00001000
,
00010000
00000000
00000100
00001000
00000001
00000100
00000010
00000000
00000010
00001000
00000010
00001000
,
00000010
00000100
00000001
00000010
,
00000100
00010000
00001000
01000000
,
01100000
00000000
10010000
00000000
,
00010000
00010000
00100000
00100000
,
01000000
00100000
00001000
00010000
,
00000010
00000000
00000000
00000100
00000000
00000000
00000010
00000000
00000000
00001000
00000000
00001000
,
00000100
00010000
00000010
00000100
,
00000001
00000000
00000000
00000010
00000000
00000000
00000100
00000000
00010000
00000100
00010000
00000100
,
00010000
00001000
01000000
00100000
,
01000000
00010000
10000000
01000000
,
11000000
00000000
00110000
00000000
,
00010000
00100000
00001000
00100000
,
00001000
00010000
00000100
00000010
,
00000001
00000000
00001000
00000000
00000010
00000000
00000100
00000010
,
00000100
00000001
00001000
00000100
,
00000010
00000001
00000010
00000100
00000010
00000001
00000010
00000100
00000010
00000001
00000010
00000100
,
00000020
00000030
00000000
00000000
;

//---------------dance-double - M. Simmons----------------
#NOTES:
     dance-double:
     M. Simmons:
     Medium:
     6:
     0.348,0.512,0.118,0.008,0.227,275.000,14.000,1.000,0.000,0.000,0.000,0.348,0.512,0.118,0.008,0.227,275.000,14.000,1.000,0.000,0.000,0.000:
00000000
00000000
00000000
00000000
,
00000000
00000000
00000000
00000000
,
00000000
00000000
00000000
00000000
,
00000000
00000000
00000000
00000000
,
00000000
00000000
00000000
00000000
,
00000000
00000000
00000000
00000000
,
00000000
00000000
00000000
00000000
,
00000000
00000000
00000000
00000000
,
01000000
00100000
10000000
00010000
,
00100000
00000000
00000000
01000000
00000000
00000000
00100000
00000000
00000000
00001000
00000000
00010000
,
00001000
00010000
00000100
00000010
,
00000001
00000000
00000000
00001000
00000000
00000000
00000010
00000000
00000000
00000100
00000010
00000100
,
00000010
00000000
00000000
00001000
00000000
00000000
00000100
00000000
00000000
00010000
00000100
00010000
,
00000100
00000000
00000000
00010000
00000000
00000000
00001000
00000000
00000000
01000000
00000000
01000000
,
00001000
00011000
00011000
00011000
,
00010000
00001000
00010000
00001000
00010000
00001000
00100000
00001000
00010000
00001000
00010000
00001000
,
00100000
01000000
10000000
00010000
,
01000000
00000000
00000000
00100000
00000000
00000000
01000000
00000000
00000000
00010000
00000000
01000000
,
00010000
00100000
00001000
00010000
,
00000010
00000000
00000000
00000100
00000000
00000000
00000010
00000000
00000000
00001000
00000010
00001000
,
00000010
00000000
00000000
00000100
00000000
00000000
00000010
00000000
00000000
00001000
00000010
00001000
,
00000010
00000000
00000000
00000100
00000000
00000000
00000010
00000000
00000000
00001000
00000000
00000010
,
00001000
00000001
00000100
00000001
,
00001000
00000100
00010000
00001000
00010000
00000100
00001000
00000100
00010000
00001000
00010000
00000100
,
00001000
00000100
00010000
00001000
,
01000000
00000000
00100000
10000000
00000000
10000000
00000000
00000000
00000000
10010000
00000000
00000000
,
10010000
00000000
00000000
00100000
00000000
00000000
00010000
00000000
01000000
00010000
00000000
00010000
,
00000000
10010000
10010000
00110000
,
00110000
00100000
00001000
00010000
,
00000010
00000100
00000010
00001000
,
00000100
00010000
00001000
00010000
,
00001000
00100000
00001000
00100000
00001000
00100000
00001000
00100000
00001000
00100000
00001000
00100000
,
00001000
00010000
00000100
00000010
,
00000001
00001000
00000010
00000100
,
00000010
00001000
00000100
00010000
,
00001000
01000000
00100000
10000000
,
01000000
00010000
00001000
00000100
,
00000010
00001000
00000001
00000100
,
00000001
00001000
00000100
00000010
,
00000001
00000010
00000100
00010000
,
00001000
00010000
00001000
01000000
,
00100000
10000000
01000000
10000000
,
00010000
01000000
00100000
01000000
,
00001000
00010000
00000100
00010000
,
00001000
00100000
00001000
00010000
,
00000010
00000100
00000001
00000010
,
00000100
00000010
00000001
00001000
,
00000100
00000000
00000000
00010000
00000000
00000000
00001000
00000000
00000000
00010000
00001000
00010000
,
00001000
00010000
00000100
00010000
,
00001000
01000000
00100000
10000000
,
10010000
01000000
00010000
00100000
,
01000000
00100000
00001000
00010000
,
00011000
00010000
00000010
00000100
,
00000001
00001000
00000100
00000010
,
00000110
00000100
00001000
00000010
,
00010000
00000000
00000000
00000100
00000000
00000000
00010000
00000000
00000000
00001000
00010000
00001000
,
00010000
00001000
01000000
00100000
,
10000000
01000000
00100000
00010000
,
00100000
01000000
10000000
00010000
,
00100000
00000000
00000000
00001000
00000000
00000000
00010000
00000000
00000000
00000100
00010000
00000100
,
00010000
00000010
00000100
00000001
,
00001000
00000100
00000010
00000100
,
00000110
00000000
00001001
00000000
,
00000001
00000010
00000001
00000010
00000001
00000010
00000001
00000010
00000001
00000010
00000001
00000010
,
00000002
00000003
00000000
00000000
;

//---------------dance-double - M. Simmons----------------
#NOTES:
     dance-double:
     M. Simmons:
     Easy:
     3:
     0.251,0.324,0.327,0.277,0.000,137.000,39.000,33.000,0.000,0.000,0.000,0.251,0.324,0.327,0.277,0.000,137.000,39.000,33.000,0.000,0.000,0.000:
00000000
00000000
00000000
00000000
,
00000000
00000000
00000000
00000000
,
00000000
00000000
00000000
00000000
,
00000000
00000000
00000000
00000000
,
00000000
00000000
00000000
00000000
,
00000000
00000000
00000000
00000000
,
00000000
00000000
00000000
00000000
,
00000000
00000000
00000000
00000000
,
00001000
00000000
00010000
00000000
,
00001000
00000000
01000000
00000000
,
00100000
00000000
10000000
00000000
,
01000000
00000000
00100000
00000000
,
00001000
00000000
00010000
00000000
,
00001000
00000000
00010000
00000000
,
00000100
00000000
00000010
00000000
,
00000001
00000001
00000001
00000001
,
00000001
00000000
00000100
00000000
,
00000010
00000000
00010000
00000000
,
00001000
00000000
00100000
00000000
,
01000000
00000000
10000000
01000000
,
00100000
00000000
00010000
00100000
,
00010000
00000000
00100000
00001000
,
00100000
00000000
00001000
00000000
,
00010000
00010000
00001000
00001000
,
00010000
00000000
00000100
00000000
,
00000010
00000000
00000001
00000000
,
00001000
00000000
00000010
00000000
,
00000100
00000000
00000010
00000000
,
00010000
00000000
00001000
00000000
,
00100000
00000000
01000000
00000000
,
00100000
00000000
00010000
00000000
,
10000000
00100000
10000000
00100000
,
20100000
30000000
00120000
00030000
,
00201000
00300000
00012000
00003000
,
00020100
00030000
00001020
00000030
,
00000210
00000300
00001002
00000003
,
00000021
00000030
00000210
00000300
,
00002010
00003000
00010200
00000300
,
00021000
00030000
00102000
00003000
,
00210000
00300000
02100000
03000000
,
21000000
30000000
10020000
00030000
,
02010000
03000000
00102000
00003000
,
00021000
00030000
00010200
00000300
,
00002010
00003000
00000120
00000030
,
00002001
00003000
00001002
00000003
,
00000021
00000030
00000210
00000300
,
00020100
00030000
00012000
00003000
,
02001000
03000000
00120000
00030000
,
10010000
00010000
01000000
00000000
,
00001000
00010000
00001000
00000000
,
00010000
00000100
00000010
00000000
,
00000110
00000000
00001001
00000000
,
00000001
00000100
00000010
00000000
,
00010000
00000100
00010000
00000000
,
00011000
00000000
00000000
00000000
,
00001000
00010000
00001000
00010000
,
00001000
01000000
00100000
00000000
,
10000000
01000000
10000000
00000000
,
00010000
00100000
01000000
00000000
,
00110000
00000000
00101000
00000000
,
00001000
00010000
00001000
00000000
,
00010000
00000010
00000100
00000000
,
00000001
00001000
00000001
00001000
,
00000010
00000010
00000010
00000010
,
00001020
00000030
00000000
00000000
;

//---------------dance-single - D. Bernardone & R. Uchima & S. Venkat----------------
#NOTES:
     dance-single:
     D. Bernardone & R. Uchima & S. Venkat:
     Challenge:
     10:
     0.669,0.846,0.378,0.697,0.814,416.000,45.000,83.000,33.000,42.000,0.000,0.669,0.846,0.378,0.697,0.814,416.000,45.000,83.000,33.000,42.000,0.000: // measure 1
0000
0000
0000
0000
,  // measure 2
0000
0000
0000
0000
,  // measure 3
0000
0000
0000
0000
,  // measure 4
0000
0000
0000
0000
0000
0000
0000
0000
0000
0010
0100
0001
,  // measure 5
0020
0000
0000
0230
0000
0000
2300
0000
0000
3010
1000
0100
,  // measure 6
0020
0000
0000
0032
0000
0000
2003
0000
0000
3100
0000
0001
,  // measure 7
0200
0320
0032
0203
,  // measure 8
0310
0000
1000
0000
0100
0000
0010
0000
0001
0000
0100
0000
0010
0000
1000
0000
0010
0000
1000
0001
0100
0001
1000
0001
,  // measure 9
0100
0000
0100
0010
0000
0010
1M0M
0010
1000
0010
0000
0010
,  // measure 10
1000
0000
1000
0100
0000
0010
M10M
0010
0100
0020
0000
0130
,  // measure 11
1001
0000
0100
0001
0000
0001
M1M0
0001
1000
0100
0000
0100
,  // measure 12
10MM
0000
1000
0100
0000
0100
0010
0000
0010
0001
0100
0001
,  // measure 13
0202
0000
0000
0010
0000
0000
1000
0000
0303
0001
0100
0001
,  // measure 14
2002
0000
0000
0010
0000
0000
0010
3003
0000
1000
0000
0100
,  // measure 15
2200
0000
0000
0010
0000
0000
0001
0000
0000
0011
3300
0000
,  // measure 16
1001
0000
0100
0000
0001
0000
0010
0000
0100
0000
1000
0000
0010
0000
0100
0000
0001
0000
1000
0001
0100
0001
1000
0001
,  // measure 17
0200
0000
0000
0020
0000
0000
2000
0000
0000
0002
3333
0000
,  // measure 18
2000
0000
0000
0200
0000
0000
0020
3330
0000
1100
0000
0002
,  // measure 19
0200
0000
0000
0010
0000
0300
2000
0000
0000
0010
0003
0000
,  // measure 20
0200
0000
0000
0001
0000
0000
0010
3300
0000
1000
0100
2000
,  // measure 21
0002
0000
0000
0010
0000
0000
0010
3003
0000
1000
0010
0200
,  // measure 22
0002
0000
0000
0010
0000
0000
0010
0303
0000
0001
0000
0100
,  // measure 23
0220
0000
0000
1000
0000
0000
0001
0000
0000
1001
0330
0000
,  // measure 24
1000
0000
0010
0000
0100
0000
0001
0000
1000
0000
0100
0000
0010
0000
0001
0000
1000
0000
0001
1000
0100
1000
0001
1000
,  // measure 25
0200
0000
0000
2000
0000
0000
0012
0000
0000
0020
3333
0000
,  // measure 26
1100
0000
0001
0100
0000
0020
0000
0030
1000
0001
0010
0100
,  // measure 27
2000
0000
3000
0002
0000
0003
0110
0000
0001
1000
0000
0002
,  // measure 28
0000
0000
0200
0000
0003
2000
0000
0300
0002
0000
3000
0013
,  // measure 29
2020
0000
3030
0202
0000
0303
0022
0000
0033
2200
0000
3300
,  // measure 30
2002
0000
3003
0220
0000
0330
2002
0000
3003
0110
0000
1000
,  // measure 31
0002
0000
0000
0200
0000
0000
0020
0000
0000
2000
3333
0000
,  // measure 32
0001
0000
0010
0000
0100
0000
1000
0000
0001
0000
0100
0000
0010
0000
1000
0000
0001
0000
1000
0001
0010
0001
1000
0001
,  // measure 33
0010
0000
0010
0100
1000
0010
1000
0000
0100
1000
0001
0100
,  // measure 34
1000
0000
1000
0100
0001
1000
0100
0000
0010
0001
0100
0001
,  // measure 35
1000
0000
0001
0010
1000
0010
0100
0000
1000
0001
0100
1000
,  // measure 36
0100
0000
0010
1000
0100
1000
0001
0000
1000
0010
0001
0010
,  // measure 37
1000
0000
0100
0010
0001
0010
0100
0000
1000
0010
0010
0100
,  // measure 38
0001
0000
1000
0100
0010
0100
0010
0000
0001
0100
1000
0100
,  // measure 39
0010
0000
1000
0100
0001
0100
1000
0000
0010
0100
0001
0010
,  // measure 40
0100
0000
0010
0001
0100
0010
1000
0000
0100
0010
0001
1000
,  // measure 41
1001
0000
0001
0001
1000
0100
0010
0000
0100
0100
1000
0010
,  // measure 42
0100
0000
0010
0010
0100
0001
1000
0000
0010
0010
1000
0001
,  // measure 43
0100
0000
0001
0011
0010
0100
1000
0000
0100
1100
1000
0010
,  // measure 44
0100
0000
0010
0110
0100
0001
1000
0000
0001
0101
0100
0010
,  // measure 45
1000
0000
0001
0001
1000
0010
0100
0000
0010
0010
0100
0001
,  // measure 46
1000
0000
0100
0100
1000
0001
0010
0000
0001
0001
0100
0010
,  // measure 47
0100
0000
0010
1010
1000
0001
1000
0000
0001
0101
0100
0010
,  // measure 48
1000
0000
0000
0000
1000
0000
1100
0000
0100
0000
1000
0000
0001
0000
0000
0000
1000
0000
0001
1000
0100
1000
0001
1000
,  // measure 49
0100
0000
M002
M200
,  // measure 50
M020
0333
200M
020M
,  // measure 51
002M
3330
000M
0000
,  // measure 52
111M
0000
1M11
0000
,  // measure 53
M111
0001
1M11
1000
,  // measure 54
111M
0000
0100
0000
1000
0000
0001
0100
,  // measure 55
M111
0000
11M1
0000
,  // measure 56
2211
0000
0000
0000
0000
0000
3300
0000
0000
1000
0100
0010
,  // measure 57
0011
0000
2M00
0M02
,  // measure 58
0M20
3033
020M
002M
,  // measure 59
200M
3330
0000
0101
,  // measure 60
0111
0000
1011
0000
,  // measure 61
1111
0000
2000
0002
,  // measure 62
0020
0000
3033
0000
1001
0000
1000
0001
,  // measure 63
0102
0000
1110
0003
,  // measure 64
0001
0100
0001
0010
0001
1000
0100
0001
0M00
0001
0100
1000
,  // measure 65
2002
0MM0
0000
0MM0
,  // measure 66
3003
0000
0000
0000
;
