#TITLE:Epileptic Crisis;
#SUBTITLE:;
#ARTIST:Nightmare;
#TITLETRANSLIT:;
#SUBTITLETRANSLIT:;
#ARTISTTRANSLIT:;
#GENRE:Hardcore;
#CREDIT:;
#BANNER:Epileptic Crisis-bn.png;
#BACKGROUND:Epileptic Crisis-bg.png;
#LYRICSPATH:;
#CDTITLE:;
#MUSIC:Epileptic Crisis.ogg;
#OFFSET:-0.057;
#SAMPLESTART:20.220;
#SAMPLELENGTH:10.400;
#SELECTABLE:YES;
#DISPLAYBPM:190.000:380.000;
#BPMS:0.000=190.000,24.000=380.000,32.000=190.000,45.000=380.000,46.000=190.000,54.000=380.000,56.000=190.000,60.000=379.998,128.000=189.999,129.000=380.000,143.000=190.000,144.000=380.000,151.000=190.000,153.000=380.000,165.000=190.000,166.000=380.000,171.000=190.000,172.000=380.000,276.000=190.000,321.000=380.000,322.000=190.000,330.000=380.000,332.000=190.000,336.000=380.000,459.000=760.000,463.000=700.001,463.500=670.001,464.000=640.001,464.500=610.001,465.000=580.001,465.500=550.002,466.000=510.002,466.500=470.002,467.000=441.002,467.500=408.002,468.000=376.002,468.500=317.002,469.000=274.003,469.500=237.003,470.000=202.004,470.500=192.004,471.000=380.000,478.000=190.000,479.000=380.000,482.500=190.000,483.500=380.000,493.000=190.000,494.000=380.000,495.000=190.000,496.000=380.000,497.000=190.000,506.000=380.000,508.000=190.000,511.000=380.000,513.000=190.000,515.000=380.000,517.000=190.000,519.000=380.000,521.000=190.000,524.000=380.000,526.000=190.000,529.000=380.000,531.000=190.000,532.000=380.000,534.000=190.000,535.000=380.000,537.000=190.000;
#STOPS:24.000=0.158
,25.000=0.158
,26.000=0.118
,26.750=0.118
,27.500=0.158
,28.500=0.079
,29.000=0.158
,30.000=0.079
,30.500=0.039
,30.750=0.039
,31.000=0.039
,31.250=0.039
,31.500=0.080
,45.000=0.039
,45.250=0.039
,45.500=0.039
,45.750=0.039
,54.000=0.053
,54.333=0.053
,54.667=0.053
,55.000=0.053
,55.333=0.053
,55.667=0.053
,60.000=0.079
,60.500=0.079
,61.000=0.079
,61.500=0.079
,62.000=0.039
,62.250=0.039
,62.500=0.039
,62.750=0.039
,63.000=0.039
,63.250=0.039
,63.500=0.039
,63.750=0.039
,321.000=0.039
,321.250=0.039
,321.500=0.039
,321.750=0.039
,330.000=0.053
,330.333=0.053
,330.667=0.053
,331.000=0.053
,331.333=0.053
,331.667=0.053
,336.000=0.079
,336.500=0.079
,337.000=0.079
,337.500=0.079
,338.000=0.039
,338.250=0.039
,338.500=0.039
,338.750=0.039
,339.000=0.039
,339.250=0.039
,339.500=0.039
,339.750=0.039
,379.500=0.157
,380.000=0.158
,380.500=0.079
,381.000=0.158
,381.500=0.158
,382.000=0.079
,459.000=0.039
,459.500=0.039
,460.000=0.039
,460.500=0.039
,461.000=0.039
,461.500=0.039
,462.000=0.040
,462.500=0.040
,471.000=0.157
,472.000=0.079
,472.500=0.079
,473.000=0.039
,473.250=0.039
,473.500=0.039
,473.750=0.039
,474.000=0.080
,474.500=0.118
,475.250=0.118
,476.000=0.079
,476.500=0.039
,476.750=0.039
,477.000=0.039
,477.250=0.039
,477.500=0.080
,479.000=0.159
,480.000=0.079
,480.500=0.039
,480.750=0.039
,481.000=0.080
,481.500=0.039
,481.750=0.039
,482.000=0.039
,482.250=0.040
,483.500=0.079
,484.000=0.059
,484.333=0.059
,484.667=0.060
,485.000=0.159
,486.000=0.159
,487.000=0.150
,488.000=0.079
,488.500=0.039
,488.750=0.039
,489.000=0.080
,489.500=0.039
,489.750=0.039
,490.000=0.039
,490.250=0.039
,490.500=0.039
,490.750=0.040
,491.000=0.079
,491.500=0.395
,492.000=0.395
,492.500=0.079
,494.000=0.039
,494.250=0.039
,494.500=0.039
,494.750=0.040
,496.000=0.039
,496.250=0.039
,496.500=0.039
,496.750=0.040
;
#BGCHANGES:0.000=Epileptic Crisis-bg.png=1.000=0=0=1=====,
16.000=In The Groove Rebirth/270_JB_HD.mpg=1.000=0=0=1===FadeLeft==,
24.000=Epileptic Crisis-bg.png=1.000=0=0=1=====,
25.000=Epileptic Crisis-bg.png=1.000=0=0=1====0^0^1^1=,
26.000=Epileptic Crisis-bg.png=1.000=0=0=1====0^1^0^1=,
26.750=Epileptic Crisis-bg.png=1.000=0=0=1====1^0^0^1=,
27.500=Epileptic Crisis-bg.png=1.000=0=0=1====0^1^0^1=,
28.500=Epileptic Crisis-bg.png=1.000=0=0=1====0^0^1^1=,
29.000=Epileptic Crisis-bg.png=1.000=0=0=1=====,
30.000=In The Groove Rebirth/270_JB_HD.mpg=1.000=0=0=1=SongBgWithMovieViz====,
32.000=In The Groove Rebirth/306_JB_HD.mpg=1.000=0=0=1=====,
48.000=In The Groove Rebirth/1128_JumpBack.mpg=1.000=0=0=1=====,
54.000=Epileptic Crisis-bg.png=1.000=0=0=1====1^0^0^1=,
54.333=Epileptic Crisis-bg.png=1.000=0=0=1====0^1^0^1=,
54.667=Epileptic Crisis-bg.png=1.000=0=0=1====0^0^1^1=,
55.000=Epileptic Crisis-bg.png=1.000=0=0=1====0^1^0^1=,
55.333=Epileptic Crisis-bg.png=1.000=0=0=1====1^0^0^1=,
55.667=Epileptic Crisis-bg.png=1.000=0=0=1=====,
56.000=In The Groove Rebirth/867_JumpBack.mpg=1.000=0=0=1=====,
60.000=Epileptic Crisis-bg.png=1.000=0=0=1====1^0^0^1=,
60.500=Epileptic Crisis-bg.png=1.000=0=0=1====0^1^0^1=,
61.000=Epileptic Crisis-bg.png=1.000=0=0=1====0^0^1^1=,
61.500=Epileptic Crisis-bg.png=1.000=0=0=1=====,
62.000=In The Groove Rebirth/1128_JumpBack.mpg=1.000=0=0=1=SongBgWithMovieViz====,
64.000=In The Groove Rebirth/257_JB_HD.mpg=1.000=0=0=1=====,
96.000=In The Groove Rebirth/314_JB_HD.mpg=1.000=0=0=1=====,
128.000=In The Groove Rebirth/314_JB_HD.mpg=0.400=0=0=1=Kaleidoscope2x2====,
129.000=In The Groove Rebirth/263_JB_HD.mpg=2.000=0=0=1=====,
143.000=In The Groove Rebirth/263_JB_HD.mpg=0.400=0=0=1=Checkerboard1File2x2====,
144.000=In The Groove Rebirth/255_JB_HD.mpg=2.000=0=0=1=====,
151.000=In The Groove Rebirth/255_JB_HD.mpg=0.400=0=0=1=Checkerboard1File2x2====,
152.000=In The Groove Rebirth/255_JB_HD.mpg=0.400=0=0=1=Kaleidoscope2x2====,
153.000=In The Groove Rebirth/255_JB_HD.mpg=1.000=0=0=1=====,
158.000=In The Groove Rebirth/270_JB_HD.mpg=1.000=0=0=1=====,
165.000=In The Groove Rebirth/270_JB_HD.mpg=0.400=0=0=1=Kaleidoscope2x2====,
166.000=In The Groove Rebirth/270_JB_HD.mpg=1.000=0=0=1=====,
171.000=In The Groove Rebirth/270_JB_HD.mpg=0.400=0=0=1=Checkerboard1File2x2====,
172.000=In The Groove Rebirth/867_JumpBack.mpg=1.000=0=0=1=====,
181.000=In The Groove Rebirth/867_JumpBack.mpg=1.000=0=0=1=SongBgWithMovieViz====,
188.000=In The Groove Rebirth/306_JB_HD.mpg=2.000=0=0=1=====,
220.000=In The Groove Rebirth/314_JB_HD.mpg=2.000=0=0=1=====,
252.000=In The Groove Rebirth/314_JB_HD.mpg=1.000=0=0=1=SongBgWithMovieViz====,
253.000=In The Groove Rebirth/270_JB_HD.mpg=1.000=0=0=1=SongBgWithMovieViz====,
254.000=In The Groove Rebirth/306_JB_HD.mpg=1.000=0=0=1=SongBgWithMovieViz====,
255.000=In The Groove Rebirth/1128_JumpBack.mpg=1.000=0=0=1=SongBgWithMovieViz====,
256.000=In The Groove Rebirth/867_JumpBack.mpg=1.000=0=0=1=SongBgWithMovieViz====,
257.000=In The Groove Rebirth/255_JB_HD.mpg=1.000=0=0=1=SongBgWithMovieViz====,
258.000=In The Groove Rebirth/257_JB_HD.mpg=1.000=0=0=1=SongBgWithMovieViz====,
259.000=In The Groove Rebirth/263_JB_HD.mpg=1.000=0=0=1=SongBgWithMovieViz====,
260.000=In The Groove Rebirth/867_JumpBack.mpg=1.000=0=0=1=SongBgWithMovieViz====,
261.000=In The Groove Rebirth/306_JB_HD.mpg=1.000=0=0=1=SongBgWithMovieViz====,
262.000=In The Groove Rebirth/255_JB_HD.mpg=1.000=0=0=1=SongBgWithMovieViz====,
263.000=Epileptic Crisis-bg.png=1.000=0=0=1====1^0^0^1=,
264.000=Epileptic Crisis-bg.png=1.000=0=0=1====0^1^0^1=,
265.000=Epileptic Crisis-bg.png=1.000=0=0=1====0^0^1^1=,
266.000=Epileptic Crisis-bg.png=1.000=0=0=1====0^1^0^1=,
267.000=Epileptic Crisis-bg.png=1.000=0=0=1====1^0^0^1=,
268.000=In The Groove Rebirth/263_JB_HD.mpg=1.000=0=0=1=SongBgWithMovieViz====,
276.000=In The Groove Rebirth/314_JB_HD.mpg=1.000=1=0=1=SongBgWithMovieViz==CrossFade==,
308.000=In The Groove Rebirth/270_JB_HD.mpg=1.000=0=0=1=====,
324.000=In The Groove Rebirth/257_JB_HD.mpg=1.000=0=0=1=====,
330.000=Epileptic Crisis-bg.png=1.000=0=0=1====1^0^0^1=,
330.333=Epileptic Crisis-bg.png=1.000=0=0=1====0^0^1^1=,
330.667=Epileptic Crisis-bg.png=1.000=0=0=1====0^1^0^1=,
331.000=Epileptic Crisis-bg.png=1.000=0=0=1====0^0^1^1=,
331.333=Epileptic Crisis-bg.png=1.000=0=0=1====1^0^0^1=,
331.667=Epileptic Crisis-bg.png=1.000=0=0=1=====,
332.000=In The Groove Rebirth/264_JB_HD.mpg=1.000=0=0=1=====,
336.000=In The Groove Rebirth/263_JB_HD.mpg=1.000=0=0=1=SongBgWithMovieViz====,
336.500=In The Groove Rebirth/255_JB_HD.mpg=1.000=0=0=1=SongBgWithMovieViz====,
337.000=In The Groove Rebirth/306_JB_HD.mpg=1.000=0=0=1=SongBgWithMovieViz====,
337.500=In The Groove Rebirth/314_JB_HD.mpg=1.000=0=0=1=SongBgWithMovieViz====,
338.000=In The Groove Rebirth/867_JumpBack.mpg=1.000=0=0=1=SongBgWithMovieViz====,
340.000=In The Groove Rebirth/317_JB_HD.mpg=2.000=0=0=1=====,
372.000=In The Groove Rebirth/264_JB_HD.mpg=2.000=0=0=1=====,
379.500=Epileptic Crisis-bg.png=1.000=0=0=1=====,
380.000=Epileptic Crisis-bg.png=0.400=0=0=1=Checkerboard1File2x2====,
380.500=Epileptic Crisis-bg.png=0.400=0=0=1=Kaleidoscope2x2====,
381.000=Epileptic Crisis-bg.png=1.000=0=0=1====1^0^0^1=,
381.500=Epileptic Crisis-bg.png=0.400=0=0=1=Kaleidoscope2x2====,
382.000=Epileptic Crisis-bg.png=0.400=0=0=1=Checkerboard1File2x2====,
382.500=In The Groove Rebirth/255_JB_HD.mpg=1.000=0=0=1=====,
399.000=In The Groove Rebirth/257_JB_HD.mpg=2.000=0=0=1=====,
431.000=In The Groove Rebirth/263_JB_HD.mpg=2.000=0=0=1=====,
448.000=In The Groove Rebirth/270_JB_HD.mpg=1.000=0=0=1=SongBgWithMovieViz====,
450.000=In The Groove Rebirth/306_JB_HD.mpg=1.000=0=0=1=SongBgWithMovieViz====,
452.000=In The Groove Rebirth/317_JB_HD.mpg=1.000=0=0=1=SongBgWithMovieViz====,
454.000=In The Groove Rebirth/314_JB_HD.mpg=1.000=0=0=1=SongBgWithMovieViz====,
455.000=Epileptic Crisis-bg.png=0.400=0=0=1=Kaleidoscope2x2====,
456.000=Epileptic Crisis-bg.png=1.000=0=0=1====0^1^0^1=,
457.000=Epileptic Crisis-bg.png=0.400=0=0=1=Checkerboard1File2x2====,
458.000=Epileptic Crisis-bg.png=1.000=0=0=1====0^0^1^1=,
459.000=In The Groove Rebirth/314_JB_HD.mpg=1.000=0=0=1=====,
459.500=In The Groove Rebirth/317_JB_HD.mpg=1.000=0=0=1=====,
460.000=In The Groove Rebirth/867_JumpBack.mpg=1.000=0=0=1=====,
460.500=In The Groove Rebirth/270_JB_HD.mpg=1.000=0=0=1=====,
461.000=In The Groove Rebirth/255_JB_HD.mpg=1.000=0=0=1=====,
461.500=In The Groove Rebirth/264_JB_HD.mpg=1.000=0=0=1=====,
462.000=In The Groove Rebirth/263_JB_HD.mpg=1.000=0=0=1=====,
462.500=In The Groove Rebirth/306_JB_HD.mpg=1.000=0=0=1=====,
463.000=Epileptic Crisis-bg.png=1.000=1=0=1===CrossFade==,
471.000=In The Groove Rebirth/314_JB_HD.mpg=1.000=0=0=1=====,
478.000=In The Groove Rebirth/314_JB_HD.mpg=0.400=0=0=1=Kaleidoscope2x2====,
479.000=In The Groove Rebirth/317_JB_HD.mpg=1.000=0=0=1=====,
482.500=In The Groove Rebirth/317_JB_HD.mpg=0.400=0=0=1=Checkerboard1File2x2====,
483.500=In The Groove Rebirth/317_JB_HD.mpg=1.000=0=0=1=====,
485.000=In The Groove Rebirth/317_JB_HD.mpg=0.100=0=0=1=Kaleidoscope2x2====,
486.000=In The Groove Rebirth/317_JB_HD.mpg=0.100=0=0=1=====,
487.000=In The Groove Rebirth/255_JB_HD.mpg=1.000=0=0=1=====,
491.500=In The Groove Rebirth/255_JB_HD.mpg=0.100=0=0=1=====,
492.000=In The Groove Rebirth/255_JB_HD.mpg=0.100=0=0=1=Kaleidoscope2x2====,
492.500=In The Groove Rebirth/255_JB_HD.mpg=0.100=0=0=1=====,
493.000=In The Groove Rebirth/264_JB_HD.mpg=0.400=0=0=1=Kaleidoscope2x2====,
494.000=In The Groove Rebirth/264_JB_HD.mpg=1.000=0=0=1=====,
495.000=In The Groove Rebirth/264_JB_HD.mpg=0.400=0=0=1=Checkerboard1File2x2====,
496.000=In The Groove Rebirth/264_JB_HD.mpg=1.000=0=0=1=====,
497.000=In The Groove Rebirth/264_JB_HD.mpg=1.000=0=0=1=SongBgWithMovieViz====,
501.000=In The Groove Rebirth/306_JB_HD.mpg=1.000=0=0=1=====,
506.000=In The Groove Rebirth/306_JB_HD.mpg=0.400=0=0=1=Checkerboard2File2x2=Epileptic Crisis-bg.png===,
508.000=In The Groove Rebirth/306_JB_HD.mpg=1.000=0=0=1=====,
511.000=Epileptic Crisis-bg.png=0.400=0=0=1=Checkerboard2File2x2=In The Groove Rebirth/306_JB_HD.mpg===,
513.000=In The Groove Rebirth/306_JB_HD.mpg=1.000=0=0=1=====,
515.000=In The Groove Rebirth/306_JB_HD.mpg=0.400=0=0=1=Kaleidoscope2x2====,
517.000=In The Groove Rebirth/306_JB_HD.mpg=1.000=0=0=1=====,
519.000=Epileptic Crisis-bg.png=0.400=0=0=1=Checkerboard2File2x2=In The Groove Rebirth/314_JB_HD.mpg===,
521.000=In The Groove Rebirth/314_JB_HD.mpg=1.000=0=0=1=====,
524.000=In The Groove Rebirth/314_JB_HD.mpg=0.400=0=0=1=Checkerboard2File2x2=Epileptic Crisis-bg.png===,
526.000=In The Groove Rebirth/314_JB_HD.mpg=1.000=0=0=1=====,
529.000=In The Groove Rebirth/314_JB_HD.mpg=0.400=0=0=1=Kaleidoscope2x2====,
531.000=In The Groove Rebirth/314_JB_HD.mpg=1.000=0=0=1=====,
532.000=In The Groove Rebirth/314_JB_HD.mpg=0.400=0=0=1=Checkerboard1File2x2====,
534.000=In The Groove Rebirth/314_JB_HD.mpg=1.000=0=0=1=====,
535.000=In The Groove Rebirth/314_JB_HD.mpg=0.400=0=0=1=Kaleidoscope2x2====,
537.000=Epileptic Crisis-bg.png=1.000=0=0=1====0^0^1^1=,
537.750=Epileptic Crisis-bg.png=1.000=0=0=1====0^1^0^1=,
538.500=Epileptic Crisis-bg.png=1.000=0=0=1====1^0^0^1=,
539.250=Epileptic Crisis-bg.png=1.000=0=0=1====0^1^0^1=,
540.000=Epileptic Crisis-bg.png=1.000=0=0=1====0^0^1^1=,
541.000=Epileptic Crisis-bg.png=1.000=1=0=1===CrossFade==,
99999=-nosongbg-=1.000=0=0=0 // don't automatically add -songbackground-
;
#KEYSOUNDS:;

//---------------dance-single - N. Psyhogios----------------
#NOTES:
     dance-single:
     N. Psyhogios:
     Challenge:
     13:
     1.000,1.000,0.420,0.378,0.769,811.000,50.000,45.000,142.000,0.000,0.000:
0000
0000
0000
0000
,
0000
0000
0000
0000
,
0000
0000
0000
0000
,
0000
0000
0000
0000
,
1000
0000
0001
0100
0000
0100
0010
0000
,
1000
0000
0000
0001
0000
0000
0000
0000
0000
0001
0000
0000
1000
0000
0001
0000
0100
0000
0010
0000
0000
0000
0000
0000
,
0101
0000
0000
0000
1001
0000
0000
0000
1010
0000
0000
0110
0000
0000
1001
0000
,
0000
0000
1010
0000
0110
0000
0000
0000
1000
0000
0001
0100
0010
1000
0001
0000
,
1000
0000
0000
0000
0001
0000
0100
0000
0010
0000
0000
0000
1000
0000
0100
1000
,
0001
1000
0100
0000
1100
0000
1000
0001
,
0010
0000
0100
1000
1001
0000
0001
0000
,
0100
0000
0010
0000
1000
0100
0010
0100
1000
0000
0000
0000
0001
0000
0010
0001
,
1000
0000
0010
0000
0100
0010
1000
0001
0010
0000
0000
0000
0100
0000
1000
0001
,
0100
0000
0000
0001
0000
0000
1000
0000
0000
0010
0000
0000
0100
0000
0000
0000
0000
0000
0010
0000
0000
0000
0000
0000
1000
0000
0000
0000
0001
0000
0000
0000
1000
0000
0000
0000
0010
0000
0000
0000
0100
0000
0000
0000
0001
0000
0000
0000
,
1000
0010
0100
0010
1000
0000
0100
0000
1000
0001
0100
0001
1000
0000
0010
0000
,
1010
0000
1001
0000
0011
0000
1001
0000
0010
0100
0001
0100
0010
1000
0100
1000
,
0001
1000
0100
1000
,
0010
0000
0000
0100
0000
0000
0001
0000
0000
1000
0001
1000
,
0001
0000
0200
000M
0310
0000
2000
00M0
,
3100
0000
0000
0000
0000
0000
1000
0000
0001
0000
1000
0000
0001
0000
0000
0010
0000
0000
0000
0000
0000
0100
0000
0000
,
1000
0000
0010
0000
0100
0000
0001
1000
,
0100
1000
0001
2000
,
3010
0000
0100
0000
0010
0000
1000
0001
,
0000
0101
0000
0000
0100
0000
0001
1000
,
0010
0000
2000
0000
3001
0000
0100
0001
,
1000
0000
0000
0001
0000
0000
1000
0000
0000
0100
1000
0100
,
2000
000M
3010
0000
0100
0010
1000
0001
,
0010
0000
0000
0000
0000
0000
0001
0000
1000
0000
0001
0000
1000
0000
0000
0010
0000
0000
0100
0000
0000
0010
0000
0000
,
1000
0000
0200
0000
0310
0000
0001
1000
,
0010
0100
0001
1000
,
0001
1000
0001
0010
0100
0010
0001
1000
,
0010
0100
0001
1000
0100
0010
0001
1000
,
0M20
M00M
0130
0000
0000
0000
0001
0000
,
1000
0000
0100
0000
1000
0001
0010
0000
,
0022
0033
0001
1000
,
0010
0000
0000
0000
1000
0000
0001
0000
0100
0000
0010
0000
2000
0M00
00M0
0000
,
3001
0000
0000
0000
0100
0000
0001
0100
,
0010
0000
0M00
1000
0001
0010
0200
0000
,
1000
0000
0310
0000
0001
0010
0100
1000
,
0001
0000
0100
0010
1000
0000
0000
0000
,
0001
0000
0100
0000
0010
1000
0100
0010
,
0001
0000
0000
0000
2000
0M00
00M0
0000
3001
0000
0000
0000
1000
0000
0000
0000
,
0010
0000
0000
0000
1000
0000
0001
0000
0010
0000
0001
0000
2000
00M0
000M
0000
,
3100
0000
0000
0000
0100
0000
1000
0001
,
0010
0000
000M
0100
1000
0010
0200
0000
,
0300
0000
0001
1000
0100
0010
0001
0100
,
0010
1000
0010
0100
0001
1000
0100
0010
,
0001
1000
0001
1000
0001
0000
1000
0100
,
1000
0100
1000
0000
0010
0100
0010
0000
,
0100
0001
0100
0001
0100
0000
0001
1000
,
0001
1000
0001
0000
1000
0010
1000
0000
,
0100
1000
0100
1000
0100
0000
0010
0100
,
0010
0100
0010
0000
0001
0010
0001
0000
,
1000
0001
1000
0001
1000
0000
0001
0100
,
0001
0000
0000
0100
0000
0000
0001
0000
0000
0000
0000
0000
1000
0000
0000
0000
0100
0000
0000
0000
0010
0000
0000
0000
,
0001
0010
0100
0010
0001
0000
1000
0010
,
1000
0000
0000
0001
0000
0000
0100
0000
0000
0000
0000
0000
0001
0000
0000
0000
0100
0000
0000
0000
0010
0000
0000
0000
,
1000
0100
1000
0001
0010
0000
0001
0100
,
0010
0000
0000
1000
0000
0000
0010
0000
0000
0000
0000
0000
0100
0000
0000
0000
0001
0000
0000
0000
1000
0000
0000
0000
,
0100
1000
0100
0010
0001
0000
1000
0010
,
0100
0010
1000
0000
1010
0000
1001
0000
,
0100
0001
1000
0100
0010
0000
0001
1000
,
0010
0100
0001
0000
0101
0000
1001
0000
,
2000
0M00
00M0
0000
3002
0M00
M000
0000
0023
M000
000M
0000
0230
000M
M000
0000
,
0320
M000
0M00
0000
0032
0M00
00M0
0000
2003
0M00
000M
0000
3020
000M
M000
0000
,
0230
M000
00M0
0000
0302
00M0
M000
0000
2003
0M00
000M
0000
3100
0000
0000
0000
,
1MM1
11MM
1MM1
M1M1
,
1000
0001
0100
0010
1000
0001
0010
0100
,
0010
0001
1000
0010
0100
0001
1000
0000
,
2002
0000
0000
0000
,
0000
0000
0000
0000
,
0000
0000
0000
0000
,
0000
0000
0000
0000
,
0000
0000
0000
0000
,
0000
0000
0000
0000
,
0000
0000
0000
0000
,
0000
0000
3003
0000
,
1002
0103
2001
3010
,
1000
0001
0100
0000
1001
0000
0001
1000
,
0100
0010
0012
1003
,
1000
0000
0010
0000
0100
0010
1000
0001
0010
0000
0000
0000
0001
0000
1000
0100
,
1000
0000
0001
0000
0100
0001
0100
0010
1000
0000
0000
0000
0001
1000
0010
0100
,
0001
0000
0000
1000
0000
0000
0100
0000
0000
0010
0000
0000
0001
0000
0000
0000
0000
0000
1000
0000
0000
0001
0000
0000
0100
0000
0000
0000
0001
0000
0000
0000
0010
0000
0000
0000
0100
0000
0000
0000
1000
0000
0000
0000
0010
0000
0000
0000
,
0100
0000
0000
0010
0000
0000
1000
0000
0000
0010
0000
0000
0100
0000
0000
0000
0000
0000
0001
0000
0000
0000
0000
0000
0100
0000
0001
0000
0100
0000
0001
0000
0000
0000
0000
0000
1000
0000
0000
0000
0000
0000
0000
0000
0000
0000
0000
0000
,
1001
0000
1100
0000
1001
0000
0101
0000
0001
0100
0010
1000
0100
0010
0001
0100
,
0010
0000
0000
1000
,
0001
0000
0000
0100
0000
0000
0001
0000
0000
0100
0001
0100
,
0001
1000
0100
0010
,
0001
0000
0000
0000
0000
0000
1000
0000
0100
0000
1000
0000
0100
0000
0000
1000
0000
0000
0000
0000
0000
0001
0000
0000
,
0100
0000
0000
0000
1010
0000
0010
1000
,
0001
0100
0001
0010
,
0001
0000
1000
0000
0010
0000
0100
0001
,
1000
0100
1000
0010
0100
0001
0010
0100
,
1000
0000
0001
0000
0100
0000
0001
0010
,
0100
0000
0000
0000
0000
0000
0000
0000
0000
0000
0000
0000
1000
0000
0000
0000
0100
0000
0000
0000
1000
0000
0000
0000
0100
0000
0000
0000
0000
0000
0000
0000
0000
0000
0000
0000
1000
0000
0000
0000
0000
0000
0002
0000
0000
M000
0000
0000
,
0203
0000
0010
000M
0310
0000
2000
0M00
0001
00M0
3001
0000
0100
0000
0000
0000
,
0002
0000
1003
0000
0100
1000
0010
0000
,
1000
0000
0010
M000
0100
0000
0001
1000
,
0100
0010
0001
1000
0010
0100
0001
1000
,
0100
1000
0000
0MM1
0000
1000
0010
0M00
,
1000
0000
0M01
0000
1000
000M
0010
M000
,
0100
00M0
0001
1000
0010
0100
M001
0000
,
0100
00M0
0001
0000
1000
00M0
0100
0000
,
0010
M000
0001
0000
0010
0M00
0000
000M
0100
0000
1000
000M
0010
0000
0000
0000
,
1000
00M0
0000
0M00
0001
0000
0000
0000
0010
0000
M000
0000
0100
000M
0000
0000
,
1000
00M0
0000
000M
0100
0000
1000
0000
0010
0000
0100
M000
0001
0000
0000
0M00
,
1000
0000
00M0
0000
0001
M000
0100
0000
0010
000M
1000
0000
0100
0000
00M0
0000
,
1000
000M
0010
0000
0100
M000
0001
0000
0010
0000
0100
0000
1000
0000
00M0
0000
,
0001
0000
0000
0000
0100
00M0
0000
0000
0001
0000
0000
000M
1000
0000
0000
0000
,
0001
0M00
0000
00M0
1000
0000
0001
0000
0100
0000
0001
0000
1000
0M00
0000
00M0
,
0001
0000
0000
0000
1000
000M
0000
0000
0010
0000
000M
0000
0100
M000
0000
0000
,
0001
0000
0000
00M0
1000
0000
0010
0000
0100
0000
0001
0000
1000
0000
0000
0000
,
0001
0000
1000
0M00
0001
0000
1000
0000
0000
00M0
0000
0000
0001
0000
1000
0M00
0001
0000
1000
0000
0000
00M0
0000
0000
,
0001
0000
1000
0M00
0001
0000
1000
0000
0000
00M0
0000
0000
0001
0000
0000
0000
0000
0000
1MM1
0000
0000
0000
0000
0000
,
11MM
0000
1MM1
0000
M1M1
0000
1000
0001
,
0100
0010
1000
0001
0100
0010
2000
0000
,
0MMM
0MMM
0MMM
0MMM
0MMM
0MMM
0MMM
0MMM
,
0MMM
0MMM
0MMM
0MMM
0MMM
0000
3010
0000
,
1000
0000
0001
0000
1000
0100
1000
0100
1000
0000
1001
0000
0000
0101
0000
0000
,
1010
0000
1000
0010
0100
0001
0010
0000
0022
0000
0033
0000
1001
0000
0000
0000
,
0101
0000
0001
1000
0100
0000
1000
0001
0010
0100
2000
0000
0000
0000
3001
0000
,
1000
0000
0010
0000
0100
0000
0002
0000
0000
0000
0000
0000
2003
0000
0000
300M
0000
0000
1001
0000
0000
0000
0000
0000
,
0101
0000
0001
1000
0100
0000
1000
0010
0100
0001
0100
0010
1000
0000
0001
0000
,
1001
0000
1010
0000
2002
0000
3003
0000
0001
1000
0010
0100
0002
0000
0000
0000
,
0103
0010
1000
0001
0010
0000
0100
1000
0000
0001
0100
0000
0010
1000
0000
0100
,
0010
0000
0000
0011
0000
0000
0001
0000
0010
0000
0100
0000
1000
0000
0010
0000
0100
0000
0001
0000
1000
0000
0100
0000
,
0010
0000
0001
0000
1000
0000
0010
0000
0100
0000
0010
0000
1000
0000
0000
0001
0000
0000
0010
0000
0000
0001
0000
0000
,
1000
0000
0010
0000
0100
0000
0001
0000
0100
0000
0010
0000
1000
0000
0001
0000
0010
0000
0100
0000
0000
1000
0000
0000
,
0001
0000
0000
0100
0000
0000
0010
0000
1000
0000
0010
0000
0100
0000
0001
0000
1000
0000
0100
0000
0000
1000
0000
0000
,
0010
0000
0000
1000
0000
0000
0001
0000
0100
0000
0010
0000
1000
0000
0001
0000
0010
0000
0100
0000
0000
1000
0000
0000
,
0010
0000
0000
0100
0000
0000
0001
0000
0010
0000
0100
0000
0010
0000
0001
0000
1000
0000
0010
0000
0100
0000
0010
0000
,
1000
0000
0000
0100
0000
0000
0010
0000
0000
0100
0000
0000
1000
0000
0001
0000
0100
0000
0010
0000
1000
0000
0010
0000
,
0100
0000
0001
0000
1000
0000
0100
0000
0000
0010
0000
0000
0001
0000
0000
0100
0000
0000
0010
0000
1000
0000
0001
0000
,
0010
0000
0000
0100
0000
0000
0010
0000
0000
0001
0000
0000
1000
0000
0010
0000
0100
0000
0010
0000
0000
1000
0000
0000
,
0001
0000
0010
0000
0100
0000
0010
0001
0000
1000
0010
0000
0100
0001
0000
0010
,
0100
1000
0001
0000
2002
0000
0000
0000
0000
0000
0000
0000
0000
0000
0000
0000
,
0000
3003
0000
0000
;

//---------------dance-single - N. Psyhogios----------------
#NOTES:
     dance-single:
     N. Psyhogios:
     Hard:
     11:
     0.951,1.000,0.050,0.471,0.416,730.000,6.000,56.000,0.000,0.000,0.000:
0000
0000
0000
0000
,
0000
0000
0000
0000
,
0000
0000
0000
0000
,
0000
0000
0000
0000
,
1000
0000
0001
0100
0000
0100
0010
0000
,
1000
0100
0000
0100
1000
0000
1001
0000
,
0001
0000
0000
0000
1000
0000
0000
0000
0100
0000
0000
0100
0000
0000
0200
0000
,
0000
0000
0010
0000
0310
0000
0000
0000
0001
0000
1000
0010
1000
0010
1000
0000
,
0001
0000
0100
0000
0010
0000
1000
0001
,
0010
0000
0100
0000
0010
0000
0001
1000
,
0010
0100
0010
1000
,
0100
0000
0010
0000
0001
1000
0001
1000
0001
0000
0000
0000
0100
0000
0001
0000
,
1000
0100
0010
0001
0010
0100
1000
0001
,
0100
0000
0000
0010
0000
0000
1000
0000
0000
0001
0000
0000
1000
0000
0001
0000
1000
0000
0001
0000
1000
0000
0001
0000
,
1000
0100
1000
0100
1000
0000
0001
0000
0100
0000
0010
0000
1010
0000
0000
0000
,
1000
0000
0001
0000
0100
0000
0010
0000
0100
0001
0100
0001
0100
0001
0100
0001
,
0100
0001
0010
0100
,
0010
0001
1000
0010
,
0200
0301
2000
3100
,
0020
0000
0031
0000
1000
0010
0000
1000
,
0002
0000
0000
0000
0103
0000
0001
1000
,
0001
1000
0100
1000
,
0010
0000
0100
0000
0010
0000
0100
0002
,
0000
1000
0003
0000
0001
0000
1000
0001
,
1000
0000
1010
1000
,
0001
0100
0001
0010
,
0001
0000
1000
0000
0100
1000
0000
0010
,
0100
0000
0001
0000
0010
0100
0000
0010
,
0002
0000
0000
0000
1003
0000
0010
1000
,
0010
0100
0001
0100
,
0001
0010
0001
0010
0001
0000
1000
0010
,
1000
0010
1000
0010
0000
0100
0000
0001
,
2000
3200
0000
0310
,
0001
0000
1000
0010
1000
0010
1000
0000
,
0002
0000
0103
0010
,
1000
0000
0100
1000
0100
1000
0200
0000
,
0320
0000
0000
0000
0031
0000
1000
0010
,
2000
0000
3000
0001
1000
0001
2000
0000
,
0100
0000
3001
0000
0100
0001
0100
0001
,
0100
0000
0001
1000
0001
0000
0000
0000
,
1000
0000
0010
0000
0100
0000
0001
1000
,
0001
0020
0130
1000
,
0010
0000
0100
0010
0100
0010
0200
0000
,
0320
0000
0000
0000
1030
0000
0001
1000
,
0001
0000
0000
1000
0100
1000
0100
0000
,
0000
0000
1000
0001
1000
0001
0100
0001
,
0100
0001
1000
0001
1000
0100
1000
0000
,
0001
0100
0001
0100
0001
0000
0100
0001
,
0100
0001
0100
0000
0001
0100
0001
0000
,
1000
0001
1000
0001
1000
0000
0001
1000
,
0001
1000
0001
0000
1000
0001
1000
0000
,
0010
1000
0010
1000
0010
0000
1000
0010
,
1000
0010
1000
0000
0010
1000
0010
0000
,
1000
0100
1000
0100
1000
0000
0100
1000
,
0100
0000
0000
1000
0000
0000
0100
0000
0000
0000
0000
0000
1000
0000
0000
0000
0001
0000
0000
0000
1000
0000
0000
0000
,
0001
0100
0001
0100
0001
0000
1000
0001
,
1000
0000
0000
0001
0000
0000
1000
0000
0000
0000
0000
0000
0010
0000
0000
0000
0100
0000
0000
0000
0001
0000
0000
0000
,
1000
0010
1000
0010
1000
0000
0010
0100
,
0010
0000
0000
0100
0000
0000
0010
0000
0000
0000
0000
0000
0100
0000
0000
0000
0001
0000
0000
0000
1000
0000
0000
0000
,
0100
1000
0100
1000
0100
0000
1000
0001
,
1000
0001
1000
0000
0010
0000
0010
0000
,
0100
0001
0100
0001
0100
0000
0001
0010
,
0001
0010
0001
0000
1000
0000
1000
0000
,
0002
0023
0230
0320
,
0032
2003
3020
0230
,
0302
0023
0230
2300
,
3020
0230
0320
2030
,
3001
1000
0001
1000
0010
1000
0010
1000
,
0010
0100
0010
0100
0001
0100
0001
0000
,
2002
0000
0000
0000
,
0000
0000
0000
0000
,
0000
0000
0000
0000
,
0000
0000
0000
0000
,
0000
0000
0000
0000
,
0000
0000
0000
0000
,
0000
0000
0000
0000
,
0000
0000
0000
3003
,
0100
0000
0001
1000
0010
0000
0100
0001
,
1000
0000
0100
0010
0001
0000
1000
0000
,
0001
0100
0010
1000
,
0100
0000
0010
0000
0001
1000
0001
1000
0001
0000
0000
0000
1000
0000
0000
0001
,
0100
0001
1000
0100
0010
0000
0001
1000
,
0100
0000
0000
1000
0000
0000
0010
0000
0000
0100
0000
0000
0001
0000
1000
0000
0001
0000
1000
0000
0001
0000
1000
0000
,
0001
0000
1000
0010
1000
0000
0001
0000
0100
0000
0010
0000
0100
0000
0000
0000
,
0001
0000
1000
0000
0100
0000
0010
0000
0001
1000
0001
1000
0001
1000
0001
1000
,
0001
0000
0100
0001
,
1000
0100
1000
0010
,
0200
0301
0020
0031
,
2000
0000
3010
0000
0100
0010
0000
1000
,
0001
0000
0000
0000
1000
0000
0001
0010
,
0001
1000
0010
0100
,
0010
0000
1000
0000
0100
0000
1000
0001
,
0000
0010
0001
0000
0100
0000
0010
1000
,
0010
1000
0001
0010
,
0001
0000
0100
0000
0010
0000
2000
0100
,
0001
0010
0010
0001
0100
3100
1000
0000
,
0010
0000
0100
0000
0001
0010
0001
0000
,
0100
0001
0100
0001
,
1000
0000
0100
0000
0010
0100
0010
0100
,
0010
0001
0000
1000
0000
0010
0100
0000
,
0001
1000
0100
1000
,
0010
0000
1000
0001
1000
0001
1000
0000
,
0010
0100
0001
0010
,
0100
1000
0100
0000
1000
0001
1000
0000
,
0010
0100
0001
1000
,
0100
0000
1000
0010
1000
0010
1000
0000
,
0001
0000
0010
0100
0010
0100
0010
0000
,
0001
1000
0001
1000
0001
0100
0001
0000
,
1000
0010
0100
0001
,
0010
0000
0100
1000
0100
1000
0100
0000
,
0010
0001
1000
0010
,
0100
0000
0001
0010
0001
0010
0001
0000
,
1000
0001
1000
0000
0001
1000
0001
0000
,
1000
0001
1000
0000
0001
1000
0001
0000
,
0100
0000
0010
0000
1000
0000
0100
1000
,
0100
1000
0100
1000
0100
1000
0200
0000
,
0000
0000
0000
0000
,
0000
0000
0000
0310
,
0001
0000
1000
0000
0100
1000
0100
1000
0100
0000
1000
0000
0000
0001
0000
0000
,
0100
0000
0001
1000
0001
1000
0001
0000
0200
0000
0000
0000
0310
0000
0000
0000
,
1000
0000
0010
1000
0010
0000
1000
0001
1000
0001
2000
0000
0000
0000
3001
0000
,
0010
0001
0010
0002
0000
0000
2003
0000
0000
3010
0000
0000
,
0100
0000
0001
0100
0001
0000
0010
0001
0010
0001
0010
0001
0010
0000
0100
0000
,
1001
0000
0001
0000
0200
0000
0000
0000
0310
1000
0010
1000
0020
0000
0000
0000
,
1030
0001
1000
0001
1000
0000
0001
1000
0000
0001
1000
0000
0001
1000
0000
0001
,
1000
0000
0000
0100
0000
0000
0010
0000
0001
0000
0010
0000
0001
0000
0010
0000
0001
0000
1000
0000
0001
0000
1000
0000
,
0001
1000
0001
1000
0100
1000
0200
0000
0000
0000
0000
0000
,
1300
0001
1000
0001
1000
0001
0010
0001
0010
0002
0000
0000
,
0000
0000
0000
0013
0100
0010
0100
0010
0100
0020
0000
0000
,
0000
0000
0000
0130
1000
0100
1000
0100
1000
0200
0000
0000
,
0000
0000
0000
1300
0001
1000
0001
1000
0001
1000
0010
1000
,
0020
0000
0000
0000
0000
0000
0130
0010
0100
0010
0100
0010
,
0100
0001
0100
0002
0000
0000
0000
0000
0000
1003
0001
1000
,
0002
0000
0000
0000
0000
0000
1003
0010
1000
0020
0000
0000
,
0000
0000
0000
0000
1030
0000
0001
1000
0000
0001
1000
0000
0001
1000
0000
0001
,
1000
0100
2002
0000
0000
0000
3003
0000
;

//---------------dance-single - N. Psyhogios----------------
#NOTES:
     dance-single:
     N. Psyhogios:
     Medium:
     8:
     0.616,0.743,0.168,0.538,0.084,429.000,20.000,64.000,11.000,0.000,2.000:
0000
0000
0000
0000
,
0000
0000
0000
0000
,
0000
0000
0000
0000
,
0000
0000
0000
0000
,
0002
0000
0000
0000
,
0003
0000
0000
0000
0000
0000
1000
0001
1000
0001
0000
0000
,
2000
0000
0000
0000
3001
0000
0000
0000
0100
0000
0000
0100
0000
0000
0200
0000
,
0000
0001
0301
0000
2002
0000
3003
0000
,
2000
0100
0100
3100
,
0020
0001
0001
0031
,
0200
0010
0010
0310
,
1000
0001
0100
0010
1000
0000
0100
0000
,
1000
0100
0010
0001
,
0100
0000
0000
0001
0000
0000
1000
0000
0000
0000
0000
0000
0001
0000
1000
0000
0001
0000
1000
0000
0001
0000
1000
0000
,
0001
0000
1000
0000
0100
0010
0100
0000
,
1000
0010
0100
0001
0020
0000
0000
0000
,
0032
0000
0003
1000
,
0001
0100
0010
1000
,
0000
1010
0000
0001
,
0000
0000
0101
0000
0000
1000
0000
0000
,
1100
0000
0000
0000
0000
0000
1000
0001
,
1000
0100
0010
0001
,
1000
0000
0010
0000
0100
0000
0020
1000
,
0000
1000
0030
0000
1000
0000
0001
0000
,
0020
0000
0030
0001
,
0100
0010
1000
0100
,
0000
0000
2000
0000
0000
0001
0000
0001
,
3000
0000
0200
0000
0000
0010
0000
0310
,
2000
0000
3000
0001
,
0100
0010
1000
0100
,
0000
1000
0010
0100
,
0001
0000
0020
0100
0000
0100
0000
0130
,
2000
00M0
3002
0000
0000
0000
0103
0000
,
0100
0010
1000
0100
,
0010
0000
0001
1000
,
0100
0000
1000
0000
0001
0000
0200
M000
,
0310
0000
1000
0001
,
0010
0000
0000
0000
0100
0000
2000
00M0
,
0001
3001
0100
0010
,
1000
0001
0010
0000
,
0001
0100
0010
1000
,
0100
0000
2000
000M
3010
0000
0100
0000
,
0010
0000
1000
0000
0100
0000
0020
M000
,
0031
0000
0100
0001
,
1000
0000
0001
0010
,
0000
0000
0004
4000
0000
0000
0000
0000
,
0000
0000
3003
0000
,
2000
0000
3001
0200
,
0000
0310
1000
0010
,
0200
0000
0301
0020
,
0000
0130
1000
0001
,
0200
0000
0310
2000
,
0000
3100
0010
0100
,
2000
0000
3001
0020
,
0000
0000
0000
0130
0000
0000
0010
0000
0001
0000
0010
0000
,
0002
0000
1003
0020
,
0000
0000
0000
0130
0000
0000
0001
0000
0100
0000
0001
0000
,
0200
0000
0301
2000
,
0000
0000
0000
3100
0000
0000
1000
0000
0100
0000
1000
0000
,
0200
0000
1000
0000
,
0000
0010
0000
0310
,
0000
0000
0002
0000
,
0000
0100
0000
0103
,
0010
1000
0100
0010
,
0001
1000
0010
0100
,
0001
1000
0100
1000
,
0001
0100
0010
1000
,
0100
0010
0001
0100
,
0010
0000
0100
0000
,
2002
0000
0000
0000
,
0000
0000
0000
0000
,
0000
0000
0000
0000
,
0000
0000
0000
0000
,
0000
0000
0000
0000
,
0000
0000
0000
0000
,
0000
0000
0000
0000
,
0000
0000
3003
0000
,
1001
0000
0000
0000
1000
0001
0100
0000
,
0002
0000
0023
0000
,
0230
0000
2300
0000
,
3001
0100
0010
1000
0100
0000
1000
0001
,
0100
0010
1000
0100
,
1000
0000
0000
0001
0000
0000
1000
0001
1000
0001
1000
0001
,
1000
0000
0010
0000
0100
0001
0100
0000
,
0001
1000
0001
1000
0200
0000
0000
0000
,
2300
0000
3000
0001
,
0010
0001
0100
0010
,
0000
1010
0000
0001
,
0000
0000
0101
0000
0000
1000
0000
0000
,
1100
0000
0000
1000
,
0001
0010
0100
0010
,
0001
0000
1000
0000
0010
0000
0200
0001
,
0000
0001
0300
0000
0001
0000
1000
0000
,
0200
0000
0300
0010
,
0001
0000
0100
0000
0001
0000
2000
000M
,
000M
000M
000M
000M
000M
0000
3002
0000
,
0000
0003
0100
0010
,
1000
0100
1000
0000
,
0001
1000
0010
0100
,
0020
1000
0000
1000
0000
1030
0010
0000
,
0100
0001
1000
0100
,
0010
0100
1000
0001
,
0100
0010
1000
0100
,
1000
0010
0100
0001
,
0010
0001
0100
0010
,
1000
0100
0010
0001
,
0010
0100
1000
0001
,
1000
0001
1000
0001
1000
0000
0010
0000
,
0100
0002
0000
0013
,
0100
2000
0000
3010
,
0100
0002
0000
0013
,
0100
2000
0000
3001
,
0000
0101
0000
1000
,
0000
1010
0000
1000
,
0001
0100
0010
1000
,
0000
0000
0000
1001
,
0000
0000
0000
0000
,
0000
0000
0000
1001
,
1000
0000
0001
0000
0100
0000
0001
0000
1000
0000
0100
0000
0000
0100
0000
0000
,
0100
1000
2000
3010
,
0100
0001
0010
0001
1000
0100
0000
0100
,
1000
0110
1001
0001
,
0010
0100
0010
0001
0100
0010
2000
0000
,
3002
0103
0100
0010
,
0010
0000
0000
0000
1000
0000
0000
0001
0000
0000
1000
0000
0000
0001
0000
0000
,
1000
0002
0100
1000
,
0103
0020
1000
0000
,
0100
1030
0002
0010
,
0000
1000
0013
0200
,
0000
1000
0010
1300
,
0000
0020
0100
1000
,
0130
0000
0002
0010
,
0100
0013
0000
0100
,
1100
0000
0001
0011
,
0000
1001
0000
0110
,
0000
2002
0000
0000
,
3003
0000
0000
0000
;

//---------------dance-double - K. Gilmore & M. Simmons----------------
#NOTES:
     dance-double:
     K. Gilmore & M. Simmons:
     Challenge:
     13:
     0.983,1.000,0.555,0.235,0.542,725.000,66.000,28.000,171.000,0.000,0.000:
00000000
00000000
00000000
00000000
,
00000000
00000000
00000000
00000000
,
00000000
00000000
00000000
00000000
,
00000000
00000000
00000000
00000000
,
01000100
00000000
00010000
00001000
00000000
00100000
00000010
00000000
,
00010000
00001000
00000000
00001000
00010000
00000000
0M000M00
00000000
,
00011000
00000000
00000000
00000000
00101000
00000000
00000000
00000000
00100010
00000000
00000000
00010010
00000000
00000000
00011000
00000000
,
00000000
00000000
00100000
00000000
00010000
00000000
00000000
00000000
01000000
00000000
00100000
10000000
01000000
00100000
00010000
00000000
,
11000000
00000000
00000000
00000000
01010000
00000000
00000000
00000000
00110000
00000000
00000000
00000000
00011000
00000000
00001000
00010000
,
00000100
00000110
00000011
00001001
,
00001010
00100100
00011000
01001000
,
00100000
00000000
10000000
00000000
01000000
10000000
01000000
00100000
00001000
00000000
00000000
00000000
00010000
00000000
00001000
00010000
,
00000010
00000000
00000100
00000000
00000001
00000010
00000001
00001000
00000100
00000000
00000000
00000000
00010100
00000000
00000000
00100000
,
00010000
00000000
00000000
01000000
00000000
00000000
00100000
00000000
00000000
10000000
00000000
00000000
01000000
00000000
00010000
00000000
00001000
00000000
00010000
00000000
00000100
00000000
00010000
00000000
,
01000000
00000000
00100000
00000000
00010000
00000000
00100000
00000000
00001000
00000000
00010000
00000010
00001000
00000000
00000100
00000000
,
00010000
00000000
00001000
00000000
01000000
00000000
00001000
00000000
00010000
00000010
00001000
00000010
00000100
00000001
00001000
00000100
,
000200M0
M000000M
0M000M00
00M0M000
000000M0
00000000
00000000
00000000
01030000
00000000
00000000
00000000
10000000
00000000
00000000
00000000
,
00100000
00010000
00001000
00000100
,
00000010
00010000
00001000
00100000
,
00010000
00000000
01000000
00000000
00100000
10000000
00000000
00001000
,
M0M20000
000000M0
00000M0M
0M000000
M000M000
00000000
00000000
00000000
00030001
00000000
00000000
00000000
00000010
00000000
00000100
00000000
,
00010000
00001000
00100000
01000000
,
10000000
00000000
11000000
00000000
10010000
00000000
00010000
00100000
,
00001000
00010000
00000000
00000000
MMMMM110
00000000
00000001
00001000
,
0M000002
000M0000
00M00000
00000M00
M000M0M0
00000000
00000000
00000000
00000013
00000000
00000000
00000000
00001000
00000000
00000000
00000000
,
00010000
00000000
01000000
00000000
10000000
00000000
00010000
00100000
,
00001000
00000000
00010000
00000000
00000100
00000010
00000000
00000100
,
00010000
00000000
00001000
00000000
00100000
00001000
00000000
00010000
,
00M00200
M0000000
000M000M
0M00M000
000000M0
00000000
00000000
00000000
00000301
00000000
00000000
00000000
00000100
00000000
00010000
00000000
,
00001000
00011000
00101000
00010100
,
00010000
00001000
00100000
00000000
00010000
00000000
01000000
00100000
,
01000000
00001000
00010000
00001000
00000000
00100000
00000000
00001000
,
MMM10MMM
00200020
00300030
00000010
,
00010000
00000000
00001000
00000000
00010000
01000000
00100000
00000000
,
00002000
00003000
00010000
00000100
,
00000010
00000000
00000100
00010000
00001000
00100000
MM01MMMM
00000000
,
02000200
00000000
03000300
00000000
00010100
00000000
00000010
00000001
,
00000100
00000000
00000000
00000010
00010000
00001000
MM1M0MMM
00000000
,
00100100
00000000
10010000
00000000
10000000
00010000
00100000
00010000
,
01000000
00000000
00100000
10000000
01000000
00000000
00000000
00000000
,
00010000
00000000
00001000
00000000
00000100
00000000
00000010
00000100
,
00000001
MMM2MMM1
00031000
00100000
,
01000000
00000000
10000000
00010000
00100000
00001000
MMM10MMM
00000000
,
01000100
00000000
00000000
00000000
01001000
00000000
01000000
00001000
,
00010000
00000000
00000000
00000100
00000010
00000001
00001000
00000000
,
00000000
00000000
00000100
00010000
00001000
00100000
00010000
01000000
,
00001000
00010000
00000100
00001000
00000100
00010000
00001000
00100000
,
00010000
10000000
00100000
10000000
01000000
00000000
01000000
10000000
,
00100000
01000000
00010000
00000000
00100000
00010000
01000000
00000000
,
00001000
00010000
00000010
00000100
00000001
00000000
00000010
00000100
,
00001000
00000100
00000010
00000000
00000001
00000100
00000010
00000000
,
00010000
00001000
00100000
00010000
01000000
00000000
00100000
10000000
,
01000000
00100000
01000000
00000000
00010000
00001000
00010000
00000000
,
00000100
00000010
00000001
00000100
00000010
00000000
00001000
00000100
,
00010000
00000000
00000000
00001000
00000000
00000000
00100000
00000000
00000000
00000000
00000000
00000000
01000000
00000000
00000000
00000000
00010000
00000000
00000000
00000000
00001000
00000000
00000000
00000000
,
00010000
00001000
00010000
00000010
00001000
00000000
00000010
00001000
,
00000100
00000000
00000000
00000010
00000000
00000000
00000001
00000000
00000000
00000000
00000000
00000000
00001000
00000000
00000000
00000000
00000100
00000000
00000000
00000000
00010000
00000000
00000000
00000000
,
00001000
00010000
00001000
01000000
00100000
00000000
00100000
01000000
,
00001000
00000000
00000000
00010000
00000000
00000000
00001000
00000000
00000000
00000000
00000000
00000000
00100000
00000000
00000000
00000000
00010000
00000000
00000000
00000000
10000000
00000000
00000000
00000000
,
01000000
00100000
01000000
10000000
00100000
00000000
01000000
00001000
,
01000000
00100000
01000000
00000000
01100000
00000000
01100000
00000000
,
01000000
00001000
00010000
00000100
00001000
00000000
00000010
00000100
,
00000001
00000010
00000100
00000000
00000110
00000000
00000110
00000000
,
00000100
00100000
00000010
01000000
,
00001000
00100000
00000100
10000000
,
00001000
01000000
00000010
00100000
,
00001000
01000000
00000010
00010000
,
00000100
00001000
00000001
00000100
00000001
00000010
00000100
00010000
,
00001000
01000000
00010000
01000000
00100000
10000000
00010000
00100000
,
00002000
00000000
00000000
00000000
,
00000000
00000000
00000000
00000000
,
00000000
00000000
00000000
00000000
,
00000000
00000000
00000000
00000000
,
00000000
00000000
00000000
00000000
,
00000000
00000000
00000000
00000000
,
00000000
00000000
00000000
00000000
,
00000000
00000000
00000000
00003000
,
11000000
00010000
00011000
00000010
,
00000101
00001000
00010100
00100000
,
00100100
01000010
01001000
00110000
,
00100000
00000000
00001000
00000000
00010000
00000100
00001000
00000010
00000100
00000000
00000000
00000000
00000001
00000000
00001000
00000100
,
00010000
00000000
01000000
00000000
10000000
01000000
10000000
01000000
00100000
00000000
00000000
00000000
00101000
00000000
00000000
00001000
,
00010000
00000000
00000000
00000100
00000000
00000000
00000010
00000000
00000000
00000000
00000000
00000000
00000100
00000000
00010000
00000000
00001000
00000000
01000000
00000000
00001000
00000000
00010000
00000000
,
00000100
00000000
00010000
00001000
00100000
00000000
00000000
00000000
00001000
00000000
00010000
00000010
00000100
00000000
00000000
00000000
,
00000010
00000000
00010000
00000000
00001000
00000000
00100000
00000000
01000000
10000000
00010000
00100000
00001000
00010000
00000010
00001000
,
0M000020
000M0000
M0000030
00M00000
0000M100
000000M0
0000M001
00000M00
,
M0000010
000M0000
00M00110
0M000000
000011M0
0000000M
M0010000
000000M0
,
0000100M
000M0000
M0101000
000000M0
00010M00
0000000M
010100M0
00000M00
,
M0100000
0000M000
100100M0
00000M00
10M00000
000010M0
0000000M
M0010000
,
00000002
00000000
00000000
00000000
00000013
00000000
00000100
00010000
,
00001000
00100000
00010000
01000000
,
01100000
00000000
01010000
00000000
01001000
00000000
00001000
00010000
,
00000100
00001000
00000000
00000000
00001100
00000000
00000010
00000001
,
00001000
00000000
00001000
00000100
,
00010000
00001000
00000010
00000200
,
00010000
00001000
00000010
00001000
00010000
00001300
00000200
00000000
,
00000000
00000300
00000100
00000000
00010000
00000100
00001000
00000000
,
00000100
00000000
00010000
00000000
00001000
00000000
00100000
00010000
,
01000000
00000000
00100000
00000000
01000000
00010000
00100000
00001000
,
00010000
00000100
00000000
00001000
00000000
00000010
00000100
00000000
,
00000010
00100000
01000000
10000000
,
00100000
00000000
01000000
00010000
00100000
00001000
00010000
00000000
,
00000100
00000010
00000001
00001000
,
00000100
00010000
00001000
00000000
00100000
00010000
01000000
00000000
,
00100000
00010000
00001000
00010000
,
00100000
00000000
01000000
00010000
00100000
00010000
01000000
00000000
,
00001000
00000000
00000100
00000001
00000010
00000100
00001000
00000000
,
00000100
00010000
00001000
00100000
00010000
01000000
00100000
00000000
,
10000000
01000000
00010000
00001000
,
00000010
00000000
00000001
00000010
00000100
00000010
00000001
00000000
,
00001000
00000100
00010000
00001000
,
00100000
00000000
01000000
00100000
00010000
10000000
00010000
00000000
,
00100000
00001000
00010000
00000000
00001000
00010000
01000000
00000000
,
10000000
00100000
01000000
00000000
00010000
00100000
00001000
00000000
,
00010000
00000000
00001000
00000000
00100000
00000000
01000000
00100000
,
00010000
00000000
00100000
00000000
00001000
00000000
00010000
00000000
00000100
00000000
00001000
00000000
M0000000
M0000000
M0000000
MM000000
,
MM000000
MM000000
MMM00000
MMM00000
MMMM0000
MMMM0000
MMMMM000
MMMMMM00
MMMMMMM0
MMMMMMMM
00000000
00000000
0000000M
000000M0
000000M0
000000M0
,
00000M00
MMMM0M00
00000M00
00000M00
00000M00
MMMM0M00
00000M00
000000M0
000000M0
000000M0
0000000M
00000000
01001000
00000000
00000000
00000000
,
00001000
00000000
00010000
00000000
00000100
00001000
00000001
00000100
00000010
00000000
00000200
00000000
00000000
00002300
00000000
00000000
,
00013000
00000000
01000000
00100000
00010000
10000000
00100000
00000000
20000000
00000000
00000000
30000000
10010000
00000000
00000000
00000000
,
00010000
00000000
00100000
01000000
00010000
00000000
00001000
00010000
00000100
00020000
00000000
00000000
00000000
00000000
00031000
00000000
,
00010000
00000010
00000100
00000001
00000000
00000000
00010100
00000000
00000000
00101000
00000000
00000000
,
01010000
00000000
00010000
01000000
00100000
00000000
10000000
01000000
00100000
01000000
10000000
00010000
01000000
00000000
01010000
00000000
,
00001100
00000000
00000010
00000000
00000011
00000000
00000000
00000000
00000001
00000010
00000100
00001000
00000002
00000000
00000000
00000000
,
00001003
00000010
00000100
00000001
00001000
00000000
00000100
00010000
00000000
00001000
01000000
00000000
00100000
10000000
00000000
10000000
,
00010000
00000000
00000000
01100000
00000000
00000000
01000000
00000000
00010000
00000000
00100000
00000000
00001000
00000000
00010000
00000000
00000100
00000000
00001000
00000000
00000010
00000000
00000100
00000000
,
00000001
00000010
00000100
00010000
00001000
00100000
00020000
00000000
00000000
00000000
00000000
00000000
,
00130000
00001000
00100000
00010000
01000000
00100000
00010000
00001000
00000100
00000020
00000000
00000000
,
00000000
00000000
00000000
00001030
00000100
00001000
00000100
00010000
00001000
00200000
00000000
00000000
,
00000000
00000000
00000000
00310000
01000000
00100000
00010000
00100000
01000000
00200000
00000000
00000000
,
00000000
00000000
00000000
01300000
00001000
00010000
00000100
00001000
00000010
00000100
00000001
00000010
,
00000200
00000000
00000000
00000000
00000000
00000000
00001300
00000100
00010000
00001000
00100000
00010000
,
01000000
00100000
10000000
02000000
00000000
00000000
00000000
00000000
00000000
03100000
00001000
00010000
,
00000200
00000000
00000000
00000000
00000000
00000000
00000310
00000001
00001000
00000200
00000000
00000000
,
00000000
00000000
00000000
00000000
00010300
00000000
00000000
00011000
00000000
00000000
00100100
00000000
00000000
01000010
00000000
00000000
,
00001000
00010000
00001000
00010000
00001000
00000000
00000000
00000000
00000000
00000000
00000000
00000000
00000000
00000000
00000000
00000000
;

//---------------dance-single - D. Bernardone----------------
#NOTES:
     dance-single:
     D. Bernardone:
     Easy:
     7:
     0.489,0.739,0.118,0.286,0.013,359.000,14.000,34.000,6.000,0.000,0.000:
0000
0000
0000
0000
,
0000
0000
0000
0000
,
0000
0000
0000
0000
,
0000
0000
0000
0000
,
2000
0000
0000
0000
,
0000
0000
3100
0000
,
0010
0010
0001
0000
,
0000
0000
0100
0100
,
0010
1000
0100
0000
,
0001
0100
1000
0000
,
0010
0100
0010
0100
,
0010
0200
0301
0001
,
1000
0100
1000
0100
,
1000
0100
1000
1001
,
0001
0100
1000
0100
,
0001
0001
0010
0100
,
1000
0000
0000
0001
,
0100
0000
0000
0000
,
0010
0000
0010
0000
,
0010
0000
0010
0000
,
1000
0000
0000
0100
,
1000
0000
0000
0000
,
0010
0000
0100
0000
,
0001
0000
0010
0000
,
0001
0000
0000
1000
,
0100
0000
0000
0000
,
0010
0000
0001
0200
,
0301
0000
0100
0002
,
0103
0000
0000
0010
,
1000
0000
0000
0000
,
0100
0000
0001
0000
,
0010
0000
1000
0000
,
0002
0103
0000
0000
,
0000
0010
0000
0000
,
1000
0000
0100
0000
,
0100
0000
0100
2000
,
3001
0000
0000
0000
,
0100
0000
0000
0010
,
1000
0010
0100
0000
,
0001
0000
1000
0000
,
0100
1000
0100
0000
,
1000
0002
0103
0010
,
1000
0020
0000
0130
,
0001
0000
0010
0100
,
1000
0000
0010
0110
,
0000
0002
0000
0000
,
0000
0000
0000
0000
,
1003
0000
0100
1000
,
0000
0100
1000
0000
,
0010
0000
0100
0001
,
0000
0100
0001
0000
,
0010
0000
0100
1000
,
0000
0010
0100
0001
,
0200
0000
0320
0000
,
2030
0000
3100
0000
,
0010
0010
0000
0001
,
0001
0000
0100
0000
,
0010
0010
0000
1000
,
1000
0000
0100
0000
,
0010
0000
0001
0100
,
0000
0001
0001
0001
,
1000
0000
0100
1000
,
0000
0001
0001
0001
,
0100
0010
0100
0010
,
0100
0010
0100
0010
,
1000
0010
1000
0010
,
0100
0001
0100
0001
,
1000
0100
0010
0001
,
1000
0100
0010
0001
,
2002
0000
0000
0000
,
0000
0000
0000
0000
,
0000
0000
0000
0000
,
0000
0000
0000
0000
,
0000
0000
0000
0000
,
0000
0000
0000
0000
,
0000
0000
0000
0000
,
0000
0000
3003
0000
,
1000
1000
0100
0000
,
0010
0001
0100
0100
,
0010
1000
0100
1000
,
0001
0100
0002
0000
1003
0000
0100
1000
,
0100
1000
1000
1000
,
1001
0100
1001
0010
,
0110
0001
0110
1000
,
0001
0001
2000
0000
,
3100
0000
0010
0001
,
0010
0000
0100
0000
,
1000
0001
1000
0000
,
0001
1000
0001
0000
,
0100
0000
0010
1000
,
0010
0000
0100
0000
,
0001
0010
0100
0000
,
0010
0001
1000
0000
,
0010
0000
0100
0001
,
0100
0000
0000
0000
0001
0000
0000
M000
,
000M
0M00
00M0
M000
000M
0000
1000
0000
,
0000
0100
1000
0001
,
0000
0100
0000
0010
,
1000
0100
0000
0100
,
1000
0001
0000
0100
,
0100
0100
0000
0010
,
0010
1000
0000
0100
,
0100
0100
0000
1000
,
1000
0001
0100
0001
,
0001
0001
0010
0100
,
0100
2000
0000
3001
,
0100
0020
0000
1030
,
0200
0000
0000
0310
,
0001
0010
0001
1000
,
0001
1000
0001
0100
,
0001
0100
0001
0010
,
0010
0100
1000
0010
,
0010
0100
0001
2000
,
0000
3100
0000
0010
,
0001
1000
0001
0200
,
0000
0000
0000
0300
,
0000
0000
0000
0000
,
0000
0000
0000
0010
,
0000
0000
0000
0000
1000
0000
0000
0000
0000
0000
0100
0000
0000
0100
0000
0000
,
0010
0002
0000
0103
0020
0000
1030
0000
,
0100
0000
1000
0001
1000
0001
0000
0100
,
0020
1030
1100
0002
,
0103
0010
1000
0000
0100
0000
1000
0001
,
1000
0010
0100
0000
0001
0000
0110
0000
,
0100
1001
1001
1001
,
1001
2000
0100
0001
,
0100
3001
0020
0000
,
0130
1000
0010
0200
,
0000
0301
0010
0200
,
0000
1300
0010
0200
,
0000
0301
1000
0010
,
0200
0000
0310
1000
,
0100
2000
0000
3001
,
0200
0000
0310
2000
,
0000
0000
0000
0000
3100
0000
0000
0010
0000
0000
0001
0000
0000
0100
0000
0000
,
0010
1000
1010
0000
0000
0000
0000
0000
;

//---------------dance-single - D. Bernardone----------------
#NOTES:
     dance-single:
     D. Bernardone:
     Beginner:
     1:
     0.156,0.227,0.118,0.000,0.000,116.000,14.000,0.000,0.000,0.000,0.000:
0000
0000
0000
0000
,
0000
0000
0000
0000
,
0000
0000
0000
0000
,
0000
0000
0000
0000
,
1001
0000
0000
0000
,
0000
0000
0000
0000
,
0000
0000
0000
0000
,
0000
0000
0000
0000
,
0001
0000
0001
0000
,
0100
0000
0001
0000
,
1000
0000
1000
0000
,
0100
0000
1000
0000
,
1000
0000
1000
0000
,
1000
0000
1000
0000
,
0001
0000
0001
0000
,
0001
0000
0000
0000
,
0100
0000
0000
0000
,
0000
0000
0000
0000
,
0010
0000
0000
0000
,
0010
0000
0000
0000
,
1000
0000
0000
0000
,
0100
0000
0000
0000
,
1000
0000
1000
0000
,
1000
0000
1000
0000
,
1000
0000
0000
0000
,
0001
0000
0000
0000
,
0100
0000
0000
0000
,
0100
0000
0000
0000
,
0100
0000
0000
0000
,
0010
0000
0000
0000
,
1000
0000
1000
0000
,
1000
0000
1000
0000
,
1000
1001
0000
0000
,
0000
0000
0000
0000
,
0000
1001
0000
0000
,
0000
0000
0000
0000
,
0110
0000
0000
0000
,
0000
0000
0000
0110
,
0000
0000
0000
0000
,
0000
0000
1000
0000
,
0000
0000
1000
0000
,
0000
0100
0000
0000
,
0000
0100
0000
0000
,
0010
0000
0000
0000
,
0001
0000
0000
0000
,
0100
0000
0000
0000
,
0000
0000
0000
0000
,
0010
0000
0000
0000
,
0000
0000
0000
0000
,
1000
0000
0000
0000
,
0000
0000
0000
0000
,
0110
0000
0000
0000
,
0001
0000
0000
0000
,
0010
0000
0000
0000
,
0100
0000
0000
0000
,
1001
0000
0000
0000
,
1000
0000
0000
0000
,
0010
0000
0000
0000
,
0100
0000
0000
0000
,
0001
0000
0000
0000
,
0010
0000
0000
0000
,
0100
0000
0000
0000
,
0000
0000
0000
0000
,
0100
0000
0000
0000
,
0000
0000
0000
0000
,
0100
0000
0000
0000
,
0000
0000
0000
0000
,
0100
0000
0000
0000
,
0000
0000
0000
0000
,
1001
0000
0000
0000
,
0000
0000
0000
0000
,
0000
0000
0000
0000
,
0000
0000
0000
0000
,
0000
0000
0000
0000
,
0000
0000
0000
0000
,
0000
0000
0000
0000
,
0000
0000
0000
0000
,
0001
0000
0000
0000
,
0001
0000
0000
0000
,
0001
0000
0000
0000
,
0001
0000
1000
0000
,
0100
0000
0000
0000
,
0100
0000
0000
0000
,
0010
0000
0010
0000
,
0010
0000
0000
0000
,
0001
0000
0000
0000
,
0000
0000
0000
0000
,
0100
0000
0000
0000
,
0100
0000
0000
0000
,
0010
0000
0000
0000
,
0000
0000
0000
0000
,
1000
0000
0000
0000
,
0100
0000
0000
0000
,
0010
0000
0000
0000
,
0000
0000
0000
0000
,
0000
0000
0000
0001
,
0000
0000
0000
0100
,
0000
0000
0000
0001
,
0000
0000
0000
0001
,
0000
0000
0000
1000
,
0000
0000
0000
0100
,
0000
0000
0000
0100
,
0000
0000
0000
0100
,
0000
0000
0000
0100
,
0000
0000
0000
0000
,
0000
0000
0000
0010
,
0000
0000
0000
0000
,
0000
0000
0000
0001
,
0000
0000
0000
0000
,
0000
0000
0000
0100
,
0000
0000
0000
0100
,
0000
0000
0000
0010
,
0000
0000
0000
0010
,
0000
0000
0000
0010
,
0000
0000
0000
1000
,
0000
0000
0000
0000
,
0000
0000
0000
0000
,
0000
0000
0000
1001
,
0000
0000
0000
0000
,
0000
0000
0000
0110
,
0000
0000
0000
0000
,
0000
0000
0000
1001
,
0000
0000
0000
0000
,
0000
0110
0000
0110
,
0000
1000
0000
1000
,
0000
0100
0000
0000
,
0000
0010
0000
0000
,
0000
0000
0001
0000
,
0000
0000
0000
0100
,
0000
0000
0000
0000
,
0000
0010
0000
0000
,
0000
0000
1000
0000
,
0000
0000
0000
0100
,
0000
0000
0001
0000
,
0000
0100
0000
1000
,
0000
1001
0000
0000
;

//---------------dance-double - D. Bernardone----------------
#NOTES:
     dance-double:
     D. Bernardone:
     Easy:
     7:
     0.501,0.857,0.076,0.429,0.021,357.000,9.000,51.000,0.000,0.000,1.000:
00000000
00000000
00000000
00000000
,
00000000
00000000
00000000
00000000
,
00000000
00000000
00000000
00000000
,
00000000
00000000
00000000
00000000
,
20000000
00000000
31000000
00000000
,
00100000
00000000
00001000
00001000
,
00010000
00000100
00000200
00000000
,
00000000
00000000
00000320
00000000
,
00000031
00000100
00000010
00000100
,
00001000
00010000
00001000
00010000
,
00000010
00000100
00000001
00000010
,
00000100
00000010
00001000
00010000
,
00001000
01000000
00200000
10300000
,
00020000
01030000
00200000
10300000
,
02000000
03100000
00020000
10030000
,
20020000
00000000
00000000
30030000
,
10000000
00000000
01000000
00000000
,
01000000
00000000
00010000
00000000
,
00001000
00000000
00001000
00000000
,
00001000
00000000
00001000
00000000
,
01000000
00000000
00100000
00000000
,
10000000
00000000
01000000
00000000
,
00100000
00010000
01000000
00000000
,
00001000
00010000
00001000
00000000
,
00000100
00000000
00000010
00000000
,
00000010
00000000
00001000
00000000
,
00000001
00000010
00000100
00000000
,
00000010
00000001
00001000
00000000
,
00000010
00000000
00000100
00000000
,
00000100
00000000
00001000
00000000
,
00010000
00001000
01000000
00000000
,
00010000
10000000
00010000
00000000
,
10020000
10030000
00000000
01000000
,
00000000
00100000
00100000
00100000
,
00010000
00000000
01000000
00001000
,
00000000
00010000
00010000
00002000
,
00013000
00000000
00000100
00000100
,
00000100
00000000
00001000
00000020
,
00000130
00001000
00010000
00010000
,
00010000
00001000
00020000
00000000
,
00031000
01000000
00001000
00000000
,
01000000
00020000
10030000
01000000
,
10000000
00100000
00100000
02000000
,
03010000
00000000
00100000
00001000
,
00100000
00000000
00010000
01000000
,
00000000
00400000
00000000
00000000
,
00000000
00000000
00000000
00300000
,
10000000
00000000
01000000
10000000
,
00000000
10000000
01000000
00000000
,
00010000
00000000
00001000
00010000
,
00000000
00010000
00001000
00000000
,
00020000
00000000
00130000
00000000
,
00020000
00000000
00031000
00000000
,
00000200
00000000
00001300
00000000
,
00020000
00000000
00031000
00000000
,
00000100
00000000
00000001
00000000
,
00000010
00000100
00000010
00000000
,
00001000
00000000
00010000
00000000
,
00001000
01000000
00010000
00000000
,
10000000
00000000
10000000
01000000
,
00000000
00010000
00010000
00001000
,
00000000
00000000
00010000
00001000
,
00000000
00000100
00000001
00000000
,
00000100
00000000
00001000
00000000
,
00010000
00000000
00100000
00000000
,
10000000
00000000
01000000
00000000
,
00010000
00000000
00001000
00000000
,
00000010
00000001
00000100
00001000
,
00010000
01000000
10000000
00010000
,
20020000
00000000
00000000
00000000
,
00000000
00000000
00000000
00000000
,
00000000
00000000
00000000
00000000
,
00000000
00000000
00000000
00000000
,
00000000
00000000
00000000
00000000
,
00000000
00000000
00000000
00000000
,
00000000
00000000
00000000
00000000
,
00000000
00000000
00000000
30030000
,
10000000
00000000
01000000
00000000
,
00001000
00000000
01000000
00000000
,
10000000
00010000
01000000
01000000
,
00001000
00020000
00030100
00000100
,
00000010
00000100
00001000
00000010
,
00020000
00031000
00020000
01030000
,
00020000
00031000
00020000
00130000
,
00010000
00010000
00002000
00000000
,
00013000
00000000
00000100
00001000
,
00000010
00000000
00000100
00000000
,
00000001
00000010
00000001
00000000
,
00000010
00000001
00000010
00000000
,
00000100
00000000
00001000
00000010
,
00010000
00000000
00011000
00000000
,
00001000
00010000
01000000
00000000
,
00010000
00001000
00000100
00000000
,
00000001
00000000
00000010
00000100
,
00000010
00000000
00001000
00001000
,
00000000
00000000
00000000
00010000
,
00000000
00001000
01000000
00010000
,
00000000
10000000
00000000
01000000
,
00100000
00001000
00000000
00010000
,
00000010
00000100
00000000
00000001
,
00000100
00000010
00000000
00000100
,
00000001
00000010
00000000
00000100
,
00001000
00000010
00000000
00000100
,
00000010
00010000
00000000
00001000
,
00010000
00001000
00000000
01000000
,
00010000
10000000
01000000
00010000
,
00001000
00010000
00000000
00000010
,
00001000
00000100
00000001
00000100
,
00000100
00001000
00000000
00000010
,
00010000
00001000
00000000
00020000
,
00000000
00031000
00000000
00000200
,
00000000
00001300
00000000
00020000
,
00000000
00031000
00000000
00000020
,
00000000
00001030
00000000
00010000
,
00001000
01000000
00010000
00200000
,
00000000
00000000
00000000
02300000
,
00000000
00000000
00000000
00000000
,
00000000
00000000
00000000
13000000
,
00010000
00000000
00010000
00000000
02000000
00000000
00000000
00000000
03010000
00000000
00100000
00000000
00000000
00001000
00000000
00000000
,
00010000
00000200
00000000
00000310
00000002
00000000
00000103
00000000
,
00000010
00001000
00000010
00000000
00010000
00001000
00000000
01000000
,
00010000
10010000
20000000
31000000
,
00100000
00000000
00101000
00000000
00001000
00000000
00010000
00000100
,
00001000
00002002
00003003
00000220
,
00000330
00000000
00000000
00000000
00000001
00000000
00000000
00000100
00000000
00000000
00000100
00000000
00000000
00001000
00000000
00000000
,
00010000
00011000
00001000
00000000
00001000
00000000
00001000
00000000
,
00001000
01000000
02000000
03000000
,
01000000
01000000
00100000
20000000
,
00000000
30100000
10000000
02000000
,
00000000
03010000
00001000
00000200
,
00000000
00000301
00000010
00000100
,
00000020
00000000
00001030
00010000
,
00001000
02000000
00000000
03100000
,
20000000
00000000
31000000
00020000
,
00000000
00000000
00000000
00000000
00031000
00000000
00000000
00000100
00000000
00000000
00000010
00000000
00000000
00000001
00000000
00000000
,
00000010
00010000
00002000
00000000
00000000
00000000
00000000
00000000
,
00003000
00000000
00000000
00000000
;

//---------------dance-double - D. Bernardone----------------
#NOTES:
     dance-double:
     D. Bernardone:
     Hard:
     11:
     0.842,1.000,0.134,0.160,0.324,666.000,16.000,19.000,63.000,0.000,0.000:
00000000
00000000
00000000
00000000
,
00000000
00000000
00000000
00000000
,
00000000
00000000
00000000
00000000
,
00000000
00000000
00000000
00000000
,
20000000
00000000
30100000
01000000
00100000
01000000
00100000
00000000
,
00010000
00001000
00010000
00001000
00010000
00000100
00001000
00000000
,
00000010
00000000
00000000
00000000
00000010
00000000
00000000
00000000
00000100
00000000
00000000
00000101
00000000
00000000
00000001
00000000
,
00000000
00000000
00001000
00000000
00000100
00000000
00000000
00000000
00000010
00000000
00001000
00000000
00010000
00001000
00010000
00000000
,
00011000
00000000
00001000
01000000
00100000
00000000
00100000
01000000
,
00001000
00010000
00000100
00000010
00000100
00000000
00010000
00000000
,
00001000
00000000
01000000
10000000
01000000
00000000
00100000
10000000
,
01000000
00000000
00010000
00000000
00001000
00000000
00010000
00000000
00010100
00000000
00000000
00000000
00010000
00000000
00000010
00001000
,
00000010
00000000
00000100
00000000
00000001
00000000
00001000
00000000
00000100
00000000
00000000
00000000
00000100
00000000
00000000
00000010
,
00000001
00000000
00000000
00000100
00000000
00000000
00001000
00000000
00000000
00000000
00000000
00000000
00010000
00000000
00001000
00000000
00100000
00000000
00001000
00000000
01000000
00000000
00001000
00000000
,
00010000
00000010
00001000
00000000
00000100
00000000
00000000
00000000
00010000
00001000
01000000
00000000
00010000
00000000
00000000
00000000
,
10000000
00000000
01000000
00000000
10000000
00000000
00100000
00000000
10000000
00010000
10000000
00010000
10000000
00010000
10000000
00010000
,
01000000
00000000
00100000
00010000
,
00001000
00010000
00000100
00000010
,
00000000
00000001
00000000
00000100
,
00000000
00000000
00001000
00000000
00010000
00001000
00000000
00100000
,
00001000
00000000
01000000
00100000
,
01000000
00010000
00100000
00000000
,
01000000
00000000
10000000
00000000
00100000
00000000
00010000
00001000
,
00000000
00010000
00000000
00000100
00000010
00000000
00000001
00001000
,
00000001
00000000
00000100
00001000
,
00010000
01000000
00010000
00000010
,
00000010
00000000
00000100
00000000
00000010
00010000
00000000
00000010
,
00010000
00000000
00001000
00000000
01000000
00001000
00000000
01000000
,
00001000
00000000
00100000
01000000
,
10000000
00100000
01000000
00000000
,
10000000
00000000
01000000
00000000
00001000
00000000
00010000
00001000
,
00000000
01000000
00000000
00010000
00000000
00100000
00000000
01000000
,
20000000
30100000
00000000
01000000
,
01000000
00000000
00010000
00000000
00010000
00100000
00010000
00000000
,
02000000
00000000
13000000
10000000
,
10000000
00000000
01000000
00010000
01000000
00010000
20000000
00000000
,
31000000
00000000
00000000
00000000
00100000
00000000
00001000
00010000
,
00001000
00000000
00000100
00000010
00001000
00000010
00000200
00000000
,
00000302
00000000
00000103
00000000
00000010
00001000
00000010
00001000
,
00000010
00000000
00010000
00001000
00010000
00000000
00000000
00000000
,
01000000
00000000
10000000
00000000
00100000
00000000
01000000
00010000
,
10000000
12000000
03100000
00001000
,
01000000
00000000
00100000
10000000
00100000
10000000
00020000
00000000
,
00130000
00000000
00000000
00000000
01000000
00000000
00010000
00001000
,
00010000
00000000
00000000
00000100
00001000
00000100
00000010
00000000
,
00000000
00000000
00000001
00000100
00000001
00001000
00000100
00010000
,
00001000
01000000
10000000
01000000
,
00100000
00100000
10000000
01000000
,
00000000
00010000
00001000
00010000
,
01000000
01000000
00100000
00001000
,
00000000
00010000
00000010
00000100
,
00001000
00001000
00010000
00000000
,
01000000
01000000
00010000
00000000
,
00001000
00000100
00000001
00000000
,
00000001
00000100
00001000
00010000
,
01000000
00000000
00100000
00010000
,
00000000
01000000
10000000
01000000
,
00001000
00000000
00000010
00000100
,
00000000
00010000
00001000
01000000
,
00010000
00000000
00100000
01000000
,
00000000
00001000
00001000
00001000
,
00000100
00000000
00000010
00000010
,
00000000
00000001
00000001
00000001
,
00000100
00001000
00010000
01000000
,
00010000
00001000
00000100
00001000
,
00010000
01000000
10000000
10000000
,
00100000
01000000
00100000
00000000
00010000
00000000
00010000
00000000
,
00001000
01000000
00001000
01000000
00010000
10000000
00010000
10000000
,
01000000
00100000
01000000
00100000
00001000
00010000
00001000
00010000
,
00000020
00000000
00000000
00000000
,
00000000
00000000
00000000
00000000
,
00000000
00000000
00000000
00000000
,
00000000
00000000
00000000
00000000
,
00000000
00000000
00000000
00000000
,
00000000
00000000
00000000
00000000
,
00000000
00000000
00000000
00000000
,
00000030
00000000
00000000
00000000
,
00011000
01000000
01100000
00010000
,
10000000
00100000
00010000
00000000
00011000
00000000
00000100
00000000
,
00000110
00000000
00000001
00000100
00001000
00000000
00011000
00000000
,
00001000
00000000
01000000
00000000
00100000
00000000
10000000
00000000
01000000
00000000
00000000
00000000
01100000
00000000
00000000
00100000
,
00010000
01000000
10000000
01000000
00010000
00000000
00100000
00000000
,
01000000
00000000
00000000
00010000
00000000
00000000
00001000
00000000
00000000
00000000
00000000
00000000
00000100
00000000
00000010
00000000
00001000
00000000
00000010
00000000
00000100
00000000
00000010
00000000
,
00000100
00001000
00010000
00000000
00100000
00010000
00001000
00000000
,
00010000
00000000
00000100
00000000
00000010
00000000
00000001
00000000
00000100
00000010
00000100
00000010
00000100
00000010
00000100
00000010
,
00001000
00000000
00000100
00000010
,
00001000
00010000
00001000
01001000
,
00100000
10000000
11000000
00100000
,
00001000
00000000
00010000
00000000
00000100
00001000
00000000
00000010
,
00001000
00000000
00000000
00000000
00000100
00000000
00000010
00000001
,
00000010
00000100
00001000
00000000
,
00000010
00000000
00000100
00000000
00001000
00000000
00010000
00001000
,
00000000
00100000
00000000
00010000
01000000
00000000
00100000
10000000
,
00010000
00000000
00100000
10000000
,
00100000
00001000
00010000
00000010
,
00001000
00001000
00001000
00000100
00010000
00002000
01000000
00000000
,
00000000
00013000
00100000
10000000
,
01000000
10000000
00000000
00100000
,
00010000
00001000
00000100
00001000
,
00010000
00000000
01000000
10000000
00000000
10000000
00100000
00000000
,
01000000
00001000
00100000
00010000
,
01000000
00000000
00001000
00010000
00000000
00000100
00010000
00000000
,
00000010
00001000
00000100
00010000
,
00000010
00000100
00000010
00000000
00001000
00000100
00001000
00000000
,
00000010
00010000
00001000
01000000
,
00010000
00000000
00100000
00001000
00010000
00001000
01000000
00000000
,
00100000
00000000
10000000
01000000
10000000
00010000
01000000
00000000
,
00100000
10000000
00100000
10000000
00100000
10000000
00100000
00000000
,
01000000
00010000
00100000
01000000
,
00010000
00000000
00001000
00010000
00000000
00001000
00010000
00000000
,
00000100
00000010
00001000
00010000
,
00000100
00000000
00000010
00000001
00000010
00000001
00001000
00000000
,
00000010
00000100
00000010
00000000
00010000
00001000
00010000
00000000
,
01000000
00100000
01000000
00000000
10000000
00010000
10000000
00000000
,
10000000
00000000
10000000
00000000
10000000
00000000
00100000
01000000
,
00010000
01000000
00001000
00010000
00000010
00001000
MMMM02MM
00000000
,
MMMMM0MM
MMMMM0MM
MMMMM0MM
MMMMM0MM
,
MMMMM0MM
00000000
MMMMM0MM
00000000
MMMMM3MM
MMMMMMMM
00000110
00000000
,
00000001
00000000
00001000
00000000
00000010
00010000
00000010
00010000
00001000
00000000
00000100
00000000
00000000
00000100
00000000
00000000
,
00000010
00000000
00010000
00001000
00010000
00001000
00010000
00000000
02000000
00000000
00000000
00000000
03100000
00000000
00000000
00000000
,
00010000
00000000
10000000
01000000
10000000
00000000
00100000
01000000
00100000
01000000
00020000
00000000
00000000
00000000
00130000
00000000
,
01000000
10000000
00100000
00020000
00000000
00000000
00031000
00000000
00000000
00011000
00000000
00000000
,
00010000
00000000
00000100
00010000
00000100
00000000
00001000
00000001
00001000
00000001
00001000
00000001
00000100
00000000
00000010
00000000
,
00000010
00000000
00010000
00000000
00012000
00000000
00000000
00000000
01003000
00100000
01000000
00100000
01000000
00000000
00000000
00000000
,
00010000
10000000
00010000
10000000
00100000
00000000
01000000
00001000
00000000
00010000
00000010
00000000
00100000
00001000
00000000
00010000
,
00000100
00000000
00000000
00000110
00000000
00000000
00000001
00000000
00001000
00000000
00000100
00000000
00001000
00000000
00000010
00000000
00001000
00000000
00000100
00000000
00010000
00000000
00000010
00000000
,
00010000
00000000
00000100
00000000
00010000
00000000
00002000
00000000
00000000
00000000
00000000
00000000
01003000
00000000
00000000
00010000
00000000
00000000
01000000
00000000
00000000
00010000
00000000
00000000
,
01000000
00000000
00100000
00000000
10000000
00000000
01000000
00000000
10000000
00000000
00100000
00000000
02000000
00000000
00000000
00000000
00000000
00000000
03010000
00000000
00000000
00100000
00000000
00000000
,
00010000
00000000
00000000
00100000
00000000
00000000
00010000
00000000
01000000
00000000
00001000
00000000
00100000
00000000
00001000
00000000
00010000
00000000
00001000
00000000
00000000
01000000
00000000
00000000
,
00001000
00000000
00000000
01000000
00000000
00000000
00001000
00000000
00000100
00000000
00000010
00000000
00001000
00000000
00000100
00000000
00000010
00000000
00000001
00000000
00000000
00001000
00000000
00000000
,
00000001
00000000
00000000
00000010
00000000
00000000
00000002
00000000
00000000
00000000
00000000
00000000
00000103
00000000
00000010
00000000
00001000
00000000
00000100
00000000
00001000
00000000
00000010
00000000
,
00010000
00000000
00000000
00001000
00000000
00000000
00010000
00000000
00000000
00001000
00000000
00000000
02000000
00000000
00000000
00000000
00000000
00000000
03100000
00000000
10000000
00000000
01000000
00000000
,
10000000
00000000
00100000
00000000
01000000
00000000
00001000
00000000
00000000
00010000
00000000
00000000
00001000
00000000
00000000
00010000
00000000
00000000
00001000
00000000
00000000
00001000
00000000
00000000
,
00000010
00000100
00000010
00000100
00000010
00000010
00000100
00010000
,
00000100
00000000
00010000
00000000
00001000
00000000
01000000
00100000
00000000
10000000
00100000
00000000
01000000
00001000
00000000
00010000
,
00001000
00000100
00000001
00000000
00000000
00000000
00000000
00000000
;

//---------------dance-double - D. Bernardone----------------
#NOTES:
     dance-double:
     D. Bernardone:
     Medium:
     9:
     0.687,1.000,0.109,0.151,0.227,541.000,13.000,18.000,0.000,0.000,2.000: // measure 1
00000000
00000000
00000000
00000000
,  // measure 2
00000000
00000000
00000000
00000000
,  // measure 3
00000000
00000000
00000000
00000000
,  // measure 4
00000000
00000000
00000000
00000000
,  // measure 5
00011000
00000000
00000000
00000000
,  // measure 6
00000000
00000000
00000000
00000000
,  // measure 7
00000001
00000000
00000000
00000000
00000001
00000000
00000000
00000000
00000100
00000000
00000000
00000100
00000000
00000000
00000100
00000000
,  // measure 8
00000000
00000010
00000100
00000000
00001000
00010000
00001000
00010000
,  // measure 9
00002000
01000000
00010000
01000000
,  // measure 10
00010000
00100000
00010000
00100000
,  // measure 11
01003000
01000000
01000000
00100000
,  // measure 12
00100000
00000000
00100000
00100000
10000000
00000000
01000000
00000000
,  // measure 13
10000000
00010000
10000000
00000000
00100000
00000000
01000000
00000000
,  // measure 14
00001000
00000000
00000000
00010000
00000000
00000000
00000100
00000000
00000000
00000000
00000000
00000000
00001000
00000000
00000010
00000000
00001000
00000000
00000010
00000000
00001000
00000000
00000010
00000000
,  // measure 15
00000100
00000100
00000100
00000000
00000001
00000001
00000001
00000000
,  // measure 16
00000010
00001000
00010000
00001000
02000000
00000000
00000000
00000000
,  // measure 17
03100000
00000000
10000000
01000000
,  // measure 18
00010000
00001000
00010000
00000000
,  // measure 19
01000000
00100000
01000000
00000000
,  // measure 20
00100000
01000000
00100000
00000000
,  // measure 21
00010000
00000000
01000000
00100000
,  // measure 22
10000000
01000000
10000000
00000000
,  // measure 23
00100000
00010000
00001000
00000010
,  // measure 24
00001000
00010000
00000100
00001000
,  // measure 25
00000001
00000000
00000100
00000010
,  // measure 26
00001000
00000100
00010000
00001000
,  // measure 27
00000000
00000000
00000010
00000000
00000000
00001000
00000000
00000000
,  // measure 28
00010000
00000000
00000000
00100000
00000000
00000000
00010000
00000000
,  // measure 29
00001000
00000000
01000000
00010000
,  // measure 30
00100000
00010000
10000000
00000000
,  // measure 31
01000000
00010000
00001000
00000000
,  // measure 32
00000100
00000001
00000100
00001000
,  // measure 33
00020000
00030010
00000000
00000100
,  // measure 34
00000001
00001000
00000000
00000100
,  // measure 35
00000010
00000000
00001000
00010000
,  // measure 36
00001000
01000000
01000000
00200000
,  // measure 37
10300000
00000000
01000000
00100000
,  // measure 38
00001000
00000000
00010000
00000020
,  // measure 39
00000100
00000000
00000130
00000000
00000001
00001000
00000001
00000000
,  // measure 40
00001000
00000000
00000001
00001000
00000100
00000000
00000000
00000000
,  // measure 41
00000010
00000000
00000100
00000000
00010000
00000000
00000010
00001000
,  // measure 42
00000010
00000200
00001300
00010000
,  // measure 43
00000010
00000000
00010000
00001000
00100000
00000000
01000000
00000000
,  // measure 44
10100000
00000000
00010000
01000000
,  // measure 45
00001000
00000000
00010000
00001100
,  // measure 46
00000000
00000001
00000100
00001000
,  // measure 47
00010000
01000000
10000000
00010000
,  // measure 48
01000000
01000000
00100000
10000000
,  // measure 49
01000000
00010000
00001000
00010000
,  // measure 50
00000010
00000010
00000100
00000001
,  // measure 51
00001000
00000100
00000010
00000100
,  // measure 52
00010000
00010000
00001000
00000000
,  // measure 53
01000000
01000000
00100000
00000000
,  // measure 54
10000000
01000000
00010000
00000000
,  // measure 55
00001000
00000100
00000002
00000000
,  // measure 56
00000013
00000010
00000100
00010000
,  // measure 57
00001000
01000000
00010000
00100000
,  // measure 58
01000000
01000000
00010000
00001000
,  // measure 59
00010000
00000010
00000200
00000000
,  // measure 60
00000310
00000010
00001000
00000100
,  // measure 61
00000000
00010000
00010000
00001000
,  // measure 62
01000000
00010000
00100000
00010000
,  // measure 63
00000000
01000000
01000000
01000000
,  // measure 64
00100000
10000000
01000000
10000000
,  // measure 65
00100000
01000000
00001000
00100000
,  // measure 66
00001000
00010000
00000100
00001000
,  // measure 67
00000010
00001000
00000100
00000010
,  // measure 68
00000001
00000100
00001000
00010000
,  // measure 69
00100000
01000000
00010000
00000000
00100000
00001000
00010000
00001000
,  // measure 70
02000000
00000000
00000000
00000000
,  // measure 71
00000000
00000000
00000000
00000000
,  // measure 72
00000000
00000000
00000000
00000000
,  // measure 73
00000000
00000000
00000000
00000000
,  // measure 74
00000000
00000000
00000000
00000000
,  // measure 75
00000000
00000000
00000000
00000000
,  // measure 76
00000000
00000000
00000000
00000000
,  // measure 77
00000000
00000000
03000000
00000000
,  // measure 78
00001000
00010000
00001000
00000000
,  // measure 79
00000010
00000100
00000010
00000000
00000110
00000000
00000000
00000000
,  // measure 80
00000001
00000010
00001000
00010000
,  // measure 81
00001000
00010000
00001000
00000000
00011000
00000000
00000000
00000000
,  // measure 82
00100000
00100000
01000000
01000000
,  // measure 83
00010000
00000000
00000000
10000000
00000000
00000000
00100000
00000000
00000000
00000000
00000000
00000000
01000000
00000000
00100000
00000000
10000000
00000000
00100000
00000000
01000000
00000000
00010000
00000000
,  // measure 84
01000000
00100000
00010000
00000000
00001000
00000010
00000001
00000000
,  // measure 85
00000100
00000010
00010000
00000100
00000020
00000000
00000000
00000000
,  // measure 86
00000130
00000000
00000100
00010000
,  // measure 87
00001000
00010000
00000100
00001000
,  // measure 88
00000010
00010000
00001000
00000000
,  // measure 89
00100000
00001000
00010000
00001000
,  // measure 90
01000000
00000000
00100000
10000000
,  // measure 91
00010000
01000000
10000000
00000000
,  // measure 92
01000000
00100000
00010000
00001000
,  // measure 93
00010000
00100000
01000000
00010000
,  // measure 94
10000000
00000000
01000000
00100000
,  // measure 95
01000000
00000000
00010000
00000000
00001000
00000000
00000000
00001000
,  // measure 96
00010000
00010000
00001000
00010000
00010000
00000000
00000100
00000000
,  // measure 97
00000000
00000010
00000001
00000100
,  // measure 98
00000001
00001000
00000000
00000100
,  // measure 99
00000010
00001000
00010000
00100000
,  // measure 100
00010000
00001000
01000000
00010000
,  // measure 101
10000000
01000000
10000000
00100000
,  // measure 102
01000000
00000000
00001000
00010000
00000000
00001000
00010000
00000000
,  // measure 103
00000010
00001000
00000100
00000010
,  // measure 104
00000001
00001000
00000001
00000000
00000001
00001000
00000001
00000000
,  // measure 105
00000100
00000010
00001000
00000100
,  // measure 106
00010000
00000000
00001000
01000000
00001000
01000000
00001000
00000000
,  // measure 107
00100000
00000000
00010000
01000000
00010000
01000000
00010000
00000000
,  // measure 108
10000000
01000000
00010000
00000100
,  // measure 109
00001000
00000010
00000100
00000001
,  // measure 110
00000010
00000000
00000100
00001000
00000000
00001000
00000001
00000000
,  // measure 111
00000100
00001000
00010000
00001000
,  // measure 112
00100000
00000000
00010000
01000000
00000000
00010000
01000000
00000000
,  // measure 113
00100000
01000000
00001000
00010000
,  // measure 114
00000100
00001000
00000010
00000100
,  // measure 115
00000100
00000000
00000100
00000000
00000100
00000000
00000001
00001000
,  // measure 116
00000001
00001000
00000001
00001000
00000001
00001000
00000200
00000000
,  // measure 117
00000000
00000000
00000000
00000000
,  // measure 118
00000000
00000000
00000000
00010300
,  // measure 119
00001000
00000000
01000000
00000000
00100000
00000000
00000000
00000000
10000000
00000000
01000000
00000000
00000000
10000000
00000000
00000000
,  // measure 120
00100000
01000000
00100000
01000000
20000000
00000000
31000000
00000000
,  // measure 121
00010000
00100000
00100000
00000000
00001000
00010000
00000000
00000100
,  // measure 122
00001000
00000010
00001000
00000010
00000000
00000000
00000110
00000000
00000000
00000101
00000000
00000000
,  // measure 123
00001000
00000100
00010000
00010000
00001000
01000000
00100000
01000000
,  // measure 124
01100000
01100000
10010000
00000000
10000000
01000000
00010000
00000000
,  // measure 125
00001000
00000000
00000100
00000000
00000001
00000000
00000000
00000011
00000000
00000000
00010100
00000000
00000000
00011000
00000000
00000000
,  // measure 126
00001000
00000000
00000000
01000000
00000000
00000000
00100000
00000000
01000000
00000000
00100000
00000000
10000000
00000000
00010000
00000000
10000000
00000000
01000000
00000000
10000000
00000000
01000000
00000000
,  // measure 127
00100000
00001000
00010000
00001000
01000000
00001000
00020000
00000000
00000000
00000000
00000000
00000000
,  // measure 128
00030100
00000010
00000100
00001000
00000001
00000100
00000010
00000100
00000010
00000200
00000000
00000000
,  // measure 129
00000000
00000000
00000000
00000301
00001000
00000001
00000010
00000001
00000010
00002000
00000000
00000000
,  // measure 130
00000000
00000000
00000000
00013000
00000100
00010000
00001000
00100000
00001000
02000000
00000000
00000000
,  // measure 131
00000000
00000000
00000000
03100000
10000000
00100000
10000000
00010000
10000000
01000000
00100000
01000000
,  // measure 132
00200000
00000000
00000000
00000000
00000000
00000000
00310000
10000000
00010000
01000000
00001000
01000000
,  // measure 133
00010000
10000000
00010000
04000000
00000000
00000000
00000000
00000000
00000000
03001000
00000000
00000000
,  // measure 134
00000040
00000000
00000000
00000000
00000130
00000000
00010000
00000010
,  // measure 135
00010000
00000000
00000010
00000000
00010000
00000000
00010000
00001000
00000000
01000000
00001000
00000000
01000000
00010000
00000000
01000000
,  // measure 136
00100000
10000000
20000000
00000000
00000000
00000000
00000000
00000000
,  // measure 137
30000000
00000000
00000000
00000000
;
