#TITLE:Enchanted Journey;
#SUBTITLE:;
#ARTIST:DJ Meas;
#TITLETRANSLIT:;
#SUBTITLETRANSLIT:;
#ARTISTTRANSLIT:;
#GENRE:Dance;
#CREDIT:Sync by Hellrazor;
#BANNER:Enchanted Journey-bn.png;
#BACKGROUND:Enchanted Journey-bg.png;
#LYRICSPATH:;
#CDTITLE:;
#MUSIC:Enchanted Journey.ogg;
#OFFSET:-0.058;
#SAMPLESTART:8.800;
#SAMPLELENGTH:12.000;
#SELECTABLE:YES;
#DISPLAYBPM:137.000;
#BPMS:0.000=136.698;
#STOPS:;
#BGCHANGES:0.000=Enchanted Journey-bg.png=1.000=0=0=1=====,
20.000=In The Groove Rebirth/218_JB_HD.mpg=1.000=0=0=1=====,
36.000=In The Groove Rebirth/215_JB_HD.mpg=1.000=0=0=1=====,
52.000=In The Groove Rebirth/253_JB_HD.mpg=1.000=0=0=1=====,
68.000=In The Groove Rebirth/269_JB_HD.mpg=1.000=0=0=1=====,
84.000=In The Groove Rebirth/307_JB_HD.mpg=1.000=1=0=1===CrossFade==,
94.500=Enchanted Journey-bg.png=1.000=0=0=1====1^0^0^1=,
95.000=Enchanted Journey-bg.png=1.000=0=0=1====0^1^0^1=,
95.500=Enchanted Journey-bg.png=1.000=0=0=1=====,
96.000=In The Groove Rebirth/304_JB_HD.mpg=1.000=0=0=1=====,
112.000=In The Groove Rebirth/1133_JumpBack.mpg=1.000=0=0=1=====,
128.000=In The Groove Rebirth/1139_JumpBack.mpg=1.000=1=0=1===CrossFade==,
144.000=In The Groove Rebirth/218_JB_HD.mpg=0.400=0=0=1=Kaleidoscope2x2====,
160.000=In The Groove Rebirth/215_JB_HD.mpg=0.700=0=0=1=Kaleidoscope2x2====,
168.000=Enchanted Journey-bg.png=1.000=1=0=1===CrossFade==,
172.000=Enchanted Journey-bg.png=1.000=0=0=1====0^0^1^1=,
173.000=Enchanted Journey-bg.png=1.000=0=0=1====0^1^0^1=,
174.000=Enchanted Journey-bg.png=1.000=0=0=1====1^0^0^1=,
175.000=Enchanted Journey-bg.png=1.000=0=0=1=====,
176.000=In The Groove Rebirth/253_JB_HD.mpg=1.000=0=0=1=====,
192.000=In The Groove Rebirth/304_JB_HD.mpg=1.000=0=0=1=====,
208.000=In The Groove Rebirth/269_JB_HD.mpg=1.000=1=0=1===CrossFade==,
222.500=Enchanted Journey-bg.png=1.000=0=0=1====1^0^0^1=,
223.000=Enchanted Journey-bg.png=1.000=0=0=1====0^1^0^1=,
223.500=Enchanted Journey-bg.png=1.000=0=0=1====0^0^1^1=,
224.000=Enchanted Journey-bg.png=1.000=1=0=1===CrossFade==,
99999=-nosongbg-=1.000=0=0=0 // don't automatically add -songbackground-
;
#BGCHANGES2:96.000=white flash=1.000=0=0=1=====,
176.000=yellow flash=1.000=0=0=1=====,
;
#KEYSOUNDS:;

//---------------dance-single - D. Bernardone----------------
#NOTES:
     dance-single:
     D. Bernardone:
     Hard:
     8:
     0.604,0.000,0.428,0.448,0.368:
0000
0000
0000
0000
,
0000
0000
0000
0000
,
0000
0000
0000
0000
,
0000
0000
0000
0000
,
0000
0000
0000
0000
,
2000
0000
0000
0000
3001
0000
0010
0000
0100
0000
0000
0100
0010
0000
0001
0000
,
0010
0000
0000
0010
0100
0000
1000
0000
0200
0000
0000
0000
0300
0000
0000
0000
,
1010
1100
0101
0011
,
1001
0000
0100
0010
0220
0000
0330
0000
,
0002
0000
0000
0000
1003
0000
0010
0000
0100
0000
0000
0100
0010
0000
1000
0000
,
0010
0000
0000
0010
0100
0000
0001
0000
0200
0000
0000
0000
0300
0000
0000
0000
,
0011
0000
0101
0000
1100
0000
1010
0010
,
0100
0001
0000
0001
1000
0000
1000
0100
0000
0100
0010
0000
0010
0001
0010
0000
,
0002
0000
0000
0000
1003
0000
0100
0000
0010
0000
0000
0010
0100
0000
1000
0000
,
0100
0000
0000
0100
0010
0000
0001
0000
0020
0000
0000
0000
0030
0000
0000
0000
,
1100
1010
0011
0101
,
0110
0000
1000
0001
2002
0000
3003
0000
,
2000
0000
0000
0000
3001
0000
0100
0000
0010
0000
0000
0010
0100
0000
0001
0000
,
0100
0000
0000
0100
0010
0000
1000
0000
0020
0000
0000
0000
0030
0000
0000
0000
,
0101
0000
0011
0000
1010
0000
1100
0100
,
0010
0001
0000
0001
0100
0000
0100
0010
0000
0010
1000
0000
1000
0001
1000
0000
,
0001
0010
0000
0010
0100
0000
0100
1000
0000
1000
0001
0000
0001
0100
0001
0000
,
0100
0010
0000
0010
1000
0000
1000
0100
0000
0100
0010
0000
0010
0001
0010
0000
,
0001
0100
0000
0100
0010
0000
0010
1000
0000
0000
1000
0000
0100
0000
0010
0000
,
0001
0000
0000
0000
0100
0000
0000
0000
1000
0000
0000
0000
0100
0000
0001
1000
,
0001
0000
0000
0000
0010
0000
0000
0000
1000
0000
0000
0000
0010
0000
0001
1000
,
0001
0000
0000
0000
0100
0000
0000
0000
0001
0000
0000
0000
0010
0000
0100
1000
,
0100
0000
0000
0000
1000
0000
0000
0000
0010
0000
0000
0000
0100
0000
0001
1000
,
0002
0003
0002
0003
0002
0003
0010
0100
,
2000
3000
2000
3000
2000
3000
0010
0100
,
2002
3003
2002
3003
2002
3003
0001
1000
,
2020
3030
0202
0303
2020
3030
0202
0303
,
0001
0000
0000
0001
1000
0000
0000
1000
0100
0000
0000
0100
0010
0000
0001
0000
,
1000
0000
0000
1000
0010
0000
0000
0010
0100
0000
0000
0100
0001
0000
0010
0000
,
0100
0000
0000
0100
1000
0000
0000
1000
0100
0000
0000
0100
1000
0000
1000
0000
,
0001
0010
0100
1000
0010
0100
0001
0010
,
0200
0000
1000
0000
0001
0000
1300
0010
,
0200
0000
1000
0000
0001
0000
0310
1000
,
0200
0000
0001
0000
1300
0000
0010
0100
,
0001
0000
0011
0000
0010
0100
1000
0010
,
0200
0000
0000
0300
1010
0000
0000
0000
0200
0000
0000
0300
0011
0000
0000
0000
,
2000
0000
0000
3000
0101
0000
0000
0000
0002
0000
0000
0003
1100
0000
0000
0000
,
0011
0001
0001
0001
,
0001
0000
1000
0000
0100
0000
1000
0000
0001
0100
0010
0000
1000
0100
1000
0100
,
2000
0000
0000
0000
3010
0000
0100
0000
0001
0000
0000
0010
0100
0000
1000
0000
,
0010
0000
0000
0100
0001
0000
0010
0000
0200
0000
0000
0000
0300
0000
0000
0000
,
1100
1010
0101
0011
,
1001
0000
1000
0100
0020
0000
0030
0000
,
0002
0000
0000
0000
0013
0000
0100
0000
1000
0000
0000
0010
0100
0000
0001
0000
,
0010
0000
0000
0100
1000
0000
0010
0000
0200
0000
0000
0000
0300
0000
0000
0000
,
0101
0000
0011
0000
1100
0000
1010
0110
,
0100
0001
0000
0001
1000
0000
1000
0100
0000
0100
0010
0000
0010
0001
0010
0000
,
0001
1000
0000
1000
0010
0000
0010
0100
0000
0100
0001
0000
0001
1000
0001
0000
,
0010
0100
0000
0100
1000
0000
1000
0010
0000
0010
0100
0000
0100
0001
0100
0000
,
0001
0010
0000
0010
0100
0000
0100
1000
0000
1000
0001
0000
0001
0010
0001
0000
,
0010
0100
0000
0100
1000
0000
1000
0001
0000
0000
0001
0000
0100
0000
0010
0000
,
2000
0000
3000
0000
;

//---------------dance-single - D. Bernardone----------------
#NOTES:
     dance-single:
     D. Bernardone:
     Beginner:
     1:
     0.101,0.000,0.030,0.000,0.000:
0000
0000
0000
0000
,
0000
0000
0000
0000
,
0000
0000
0000
0000
,
0000
0000
0000
0000
,
0000
0000
0000
0000
,
1000
0000
0000
0000
,
0001
0000
0000
0000
,
0100
0000
0000
0000
,
0010
0000
0000
0000
,
1000
0000
0000
0000
,
0001
0000
0000
0000
,
0010
0000
0000
0000
,
0100
0000
0000
0000
,
1000
0000
0000
0000
,
0001
0000
0000
0000
,
0100
0000
0000
0000
,
0010
0000
0000
0000
,
0100
0000
0000
0000
,
0001
0000
0000
0000
,
1000
0000
0000
0000
,
0001
0000
0000
0000
,
0100
0000
0100
0000
,
0100
0000
0100
0000
,
0100
0000
0010
0000
,
0010
0000
0000
0000
,
0100
0000
0100
0000
,
0001
0000
0001
0000
,
1000
0000
1000
0000
,
0100
0000
0100
0000
,
0010
0000
0000
0000
,
0001
0000
0000
0000
,
0100
0000
0000
0000
,
1000
0000
0000
0000
,
0100
0000
0000
0000
,
0001
0000
0000
0000
,
0010
0000
0000
0000
,
0110
0000
0000
0000
,
0100
0000
0000
0000
,
1000
0000
0000
0000
,
0001
0000
0000
0000
,
1000
0000
0000
0000
,
0010
0000
0000
0000
,
0110
0000
0000
0000
,
0000
0000
0000
0000
,
0100
0000
0001
0000
,
1000
0000
0001
0000
,
0100
0000
0100
0000
,
0010
0000
0010
0000
,
1000
0000
0001
0000
,
0100
0000
0001
0000
,
1000
0000
1000
0000
,
0100
0000
0000
0000
,
0010
0000
0010
0000
,
0010
0000
0010
0000
,
0010
0000
0000
0000
,
0001
0000
1000
0000
,
1001
0000
0000
0000
;

//---------------dance-single - D. Bernardone----------------
#NOTES:
     dance-single:
     D. Bernardone:
     Challenge:
     10:
     0.801,0.000,0.080,1.000,0.502:
0000
0000
0000
0000
,
0000
0000
0000
0000
,
0000
0000
0000
0000
,
0000
0000
0000
0000
,
0000
0000
0000
0000
,
2000
0000
0000
0000
0002
3000
0200
0003
2000
0300
0000
3001
2000
0000
0200
3000
,
0020
0300
0000
1030
0200
0000
0002
0300
2000
0000
0003
0000
3010
0000
0000
0000
,
0002
0000
0000
0000
0200
0000
0000
0003
2000
0000
0000
0300
0002
0000
0000
3000
,
0020
0000
0000
0003
0200
0030
0002
0300
0020
0000
0003
0000
0130
0000
0000
0000
,
2000
0000
0000
0000
0200
3000
0002
0300
2000
0000
0003
3001
0200
0000
0020
0300
,
0002
0030
0000
0103
2000
0000
0002
3000
2000
0000
0003
0000
3100
0000
0000
0000
,
0002
0000
0000
0000
0020
0000
0000
0003
2000
0000
0000
0030
0002
3000
2000
0003
,
3001
0100
0010
0001
0010
0000
0001
1000
0001
0100
0010
0000
0010
1000
0100
0010
,
0002
0000
0000
0000
0200
0003
2000
0300
0002
0000
3000
1003
0200
0000
0020
0300
,
2000
0030
0000
3100
0002
0000
2000
0003
0002
0000
3000
0000
0103
0000
0000
0000
,
0020
0000
0000
0000
2000
0000
0000
0030
0002
0000
0000
3000
2000
0000
0000
0003
,
0020
0000
0000
3000
0002
0030
0200
0003
2000
0000
0300
0000
3001
0000
0000
0000
,
0020
0000
0000
0000
2000
0030
0200
3000
0002
0300
0000
1003
0002
0000
0200
0003
,
0020
0300
0000
0031
0200
0000
2000
0300
0002
0000
3000
0000
0013
0000
0000
0000
,
2000
0000
0000
0000
0200
0000
0000
3000
0002
0000
0000
0300
2000
0003
0002
3000
,
0103
0010
0001
1000
0001
0000
0010
0100
0010
1000
0010
0000
0001
0100
0010
0100
,
0001
1000
0100
0010
0100
0000
0001
0100
1000
0100
1000
0000
0010
0001
0010
0100
,
0010
1000
0001
0010
0100
0000
1000
0001
0000
0010
0001
0000
0100
1000
0100
0010
,
0100
0001
1000
0100
0010
0000
0001
0100
0000
0000
0011
0000
1100
0000
1010
0000
,
0101
0000
0001
0010
0000
0010
1000
0000
0001
0000
0100
0010
0000
0010
0001
1000
,
0001
0000
0100
1000
0000
1000
0001
0000
0010
0000
0100
0001
0000
0001
0010
0100
,
0010
0000
0001
0100
0000
0100
1000
0000
0001
0000
0010
0100
0000
0100
0001
1000
,
0001
0000
0010
1000
0000
0000
0001
0000
1000
0000
0010
0001
0000
0001
0100
0010
,
0200
0000
0000
0000
2000
0000
0000
0300
0002
0000
0000
3000
0020
0003
2000
0030
,
0200
0000
0000
3000
0002
0000
0000
0300
2000
0000
0000
0003
0002
3000
0200
0003
,
2000
0000
0000
0300
0020
0000
0000
3000
0002
0000
0000
0030
2000
0003
0002
3000
,
0020
0000
0000
0003
0200
0000
0000
0030
0002
0000
0000
0300
0020
0000
0000
0003
,
2000
0000
0000
0030
0002
0000
0000
3000
2000
0000
0000
0003
0020
3000
0002
0030
,
0200
0000
0000
0003
2000
0000
0000
0300
0002
0000
0000
3000
2000
0003
0200
3000
,
0020
0000
0000
0300
2000
0000
0000
0030
0200
0000
0000
3000
0002
0300
2000
0003
,
0002
3000
0200
0003
2000
0300
0020
3000
0002
0030
2000
0003
0002
3000
0020
0003
,
0130
0000
0001
0010
1000
0000
0001
0000
0100
0000
0010
0001
0100
0000
1000
0000
,
0001
0000
0010
1000
0100
0000
0001
0000
1000
0000
0001
0100
1000
0000
0100
0000
,
0010
0000
0001
0100
1000
0000
0001
0000
0010
0000
0100
0001
0010
0000
0100
0000
,
0001
0000
0100
1000
0010
0000
0001
0000
1000
0000
0001
0010
0100
0000
1000
0000
,
0100
0000
0001
0010
1000
0000
0001
0000
0100
0000
0010
0001
1000
0000
0100
0000
,
1000
0000
0010
0001
1000
0000
0100
0000
0010
0000
1000
0001
0100
0000
0100
0000
,
0002
0010
0100
1000
,
0013
0000
0010
0000
0010
0000
0010
0000
0001
0100
0010
0100
1000
0100
0001
0100
,
0020
0000
0000
0000
2000
0030
0200
3000
0002
0300
0000
1003
0020
0000
0200
0030
,
0002
0000
0300
0103
0020
0000
0002
0030
2000
0000
0003
0000
3010
0000
0000
0000
,
0200
0000
0000
0000
0002
0000
0000
0300
0020
0000
0000
0003
2000
0000
0000
0030
,
0002
0000
0000
3000
2000
0003
0020
3000
0002
0000
0030
0000
0103
0000
0000
0000
,
0020
0000
0000
0000
2000
0030
0002
3000
0200
0003
0000
1300
0002
0000
2000
0003
,
0200
3000
0000
0301
0020
0000
2000
0030
0002
0000
3000
0000
0103
0000
0000
0000
,
0020
0000
0000
0000
0002
0000
0000
0030
0200
0000
0000
0003
2000
0300
0002
3000
,
1003
0100
0010
0100
0001
0000
1000
0010
0100
0010
1000
0000
1000
0100
0010
0001
,
0100
0001
1000
0100
0010
0000
0001
0100
0010
0100
1000
0000
0100
0010
0100
0001
,
0010
0100
0010
1000
0010
0000
0001
0100
0001
1000
0010
0000
1000
0100
0010
0100
,
0001
0100
1000
0010
0100
0000
0001
1000
0000
0010
1000
0000
0100
0010
0001
0100
,
0010
0100
1000
0100
0010
0000
1000
0100
0000
0000
1010
0000
0101
0000
0011
0000
,
2200
0000
3300
0000
;

//---------------dance-single - D. Bernardone----------------
#NOTES:
     dance-single:
     D. Bernardone:
     Easy:
     3:
     0.196,0.000,0.010,0.050,0.000:
0000
0000
0000
0000
,
0000
0000
0000
0000
,
0000
0000
0000
0000
,
0000
0000
0000
0000
,
0000
0000
0000
0000
,
1000
0000
0100
0000
,
0010
0000
0001
0000
,
0100
0100
0010
0010
,
0100
0001
1000
0000
,
0010
0000
0100
0000
,
0001
0000
1000
0000
,
0100
0100
0100
0010
,
0002
0000
0003
0000
,
0100
0000
0010
0000
,
0100
0000
0001
0000
,
1000
1000
0100
0100
,
0010
0001
1000
0000
,
0010
0000
0100
0000
,
0001
0000
1000
0000
,
0010
0100
0001
0010
,
0200
0000
0300
0000
,
1000
0000
0000
0000
,
0001
0000
0000
0000
,
1000
0000
0010
1000
,
0100
0000
0010
0000
,
0001
0001
1000
0000
,
0010
0000
0100
0000
,
0010
0010
1000
0000
,
0001
0100
1000
0000
,
1000
0100
0001
0000
,
0001
0010
1000
0000
,
1000
0010
0001
0000
,
0100
0001
0010
0000
,
0100
1000
0010
0000
,
0010
1000
0100
0000
,
0010
0001
0100
0010
,
0110
1000
0000
0100
,
0000
1000
0000
0001
,
0000
0100
0000
0001
,
0000
0010
0000
0001
,
0000
1000
0000
0100
,
0000
0010
0000
0001
,
0100
0100
0100
0100
,
0100
0000
0020
0000
,
1030
0100
0010
0100
,
1000
0010
0100
0000
,
0001
0010
0100
0010
,
0001
0100
0010
0000
,
1000
0010
0100
0010
,
1000
0100
0010
0000
,
0001
0100
0010
0100
,
0002
0000
0003
0000
,
1000
0000
0000
0000
,
0010
0000
0000
0000
,
1000
0000
0000
0000
,
0100
0000
0010
0001
,
0200
0000
0300
0000
;

//---------------dance-single - D. Bernardone----------------
#NOTES:
     dance-single:
     D. Bernardone:
     Medium:
     4:
     0.288,0.000,0.010,0.060,0.000:
0000
0000
0000
0000
,
0000
0000
0000
0000
,
0000
0000
0000
0000
,
0000
0000
0000
0000
,
0000
0000
0000
0000
,
0001
0000
1000
0000
0100
0000
0000
1000
,
0001
0000
0000
0001
1000
0000
0000
0000
,
0010
0010
0100
0001
,
1000
0001
0010
0000
,
0100
0000
1000
0000
0001
0000
0000
0100
,
0010
0000
0000
0010
0100
0000
0000
0000
,
0001
0001
1000
0100
,
0020
0000
0030
0000
,
0001
0000
0100
0000
0001
0000
0000
1000
,
0100
0000
0000
0100
1000
0000
0000
0000
,
0010
0010
0100
0001
,
1000
0100
0010
0000
,
0001
0000
0010
0000
0001
0000
0000
1000
,
0010
0000
0000
0010
1000
0000
0000
0000
,
0001
0001
0100
0001
,
0020
0000
0030
0000
,
0100
1000
0100
0100
,
0010
0001
0010
0010
,
0001
0000
1000
0000
0001
0100
0100
0100
,
0100
0000
0000
0010
1000
0000
0000
1000
,
1000
0000
0000
0100
0010
0000
0000
0010
,
0010
0000
0000
0001
1000
0000
0000
1000
,
1000
0000
0000
0010
0100
0000
0000
0001
,
0001
0000
0001
0000
0001
0000
0001
1000
,
0010
0000
0010
0000
0010
0000
0010
0100
,
0001
0000
0001
0000
0001
0000
0001
0010
,
0001
0001
0001
0001
,
0100
0000
0100
0000
0100
0000
0100
0010
,
1000
0000
1000
0000
1000
0000
1000
0100
,
0010
0000
0010
0000
0010
0000
0010
0001
,
1000
0100
0001
0100
,
1000
0000
1000
0000
1000
0000
0000
0010
,
0100
0000
0100
0000
0100
0000
0000
0001
,
1000
0000
1000
0000
1000
0000
0000
0001
,
0100
0100
0100
0001
,
0010
0010
0100
0100
,
1000
1000
0001
0001
,
2002
0000
0000
3003
,
1000
0000
0100
0000
1000
0001
1000
0001
,
1000
0000
0010
0000
0100
0000
0000
0001
,
0010
0000
0000
0010
0001
0000
0000
0000
,
0100
0100
0010
1000
,
0001
0010
0100
0000
,
1000
0000
0100
0000
0010
0000
0000
0001
,
0100
0000
0000
0100
0001
0000
0000
0000
,
0010
0010
0100
1000
,
0020
0000
0030
0000
,
0100
0001
0100
0100
,
0010
1000
0010
0010
,
1000
0100
1000
1000
,
0001
0000
0010
0000
0001
0100
0100
0100
,
0200
0000
0300
0000
;

//---------------dance-double - ----------------
#NOTES:
     dance-double:
     :
     Easy:
     4:
     0.296,0.000,0.199,0.149,0.000: // measure 1
00000000
00000000
00000000
00000000
,  // measure 2
00000000
00000000
00000000
00000000
,  // measure 3
00000000
00000000
00000000
00000000
,  // measure 4
00000000
00000000
00000000
00000000
,  // measure 5
00000000
00000000
00000000
00000000
,  // measure 6
00010000
01000000
01000000
00001000
,  // measure 7
00010000
00000100
00000020
00000030
,  // measure 8
00000001
00000100
00001000
00010000
,  // measure 9
01000000
10000000
00200000
00300000
,  // measure 10
01000000
00010000
00010000
00100000
,  // measure 11
00001000
00010000
00000200
00000300
,  // measure 12
00000010
00000001
00000100
00001000
,  // measure 13
00020000
00000000
00000000
00030000
,  // measure 14
00001000
01000000
01000000
00010000
,  // measure 15
00100000
01000000
20000000
30000000
,  // measure 16
10000000
00100000
00010000
00001000
,  // measure 17
00000010
00000001
00000200
00000300
,  // measure 18
00000010
00001000
00001000
00000100
,  // measure 19
00010000
00001000
02000000
03000000
,  // measure 20
00100000
10000000
01000000
00010000
,  // measure 21
00002000
00000000
00000000
00003000
,  // measure 22
00010000
00011000
00010000
00000100
,  // measure 23
00001000
00001001
00000001
00000100
,  // measure 24
00000010
00000000
00000110
00000000
00000010
00001000
00000001
00001000
,  // measure 25
00000001
00000000
00001000
00000000
,  // measure 26
00000100
00000000
00010000
00000000
,  // measure 27
00001000
00000000
01000000
00000000
,  // measure 28
00010000
00000000
10000000
00000000
,  // measure 29
01000000
00100000
00010000
00000000
,  // measure 30
01000000
00001000
00010000
00000000
,  // measure 31
00001000
00010000
00000100
00000000
,  // measure 32
00001000
00000010
00000100
00000000
,  // measure 33
00000001
00001000
00001000
00000000
,  // measure 34
00000010
00010000
00001000
00000000
,  // measure 35
00010000
00001000
00100000
00000000
,  // measure 36
00010000
10000000
00100000
00010000
,  // measure 37
00001000
00011000
00010000
00010100
,  // measure 38
00000100
00001100
00001000
00001001
,  // measure 39
00000001
00000101
00000100
00000110
,  // measure 40
00000010
00001010
00000010
00010010
,  // measure 41
00010000
00011000
00001000
00001000
,  // measure 42
00100000
00100000
01000000
01000000
,  // measure 43
20000000
00000000
00000000
00000000
,  // measure 44
30010000
00010000
01000000
01200000
,  // measure 45
10300000
00010000
00010000
00100000
,  // measure 46
00001000
00010000
00000200
00000300
,  // measure 47
00001000
00000010
00010000
00000100
,  // measure 48
00001000
00000010
00020000
00030000
,  // measure 49
00001000
01000000
01000000
00010000
,  // measure 50
10000000
01000000
00200000
00300000
,  // measure 51
00001000
01000000
00010000
00100000
,  // measure 52
00002000
00000000
00000000
00003000
,  // measure 53
00010000
00011000
00010000
00010100
,  // measure 54
00000100
00000110
00000010
00000011
,  // measure 55
00000001
00000101
00000100
00000110
,  // measure 56
00000010
00000000
00001010
00000000
00001000
00000100
00010000
00000100
,  // measure 57
00020000
00000000
00000000
00000000
00000000
00000000
00000000
00030000
;

//---------------dance-double - D. Bernardone----------------
#NOTES:
     dance-double:
     D. Bernardone:
     Medium:
     5:
     0.365,0.000,0.099,0.179,0.000: // measure 1
00000000
00000000
00000000
00000000
,  // measure 2
00000000
00000000
00000000
00000000
,  // measure 3
00000000
00000000
00000000
00000000
,  // measure 4
00000000
00000000
00000000
00000000
,  // measure 5
00000000
00000000
00000000
00000000
,  // measure 6
00010000
00000000
00001000
01000000
00001000
00000000
01000000
00010000
,  // measure 7
01000000
00000000
00010000
10000000
00010000
00000000
00000000
00000000
,  // measure 8
01000000
01000000
00100000
00100000
,  // measure 9
10010000
11000000
01100000
00000000
,  // measure 10
00010000
00000000
00100000
00010000
00100000
00000000
00001000
00100000
,  // measure 11
00001000
00000000
00010000
00001000
00010000
00000000
00000000
00000000
,  // measure 12
00000100
00000100
00001000
00000010
,  // measure 13
00000200
00000010
00000000
00000301
,  // measure 14
00001000
00000000
00000100
00001000
00000100
00000000
00010000
00000100
,  // measure 15
00010000
00000000
00001000
00010000
00001000
00000000
00000000
00000000
,  // measure 16
01000000
01000000
00010000
00010000
,  // measure 17
10010000
00110000
01100000
00000000
,  // measure 18
10000000
00000000
00010000
01000000
00010000
00000000
01000000
00001000
,  // measure 19
01000000
00000000
00001000
00010000
00001000
00000000
00000000
00000000
,  // measure 20
00010000
00000010
00001000
00000100
,  // measure 21
00000020
00001000
00000100
00000031
,  // measure 22
00000100
00000010
00000010
00000000
00001000
00000000
00000100
00000000
,  // measure 23
00010000
00001000
00001000
00000000
00100000
00000000
00010000
00000000
,  // measure 24
01000000
00100000
00100000
00000000
10000000
01000000
00100000
00010000
,  // measure 25
10000000
00000000
00000000
00010000
01000000
00000000
00000000
00001000
,  // measure 26
01000000
00000000
00000000
00001000
00010000
00000000
00000000
00000100
,  // measure 27
00010000
00000000
00000000
00000100
00001000
00000000
00000000
00000100
,  // measure 28
00000010
00000001
00000100
00001000
,  // measure 29
00010000
00000000
00010000
00000000
00010000
00000000
00010000
00001000
,  // measure 30
01000000
00000000
01000000
00000000
01000000
00000000
01000000
00001000
,  // measure 31
00100000
00000000
00100000
00000000
00100000
00000000
00100000
00010000
,  // measure 32
10000000
10000000
10000000
10000000
,  // measure 33
01000000
00000000
01000000
00000000
01000000
00000000
01000000
00100000
,  // measure 34
00001000
00000000
00001000
00000000
00001000
00000000
00001000
00010000
,  // measure 35
00000100
00000000
00000100
00000000
00000100
00000000
00000100
00000010
,  // measure 36
00000001
00000100
00001000
00010000
,  // measure 37
00200000
10300000
00020000
10030000
,  // measure 38
02000000
13000000
00020000
00130000
,  // measure 39
00002000
01003000
00002000
00013000
,  // measure 40
00000200
00001300
00000020
00000130
,  // measure 41
00000002
00000103
00000020
00001030
,  // measure 42
00000200
00001300
00000020
00010030
,  // measure 43
00022000
00000000
00000000
00033000
,  // measure 44
00001000
00000000
00100000
00000000
00010000
10000000
00010000
01000000
,  // measure 45
00100000
00000000
10000000
00010000
10000000
00000000
00010000
01000000
,  // measure 46
00010000
00000000
01000000
00100000
01000000
00000000
00000000
00000000
,  // measure 47
00001000
00010000
00000100
00000010
,  // measure 48
00000110
00000011
00001001
00000000
,  // measure 49
00000001
00000000
00000100
00000010
00000100
00000000
00000010
00001000
,  // measure 50
00000010
00000000
00001000
00000001
00001000
00000000
00000000
00000000
,  // measure 51
00000100
00010000
00001000
00100000
,  // measure 52
00020000
01000000
00100000
10030000
,  // measure 53
01000000
10000000
10000000
00000000
00010000
00000000
01000000
00000000
,  // measure 54
00001000
00010000
00010000
00000000
00000100
00000000
00001000
00000000
,  // measure 55
00000010
00000100
00000100
00000000
00000001
00000000
00001000
00000000
,  // measure 56
00000100
00000010
00000010
00000000
00000001
00000100
00000010
00001000
,  // measure 57
00000002
00000000
00000000
00000000
00000000
00000000
00000000
00000003
;

//---------------dance-double - D. Bernardone----------------
#NOTES:
     dance-double:
     D. Bernardone:
     Hard:
     8:
     0.544,0.000,0.398,0.040,0.308:
00000000
00000000
00000000
00000000
,
00000000
00000000
00000000
00000000
,
00000000
00000000
00000000
00000000
,
00000000
00000000
00000000
00000000
,
00000000
00000000
00000000
00000000
,
01000000
00000000
00000000
00000000
00100000
00000000
00001000
00000000
00010000
00000000
00000000
00000100
00010000
00000000
00000010
00000000
,
00001000
00000000
00000000
00000001
00000010
00000000
00000100
00000000
00010000
00000000
00000000
00000000
00000000
00000000
00000000
00000000
,
00011000
00110000
10100000
11000000
,
01100000
00000000
00100000
00001000
01000000
00000000
00000000
00000000
,
00100000
00000000
00000000
00000000
10000000
00000000
01000000
00000000
00010000
00000000
00000000
00010000
00001000
00000000
00000100
00000000
,
00000010
00000000
00000000
00000010
00001000
00000000
00000100
00000000
00010000
00000000
00000000
00000000
00000000
00000000
00000000
00000000
,
00011000
00000000
01010000
00000000
11000000
00000000
00100000
01000000
,
00010000
00000000
00010000
00000000
00010000
00000000
10000000
01000000
00000000
10000000
01000000
00000000
10000000
00010000
10000000
00010000
,
10000000
00000000
00000000
00000000
00100000
00000000
01000000
00000000
00001000
00000000
00000000
00001000
00010000
00000000
00000100
00000000
,
00001000
00000000
00000000
00001000
00000010
00000000
00000100
00000000
00000001
00000000
00000000
00000000
00000000
00000000
00000000
00000000
,
00000101
00001100
00011000
00110000
,
10010000
00000000
00010000
00100000
01000000
00000000
00000000
00000000
,
01000000
00000000
00000000
00000000
10000000
00000000
00100000
00000000
00010000
00000000
00000000
00010000
00001000
00000000
00000010
00000000
,
00000100
00000000
00000000
00000100
00001000
00000000
00000010
00000000
00000100
00000000
00000000
00000000
00000000
00000000
00000000
00000000
,
00000011
00000000
00001010
00000000
00011000
00000000
00001000
00100000
,
00010000
00000000
00010000
00000000
00010000
00000000
01000000
00100000
00000000
01000000
00100000
00000000
10000000
00010000
10000000
00010000
,
10000000
00000000
10000000
00000000
10000000
00000000
01000000
00100000
00000000
01000000
00100000
00000000
00010000
01000000
00010000
01000000
,
00010000
00000000
00010000
00000000
00010000
00000000
00100000
00001000
00000000
00100000
00001000
00000000
00010000
00001000
00010000
00001000
,
00010000
00000000
00010000
00000000
00010000
00000000
00000100
00001000
00000000
00000000
00000010
00000000
00000100
00000000
00001000
00000000
,
00010000
00000000
01000000
00100000
00000000
00100000
00010000
00000000
01000000
00000000
00001000
00010000
00000000
00010000
00000100
00000000
,
00000010
00000000
00000001
00000100
00000000
00000100
00001000
00000000
00010000
00000000
00001000
01000000
00000000
01000000
00010000
00000000
,
00100000
00000000
01000000
10000000
00000000
10000000
00100000
00000000
00010000
00000000
00001000
00010000
00000000
00010000
00000010
00000000
,
00000100
00000000
00000001
00001000
00000000
00001000
00000010
00000000
00010000
00000000
00001000
00010000
00000000
00010000
01000000
00000000
,
10000000
00000000
00100000
00000000
00001000
00000000
00000010
00001000
,
00001100
00000000
00010000
00000000
00110000
00000000
00100000
01000000
,
00001000
00000000
00000010
00000000
00000001
00000000
00000010
00000100
,
00011000
01000000
10100000
01001000
,
00001000
00000000
01100000
00000000
10000000
00000000
01000000
00010000
,
00001000
00000000
00000110
00000000
00010000
00000000
00001000
00000100
,
00000010
00000000
00011000
00000000
01000000
00000000
10000000
00100000
,
01000000
10000000
01000000
00010000
00001000
00000100
00000010
00000001
,
00000102
00000000
00000010
00000000
00001000
00000000
00010003
00100000
,
01000000
00000000
00001000
00000000
10000000
00000000
00010000
10000000
,
20100000
00000000
01000000
00000000
00010000
00000000
30001000
00000100
,
00000001
00000000
00000001
00000000
00000010
00001000
00100000
00010000
,
10000000
10100000
00010000
00001100
,
00000010
00011000
00000101
00010010
,
10020000
01000000
01000000
01030000
,
00100000
10000000
00100000
10000000
01000000
00010000
00001000
00000100
,
00000010
00000000
00000000
00000000
00001000
00000000
00000100
00000000
00000001
00000000
00000000
00000001
00000100
00000000
00010000
00000000
,
00001000
00000000
00000000
01000000
00100000
00000000
10000000
00000000
01000000
00000000
00000000
00000000
00000000
00000000
00000000
00000000
,
11000000
00110000
00011000
00001100
,
00000110
00000000
00000010
00000001
00001000
00000000
00000000
00000000
,
00000001
00000000
00000000
00000000
00001000
00000000
00000010
00000000
00000001
00000000
00000000
00000001
00000010
00000000
00010000
00000000
,
00001000
00000000
00000000
01000000
00010000
00000000
00100000
00000000
01000000
00000000
00000000
00000000
00000000
00000000
00000000
00000000
,
10100000
00000000
01010000
00000000
00011000
00000000
00010000
00000010
,
00001000
00000000
00001000
00000000
00001000
00000000
00000001
00000010
00000000
00000001
00000010
00000000
00000100
00001000
00000100
00001000
,
00000100
00000000
00000100
00000000
00000100
00000000
00010000
00001000
00000000
00010000
00001000
00000000
01000000
00001000
01000000
00001000
,
01000000
00000000
01000000
00000000
01000000
00000000
00010000
00100000
00000000
00010000
00100000
00000000
00010000
10000000
00010000
10000000
,
00010000
00000000
00010000
00000000
00010000
00000000
10000000
01000000
00000000
10000000
01000000
00000000
10000000
00010000
10000000
00010000
,
10000000
00000000
10000000
00000000
10000000
00000000
00010000
00100000
00000000
00000000
01000000
00000000
00010000
00000000
00001000
00000000
,
00000200
00000000
00000000
00000000
00000000
00000000
00000000
00000300
;

//---------------dance-double - D. Bernardone----------------
#NOTES:
     dance-double:
     D. Bernardone:
     Challenge:
     10:
     0.656,0.000,0.149,0.368,0.298:
00000000
00000000
00000000
00000000
,
00000000
00000000
00000000
00000000
,
00000000
00000000
00000000
00000000
,
00000000
00000000
00000000
00000000
,
00000000
00000000
00000000
00000000
,
00100000
00000000
10000000
00000000
01000000
00000000
00100000
00001000
00010000
00000000
01000000
00000000
00010000
00000000
00001000
00010000
,
00000010
00000000
00000100
00000000
00000001
00000000
00000010
00000100
00010000
00000000
00001000
00000000
00010000
00000000
00000100
00001000
,
00000010
00000000
00010000
00000000
00001000
00000000
01000000
00010000
10000000
00000000
00100000
00000000
00010000
00000000
00001000
00010000
,
00000100
00000000
00001000
00000000
00000010
00000000
00000100
00000001
00001000
00000000
00000010
00000000
00010000
00000000
00001000
01000000
,
00010000
00000000
00100000
00000000
01000000
00000000
00100000
00010000
10000000
00000000
01000000
00000000
00010000
00000000
00001000
00010000
,
00000010
00000000
00000100
00000000
00000001
00000000
00000010
00000100
00001000
00000000
00000001
00000000
00000100
00000000
00000010
00010000
,
00001000
00000000
00100000
00000000
01000000
00000000
00100000
00010000
10000000
00000000
00100000
00000000
01000000
00000000
00010000
00100000
,
01000000
10000000
00100000
00010000
00001000
00000100
00000001
00001000
,
00000010
00000000
00000100
00000000
00000001
00000000
00001000
00000100
00010000
00000000
00001000
00000000
00100000
00000000
01000000
10000000
,
00100000
00000000
10000000
00000000
01000000
00000000
00010000
00001000
00010000
00000000
00000010
00000000
00000100
00000000
00000001
00000010
,
00000100
00000000
00001000
00000000
00000001
00000000
00000100
00001000
00010000
00000000
01000000
00000000
00100000
00000000
00010000
10000000
,
01000000
00000000
00100000
00000000
01000000
00000000
00010000
00001000
00000010
00000000
00000001
00000000
00000100
00000000
00000010
00010000
,
00001000
00000000
01000000
00000000
00010000
00000000
00100000
01000000
10000000
00000000
00100000
00000000
01000000
00000000
00010000
00100000
,
00001000
00000000
00010000
00000000
00000010
00000000
00000100
00000001
00000010
00000000
00000100
00000000
00010000
00000000
00001000
00100000
,
01000000
00000000
10000000
00000000
00010000
00000000
00100000
00001000
00010000
00000000
00001000
00000000
00010000
00000000
00000100
00010000
,
00001000
00010000
00100000
01000000
00001000
00010000
00100000
01000000
,
00001000
00000010
00000100
00010000
00001000
00000010
00000100
00010000
,
00010000
01000000
00100000
00001000
00010000
01000000
00100000
00001000
,
00001000
00000000
00000100
00000000
00000010
00000000
00010000
00001000
00000000
00000000
00000100
00000000
00000010
00000000
00010010
00000000
,
01001000
00000000
01000000
00100000
00000000
00000000
10000000
00000000
01000000
00000000
00010000
00001000
00000000
00000000
00000100
00000001
,
00001000
00000000
00000100
00000010
00000000
00000000
00000001
00000000
00000100
00000000
00001000
00010000
00000000
00000000
01000000
10000000
,
00010000
00000000
00100000
01000000
00000000
00000000
10000000
00000000
00100000
00000000
00010000
00001000
00000000
00000000
00000010
00000001
,
00001000
00000000
00000010
00000100
00000000
00000000
00001000
00000000
00010000
00000000
01000000
00100000
00000000
00000000
00010000
01000000
,
00002000
00000000
00000000
00000000
00200000
00000000
00003000
00000000
00000200
00000000
00300000
00000000
02000000
00000300
00000020
03000000
,
00020000
00000000
00000030
00000000
00000200
00000000
00030000
00000000
00200000
00000000
00000300
00000000
00000020
00300000
02000000
00000030
,
00002000
00000000
03000000
00000000
00020000
00000000
00003000
00000000
00000002
00000000
00000000
00030000
00002003
00000000
00000200
00003000
,
00020000
00000300
00002000
00030000
20000000
00003000
00020000
30000000
,
02000000
00000000
00030000
00000000
00000200
00000000
03000000
00000000
02000000
00000000
00000300
00000000
00002000
03000000
00020000
00003000
,
00000020
00000000
00030000
00000000
00200000
00000000
00000030
00000000
00000020
00000000
00300000
00000000
00020000
00000030
00002000
00030000
,
00020000
00000000
00003000
00030000
00200200
00000000
00300300
00000000
02000020
00000000
03000030
00000000
00000010
00000000
00000100
00000000
,
00000010
00010000
01000000
10000000
00100000
01000000
00001000
00000010
,
00000001
00000000
01000000
00000000
01000001
00000000
00000000
00000001
,
00100000
00000000
00000001
00000000
00100001
00000000
00000000
00100000
,
00001000
00000000
01000000
00000000
10010000
00000000
00010000
10000000
,
00000010
00000000
10000010
00000000
10000000
00001000
10000000
00100000
,
01100000
01000000
10010000
00100000
,
10001000
00010000
10000100
00001000
,
10000002
01000000
00100000
00010000
,
00001000
00000000
00M00000
00000000
00000100
00000000
00M00000
00000000
00000013
00000100
00001000
00000010
00010000
00001000
01000000
00010000
,
10000000
00000000
01000000
00010000
00001000
00000000
00100000
00000000
00001000
00000000
00010000
00001000
00000010
00000000
00000001
00000000
,
00001000
00000000
00000001
00000100
00001000
00000000
00010000
00000000
00100000
00000000
00010000
00001000
01000000
00000000
00010000
00000000
,
00100000
00000000
01000000
00010000
00001000
00000000
00000100
00000000
00000010
00000000
00001000
00000001
00000010
00000000
00000100
00000000
,
00010000
00000000
00001000
00010000
00100000
00000000
01000000
00000000
00010000
00000000
00100000
01000000
10000000
00000000
00100000
00000000
,
01000000
00000000
00100000
00010000
00001000
00000000
00010000
00000000
00000100
00000000
00001000
00000010
00000100
00000000
00000001
00000000
,
00001000
00000000
00000010
00000100
00001000
00000000
00010000
00000000
01000000
00000000
00100000
00010000
10000000
00000000
01000000
00000000
,
00100000
00000000
00001000
00010000
01000000
00000000
00010000
00000000
00001000
00000000
00000100
00000010
00001000
00000000
00000001
00000000
,
00000001
00000100
00000010
00001000
00010000
01000000
00100000
10000000
,
10000000
01000000
00100000
00010000
00001000
00000100
00000010
00000001
,
00000001
00000010
00000100
00001000
00010000
00100000
01000000
10000000
,
10000000
00100000
01000000
00010000
00001000
00000010
00000100
00000001
,
00001000
00000000
00000100
00000000
00010000
00000000
00001000
00010000
00000000
00000000
01000000
00000000
00100000
00000000
00101000
00000000
,
00020200
00000000
00000000
00000000
00000000
00000000
00000000
00030300
;
