#TITLE:Duality;
#SUBTITLE:;
#ARTIST:KaW vs. ☺ vs. Inspector K;
#TITLETRANSLIT:;
#SUBTITLETRANSLIT:;
#ARTISTTRANSLIT:KaW vs. Smiley vs. Inspector K;
#GENRE:House;
#CREDIT:Sync by HellRazoR;
#BANNER:Duality-bn.png;
#BACKGROUND:Duality-bg.png;
#LYRICSPATH:;
#CDTITLE:;
#MUSIC:Duality.ogg;
#OFFSET:0.016;
#SAMPLESTART:93.094;
#SAMPLELENGTH:12.000;
#SELECTABLE:YES;
#BPMS:0.000=142.050,84.500=142.030,120.000=163.950,256.000=193.950;
#STOPS:;
#BGCHANGES:0.000=Duality-bg.png=1.000=0=0=1=====,
20.000=In The Groove Rebirth/161_JB_HD.mpg=1.000=0=0=1=====,
36.000=In The Groove Rebirth/1124_JumpBack.mpg=1.000=0=0=1=====,
52.000=Duality-bg.png=1.000=0=0=1=====,
56.000=In The Groove Rebirth/1139_JumpBack.mpg=1.000=0=0=1=====,
72.000=In The Groove Rebirth/1166_JumpBack.mpg=1.000=0=0=1=====,
88.000=In The Groove Rebirth/1161_JumpBack.mpg=1.000=0=0=1=====,
104.000=In The Groove Rebirth/411_JB_HD.mpg=1.000=0=0=1=====,
120.000=In The Groove Rebirth/503_JB_HD.mpg=1.000=0=0=1=SongBgWithMovieViz====,
136.000=In The Groove Rebirth/1164_JumpBack.mpg=1.000=1=0=1=SongBgWithMovieViz==CrossFade==,
152.000=In The Groove Rebirth/1148_JumpBack.mpg=1.000=0=0=1=====,
168.000=In The Groove Rebirth/419_JB_HD.mpg=1.000=0=0=1===FadeRight==,
184.000=Duality-bg.png=1.000=0=0=1=====,
188.000=In The Groove Rebirth/406_JB_HD.mpg=1.000=0=0=1=====,
204.000=In The Groove Rebirth/265_JB_HD.mpg=1.000=0=0=1=====,
220.000=In The Groove Rebirth/1130_JumpBack.mpg=1.000=0=0=1=====,
236.000=In The Groove Rebirth/1164_JumpBack.mpg=1.000=0=0=1===FadeLeft==,
252.000=Duality-bg.png=1.000=0=0=1=====,
256.000=In The Groove Rebirth/896_JumpBack.mpg=1.000=0=0=1=====,
272.000=In The Groove Rebirth/1161_JumpBack.mpg=1.000=0=0=1=====,
288.000=Duality-bg.png=1.000=0=0=1=====,
292.000=In The Groove Rebirth/1166_JumpBack.mpg=1.000=0=0=1=====,
308.000=In The Groove Rebirth/1124_JumpBack.mpg=1.000=0=0=1=====,
324.000=In The Groove Rebirth/896_JumpBack.mpg=1.000=0=0=1=====,
340.000=In The Groove Rebirth/1130_JumpBack.mpg=1.000=0=0=1=====,
356.000=In The Groove Rebirth/411_JB_HD.mpg=1.000=0=0=1=====,
372.000=In The Groove Rebirth/161_JB_HD.mpg=1.000=0=0=1=====,
388.000=Duality-bg.png=1.000=0=0=1=====,
99999=-nosongbg-=1.000=0=0=0 // don't automatically add -songbackground-
;
#BGCHANGES2:52.000=white flash=1.000=0=0=1=====,
120.000=white flash=1.000=0=0=1=====,
186.000=flash=1.000=0=0=1====1^1^1^0.5=,
220.000=white flash=1.000=0=0=1=====,
252.000=white flash=1.000=0=0=1=====,
288.000=white flash=1.000=0=0=1=====,
356.000=white flash=1.000=0=0=1=====,
372.000=white flash=1.000=0=0=1=====,
388.000=white flash=1.000=0=0=1=====,
;
#KEYSOUNDS:;

//---------------dance-single - D. Bernardone----------------
#NOTES:
     dance-single:
     D. Bernardone:
     Challenge:
     10:
     0.746,1.000,0.345,0.538,0.479,627.000,50.000,78.000,17.000,3.000,8.000:
0000
0000
0000
0000
,
0000
0000
0000
0000
,
0000
0000
0000
0000
,
1000
0100
0010
0001
1000
0100
0010
0001
1000
0100
0010
0001
,
2002
3003
0200
0000
,
0320
0000
0000
1030
0002
0000
0000
0013
,
0200
0000
0000
0000
2300
0000
0000
0000
3001
0000
0000
0100
0001
0000
0010
0000
,
0200
0000
0000
1300
0002
0000
0000
0103
,
0010
0000
0010
2000
0000
0000
3002
0000
0000
0000
1003
0000
0010
0100
0001
1000
,
0200
0000
0310
0001
2000
0000
3010
0100
,
0002
0000
0000
0000
0023
0000
0000
0000
0130
0000
0000
1000
0001
0000
0010
0000
,
0002
0000
0013
0100
2000
0000
3001
0100
,
0010
0000
0000
1000
0001
0000
0000
0000
1000
0000
0100
0000
0001
0000
0000
0000
,
0100
1000
0001
0010
0100
0010
0001
1000
0100
0010
0100
1000
0100
0010
0001
0010
,
0100
0000
1000
0001
1000
0000
0001
0000
0100
0000
0010
1000
0010
1000
0001
0000
,
0010
0100
1000
0000
1001
0000
0000
0000
0110
0000
0010
1000
0001
1000
0010
0000
,
0100
0001
0100
0000
1001
0000
1000
0000
0001
0000
0010
0100
0010
0100
1000
0000
,
0100
0000
0010
0001
1000
0000
0000
0000
0010
0000
0100
0001
1000
0001
1000
0000
,
0100
0010
0001
1000
0001
0000
0100
0000
0010
0000
1000
0001
1000
0000
0001
0000
,
0010
0100
0010
0100
0010
0000
0000
0000
0010
0000
0000
0100
1000
0100
0010
0001
,
1000
0001
1000
0000
1001
0000
0010
0000
0100
0000
0001
1000
0001
1000
0001
0000
,
0010
0000
0100
1000
0100
0000
0000
0000
1000
0000
0001
1000
0010
1000
0001
0000
,
1001
0000
1100
0000
0011
0000
0101
1001
,
0000
1010
1001
0000
0110
0000
0101
0100
,
0110
0000
1010
0000
1100
0000
1001
0110
,
0000
0110
0000
1000
0100
0001
0100
1000
,
0010
0000
0100
0000
0001
0000
1000
0000
0100
0000
0010
0000
0001
0000
1000
0001
,
0100
0000
0001
0000
0010
0000
0001
0000
1000
0000
0100
0000
1000
0000
0010
0100
,
0001
0100
0010
0100
0010
1000
0001
1000
0001
0010
0001
0010
0100
0010
0100
1000
,
0100
1000
0001
0100
0001
1000
0010
1000
0001
0100
0001
0010
0100
1000
0100
1000
,
0001
0010
0001
1000
,
0100
0000
0000
1000
0000
0000
0000
0000
,
0001
0100
0001
1000
,
0010
0000
0000
2002
0000
3003
0000
0000
,
0001
0010
0100
1000
,
0001
0100
0010
1000
0200
0000
0310
0000
,
0011
MMMM
1001
MMMM
,
0101
0000
0000
0000
0110
0000
0000
0000
1010
0000
0000
0000
1000
0100
1000
0100
,
2000
3002
0023
2030
,
3002
0000
0000
0203
0000
0000
0000
0000
,
2300
3020
0032
2003
,
3200
0000
0000
0002
0000
0000
0303
0000
,
0001
0000
1000
0000
0010
0000
0100
0000
0010
0000
1000
0000
0001
0000
0010
0100
,
1000
0000
0001
0000
0100
0000
0010
0000
1000
0000
0010
0000
0100
0000
0001
0010
,
0100
0010
0100
0010
0100
1000
0001
1000
0001
1000
0001
0100
0001
0100
0001
0100
,
0010
1000
0010
0100
0001
1000
0100
1000
0001
0010
0001
1000
0001
0100
0001
1000
,
0100
0000
1111
0000
,
1001
1000
0010
0100
0001
0010
0100
1000
,
2200
0000
0000
0010
3000
0000
M300
0000
,
1001
0001
0010
0100
0001
0100
1000
0001
,
0202
0000
0000
0000
0000
0000
0010
0000
0003
0000
0000
0000
0301
1000
0001
1000
,
0001
0010
0100
1000
,
0001
0010
1000
0010
0002
0000
1003
0000
,
0001
0100
0010
1000
,
0001
0000
0001
0000
0100
0000
0100
0000
0010
0000
0010
1000
0000
1000
0001
0010
,
0100
0000
0000
1000
0000
0000
0002
0000
,
0103
0000
0000
0020
,
1030
0000
0000
0100
0000
0000
0010
0000
,
1001
0101
0110
1010
,
0001
0000
0000
0001
0000
0000
0200
0000
,
0310
0000
0000
2000
,
3001
0000
0000
0100
0000
0000
0002
0000
,
1003
0010
0100
0001
1000
0010
0100
0001
1000
0010
0100
0001
,
2002
3003
0020
0000
,
2030
0000
0000
0000
3001
0010
0100
1000
,
0002
0000
0000
0000
1003
0010
0100
0001
,
2000
0000
0000
0000
3001
0000
0010
0000
0100
0000
0000
1000
0000
0000
0001
0000
,
0100
0000
0000
1001
0000
0000
0010
0000
,
1000
0000
0001
0100
0001
0100
0001
0100
,
0002
0000
0000
2003
0000
3010
0100
0001
,
2000
0000
0000
3002
0000
0013
0100
1000
,
0200
0000
0000
0320
0000
0000
0031
0000
,
1002
0000
0100
0000
0003
0000
0000
0000
0110
0000
0000
0000
1000
0001
1000
0001
,
2000
3000
0000
0001
0010
0100
1000
0001
,
2000
0000
3000
0000
0000
0000
0001
0000
0010
0000
0000
0100
0000
0000
1000
0000
,
0002
0000
0003
0000
1000
0000
0010
0000
0100
0000
0000
0001
0000
0000
1000
0000
,
2200
3300
0000
MM00
0000
0000
0100
0000
,
0220
0330
0001
1000
0000
1000
0010
0100
,
0220
0330
1000
0001
0000
0001
1000
0010
,
2020
3030
0000
2002
3003
0000
0202
0303
,
0M0M
0000
1000
0010
1000
0000
0100
0000
0010
0000
0100
1000
0001
1000
0001
1000
,
0020
0000
0030
0000
0100
0000
0100
0000
0001
0000
0000
0000
1000
0001
1000
0001
,
0200
0000
0300
0000
0010
0000
0010
0000
1000
0000
0000
0000
0001
1000
0001
1000
,
0200
0000
0300
0000
0010
0000
0010
0000
0001
0000
0000
0000
1000
0001
1000
0001
,
0020
0030
0001
0001
1000
0010
0220
0330
,
1000
0001
1000
0000
0010
0000
0100
0000
0000
0000
01M0
0000
0001
0000
0010
0000
,
0001
1000
0001
0000
0010
0000
0100
0000
0000
0000
01M0
0000
1000
0000
0001
0000
,
0100
0010
0100
0000
0010
0000
1000
0000
0000
0000
10M0
0000
0100
0000
0010
0000
,
0001
1000
0001
0000
1000
0000
1100
0000
0000
0000
M110
0000
0010
0000
0001
0000
,
1001
0000
0100
0010
0100
0000
0010
0000
0000
0000
0004
4000
0000
0000
3003
0000
,
0000
0000
0100
0010
0100
0000
0010
0000
0000
0000
4000
0004
0000
0000
3003
0000
,
0000
0000
0010
0100
0010
0000
0100
0000
0000
0000
0004
4000
0000
0000
3003
0000
,
0000
0000
0100
0010
0100
0000
0010
0000
0000
0000
4000
0004
0000
0000
0000
0000
,
3003
0000
0100
0010
0100
0000
0010
0000
0000
0000
0001
1000
0001
1000
0001
0000
,
0000
0000
1000
0100
1000
0000
0100
0000
0000
0000
1000
0001
1000
0001
1000
0000
,
0000
0000
0001
0100
0001
0000
0100
0000
0000
0000
0001
1000
0001
1000
0001
0000
,
0000
0000
0100
0010
0100
0000
0010
0100
0010
0000
0100
0010
0100
0010
0100
0000
,
2002
0000
0000
0000
,
3003
0000
0000
0000
;

//---------------dance-double - D. Bernardone----------------
#NOTES:
     dance-double:
     D. Bernardone:
     Easy:
     5:
     0.340,0.406,0.172,0.069,0.000,310.000,25.000,10.000,0.000,0.000,0.000:
00000000
00000000
00000000
00000000
,
00000000
00000000
00000000
00000000
,
00000000
00000000
00000000
00000000
,
00000001
00000100
00001000
00010000
,
00022000
00000000
00033000
00000000
,
00001000
00000000
01000000
00000000
,
00010000
00100000
01000000
10000000
,
00010000
00000000
01000000
00000000
,
00001000
00001000
00001000
00010000
,
00000100
00000000
00001000
00000000
,
00000010
00000100
00000001
00000010
,
00000100
00000000
00010000
00000000
,
00001000
01000000
00010000
00010000
,
00200000
00000000
00000000
00000000
,
01300000
00000000
10000000
00000000
,
00010000
01000000
00001000
00100000
,
00010000
00000000
10000000
00000000
,
01000000
01000000
00010000
00001000
,
00010000
00000000
00000100
00000000
,
00001000
00000010
00000100
00000001
,
00000010
00000000
00000001
00000000
,
00000100
00000100
00001000
00010000
,
00001000
00000000
00100000
00000000
01000000
00000000
00100000
00010000
,
00100000
00000000
01000000
00000000
10000000
00000000
00010000
01000000
,
00010000
00000000
00100000
00000000
00001000
00000000
00010000
00000010
,
00000000
00000010
00000000
00000010
00010000
00000000
00001000
00000000
,
00000100
00000010
00001000
00000100
,
00010000
00001000
00100000
00010000
,
01000000
10000000
01000000
00100000
,
20000000
00000000
00000000
00000000
,
30010000
00010000
00010000
00010000
,
00010000
00000000
00000000
00010000
00000000
00000000
00000000
00000000
,
01000000
01000000
01000000
01000000
,
01000000
00000000
00000000
00011000
00000000
00000000
00000000
00000000
,
00010000
00000100
00000010
00000001
,
00000100
00000010
00001000
00000000
00001100
00000000
00001001
00000000
,
00000110
00000000
00011000
00000000
,
01100000
00000000
10010000
00000000
00110000
00000000
00010000
10000000
,
01000000
00100000
00010000
01000000
,
00001000
00010000
00001000
00000010
,
00000001
00000010
00000100
00001000
,
00000001
00000100
00001000
00010000
,
00001000
00100000
00010000
01000000
,
00100000
10000000
01000000
00010000
,
00001000
00010000
00000010
00000100
,
00000001
00000010
00000100
00001000
,
00002002
00000003
00000010
00003000
,
00000001
00000100
00000010
00001000
,
00000100
00010000
00001000
00010000
,
00100000
01000000
00010000
00100000
,
01000000
00000000
10000000
00000000
00010000
00000000
01000000
01000000
,
00001000
00010000
00000100
00001000
,
00000010
00000100
00000001
00000010
,
00001000
00010000
00001000
01000000
,
00010000
10000000
00100000
10000000
00010000
00000000
01000000
00000000
,
01100000
10000000
01000000
00100000
,
00010000
01000000
00001000
00010000
,
00000100
00001000
00000010
00000100
,
00000001
00000000
00000010
00000000
00000100
00000000
00010000
00010000
,
00001000
01000000
00010000
00100000
,
01000000
10000000
00010000
01000000
,
00001000
00010000
00000010
00001000
,
00000001
00000100
00001000
00010000
,
00022000
00000000
00033000
00000000
,
00001000
00000000
01000000
00100000
,
01000000
00000000
00010000
10000000
,
00010000
00000000
00100000
00010000
,
00100000
00000000
00001000
00000000
,
00010000
00000000
00000010
00000100
,
00000010
00000000
00000100
00000001
,
00000100
00000000
00000010
00001000
,
00000010
00000000
00010000
00001000
,
00011000
00000000
00010000
00000000
,
00011000
00001000
01000000
00010000
,
01000000
00100000
10000000
01000000
,
10000000
00100000
01000000
00010000
,
10000000
00000000
01000000
00000000
,
00100000
00010000
01000000
00100000
,
01000000
00001000
00010000
00000010
,
00010000
00000100
00000010
00000001
,
00001000
00000000
00000010
00000100
,
00000101
00000000
00000010
00000000
,
00011000
00000000
01000000
00000000
,
10100000
00000000
00010000
00000000
,
10010000
00000000
00000000
10000000
,
11000000
00000000
00100000
00000000
,
00011000
00000000
00000100
00000000
,
00000011
00000000
00000001
00001000
,
00001001
00000000
00000000
00000000
,
00001001
00000100
00000000
00010000
,
00000000
00001000
00000000
01000000
,
00000000
00010000
00000000
00100000
,
00001000
00010000
00000100
00000010
,
00001001
00000010
00000000
00010000
,
00000000
01000000
00000000
00100000
,
00000000
00001000
00000000
00000100
,
00000010
00001000
00000001
00000100
,
00002002
00000000
00000000
00000000
,
00003003
00000000
00000000
00000000
;

//---------------dance-single - D. Bernardone----------------
#NOTES:
     dance-single:
     D. Bernardone:
     Beginner:
     1:
     0.131,0.167,0.090,0.000,0.000,120.000,13.000,0.000,0.000,0.000,0.000:
0000
0000
0000
0000
,
0000
0000
0000
0000
,
0000
0000
0000
0000
,
1001
0000
0000
0000
,
0110
0000
0000
0000
,
1000
0000
0000
0000
,
0001
0000
0000
0000
,
1000
0000
0000
0000
,
0010
0000
0010
0000
,
0100
0000
0000
0000
,
0001
0000
0000
0000
,
0100
0000
0000
0000
,
0001
0000
0000
0000
,
1001
0000
0000
0000
,
1000
0000
0100
0000
,
1000
0000
0100
0000
,
1000
0000
0001
0000
,
0100
0000
0100
0000
,
0010
0000
1000
0000
,
0010
0000
1000
0000
,
0010
0000
1000
0000
,
0001
0000
0001
0000
,
0010
0000
0000
0000
,
0010
0000
0000
0000
,
0010
0000
0000
0000
,
0110
0000
1000
0000
,
0001
0000
0000
0000
,
0100
0000
0000
0000
,
0010
0000
0000
0000
,
1000
0000
0001
0000
,
0100
0000
0000
0000
,
0000
0000
0000
0000
,
0010
0000
0000
0000
,
0000
0000
1000
0000
,
0001
0000
0000
0000
,
0000
0000
0000
0000
,
0010
0000
0010
0000
,
0010
0010
0010
0000
,
0100
0000
0000
0000
,
0100
0000
0000
0000
,
1000
0000
0000
0000
,
0001
0000
1001
0000
,
1000
0000
0000
0000
,
0100
0000
0000
0000
,
0010
0000
0001
0000
,
1000
0000
0001
0000
,
1001
0000
0100
0000
,
0010
0000
0000
0000
,
0010
0000
0000
0000
,
1000
0000
0000
0000
,
1000
0000
0000
0000
,
0001
0000
0000
0000
,
0001
0000
0000
0000
,
0100
0000
0000
0000
,
0100
0000
0000
0000
,
0001
0000
0001
0000
,
0001
0000
0000
0000
,
1000
0000
1000
0000
,
1000
0000
0100
0000
,
0010
0000
0010
0000
,
0010
0000
0000
0000
,
0100
0000
0100
0000
,
0100
0000
0000
0000
,
1001
0000
0000
0000
,
1001
0000
0000
0000
,
0001
0000
0000
0000
,
0001
0000
0000
0000
,
0001
0000
0000
0000
,
1000
0000
0000
0000
,
1000
0000
0000
0000
,
1000
0000
0000
0000
,
1000
0000
0000
0000
,
1001
0000
0000
0000
,
0001
0000
0000
0000
,
0010
0000
0000
0000
,
0100
0000
0000
0000
,
1000
0000
0000
0001
,
0001
0000
0000
0000
,
0100
0000
0000
0000
,
0010
0000
0010
0000
,
1000
0000
0000
0000
,
1001
0000
0000
0000
,
0001
0000
0000
0000
,
1000
0000
0000
0000
,
0100
0000
0000
0010
,
0010
0000
0000
0000
,
0001
0000
0000
0000
,
1000
0000
1000
0000
,
0010
0000
0000
0000
,
0110
0000
0000
0000
,
0001
0000
0000
0000
,
0001
0000
0000
0000
,
0001
0000
0000
0000
,
1001
0000
0000
0000
,
1000
0000
0000
0000
,
1000
0000
0000
0000
,
1000
0000
0000
0000
,
1001
0000
0000
0000
;

//---------------dance-single - D. Bernardone----------------
#NOTES:
     dance-single:
     D. Bernardone:
     Easy:
     4:
     0.316,0.301,0.241,0.062,0.000,277.000,35.000,9.000,0.000,0.000,0.000:
0000
0000
0000
0000
,
0000
0000
0000
0000
,
0000
0000
0000
0000
,
0110
0010
1000
0100
,
0220
0000
0330
0000
,
0001
0000
1000
0000
,
0010
0100
0001
0010
,
0100
0000
1000
0000
,
0010
0010
0010
0100
,
0001
0000
1000
0000
,
0100
0010
0001
0010
,
0100
0000
1000
0000
,
0010
0010
0100
0001
,
2000
0000
0000
0000
,
3100
0000
0010
0000
,
0001
0100
0010
0100
,
0001
0000
1000
0000
,
0100
0010
0001
0100
,
0010
0000
0100
0000
,
0001
0010
0100
1000
,
0010
0000
0100
0000
,
0001
1000
0100
0010
,
0001
1000
0001
0000
,
0100
0100
0010
0000
,
1000
0100
1000
0000
,
0110
0110
0100
0001
,
1000
0100
1000
0000
,
0001
0001
0100
0000
,
0010
0100
0010
0000
,
1000
0100
0010
0001
,
1000
0100
1000
0100
,
1000
0000
0000
0001
0000
0000
0000
0000
,
0001
0100
0001
0100
,
0001
0000
0000
1001
0000
0000
0000
0000
,
1000
0100
0010
0001
,
0100
1000
0100
0010
,
1000
0000
0001
0000
,
0010
0010
0010
0200
,
1300
0001
0010
0001
,
0010
0000
0000
0100
0000
0000
0000
0000
,
1000
0100
1000
0100
,
1000
0000
0000
1001
0000
0000
0000
0000
,
1000
0001
1000
0010
,
0001
0010
0100
0001
,
1000
0100
0010
0100
,
2000
0100
0010
0100
,
3001
0000
0110
0000
,
1000
0100
0001
0100
,
1000
0000
0000
1000
0000
0000
0000
0000
,
0010
1000
0100
1000
,
0010
0000
0000
0110
0000
0000
0000
0000
,
0100
0001
0010
0100
,
0001
0100
1000
0010
,
0100
0001
0010
0001
,
1000
0100
1000
0100
,
1000
0000
0000
1000
0000
0000
0100
0000
,
0010
0000
0000
0001
,
0100
0000
0000
0010
0000
0000
1000
0000
,
0100
0001
0100
1000
,
0010
0000
0000
0010
0000
0000
0100
0000
,
0001
0000
0000
0010
,
0100
0000
0000
1000
0000
0000
0001
0000
,
1001
1000
0010
0100
,
0220
0000
0330
0000
,
0001
0000
1000
0100
,
1000
0000
0010
0100
,
0010
1000
0010
0010
,
0100
0000
0001
0000
,
1000
0001
0100
0001
,
0100
0000
0100
0010
,
0010
0000
0010
0000
,
1000
0100
0001
0100
,
1001
0000
0110
0010
,
1001
0000
0001
0001
,
0101
0000
0100
0010
,
0110
0000
0010
1000
,
1010
0000
0000
1001
,
0110
0000
0010
0000
,
0011
0000
0001
0000
,
1001
0000
0110
0000
,
1100
0000
0100
0000
,
1001
0000
0001
1000
,
1010
0000
0100
1000
,
0011
0000
1000
0010
,
0101
0000
0000
0110
,
1010
0000
2000
3000
,
0011
0000
0200
0300
,
1001
0000
0110
0000
,
1001
0000
0010
0100
,
1001
1000
0000
1000
,
0000
1000
0000
1000
,
0000
1000
0000
1000
,
0000
0010
0010
0010
,
1001
0001
0000
0001
,
0000
0001
0000
0001
,
0000
0001
0000
0001
,
0000
0100
0100
0100
,
1001
0000
0000
0000
;

//---------------dance-single - D. Bernardone----------------
#NOTES:
     dance-single:
     D. Bernardone:
     Medium:
     7:
     0.513,0.503,0.262,0.152,0.069,461.000,38.000,22.000,0.000,0.000,6.000:
0000
0000
0000
0000
,
0000
0000
0000
0000
,
0000
0000
0000
0000
,
1000
0001
1000
0001
1000
0001
0010
0100
0010
0100
0010
0100
,
2000
0000
3000
0000
,
0002
0000
0000
0100
0203
0000
0000
0010
,
0320
0000
1000
0000
1030
0100
0001
0100
,
0200
0000
0000
0010
0320
0000
0000
0001
,
0031
0000
0000
0001
0000
0000
0001
0000
0000
0000
0100
0000
0010
0000
0100
0000
,
1002
0000
0000
1000
2003
0000
0000
0010
,
3020
0000
0100
0000
0130
0001
0010
0100
,
0200
0000
0000
1000
2300
0000
0000
0001
,
3001
0000
0101
0000
0100
0010
1000
0000
,
0400
0040
0000
0000
0000
0000
0000
0000
0000
0000
0000
0000
0000
0000
0000
0330
,
1001
0000
0001
0100
0001
0000
1000
0100
,
1000
0000
0010
0000
0100
0001
0010
0001
,
0100
0000
0010
1000
0010
0000
1000
0001
,
1000
0000
0100
0000
0010
0001
0100
0010
,
1000
0000
0100
0010
0100
0000
0010
0001
,
0010
0000
0100
0000
1000
0001
0100
0010
,
1000
0000
0001
0100
0001
0000
1000
0001
,
1000
0000
0010
0000
0100
0001
0010
0000
,
0210
0000
1000
0000
0010
0000
1300
0010
,
1002
0000
0100
0000
1000
0000
0103
0001
,
0120
0000
0100
0000
1000
0000
0130
1010
,
0000
1010
0000
1010
0100
0010
0100
0000
,
0210
0000
0001
0000
0010
0000
0301
0010
,
2001
0000
0100
0000
0001
0000
3100
1000
,
0120
0100
0001
0130
,
4000
0004
0000
0000
0000
0000
0000
0000
0000
0000
0000
0000
0000
0000
0000
3003
,
0220
0000
0000
0000
,
0330
0000
0000
0000
,
1000
0000
0001
0000
,
1000
0000
0000
0110
0000
0000
0000
0000
,
1000
0001
1000
0001
,
0100
0010
0100
0010
0100
0000
0100
0000
,
0010
1000
0010
1000
,
0001
0100
0001
0100
,
0010
1000
0001
0000
0010
0100
1000
0000
,
1001
0000
0010
0010
0010
0000
0010
0000
,
0100
0001
1000
0000
0100
0010
0001
0000
,
1001
0000
0010
1000
0100
0000
0000
0000
,
0001
0100
0001
0010
,
0100
1000
0010
1000
0001
0000
0110
0000
,
1000
0010
0100
0001
,
0040
0400
0000
0000
0000
0000
0000
0000
0000
0000
0000
0000
0000
0000
0000
0000
,
0330
0000
1001
0000
,
1000
0000
0001
0000
0010
0001
0100
0000
,
0001
0010
0100
1000
0000
1000
0001
0000
,
1000
0000
0100
0000
0010
0001
0010
0000
,
0100
1000
0001
0011
0000
0001
1000
0000
,
0001
0100
1000
0100
,
0001
0010
1000
0010
0001
0000
0100
0000
,
0010
1000
0100
1000
,
0001
0100
0001
0100
0001
0000
0010
0100
,
0110
0000
0001
1000
0000
0001
1000
0000
,
0100
0000
0000
0010
,
0001
0000
0010
0100
0000
0100
1000
0000
,
0010
1000
0101
1000
,
0001
0000
1000
0010
0000
0100
0010
0000
,
0100
0000
0000
0001
,
0010
0000
0100
1000
0000
0001
0010
0000
,
0001
1000
0001
1000
0001
1000
0010
0100
0010
0100
0010
0100
,
0002
0000
0003
0000
,
1001
0000
1000
0010
,
0100
0000
0001
0010
,
0100
1000
0001
0100
,
0110
0000
0000
1000
0000
0000
0001
0010
,
0100
1001
1001
1001
,
0101
0000
0000
0100
0000
0100
0010
0000
,
1000
0000
0000
1000
0000
1000
0100
0000
,
0010
0000
0000
0010
0000
0010
0001
0000
,
0101
0001
0000
0000
1010
0000
1100
0000
,
0011
0000
0000
0001
0100
0010
0100
0001
,
0010
0000
0000
0100
0010
0000
0100
1000
,
0010
0000
0100
0001
1000
0000
0010
0100
,
0010
0000
0000
0100
0100
0000
0110
0000
,
1001
0000
0100
0001
0000
1000
0001
1000
,
0010
0000
0100
0001
0000
0010
0100
1000
,
0100
0000
1000
0001
0000
0100
0001
1000
,
0001
0000
0010
0100
0000
0100
0010
0010
,
0110
0000
0001
0010
0100
1000
0010
0100
,
0001
0000
1000
0100
0001
0000
0001
0100
,
1000
0000
0010
0100
0001
0100
0010
0100
,
0010
0000
0100
0001
0000
0001
1000
0000
,
0110
0000
1000
0001
0000
0100
0010
0100
,
0001
0000
0010
1000
0000
1000
0010
0001
,
0100
0000
0010
1000
0000
1000
0100
1000
,
0010
0000
0100
0001
0010
0000
0100
0100
,
0110
0000
0001
1000
0000
0100
0010
0100
,
0000
1000
0010
0100
0000
0001
0100
0001
,
0000
0010
0100
1000
0000
0010
0100
0010
,
0000
1000
0001
1000
0001
0010
0001
1000
,
1001
0000
0010
1000
0000
0010
0100
0010
,
0000
1000
0100
0001
0000
0010
0100
0010
,
0000
0001
0100
1000
0000
0100
0010
0100
,
0000
1000
0010
0001
0010
0100
0010
1000
,
0220
0330
0000
0000
;

//---------------dance-single - D. Bernardone----------------
#NOTES:
     dance-single:
     D. Bernardone:
     Hard:
     9:
     0.583,0.574,0.317,0.172,0.148,521.000,46.000,25.000,2.000,2.000,2.000:
0000
0000
0000
0000
,
0000
0000
0000
0000
,
0000
0000
0000
0000
,
0100
0010
1000
0010
1000
0001
0010
0001
0010
0100
1000
0001
,
0200
0000
0300
0000
,
1010
0000
0000
1000
0001
0000
0000
0100
,
0020
0000
0000
0000
0001
0000
0000
0000
1030
0000
0000
0100
0010
0000
0001
0000
,
0101
0000
0000
0010
1000
0000
0000
0100
,
0010
0000
0000
0001
0000
0000
0100
0000
0000
0000
0001
0000
0010
0000
0100
0000
,
1001
0000
0000
1000
0010
0000
0000
1000
,
0200
0000
0000
0000
0001
0000
0000
0000
1300
0000
0000
0010
0100
0000
0001
0000
,
0011
0000
0000
0100
1000
0000
0000
0010
,
0100
0000
0000
0001
0000
0000
0010
0000
0011
0000
1001
0000
2200
0000
0000
0000
,
3322
0000
0000
0000
,
1033
0000
0000
0001
0100
0000
0000
0001
,
0020
0000
0000
0000
1000
0000
0000
0000
0031
0000
0000
0100
0010
0000
1000
0000
,
1100
0000
0000
0010
0001
0000
0000
0100
,
0010
0000
0010
0000
1000
0100
0001
0100
,
1000
0000
0000
0010
1000
0000
0000
0001
,
0200
0000
0000
0000
1000
0000
0000
0000
0301
0000
0000
0010
0100
0000
1000
0000
,
1010
0000
0000
0001
0100
0000
0000
0010
,
0100
0000
0100
0000
0001
1000
1001
0000
,
0110
0000
1000
0000
0001
0000
0011
1010
,
000M
1010
0011
0000
0011
0000
1000
1001
,
0100
0000
0010
0000
0001
0000
0100
1010
,
0000
1010
0000
1000
0100
0001
0100
1000
,
0010
0000
1000
0000
0001
0000
0101
1100
,
000M
1100
0101
0000
0101
0000
0100
0110
,
1000
0000
0001
0000
1000
0000
0100
0011
,
1001
0000
0011
0000
0001
1000
0001
0000
,
2001
0010
0100
0010
,
3001
0000
0000
1001
0000
0000
0000
0000
,
1002
0010
0100
0010
,
1003
0000
0000
0110
0000
0000
0000
0000
,
1000
0100
0001
0000
0100
0000
0100
0000
,
0001
0100
1000
0010
0001
0000
0010
0000
,
1000
1000
0001
0000
0010
0010
0001
0000
,
0100
0000
0100
0000
0010
0000
0010
0000
1000
0000
1000
0000
0001
0010
0001
0010
,
0001
0100
1000
0000
0100
0001
0010
0000
,
1100
0000
1000
0010
0000
0100
0001
0000
,
0001
0010
1000
0000
0010
0001
0100
0000
,
0010
1000
0001
1100
0000
0000
0000
0000
,
0001
0100
1000
0000
0100
0000
0100
0000
,
1000
0100
0001
0010
1000
0000
0010
0000
,
0001
1000
0100
0000
1000
0010
0100
0000
,
0101
0011
1100
1010
,
4004
0000
0000
3003
0220
0000
0000
0330
,
1000
0001
0100
0001
0020
0000
0130
0001
,
0100
0000
1000
0010
0000
0010
0100
0000
,
0001
1000
0100
1000
0020
0000
0130
1000
,
0100
0000
0001
0011
0000
0000
0100
0100
,
1000
0010
0001
0000
0010
0000
0010
0000
,
0001
0010
1000
0100
0001
0000
0100
0000
,
1000
0010
0100
0000
0001
0010
0100
0000
,
1000
0000
0001
0000
1000
0000
0001
0000
0100
0000
0010
1000
0000
0000
0100
0010
,
0001
0000
0100
0010
1000
0000
0010
0100
,
0001
0000
1000
0100
0000
0100
1000
0000
,
0010
0000
0100
0001
0010
0000
0100
1000
,
0001
0010
0100
0000
0010
0001
1000
0010
,
0100
0000
0001
0010
0100
0000
0010
0001
,
1000
0000
0010
0100
0000
0100
0010
0000
,
1000
0100
0001
0000
0001
0100
1000
0000
,
0010
0100
0010
1000
0001
0010
0001
1000
0100
1000
0001
0100
,
0020
0000
0030
0000
,
2000
0000
3100
0000
0010
0001
0100
0001
,
0020
0000
0130
0000
1000
0001
0100
0001
,
0020
0000
0000
0000
0130
0000
1000
0000
0010
0000
0000
0100
0000
0000
0010
0000
,
1000
0000
0100
0010
0000
0000
0001
0000
,
0200
0000
0310
1000
0010
0010
0010
0010
,
0200
0000
0301
0010
0000
0100
1000
0010
,
0200
0000
0301
0010
0000
0100
1000
0010
,
0200
0000
0301
1000
0000
1000
0100
0010
,
0011
0000
0100
0000
0000
0000
1000
0000
0000
0000
0000
0000
0010
0100
0001
0100
,
0001
0000
0000
1000
0100
0001
0100
1000
,
0100
0000
0000
0000
0000
0000
1000
0000
0100
0000
0000
0001
0000
0000
0100
0000
,
1000
0000
0000
0000
0100
0000
0001
0000
0100
0000
0000
1000
0000
0000
0100
0000
,
0001
0000
0000
0100
0000
0000
1000
0000
,
0001
0100
1000
0100
0000
0001
0100
1000
,
0100
0000
0001
0100
0000
1000
0100
0001
,
0100
1000
0000
0100
0000
0000
0001
0100
,
1000
0000
0000
0100
0000
0000
0001
1000
,
0001
0000
1000
0010
0001
0010
1000
0010
,
0001
0000
0000
0000
0010
0000
1000
0000
0010
0000
0000
0001
0000
0000
0010
0000
,
1000
0000
0000
0000
0010
0000
0001
0000
0010
0000
0000
1000
0000
0000
0010
0000
,
0001
0000
0000
0010
0000
0000
1000
0001
,
1000
0000
0001
0010
0000
1000
0010
0001
,
0010
0000
1000
0010
0000
0001
0010
1000
,
0010
0000
0000
0001
0000
0000
0010
1000
,
0010
0000
0000
0001
0000
0000
1000
0001
,
1001
0000
1000
0000
0100
0000
0010
0000
0000
0000
0100
1000
0100
0000
0010
0000
,
0000
0000
0001
0000
0100
0000
0010
0000
0000
0000
0100
0001
0100
0000
0010
0000
,
0000
0000
1000
0000
0001
0000
0100
0000
0000
0000
0001
1000
0001
0000
0100
0000
,
0000
0000
0001
0000
1000
0000
0100
0000
0000
0000
1000
0001
1000
0001
1000
0000
,
1001
0000
0001
0000
0010
0000
0100
0000
0000
0000
0010
0001
0010
0000
0100
0000
,
0000
0000
1000
0000
0010
0000
0100
0000
0000
0000
0010
1000
0010
0000
0100
0000
,
0000
0000
0001
0000
1000
0000
0010
0000
0000
0000
1000
0001
1000
0000
0010
0000
,
0000
0000
1000
0000
0001
0000
0010
0000
0000
0000
0100
0010
0100
0010
0100
0000
,
0220
0000
0000
0000
,
0330
0000
0000
0000
;

//---------------dance-double - D. Bernardone----------------
#NOTES:
     dance-double:
     D. Bernardone:
     Medium:
     8:
     0.517,0.507,0.214,0.083,0.093,482.000,31.000,12.000,0.000,1.000,0.000: // measure 1
00000000
00000000
00000000
00000000
,  // measure 2
00000000
00000000
00000000
00000000
,  // measure 3
00000000
00000000
00000000
00000000
,  // measure 4
00001000
00000010
00001000
00000010
00001000
00000001
00001000
00000001
00001000
00000100
00001000
00000100
,  // measure 5
00002000
00000000
00003000
00000000
,  // measure 6
00001001
00000000
00000001
00000100
00001000
00000000
00001000
00010000
,  // measure 7
00100000
00000000
00000000
00000000
00100000
00000000
10000000
00000000
01000000
00000000
00000000
00010000
01000000
00000000
00010000
00000000
,  // measure 8
00001000
00000000
00001000
00000010
00000001
00000000
00000001
00000100
,  // measure 9
00000010
00000000
00000000
00000010
00000000
00000000
00000010
00000000
00000000
00000000
00000100
00000000
00000001
00000000
00001000
00000000
,  // measure 10
00001001
00000000
00000001
00000010
00001000
00000000
00001000
00010000
,  // measure 11
01000000
00000000
00000000
00000000
01000000
00000000
10000000
00000000
00100000
00000000
00000000
00010000
00100000
00000000
00010000
00000000
,  // measure 12
00001000
00000000
00001000
00000100
00000001
00000000
00000001
00000010
,  // measure 13
00000100
00000000
00000000
00010000
00001000
00000000
00000000
00000000
00010000
00000000
01000000
00000000
10000000
00000000
00000000
00000000
,  // measure 14
20020000
00000000
00000000
00000000
00000000
00000000
00000000
00000000
00000000
00000000
00000000
00000000
00000000
00000000
00000000
30030000
,  // measure 15
10010000
00000000
10000000
01000000
00010000
00000000
00001000
00000100
,  // measure 16
00000010
00000000
00000000
00000000
00001001
00000000
00000000
00000000
00001010
00000000
00000000
00000001
00000100
00000000
00001000
00000000
,  // measure 17
00010000
00000000
00100000
01000000
00010000
00000000
10000000
02000000
,  // measure 18
00010000
00000000
03010000
00000000
01000000
10000000
00010000
00100000
,  // measure 19
11000000
00000000
10000000
00100000
00010000
00000000
00100000
01000000
,  // measure 20
00001000
00000000
00000000
00000000
00010010
00000000
00000000
00000000
00001010
00000000
00000000
00000001
00000010
00000000
00001000
00000000
,  // measure 21
00010000
00000000
00000010
00010000
00000100
00000000
00000001
00000100
,  // measure 22
00001000
00000000
00000000
00000100
00000010
00000000
00000000
00000000
00000100
00000000
00010000
00000000
00100000
00000000
00000000
00000000
,  // measure 23
01000000
00000000
00001000
00000000
01001000
00000000
00010000
00001000
,  // measure 24
00000000
00010000
00001000
00000000
00001000
00000000
01000000
00010000
,  // measure 25
00100000
00000000
01000000
00000000
01000000
00000000
10000000
10100000
,  // measure 26
00000000
10100000
00000000
00010000
01000000
00010000
00100000
01000000
,  // measure 27
10000000
00000000
00010000
00000000
01000000
00000000
00001000
00010000
,  // measure 28
00000000
00001000
00010000
00000000
00010000
00000000
00000100
00001000
,  // measure 29
00000010
00000000
00000100
00000000
00000100
00000000
00000001
00000020
,  // measure 30
00001000
00000000
00001030
00000000
00010000
00001000
00000100
00000000
,  // measure 31
00000001
00001000
00000001
00001000
,  // measure 32
00000001
00000000
00000000
00010000
00000000
00000000
00000000
00000000
,  // measure 33
00000010
00000100
00000010
00000100
,  // measure 34
00000010
00000000
00000000
00001001
00000000
00000000
00000000
00000000
,  // measure 35
00000001
00000010
00001000
00010000
,  // measure 36
00001000
01000000
00010000
01000000
00001000
00000000
00100000
00000000
,  // measure 37
01000000
10000000
00100000
01000000
,  // measure 38
00020000
00100000
01000000
00130000
,  // measure 39
00001000
00010000
00001000
00000000
00010000
00000010
00001000
00000010
,  // measure 40
00001000
00000000
00000100
00000010
00000001
00000000
00000001
00000000
,  // measure 41
00000100
00000010
00000100
00000000
00000010
00010000
00000010
00000000
,  // measure 42
00001000
00000000
00000000
00110000
00000000
00000000
00000000
00000000
,  // measure 43
00001000
00100000
01000000
00010000
,  // measure 44
01000000
10000000
00010000
10000000
00100000
00000000
01000000
00000000
,  // measure 45
00100000
10000000
01000000
00100000
,  // measure 46
00001000
01000000
00100000
10000000
,  // measure 47
22000000
00000000
00110000
33000000
,  // measure 48
01000000
00100000
00001000
00000000
00010000
00000010
00000100
00000000
,  // measure 49
00000110
00000000
00000001
00001000
00001000
00000000
00001000
00000000
,  // measure 50
00000001
00000100
00001000
00000000
00010000
00100000
01000000
00000000
,  // measure 51
01100000
00000000
10000000
10010000
00000000
00000000
00000000
00000000
,  // measure 52
10000000
01000000
00010000
00001000
,  // measure 53
00010000
00100000
00010000
00001000
00000100
00000000
00000010
00000000
,  // measure 54
00001000
00000001
00000010
00000100
,  // measure 55
00001000
00000010
00001000
00001000
00000100
00000000
00010000
00001000
,  // measure 56
00011000
00000000
00000000
00010000
00000000
00000000
00100000
00000000
,  // measure 57
10000000
00000000
00000000
01000000
,  // measure 58
00100000
00000000
00000000
00001000
00000000
00000000
00020000
00000000
,  // measure 59
00000010
00000100
00000001
00000010
,  // measure 60
00030100
00000000
00000000
00010000
00000000
00000000
00001000
00000000
,  // measure 61
01000000
00000000
00000000
00100000
,  // measure 62
10000000
00000000
00000000
01000000
00000000
00000000
00100000
00000000
,  // measure 63
00010000
01000000
00010000
01000000
00010000
10000000
00010000
10000000
00010000
00100000
00010000
00100000
,  // measure 64
00020000
00000000
00030000
00000000
,  // measure 65
10000000
00000000
01000000
00000000
00100000
00001000
00100000
00000000
,  // measure 66
00011000
00000000
00000000
00000000
00010000
00000100
00010000
00000000
,  // measure 67
00001100
00000000
00000110
00000000
,  // measure 68
00000011
00000000
00000000
00000000
00001000
00000000
00000001
00000001
,  // measure 69
00001000
00000000
00000010
00000100
00000010
00000100
00000001
00001000
,  // measure 70
00000100
00000000
00000000
00010000
00000000
00001000
00100000
00001000
,  // measure 71
00100000
00000000
00000000
00100000
00000000
00010000
01000000
00010000
,  // measure 72
01000000
00000000
00000000
00100000
00000000
00000000
10000000
01000000
,  // measure 73
11000000
00000000
00000000
00000000
01100000
00000000
10000000
00010000
,  // measure 74
10000000
00000000
10000000
00000000
01000000
00010000
00001000
00010000
,  // measure 75
00001000
00000000
00000000
00000000
00001000
00000000
00010000
00000000
00000100
00000000
00000000
00000010
00000000
00000000
00000001
00000000
,  // measure 76
00001000
00000000
00000000
00000000
00000010
00000000
00001000
00000000
00000001
00000000
00000000
00000010
00000000
00000000
00000100
00000000
,  // measure 77
00001000
00000000
00000010
00010000
00000000
00000100
00001000
00000000
,  // measure 78
00001001
00000000
00001000
00000001
00000000
00000100
00001000
00010000
,  // measure 79
00001000
00000000
00010000
00001000
00000000
00010000
00100000
01000000
,  // measure 80
00100000
00000000
01000000
00010000
00000000
10000000
01000000
10000000
,  // measure 81
01000000
00000000
00100000
00010000
00000000
10000000
01000000
00000000
,  // measure 82
10010000
00000000
00010000
00000000
01000000
00001000
00010000
00000010
,  // measure 83
00010000
00000000
00000000
00000000
00000100
00000000
00000001
00000000
00000100
00000000
00000000
00001000
00000000
00000000
00000100
00000000
,  // measure 84
00000010
00000000
00000000
00000000
00000100
00000000
00010000
00000000
00000100
00000000
00000000
00001000
00000000
00000000
00000010
00000000
,  // measure 85
00010000
00000000
00000100
00010000
00000000
00001000
00100000
00000000
,  // measure 86
01010000
00000000
00001000
00001000
00000000
01000000
00010000
01000000
,  // measure 87
00100000
00000000
00010000
00001000
00000000
00010000
00100000
01000000
,  // measure 88
00001000
00000000
00010000
00100000
00000000
01000000
00001000
00010000
,  // measure 89
00001000
00000000
00000010
00000100
00000000
00010000
00000010
00000100
,  // measure 90
00000100
00000001
00000010
00000100
00000000
00010000
00001000
00010000
,  // measure 91
00000000
00001000
01000000
00100000
00000000
10000000
01000000
00100000
,  // measure 92
00000000
00001000
00010000
00001000
00000000
00010000
00000100
00000010
,  // measure 93
00000000
00000001
00000100
00000010
00010000
00001000
00100000
01000000
,  // measure 94
01100000
00000000
10000000
01000000
00000000
00100000
00001000
01000000
,  // measure 95
00000000
00100000
00010000
00001000
00000000
00000100
00000001
00000100
,  // measure 96
00000000
00001000
00010000
00001000
00000000
01000000
10000000
01000000
,  // measure 97
00000000
00100000
01000000
10000000
01000000
00001000
00010000
00000100
,  // measure 98
00000220
00000000
00000000
00000000
,  // measure 99
00000330
00000000
00000000
00000000
;

//---------------dance-double - D. Bernardone----------------
#NOTES:
     dance-double:
     D. Bernardone:
     Hard:
     9:
     0.608,0.608,0.255,0.062,0.100,571.000,37.000,9.000,0.000,1.000,0.000:
00000000
00000000
00000000
00000000
,
00000000
00000000
00000000
00000000
,
00000000
00000000
00000000
00000000
,
00001000
00100000
00001000
00010000
00000100
00001000
00000010
00000100
00000001
00001000
00000100
00010000
,
00002000
00000000
00003000
00000000
,
01000000
00000000
00010000
00100000
00001000
00000000
00000100
00000010
,
00001000
00000000
00000000
00000000
00000100
00000000
00000000
00000000
00000001
00000000
00000000
00000001
00000100
00000000
00010000
00000000
,
00001000
00000000
01000000
00010000
00100000
00000000
01000000
10000000
,
00010000
00000000
00000000
00001000
00000000
00000000
00000100
00000000
00000000
00000000
00000010
00000000
00000100
00000000
00001000
00000000
,
00001001
00000000
00000001
00000100
00001000
00000000
00010000
01000000
,
00100000
00000000
00000000
00000000
00010000
00000000
00000000
00000000
01000000
00000000
00000000
10000000
01000000
00000000
00001000
00000000
,
00010000
00000000
00000100
00000010
00000001
00000000
00000100
00000010
,
00010010
00000000
00000000
00010000
00001000
00000000
00000000
00000000
01000000
00000000
00010000
00000000
00100000
00000000
00000000
00000000
,
00022000
00000000
00000000
00033000
,
00001001
00000000
00000001
00000010
00001000
00000000
00001000
00010000
,
01000000
00000000
00000000
00000000
00100000
00000000
00000000
00000000
01000000
00000000
00000000
00010000
00001000
00000000
00000100
00000000
,
00000010
00000000
00001000
00000100
00000001
00000000
00000100
00010000
,
00000010
00000000
00001000
00000000
00000100
00010000
00001000
01000000
,
00100000
00000000
10000000
00100000
00010000
00000000
00001000
00000100
,
00000010
00000000
00000000
00000000
00001000
00000000
00000000
00000000
00000001
00000000
00000000
00000100
00001000
00000000
00010000
00000000
,
01000000
00000000
00100000
00010000
10000000
00000000
00100000
01000000
,
00001000
00000000
00001000
00000000
00010000
00000100
00000010
00000000
,
00000001
00000100
00001000
00000100
00000010
00000000
00010000
00100000
,
00000000
00010000
00001000
00000000
00001000
00000000
00100000
01000000
,
00010000
00000000
00001000
00000100
00001000
00000000
00010000
01001000
,
00000000
01001000
00000000
00010000
00100000
10000000
00100000
00001000
,
00010000
00000000
00000010
00001000
00000100
00000000
00010000
01000000
,
00000000
00010000
00001000
00000000
00001000
00000000
00100000
01000000
,
00010000
00000000
00001000
00000010
00000001
00000000
00000100
00000010
,
00010010
00000000
00010010
00000000
01000000
00001000
00000100
00000000
,
00000010
00001000
00000010
00001000
00000010
00001000
00000010
00001000
,
00000001
00000000
00000000
00000100
00000000
00000000
00000000
00000000
,
00000001
00000010
00000001
00000010
00000100
00000010
00000001
00000010
,
00000001
00000000
00000000
00010100
00000000
00000000
00000000
00000000
,
00000001
00000100
00001000
00010000
,
01000000
00100000
00001000
00010000
01000000
00000000
10000000
00000000
,
10010000
00000000
00011000
00000000
,
00001001
00000110
00011000
01100000
,
10000000
01000000
00010000
01000000
00100000
00001000
00010000
00001000
,
00000100
00000000
00000001
00000010
00001000
00000000
00001000
00000000
,
00010000
00001000
00100000
01000000
00010000
00001000
00000100
00002000
,
00010000
00000000
00103000
00110000
00001000
00000000
00011000
00000000
,
00000010
00000000
00000001
00000000
00000010
00000000
00000001
00000000
00000010
00000000
00000001
00000000
00000010
00000000
00000001
00000100
,
00001000
00000000
00010000
00000000
00001000
00000000
00010000
00000000
00001000
00000000
00010000
00000000
00001000
00000000
00010000
01000000
,
10000000
00000000
00100000
00000000
10000000
00000000
01000000
00000000
10000000
00000000
00100000
00000000
10000000
00000000
01000000
00100000
,
00001000
00010000
00000010
00010000
00000100
00010000
00001000
00010000
,
00020020
00000000
00100000
00030030
,
00000010
00000100
00000001
00001000
00000100
00000010
00001000
00010000
,
00001000
01000000
00010000
00100000
01000000
00010000
00001000
00010000
,
00100000
10000000
01000000
10000000
00100000
01000000
00001000
00010000
,
00001000
00000010
00000001
00000101
00000010
00000000
00001000
00001000
,
00000010
00000100
00001000
00010000
00001000
00000100
00000010
00010000
,
00001000
00010000
01000000
00100000
00001000
00010000
01000000
00000000
,
01000000
00010000
00001000
00000100
00000001
00000010
00001000
00010000
,
00001000
00010000
00000100
00001001
,
00000001
00000010
00001000
00000010
00000001
00000010
00001000
00010000
,
00001000
00000100
00001000
00010000
00001000
00000100
00001000
00010000
,
00100000
01000000
00100000
00010000
00001000
00010000
00100000
01000000
,
00010000
10000000
01000000
00010000
01000000
10000000
01000000
00010000
,
00001000
00000010
00001000
00010000
00001000
00000010
00001000
00010000
,
00001000
00000100
00000001
00000100
00001000
00000100
00000001
00000010
,
00000100
00010000
00001000
01000000
10000000
01000000
00010000
00100000
,
01000000
10000000
00010000
00100000
00001000
00010000
00000100
00001000
00000010
00000100
00000001
00001000
,
00000020
00000000
00000030
00000000
,
00000010
00000000
00000101
00000000
00000001
00000010
00000100
00001000
,
00000010
00000000
00010010
00000000
00010000
00001000
00100000
00010000
,
10000000
00000000
00100000
01000000
00001000
00000000
00010000
00000100
,
00000010
00000000
00000000
00001000
00000000
00000000
00010000
00000000
,
00000010
00000000
00001000
00000100
00010000
00000100
00001000
00000100
,
00010000
00000000
00011000
00000000
00001000
01000000
00010000
00100000
,
01000000
00000000
10000000
00010000
01000000
00000000
00001000
00010000
,
00000100
00000000
00000000
00000010
00000000
00000000
00000001
00000000
,
00001001
00000000
00001010
00011000
,
10010000
00000000
00000000
00000000
10000000
01000000
00010000
00001000
,
00010000
00000000
00000000
00000000
00000000
00000000
00000000
00000000
00001000
00000000
00000000
00000010
00000000
00000000
00000100
00000000
,
00001000
00000000
00000000
00000000
00000001
00000000
00000010
00000000
00001000
00000000
00000000
00010000
00000000
00000000
00100000
00000000
,
01000000
00000000
00010000
10000000
00000000
10000000
10100000
00000000
,
01010000
00000000
10000000
00100000
00000000
00100000
00010000
00001000
,
00010000
00000000
00001000
00000100
00000000
00000100
00000010
00001000
,
00000001
00000000
00000100
00001000
00000000
00001000
00010000
00001000
,
01000000
00000000
10000000
01000000
00000000
01000000
00010000
00000000
,
11000000
00000000
01000000
00010000
00001000
00000100
00000010
00001000
,
00001001
00000000
00000000
00000000
00000001
00000000
00000010
00000000
00000100
00000000
00000000
00010000
00000000
00000000
00001000
00000000
,
01001000
00000000
00000000
00000000
00010000
00000000
00100000
00000000
01000000
00000000
00000000
10000000
00000000
00000000
00010000
00000000
,
01010000
00000000
01000000
00100000
00000000
00100000
10100000
00000000
,
01100000
00000000
10000000
00010000
00000000
00010000
00100000
00001000
,
00000100
00000000
00000001
00000010
00000000
00000010
00000100
00010000
,
00000010
00000000
00000100
00001000
00000000
00001000
00100000
00010000
,
10010000
00000000
00001000
01000000
00000000
01000000
00010000
00100000
,
01000000
10000000
00100000
00010000
00000000
00001000
00000010
00000001
,
00000000
00000001
00000100
00001000
00000000
00010000
01000000
10000000
,
00000000
10000000
00010000
00100000
00000000
01000000
00100000
00001000
,
00000000
00000100
00000010
00010000
00001000
00100000
01000000
10000000
,
00010000
01000000
00001000
00000100
00000000
00000100
00010000
01000000
,
00000000
00000010
00001000
00100000
00000000
00100000
00010000
00000010
,
00000000
00001000
00000001
00010000
00000000
00001000
10000000
00010000
,
00000000
00100000
00001000
00000100
00000010
01000000
00001000
00010000
,
00022000
00000000
00000000
00000000
,
00033000
00000000
00000000
00000000
;

//---------------dance-double - D. Bernardone----------------
#NOTES:
     dance-double:
     D. Bernardone:
     Challenge:
     12:
     0.828,1.000,0.172,0.069,0.652,805.000,25.000,10.000,0.000,1.000,0.000:
00000000
00000000
00000000
00000000
,
00000000
00000000
00000000
00000000
,
00000000
00000000
00000000
00000000
,
10000000
01000000
00010000
00001000
00000010
00000001
00000100
00001000
00010000
00100000
10000000
00001000
,
00022000
00000000
00000000
00000000
00000000
00033000
00000000
00000000
00000000
00000000
00000000
00000000
,
00011000
00000000
00010000
00000100
00000001
00000000
00000100
00010000
,
00100000
00000000
00000000
00000000
01000000
00000000
00000000
00000000
00001000
00000000
00000000
00000010
00000001
00000000
00000100
00000000
,
00000010
00000000
00000100
00001000
00100000
00000000
01000000
00010000
,
00001000
00000000
00000100
00000010
00000000
00000100
00000000
00000000
00000000
00000000
00000001
00000000
00000010
00000000
00001000
00000000
,
00011000
00000000
00001000
01000000
10000000
00000000
01000000
00001000
,
00000010
00000000
00000000
00000000
00000100
00000000
00000000
00000000
00010000
00000000
00000000
00100000
10000000
00000000
01000000
00000000
,
00100000
00000000
01000000
00010000
00000010
00000000
00000100
00000001
,
00001001
00000000
00000000
00001000
00000100
00000000
00000000
00000000
00000010
00000000
00000001
00000000
00000100
00000000
00000000
00000000
,
00000010
00001000
00000010
00010000
00001000
00010000
00001000
00100000
00010000
00100000
00001000
00010000
00001000
00010000
00000100
00001000
,
00000100
00000000
00000010
00000001
00000100
00000000
00001000
00000000
00010000
00000000
00100000
01000000
00010000
00000000
10000000
00000000
,
01000000
00010000
00001000
00010000
01000000
00000000
10000000
00000000
00100000
00000000
00010000
00001000
00010000
00000010
00001000
00000000
,
00000001
00000000
00000100
00000001
00000010
00000000
00001000
00000000
00010000
00000000
00001000
00000100
00001000
00010000
00100000
00000000
,
01000000
00000000
01000000
00000000
00001000
00000010
00000001
00000100
,
00000010
00000000
00001000
00000100
00010000
00000000
00001000
00000000
01000000
00000000
00100000
00010000
00100000
10000000
01000000
00000000
,
00100000
00001000
01000000
00001000
00010000
00000000
00000100
00000000
00000010
00000000
00000001
00000100
00001000
00000100
00000010
00010000
,
00001000
00000100
00001000
00010000
00001000
00000000
00100000
00000000
01000000
00000000
00010000
01000000
10000000
00010000
01000000
00000000
,
00100000
00000000
00000000
10000000
01000000
00000000
00000000
00000000
00001000
00000000
00000100
00000000
00000010
00000000
00000000
00000000
,
00000001
00000000
00000100
00001000
00010000
00000000
01000000
00100000
,
10000000
00000000
00000000
00000000
10000000
00000000
00000000
00000000
10000000
00000000
00000000
01000000
00010000
00000000
00001000
00000000
,
00000100
00000000
00000010
00001000
00000001
00000000
00000010
00001000
,
00010000
00000000
00010000
00000000
00010000
00101000
01100000
01000000
,
10000000
00000000
00010000
00000000
00100000
00000000
00001000
00000000
00000100
00000000
00000010
00000000
00001000
00000000
00000001
00000100
,
00001000
00000000
00010000
00000000
00100000
00000000
01000000
00000000
00010000
00000000
00100000
00000000
01000000
00000000
00010000
00001000
,
00000100
00000000
00000010
00000000
00001000
00000000
00000001
00000100
00000001
00000000
00000010
00000000
00001000
00000000
00010000
00001000
,
01000000
00010000
01000000
00001000
00010000
00001000
00010000
00000100
00001000
00000100
00000010
00000001
00000010
00000100
00010000
00001000
,
00100000
01000000
00100000
00010000
00100000
01000000
00100000
00010000
,
00100000
00000000
00000000
01000000
00000000
00000000
00000000
00000000
,
10000000
01000000
00100000
01000000
10000000
01000000
00100000
01000000
,
10000000
00000000
00000000
00001100
00000000
00000000
00000000
00000000
,
00000010
00000001
00000100
00001000
00010000
01000000
10000000
00000000
,
00100000
10000000
01000000
00010000
00001000
00000100
00000001
00000000
,
00000011
00000100
00001000
00000000
00110000
00001000
01000000
00000000
,
10010000
00000000
00100000
00000000
01001000
00000000
00010000
00000000
00011000
00000000
00000100
00000000
00000010
00000001
00000010
00000001
,
00001000
00000100
00010000
00000100
00001000
00000010
00010000
00001000
,
00100000
00010000
00100000
00001000
01000000
00100000
10000000
01000000
,
10000000
00100000
10000000
01000000
00100000
00001000
00010000
00000100
,
00010000
00001000
00010000
00000100
00000010
00000001
00001000
00000010
,
00001000
00000000
00000001
00000000
00000100
00000000
00001000
00000000
00010000
00000000
00100000
00000000
01000000
00000000
00001000
00010000
,
00100000
00000000
10000000
00000000
01000000
00000000
00100000
00000000
00001000
00000000
00000100
00000000
00000010
00000000
00001000
00000010
,
00000100
00000001
00000100
00000001
00000100
00000001
00000100
00000001
00010000
00000010
00010000
00000010
00010000
00000010
00010000
00000010
,
00010000
00001000
00100000
00010000
00100000
00001000
00010000
00000010
00001000
00000010
00010000
00001000
01000000
00001000
00010000
00000200
,
00002000
00000000
00100010
00003300
,
00001000
00000001
00000100
00001000
00010000
00100000
00010000
00000100
,
00000010
00000001
00000100
00001000
00010000
01000000
00100000
00001000
,
00000010
00000001
00000100
00000010
00010000
00001000
00010000
01000000
,
00100000
00001000
00000100
00000010
00010000
00001000
01001000
01010000
,
10010000
10000000
00100000
00010000
00001000
00000010
00000001
00000000
,
00000100
00000001
00000010
00001000
00010000
00100000
10000000
00000000
,
01000000
00010000
00001000
00000010
00001000
00010000
01000000
10000000
,
00010000
00000000
00010000
00000000
01000000
00000000
01000000
00000000
00000100
00000000
00000000
00001000
00000010
00000000
00010000
00001000
,
01000000
00000000
00100000
10000000
00010000
00000000
01000000
00000000
00001000
00000000
00010000
00000010
00001000
00000000
00000100
00000000
,
00000001
00000000
00000100
00010000
00001000
00000000
00100000
00000000
01000000
00000000
10000000
00010000
01000000
00010000
10000000
00010000
,
00100000
00000000
01000000
10000000
00010000
00000000
00100000
00000000
01000000
00000000
00010000
00001000
00010000
00000000
00000010
00000000
,
00000100
00000000
00000001
00000010
00000100
00000000
00000001
00000000
00000100
00000000
00010000
00001000
00100000
00000000
01000000
00000000
,
00010000
00000000
00001000
01000000
00100000
00000000
10000000
00000000
01000000
00000000
00010000
00001000
00000010
00000000
00000001
00000000
,
00000100
00000000
00000010
00010000
00001000
00000000
00100000
00000000
01000000
00000000
10000000
00100000
10000000
00010000
10000000
01000000
,
10000000
00000000
00100000
01000000
00001000
00000000
00010000
00000000
00000100
00000000
00000010
00000001
00001000
00000000
00000000
00000000
,
00000001
00000100
00001000
00010000
00100000
10000000
01000000
00010000
00001000
00000010
00000001
00010000
,
00022000
00000000
00033000
00000000
,
20001000
00000000
30010000
00000000
01000000
00100000
10000000
00001000
,
02000000
00000000
03001000
00000000
00100000
00001000
00010000
00000001
,
00000100
00000000
00000000
00000000
00000010
00000000
00010000
00000000
00001000
00000000
00000000
00100000
00000000
00000000
01000000
00000000
,
00010000
00000000
00001000
00000100
00000000
00000000
00000010
00000010
,
00001001
00000000
00000001
00000100
00001000
00010000
00001000
00000100
,
00000001
00000000
00000010
00000100
00000000
00010000
00001000
00100000
,
01000000
00000000
00010000
00001000
00000000
00000100
00000010
00010000
,
00001000
00000000
00100000
01000000
00000000
10000000
00010000
01000000
,
10010000
00000000
00100000
00000000
00000000
00000000
00000000
00000000
11000000
00000000
00000000
00000000
10000000
00010000
10000000
00010000
,
00100000
00000000
00001000
00010000
00001000
00000000
01000000
00000000
00000000
00000000
00100000
10000000
00100000
10000000
00100000
00000000
,
00000000
00000000
01000000
00001000
01000000
00000000
00001000
00000000
00000000
00000000
00010000
00000010
00010000
00000010
00010000
00000010
,
00010000
00000000
00000100
00001000
00000100
00000000
00001000
00000000
00000000
00000000
00000001
00001000
00000001
00000000
00001000
00000000
,
00000000
00000000
00000100
00010000
00000100
00000000
00010000
00000000
00000000
00000000
00001000
00100000
00001000
00000000
00100000
00000000
,
00000000
00000000
00010000
10000000
00010000
00000000
10000000
00000000
00000000
00000000
00100000
10000000
00100000
10000000
00100000
00000000
,
00000000
00000000
01000000
00010000
01000000
00000000
00001000
00000000
00000000
00000000
00001000
00010000
00001000
00010000
00001000
00010000
,
00001000
00000000
00010000
00000100
00010000
00000000
00000100
00000000
00000000
00000000
00001000
00000010
00001000
00000010
00001000
00000000
,
00000000
00000000
00000010
00000100
00000010
00000000
00000100
00000000
00000000
00000000
00000001
00001000
00000001
00001000
00000001
00001000
,
00001001
00000000
00000001
00000100
00000010
00000000
00000100
00000000
00000000
00000000
00000010
00001000
00000100
00000000
00010000
00000000
,
00000000
00000000
00001000
01000000
00010000
00000000
10000000
00000000
00000000
00000000
10000000
01000000
10000000
00010000
10000000
00100000
,
10000000
01000000
10000000
01000000
10000000
00000000
00010000
00000000
00000000
00000000
01000000
00010000
01000000
00010000
00100000
00000000
,
00000000
00000000
00001000
00010000
00000100
00000000
00001000
00000010
00000100
00000000
00000001
00000100
00000001
00001000
00000001
00000010
,
00000001
00000000
00000100
00000010
00001000
00000000
00000100
00000000
00000000
00000000
00010000
00001000
00100000
00000000
00010000
00000000
,
01000000
00100000
01000000
00010000
10000000
00000000
00010000
00000000
00000000
00000000
01000000
00010000
10000000
00010000
00100000
00010000
,
10000000
00000000
01000000
00100000
00010000
00000000
00100000
00000000
00000000
00000000
00001000
00010000
00001000
00010000
00000100
00000000
,
00000000
00000000
00000010
00000001
00001000
00000000
00000001
00000000
00000000
00000000
00000100
00000001
00000100
00000010
00000100
00000010
,
00000110
00000000
00001000
00000100
00010000
00000000
00000100
00000000
00000000
00000000
00010000
00001000
01000000
00001000
00010000
00000000
,
00000000
00000000
00001000
00100000
00010000
00000000
00100000
00000000
00000000
00000000
00001000
00010000
00000010
00010000
00001000
00010000
,
00001000
00000000
01000000
00100000
10000000
00000000
01000000
00000000
00000000
00000000
00100000
00001000
00010000
00001000
00010000
00000000
,
00000000
00000000
00000100
00000010
00000001
00000000
00000100
00000000
00000000
00000000
00000010
00010000
00001000
00100000
00001000
00010000
,
00011000
00000000
00001000
01000000
00010000
00000000
01000000
00000000
00000000
00000000
00001000
00010000
00000100
00010000
00001000
00000000
,
00000000
00000000
00010000
00000010
00001000
00000000
00000010
00000000
00000000
00000000
00010000
00001000
00100000
00001000
00010000
00001000
,
00010000
00000000
00000100
00000010
00000001
00000000
00000100
00000000
00000000
00000000
00000010
00010000
00001000
00010000
00001000
00000000
,
00000000
00000000
00100000
01000000
10000000
00000000
00100000
01000000
00000000
00000000
00001000
00010000
00000100
00010000
00001000
00000000
,
00022000
00000000
00000000
00000000
,
00033000
00000000
00000000
00000000
;
