#TITLE:Dr. Doolittle;
#SUBTITLE:;
#ARTIST:Bambee;
#TITLETRANSLIT:;
#SUBTITLETRANSLIT:;
#ARTISTTRANSLIT:;
#GENRE:Bubblegum Dance;
#CREDIT:Sync by HellRazor;
#BANNER:Dr. Doolittle-bn.png;
#BACKGROUND:Dr. Doolittle-bg.png;
#LYRICSPATH:;
#CDTITLE:;
#MUSIC:Dr. Doolittle.ogg;
#OFFSET:-0.5075;
#SAMPLESTART:87.000;
#SAMPLELENGTH:12.000;
#SELECTABLE:YES;
#BPMS:0.000=138.000;
#STOPS:;
#BGCHANGES:0.000=Dr. Doolittle-bg.png=1.000=0=0=1=====,
8.000=In The Groove Rebirth/1164_JumpBack.mpg=1.000=0=0=1=====,
24.000=In The Groove Rebirth/505_JB_HD.mpg=1.000=0=0=1=====,
40.000=In The Groove Rebirth/258_JB_HD.mpg=1.000=0=0=1=====,
56.000=In The Groove Rebirth/520_JB_HD.mpg=1.000=0=0=1=====,
72.000=In The Groove Rebirth/1130_JumpBack.mpg=1.000=0=0=1=====,
84.000=Dr. Doolittle-bg.png=1.000=0=0=1=====,
88.000=In The Groove Rebirth/503_JB_HD.mpg=1.000=0=0=1=====,
104.000=In The Groove Rebirth/218_JB_HD.mpg=1.000=0=0=1=====,
120.000=In The Groove Rebirth/1164_JumpBack.mpg=1.000=0=0=1=====,
136.000=In The Groove Rebirth/258_JB_HD.mpg=1.000=0=0=1=====,
152.000=In The Groove Rebirth/505_JB_HD.mpg=1.000=0=0=1=====,
168.000=In The Groove Rebirth/503_JB_HD.mpg=1.000=0=0=1===SlideRight==,
184.000=In The Groove Rebirth/218_JB_HD.mpg=1.000=0=0=1=====,
196.000=Dr. Doolittle-bg.png=1.000=0=0=1=====,
200.000=In The Groove Rebirth/1130_JumpBack.mpg=1.000=0=0=1=====,
216.000=In The Groove Rebirth/520_JB_HD.mpg=1.000=0=0=1=====,
232.000=In The Groove Rebirth/1164_JumpBack.mpg=1.000=0=0=1=====,
248.000=In The Groove Rebirth/505_JB_HD.mpg=1.000=0=0=1=====,
264.000=Dr. Doolittle-bg.png=1.000=0=0=1=====,
99999=-nosongbg-=1.000=0=0=0 // don't automatically add -songbackground-
;
#BGCHANGES2:72.000=yellow flash=1.000=0=0=1=====,
84.000=flash=1.000=0=0=1====0^0^1^1=,
86.000=flash=2.000=0=0=1====1^1^0^1=,
87.000=flash=2.000=0=0=1====1^1^0^1=,
88.000=white flash=2.000=0=0=1=====,
116.000=white flash=1.000=0=0=1=====,
184.000=flash=1.000=0=0=1====1^0^1^1=,
196.000=flash=1.000=0=0=1====0^0^1^1=,
198.000=flash=2.000=0=0=1====1^1^0^1=,
199.000=flash=2.000=0=0=1====1^1^0^1=,
200.000=flash=2.000=0=0=1====1^0^1^1=,
228.000=flash=1.000=0=0=1====1^0^1^1=,
264.000=white flash=1.000=0=0=1=====,
;
#KEYSOUNDS:;

//---------------dance-single - Brandon H.----------------
#NOTES:
     dance-single:
     Brandon H.:
     Hard:
     7:
     0.452,0.428,0.189,0.326,0.081:
0000
0000
0000
0000
,
0000
0000
0000
0000
,
1001
0000
0001
0000
1000
0001
0010
0001
,
1000
0000
0001
0000
0100
0001
1000
0001
,
0100
0000
0001
0000
0010
0001
0100
0001
,
0010
0000
0100
0000
1000
0100
1000
0010
,
0100
0000
0010
0000
1000
0001
0100
0001
,
0010
0000
0100
0000
1000
0010
1000
0001
,
0010
0000
0001
0000
1000
0100
1000
0010
,
0100
0000
0001
0000
1000
0010
0100
0001
,
1000
0000
0100
1000
0001
0000
1000
0010
,
1000
0000
0001
0100
0010
0000
0000
0000
,
0001
0000
0000
0100
0000
0000
0001
0000
1000
0000
0000
0000
0001
0000
0000
0000
,
1000
0000
0000
0100
0000
0000
1000
0000
0001
0000
0000
0000
2000
0000
0000
0000
,
3000
0200
0010
1300
,
0010
0000
0000
0100
0000
0000
0010
0000
2000
0000
0000
0000
0100
0000
0000
0000
,
3010
0000
0000
1000
0000
0000
0010
0000
0200
0000
0000
0000
1000
0000
0000
0000
,
0310
0000
0000
0100
0000
0000
0010
0000
1000
0000
0000
0000
1001
0000
0000
0000
,
2000
0001
0010
3001
,
0002
1000
0100
1003
,
2000
0001
0010
3001
,
2000
3002
2003
3000
,
1001
0000
0011
0000
0010
0001
1000
0000
,
1001
0000
0000
1000
0000
0000
1020
0000
0000
0000
1030
0000
0010
0000
0000
0000
,
1000
0001
0100
0000
0010
0100
0001
0000
,
0100
0000
0000
0010
0000
0000
0210
0000
0000
0000
0310
0000
1000
0000
0000
0000
,
1010
0000
1001
0000
0001
0100
0001
0000
,
0002
0000
0000
0023
0000
0000
0230
0000
0000
0000
1300
0000
0001
0000
0000
0000
,
0100
0010
1000
0000
0001
0100
0010
2000
,
0000
0000
3100
0000
1000
0100
1100
0000
,
0100
0000
0010
0000
0001
0010
0001
0000
,
0010
0000
0100
0000
1000
0001
1000
0000
,
0010
0000
0100
0000
0010
1000
0002
0000
,
1000
0000
0000
0000
0003
0000
1000
0000
0100
0000
1000
0100
0000
1000
0001
0000
,
2000
0000
0010
0000
0010
3010
1000
0000
,
0010
0000
0100
0000
0010
1000
1000
0000
,
0010
0000
1000
0000
0001
0010
0010
0000
,
0001
0000
1000
0000
0100
1000
1000
0001
,
0001
0000
1000
0000
0001
0000
1000
0002
,
0000
0003
0000
0000
0000
0000
0000
0000
,
0100
0000
0000
0010
0000
0000
1000
0000
0000
0000
0000
0000
0000
0000
0000
0000
,
0001
0000
0000
0100
0000
0000
0001
0000
0000
0000
0000
0000
0200
0000
0000
0000
,
0300
0000
0010
0000
0100
0000
0001
0020
,
0000
0030
0000
0000
0000
0000
0000
0000
,
0100
0000
0000
0010
0000
0000
0001
0000
0000
0000
0000
0000
0000
0000
0000
0000
,
0100
0000
0000
0010
0000
0000
1000
0000
0000
0000
0000
0000
0100
0000
0000
0000
,
1001
0000
1000
0010
0100
0010
0010
0000
,
0010
1000
0001
0000
0100
0001
1000
0000
,
0010
1000
0001
0100
0000
0001
1000
0000
,
2000
3002
2003
3000
,
1001
0000
1010
0000
0010
1000
0001
0000
,
1001
0000
0000
1000
0000
0000
1020
0000
0000
0000
1030
0000
0010
0000
0000
0000
,
1000
0001
0010
0000
0010
0001
0100
0000
,
0100
0000
0000
0010
0000
0000
0210
0000
0000
0000
0310
0000
0100
0000
0000
0000
,
0101
0000
0011
0000
0001
0010
0100
0000
,
2000
0000
0000
3200
0000
0000
0320
0000
0000
0000
0130
0000
1000
0000
0000
0000
,
0100
0010
0001
0000
0001
0100
0010
2000
,
0000
0000
3001
0000
1000
0001
1001
0000
,
2000
0000
0000
0010
0000
0010
0000
3010
,
0200
0000
0000
0001
0000
0001
0000
0301
,
0020
0000
0000
0001
0000
0001
0000
0031
,
1000
0000
0001
0000
0000
0000
1000
0000
1000
0000
0001
0010
0000
0001
1000
0000
,
0002
0010
1000
0103
,
0120
1000
0100
1030
,
0201
0000
0001
0000
0010
0000
0001
0300
,
2010
0010
0001
0010
,
0002
0000
3003
0000
MMMM
0000
0000
0000
;

//---------------dance-single - Brandon H. edited by S. Venkat----------------
#NOTES:
     dance-single:
     Brandon H. edited by S. Venkat:
     Challenge:
     9:
     0.707,0.740,0.360,0.343,0.634:
0000
0000
0000
0000
,
0000
0000
0000
0000
,
0001
0100
0000
0100
0001
0000
0100
0010
0000
1000
0010
0000
0100
0001
0100
0010
,
1000
0001
0000
0010
0001
0000
0001
0100
0000
0100
0001
0000
0100
0010
1000
0010
,
0100
0001
0000
0100
0001
0000
0010
0001
0000
0001
0010
0000
0001
0010
0100
0010
,
0001
0100
0000
0100
0001
0000
0100
0001
0000
0100
0010
0000
1000
0010
0100
0001
,
0100
0010
0000
1000
0010
0000
0010
1000
0000
1000
0100
0000
0100
0010
0001
0010
,
0100
1000
0000
0001
0010
0000
0001
0010
0000
0001
1000
0000
0001
0100
0001
0010
,
0100
0010
0000
0100
1000
0000
0100
1000
0000
1000
0010
0000
0100
0001
1000
0010
,
0100
0001
0000
0001
1000
0000
0001
0100
0010
1000
0001
0100
0001
0010
0100
1000
,
0001
0000
0001
1000
0010
0000
1000
0010
,
1000
0000
0000
0000
0001
0000
0010
0100
0010
0000
0000
0000
0100
0000
1000
0100
,
1000
0000
0000
0000
0001
0000
0010
0001
0010
0000
0000
0000
0100
0000
1000
0001
,
1000
0000
0000
0000
0001
0000
0010
0100
0010
0000
0000
0000
0002
0000
0000
0000
,
1003
0000
0000
0100
0000
0000
0010
0000
0001
0000
0000
0100
0000
0000
0010
0000
,
1000
0000
0000
0100
0000
0000
0010
0000
0001
0000
0000
0010
0000
0000
0001
0000
,
0101
0000
0010
0000
2000
0000
0000
0010
0000
0000
3010
0000
1000
0000
0000
0000
,
0010
0000
0000
0000
1000
0000
0000
0100
0000
0000
0010
0000
0001
0000
1000
0000
,
0001
1000
0001
1000
0001
0000
0000
0000
1000
0010
0100
0001
1000
0000
0000
0000
,
0001
0100
0010
1000
0001
0000
0000
0000
1000
0010
1000
0001
0100
0000
0000
0000
,
0010
1000
0010
0100
0001
0000
0000
0000
1000
0010
0100
0010
1000
0000
0000
0000
,
0001
0000
0000
2000
0000
0000
3002
0000
1003
0000
0000
0000
1000
0000
0010
0000
,
1010
1000
1001
0000
0001
1000
1001
0000
,
0001
0000
0000
0100
0000
0000
1010
0000
0000
0000
0010
0000
1000
0000
0001
0000
,
0101
0000
0001
0100
0000
0100
0001
0000
1000
0000
0100
1000
0000
1000
0100
0000
,
0010
0000
0000
0001
0000
0000
1001
0000
0000
0000
0100
0000
0001
0000
0100
0000
,
0101
0001
1001
0000
0001
0100
0110
0000
,
0101
0000
0000
0010
0000
0000
1010
0000
0000
0000
0010
0000
0100
0000
0010
0000
,
1010
1000
1001
0000
0001
0010
0011
0000
,
1000
0000
0000
0010
0000
0000
1100
0000
0000
0001
0000
0000
0201
0000
0000
0000
,
0301
0100
0000
0001
0100
0000
0010
1000
0000
0010
1000
0000
0010
1000
0010
0100
,
0001
1000
0000
0001
1000
0000
0001
0100
0000
0001
0100
0000
0010
1000
0010
0100
,
0010
1000
0000
0010
0100
0000
0100
0001
0000
0001
0010
0000
0100
1000
0100
0010
,
0001
0010
0000
0001
0100
0000
0010
1000
0000
0010
0100
0000
0001
0100
0010
1000
,
0001
0100
0000
0001
0010
0000
0100
1000
0000
0100
0010
0000
0001
0010
0001
0100
,
0010
1000
0000
0010
0100
0000
0010
1000
0000
0010
0100
0000
0010
1000
0001
0100
,
0010
1000
0000
1000
0100
0000
0010
0001
0000
0001
0100
0000
0010
1000
0001
1000
,
0001
0100
0000
0001
0100
0000
0001
0100
0000
0010
1000
0000
1000
0100
0000
0100
,
2000
0000
3001
0100
0020
0000
1030
0020
,
0000
0000
0000
0001
0000
0000
0130
0000
0000
0000
0000
0000
0100
0000
0010
0000
,
2000
0000
3100
0001
0200
0000
0301
0100
,
0020
0000
0000
0001
0000
0000
0031
0000
0000
0000
2000
0000
3001
0000
0000
0000
,
1020
0000
0000
0000
0100
0030
0010
0000
0001
0000
0000
0000
0010
0000
2000
0000
,
0000
0000
0000
0100
0000
0000
3100
0000
0000
0000
0000
0000
0100
0000
0010
0000
,
0001
0000
0000
0100
0000
0000
1010
0000
0000
0000
0000
0000
0001
0000
0100
0000
,
0001
0000
0000
0100
0000
0000
0011
0000
0000
0000
0000
0000
1001
0000
0000
0010
,
0100
0000
0001
0000
0010
0000
0100
0000
1000
0000
0100
0000
0010
0000
0000
0010
,
0100
0000
1000
0000
0100
0000
0010
0000
0010
0000
0001
0000
0010
0000
0000
0001
,
1000
0000
0100
0000
1100
0000
0000
0010
0001
0000
0100
0000
0101
0000
0000
0000
,
0020
0000
0000
1030
0000
0000
1010
0000
0000
1000
0100
0000
1100
0000
0000
0000
,
0001
0100
0110
0000
0010
1000
1010
0000
,
0010
0000
0000
1000
0000
0000
1010
0000
0000
0000
1000
0000
0001
0000
0010
0000
,
0011
0000
0001
1000
0000
1000
0001
0000
0100
0000
0010
1000
0000
1000
0010
0000
,
0100
0000
0000
0110
0000
0000
1001
0000
0000
0000
0100
0000
0101
0000
0001
0000
,
0011
0000
1001
0100
0010
0000
0100
0010
,
1010
0000
0000
1100
0000
0000
0110
0000
0000
0000
0100
0000
1100
0000
1000
0000
,
1001
0000
1001
0100
0010
0100
0001
2000
,
0000
0000
0000
0000
3001
0000
0000
0000
0100
0000
0010
0000
2001
0000
0000
3000
,
0002
0000
0203
0000
0001
0001
0301
0000
,
0002
0000
0023
0000
0001
0001
0031
0000
,
0002
0000
0200
0003
1000
1000
2000
0300
,
0200
3000
0002
0300
0010
0010
0023
0000
,
2000
0030
0020
3000
0100
0100
0200
0030
,
0020
0300
0002
0030
1000
1000
2000
0003
,
0002
3000
2000
0003
0010
0010
0020
3000
,
0001
0000
0200
0030
1000
2300
0100
3100
,
2200
0000
3300
MMMM
0000
0000
0000
0000
;

//---------------dance-single - Brandon H.----------------
#NOTES:
     dance-single:
     Brandon H.:
     Medium:
     5:
     0.359,0.368,0.103,0.283,0.000:
0000
0000
0000
0000
,
0000
0000
0000
0000
,
0002
1000
0010
1003
,
0002
0100
0010
0103
,
0020
0100
1000
1030
,
0002
0100
0010
0013
,
0020
0100
0001
0130
,
0200
0010
1000
0310
,
0002
0010
1000
1003
,
2002
0000
0000
3003
1000
0001
0100
0001
,
0101
0000
1000
0000
0001
0000
1000
0002
,
0000
0003
0000
0000
,
0001
0000
1000
0000
0010
0100
0010
0000
,
1010
0000
1000
0000
0100
1000
0200
0000
,
1300
0000
1000
0000
0100
0000
0010
0002
,
0000
0100
0103
0000
,
0001
0000
1000
0000
0001
1000
0001
0000
,
0100
0000
0010
0000
1000
0010
2000
0000
,
3001
0100
0010
1000
,
0100
0010
0001
0000
0100
0010
0100
0000
,
0010
0000
0010
0000
0100
0001
0010
0000
,
0001
0010
0100
1000
2002
0000
0000
3003
,
1000
0100
0010
0000
0010
0001
1000
0000
,
2000
0001
3001
0000
,
0010
0001
1000
0000
1000
0001
0010
0000
,
0200
1000
1300
0000
,
0010
0100
0001
0000
1000
0100
0010
0000
,
0200
0000
0010
0000
0310
0000
0001
0010
,
0100
0000
0100
0010
0001
0000
0100
0000
,
0010
0100
0002
1000
,
0013
0000
0100
0000
0010
0100
0010
0000
,
0100
0000
1000
0000
0001
0100
0010
0000
,
0100
0000
0010
0000
1000
0010
0100
0000
,
0002
0010
0100
1003
,
0100
0000
0010
0000
0001
0010
0100
0000
,
1000
0000
0010
0000
0100
0001
1000
0000
,
0010
0000
0100
0000
0010
1000
0001
0000
,
2002
0000
3000
1000
,
1003
0000
0001
0000
0100
0000
0010
1000
,
0000
0000
0000
0000
,
0001
1000
0001
0000
,
0100
0010
1000
0000
,
0000
0001
0100
0001
,
1000
0100
0110
0000
,
0001
0100
0010
0000
,
1000
0100
0010
0001
,
2000
0000
0000
0000
0200
3000
0000
0000
,
0020
0300
0000
0000
0200
0030
0000
0000
,
2000
0300
0000
0000
0002
3000
0000
0000
,
0010
0010
0013
0000
,
0100
1000
0100
0000
0010
0001
0010
0000
,
0200
1000
1300
0000
,
1000
0001
1000
0010
,
0100
0100
0110
0000
,
0001
0010
0100
1000
,
0010
0010
0110
0000
,
0100
0001
1000
0100
,
0110
0000
0110
0000
,
0011
0001
0100
0000
,
0001
0100
0001
0000
,
0010
0001
0010
0000
,
0100
1000
0200
1300
,
1000
0100
0020
0000
,
0130
0010
0002
0000
,
0103
0010
2000
0000
,
3001
0100
0010
1000
,
1010
0000
0000
0000
;

//---------------dance-double - D. Bernardone----------------
#NOTES:
     dance-double:
     D. Bernardone:
     Easy:
     3:
     0.243,0.257,0.077,0.189,0.000:
00000000
00000000
00000000
00000000
,
00000000
00000000
00000000
00000000
,
10000000
00000000
01000000
01000000
,
00100000
00000000
00010000
00000000
,
01000000
00000000
00010000
00100000
,
00001000
00000000
00010000
00000000
,
00000100
00000000
00001000
00001000
,
00000010
00000000
00000100
00000000
,
00000001
00000000
00000010
00000100
,
00001000
00000000
00000020
00000000
,
00000130
00000100
00000000
00000001
,
00000000
00001000
00000000
00000100
,
00000000
00010000
00000000
00001000
,
00000000
01000000
00000000
00010000
,
00000000
00100000
00000000
01000000
,
00000000
10000000
00000000
00010000
,
00000000
00100000
00000000
01000000
,
00000000
00010000
00000000
00001000
,
00011000
00010000
00000100
00001000
,
00000100
00000010
00000001
00000010
,
00000100
00010000
00001000
00100000
,
00020000
00000000
01030000
00100000
,
10010000
00000000
10000000
01000000
,
00010000
00001000
00010000
00000000
,
00000100
00000000
00001000
00000010
,
00000001
00000010
00000100
00000000
,
00001001
00000000
00000001
00000100
,
00001000
00010000
00001000
00000000
,
00010000
00000000
00100000
01000000
,
10010000
00000000
00010000
10000000
,
02000000
00000000
00000000
03000000
,
00200000
00000000
00000000
00300000
,
00020000
00000000
00000000
00030000
,
02000000
00000000
00001000
03000000
,
00002000
00000000
00000000
00003000
,
00020000
00000000
00000000
00030000
,
00000020
00000000
00000000
00000030
,
00002000
00000000
00000002
00003000
,
00001003
00000100
00000000
00010000
,
00000000
00001000
00000000
01000000
,
00000000
00010000
00000000
00100000
,
00000000
01000000
00000000
10000000
,
00000000
00100000
00000000
00010000
,
00000000
00001000
00000000
00000010
,
00000000
00000001
00000000
00001000
,
00000000
00000100
00000000
00000010
,
00000110
00000100
00010000
00001000
,
00010000
00001000
01000000
00010000
,
01000000
00010000
10000000
01000000
,
00200000
00000000
00310000
10000000
,
01100000
00000000
10000000
00100000
,
00010000
00001000
00010000
00000000
,
00000010
00000000
00001000
00000100
,
00000001
00000100
00000010
00000000
,
00000110
00000000
00000001
00000010
,
00001000
00010000
00001000
00000000
,
00010000
00000000
01000000
00100000
,
10010000
00000000
00010000
10000000
,
02000000
00000000
00100000
03100000
,
00200000
00000000
00010000
00310000
,
00020000
00000000
01000000
01030000
,
02000000
00000000
00010000
03001000
,
00002000
00000000
00010000
00013000
,
00020000
00000000
00000100
00030100
,
00000200
00000000
00000010
00000310
,
00000020
00000000
00000001
00000031
,
00002002
00000000
00003003
00000000
;

//---------------dance-double - D. Bernardone----------------
#NOTES:
     dance-double:
     D. Bernardone:
     Challenge:
     10:
     0.762,0.684,0.274,0.086,0.913:
00000000
00000000
00000000
00000000
,
00000000
00000000
00000000
00000000
10000000
01000000
00000000
00010000
00000000
01000000
00100000
00001000
00010000
00001000
00010000
00000000
,
00000100
00000010
00000000
00000001
00001000
00000000
00000010
00010000
00000000
00001000
00000100
00000000
00000010
00010000
00001000
00000000
,
01000000
00010000
00000000
00100000
01000000
00000000
00010000
00001000
00000000
01000000
00100000
00000000
10000000
00010000
01000000
00000000
,
00100000
00010000
00000000
00001000
01000000
00000000
00010000
00100000
00000000
01000000
00010000
00000000
00001000
00010000
00000100
00000000
,
00001000
00000010
00000000
00000100
00001000
00000000
00010000
00000100
00000000
00001000
00000001
00000000
00000100
00000010
00010000
00000000
,
00001000
00100000
00000000
01000000
00010000
00000000
00001000
00100000
00000000
00010000
01000000
00000000
00100000
10000000
00010000
00000000
,
01000000
00001000
00000000
00100000
01000000
00000000
00010000
00001000
00000000
00010000
00000010
00000000
00001000
00000001
00000100
00000000
,
00000010
00000100
00000000
00001000
00000100
00000000
00000010
00010000
00000000
00001000
00000100
00000000
00000010
00010000
00001000
00000000
,
00100000
01000000
00000000
00010000
01000000
00000000
10000000
00100000
00000000
01000000
00010000
00000000
00100000
00001000
00010000
00000000
,
00011000
00000000
00000000
00010000
00000100
00000000
00000000
00000100
00000010
00000000
00000000
00000010
00000001
00000000
00000000
00000001
,
00000100
00000000
00000000
00000100
00001000
00000000
00000000
00001000
00010000
00000000
00000000
00010000
00000010
00000000
00000000
00000010
,
00000100
00000000
00000000
00000100
00001000
00000000
00000000
00001000
00010000
00000000
00000000
00010000
01000000
00000000
00000000
01000000
,
00100000
00000000
00000000
00100000
00010000
00000000
00000000
00010000
01000000
00000000
00000000
01000000
10000000
00000000
00000000
10000000
,
01000000
00000000
00000000
01000000
00001000
00000000
00000000
00001000
00010000
00000000
00000000
00010000
00000010
00000000
00000000
00000010
,
00000100
00000000
00000000
00000100
00001000
00000000
00000000
00001000
01000000
00000000
00000000
01000000
00010000
00000000
00000000
00010000
,
00100000
00000000
00000000
00100000
01000000
00000000
00000000
01000000
00010000
00000000
00000000
00010000
00000100
00000000
00000000
00000100
,
00001000
00000000
00000000
00001000
00000010
00000000
00000000
00000010
00000100
00000000
00000000
00000100
00001000
00000000
00000000
00001000
,
00010000
00000010
00000100
00000001
00000010
00001000
00010000
01000000
,
00100000
00000000
00001000
00000000
00000100
00000000
00000010
00000000
00001000
00000000
00000001
00000000
00000100
00000000
00001000
00010000
,
00100000
01000000
00010000
00100000
01000000
00010000
00001000
00000010
,
00000001
00000000
00000000
00000001
00000100
00000000
00001001
00000000
00001000
00000100
00001000
00000100
00010000
00000000
00001000
00000000
,
02001000
00000000
03100000
00100000
10000000
01000000
00010000
00010000
,
01100000
00000000
00000000
00011000
00000000
00000000
00000110
00000000
00000000
00000000
00000100
00000000
00000010
00000000
00010000
00000000
,
00021000
00000000
00030100
00000100
00001000
00000010
00000001
00000001
,
00001001
00000000
00000000
00011000
00000000
00000000
10010000
00000000
00000000
00000000
00100000
00000000
01000000
00000000
00001000
00000000
,
00201000
00000000
01300000
01000000
10000000
00100000
00010000
00010000
,
10010000
00000000
00000000
00011000
00000000
00000000
00001001
00000000
00000000
00000000
00000010
00000000
00000100
00000000
00010000
00000000
,
00010020
00000000
00000130
00000100
00000010
00100000
00000100
01000000
,
00000000
00000000
MMMM0000
00000000
00000000
00000000
00010000
00000000
10000000
00000000
00000000
00100000
00000000
00000000
10000000
00000000
,
00010000
01000000
00000000
00001000
00010000
00000000
00000100
00000010
00000000
00000001
00000100
00000000
00000010
00000100
00000001
00000000
,
00000010
00001000
00000000
00010000
00000100
00000000
00001000
00000010
00000000
00010000
00001000
00000000
01000000
00010000
00100000
00000000
,
01000000
10000000
00000000
00100000
00010000
00000000
00001000
00100000
00000000
01000000
00010000
00000000
00001000
00010000
00000100
00000000
,
00001000
00000010
00000000
00000100
00000001
00000000
00001000
00000100
00000000
00000010
00001000
00000000
00010000
00001000
00100000
00000000
,
00010000
01000000
00000000
00100000
10000000
00000000
00010000
00100000
00000000
01000000
00010000
00000000
00001000
00010000
00000100
00000000
,
00001000
00000010
00000000
00000100
00001000
00000000
00010000
01000000
00000000
00100000
00010000
00000000
10000000
00100000
01000000
00000000
,
00010000
00100000
00000000
00001000
00010000
00000000
00010000
00001000
00000000
00010000
00100000
00000000
01000000
00001000
00010000
00000000
,
00000100
00000010
00000000
00000001
00001000
00000000
00000010
00010000
00000000
00001000
01000000
00000000
00010000
00100000
01000000
00000000
,
11000000
00000000
00000000
10000000
00010000
00000000
00000000
00010000
01000000
00000000
00000000
01000000
00100000
00000000
00000000
00100000
,
00010000
00000000
00000000
00010000
00000010
00000000
00000000
00000010
00000100
00000000
00000000
00000100
00000001
00000000
00000000
00000001
,
00000010
00000000
00000000
00000010
00001000
00000000
00000000
00001000
00100000
00000000
00000000
00100000
00010000
00000000
00000000
00010000
,
01000000
00000000
00000000
01000000
00001000
00000000
00000000
00001000
00100000
00000000
00000000
00100000
01000000
00000000
00000000
01000000
,
10000000
00000000
00000000
10000000
01000000
00000000
00000000
01000000
00010000
00000000
00000000
00010000
00001000
00000000
00000000
00001000
,
00000100
00000000
00000000
00000100
00000010
00000000
00000000
00000010
00000001
00000000
00000000
00000001
00000010
00000000
00000000
00000010
,
00001000
00000000
00000000
00001000
00000100
00000000
00000000
00000100
00000010
00000000
00000000
00000010
00001000
00000000
00000000
00001000
,
00010000
00000000
00000000
00010000
00100000
00000000
00000000
00100000
01000000
00000000
00000000
01000000
10000000
00000000
00000000
10000000
,
01000000
00010000
00100000
00001000
00010000
00000010
00000100
00000001
,
00001000
00000000
00000010
00000000
00010000
00000000
01000000
00000000
00100000
00000000
00010000
00000000
10000000
00000000
00100000
00010000
,
00001000
00000100
00000010
00001000
00000001
00000010
00000100
00010000
,
00011000
00000000
00000000
00001000
00100000
00000000
00110000
00000000
00010000
01000000
00010000
01000000
00100000
00000000
00010000
00000000
,
00012000
00000000
00103000
00100000
01000000
10000000
00010000
00010000
,
11000000
00000000
00000000
00011000
00000000
00000000
00000011
00000000
00000000
00000000
00000010
00000000
00000100
00000000
00000100
00000000
,
00002100
00000000
00003010
00000010
00000100
00000001
00001000
00001000
,
00000101
00000000
00000000
00011000
00000000
00000000
10100000
00000000
00000000
00000000
01000000
00000000
00010000
00000000
00010000
00000000
,
00210000
00000000
01300000
01000000
10000000
00010000
01000000
01000000
,
10100000
00000000
00000000
00011000
00000000
00000000
00000101
00000000
00000000
00000000
00000001
00000000
00000010
00000000
00000010
00000000
,
00001200
00000000
00000310
00000010
00000001
00010000
00001000
10000000
,
00000000
00000000
MMMM0000
00000000
00000000
00000000
00100000
00000000
01000000
00000000
00000000
00010000
00000000
00000000
00100000
00000000
,
00001000
00010000
00000000
00000100
00000010
00000000
00000001
00001000
00000000
00000100
00010000
00000000
00001000
00100000
00010000
00100000
,
01000000
10000000
00000000
10000000
00100000
00000000
10000000
00010000
00000000
01000000
00001000
00000000
00010000
00000100
00001000
00000100
,
00000010
00000001
00000000
00000001
00000100
00000000
00000001
00001000
00000000
00000010
00010000
00000000
00001000
01000000
00010000
00100000
,
01000000
10000000
00000000
10000000
00100000
00000000
10000000
00010000
00000000
00100000
00001000
00000000
00010000
00000010
00001000
00000010
,
00000100
00001000
00000000
00001000
00010000
00000000
01000000
00100000
00000000
00010000
10000000
00000000
00100000
01000000
00010000
10000000
,
01000000
00010000
00000000
00010000
00001000
00000000
00000010
00000100
00000000
00001000
00000001
00000000
00000010
00000100
00001000
00000010
,
00010000
00001000
00000000
00001000
01000000
00000000
00001000
00100000
00000000
00010000
10000000
00000000
00100000
01000000
00010000
00100000
,
01000000
00010000
00000000
00010000
00001000
00000000
00000010
00000100
00000000
00010000
00001000
00000000
01000000
00100000
01000000
00001000
,
00022000
00000000
00033000
00000000
;

//---------------dance-double - D. Bernardone----------------
#NOTES:
     dance-double:
     D. Bernardone:
     Medium:
     5:
     0.382,0.371,0.060,0.086,0.026:
00000000
00000000
00000000
00000000
,
00000000
00000000
00000000
00000000
,
10000000
00000000
01000000
00000000
00010000
00000000
01000000
00100000
,
00001000
00000000
00010000
00000000
00000010
00000000
00000100
00001000
,
00000100
00000000
00000010
00000000
00001000
00000000
00000100
00010000
,
00001000
00000000
01000000
00000000
00100000
00000000
00010000
00100000
,
10000000
00000000
01000000
00000000
00100000
00000000
00010000
01000000
,
00001000
00000000
00100000
00000000
00001000
00000000
00010000
00000100
,
00000010
00000000
00001000
00000000
00000010
00000000
00000001
00000100
,
00001000
00000000
00010000
00000000
00001000
00000000
00010000
00001000
,
00011000
00001000
00100000
00010000
,
01000000
00001000
00100000
01000000
,
10000000
00010000
00100000
00001000
,
00010000
00000100
00001000
00000001
,
00000010
00000100
00001000
00000010
,
00000100
00000010
00010000
00001000
,
00010000
00001000
00100000
00010000
,
01000000
00001000
00010000
00000010
,
00001010
00000010
00000100
00000000
00000010
00001000
00000010
00000000
,
00001000
00000100
00001000
00000000
00000100
00010000
00000100
00000000
,
00010000
00001000
00010000
00000000
00001000
01000000
00001000
00000000
,
01010000
00000000
10000000
00000000
01000000
01000000
01000000
00000000
,
20000000
30010000
00100000
01000000
,
10000000
00000000
00000000
10000000
00000000
00000000
10000000
00000000
00000000
00000000
00000000
00000000
00010000
00000000
00000000
00000000
,
02000000
03001000
00010000
00000010
,
00000100
00000000
00000000
00000001
00000000
00000000
00000001
00000000
00000000
00000000
00000000
00000000
00000010
00000000
00000000
00000000
,
00000200
00010300
00001000
01000000
,
00010000
00000000
00000000
00100000
00000000
00000000
01000000
00000000
00000000
00000000
00000000
00000000
10000000
00000000
00000000
00000000
,
00020000
00000000
01030000
00000000
00001000
00010000
00001000
00010000
,
00000000
00000000
00000100
00000010
,
00000001
00000000
00000100
00000000
00000010
00000000
00010000
00001000
,
00010000
00000000
00001000
00000000
00100000
00000000
01000000
00010000
,
01000000
00000000
00100000
00000000
00010000
00000000
01000000
00001000
,
00010000
00000000
00001000
00000000
00000100
00000000
00000010
00001000
,
00000001
00000000
00000010
00000000
00000100
00000000
00010000
00001000
,
00010000
00000000
00001000
00000000
01000000
00000000
00100000
10000000
,
01000000
00000000
00100000
00000000
00010000
00000000
01000000
00001000
,
00010000
00000000
00000100
00000000
00010000
00000000
00001000
00010000
,
00011000
00001000
00100000
00001000
,
00010000
00000010
00000100
00000001
,
00000010
00001000
00010000
00001000
,
00100000
00010000
01000000
00100000
,
10000000
01000000
00010000
00001000
,
00010000
00000100
00000010
00000001
,
00000100
00000010
00010000
00001000
,
00100000
01000000
10000000
00010000
,
10010000
10000000
00100000
00000000
01000000
00010000
01000000
00000000
,
00001000
01000000
00001000
00000000
00010000
00001000
00010000
00000000
,
00000100
00010000
00000100
00000000
00001000
00000100
00001000
00000000
,
00001001
00000000
00000001
00000000
00000010
00000010
00000010
00000000
,
00000200
00001300
00000010
00010000
,
00001000
00000000
00000000
00001000
00000000
00000000
00001000
00000000
00000000
00000000
00000000
00000000
01000000
00000000
00000000
00000000
,
00020000
00130000
01000000
10000000
,
00100000
00000000
00000000
00100000
00000000
00000000
01000000
00000000
00000000
00000000
00000000
00000000
00001000
00000000
00000000
00000000
,
00020000
00030100
00000010
00000001
,
00000100
00000000
00000000
00000010
00000000
00000000
00001000
00000000
00000000
00000000
00000000
00000000
00000100
00000000
00000000
00000000
,
00020000
00000000
00031000
00000000
01000000
00100000
01000000
00100000
,
00000000
00000000
10000000
01000000
,
00100000
00000000
00001000
00000000
00010000
00000000
00001000
00010000
,
00000100
00000000
00000010
00000000
00000001
00000000
00000100
00000010
,
00001000
00000000
00000100
00000000
00010000
00000000
00001000
00100000
,
00010000
00000000
01000000
00000000
10000000
00000000
01000000
00100000
,
10000000
00000000
01000000
00000000
00100000
00000000
00001000
00010000
,
00001000
00000000
00000010
00000000
00000001
00000000
00000100
00000010
,
00001000
00000000
00000100
00000000
00010000
00000000
00001000
00010000
,
00001000
00000000
00100000
00000000
01000000
00000000
10000000
00010000
,
20020000
00000000
30030000
00000000
;

//---------------dance-double - D. Bernardone----------------
#NOTES:
     dance-double:
     D. Bernardone:
     Hard:
     8:
     0.554,0.542,0.137,0.094,0.262:
00000000
00000000
00000000
00000000
,
00000000
00000000
00000000
00000000
,
10000000
00000000
00000000
01000000
00000000
00000000
00100000
00000000
00010000
00000000
01000000
00000000
00001000
00000000
00001000
00000000
,
00010000
00000000
00000000
00000010
00000000
00000000
00001000
00000000
00000100
00000000
00000010
00000000
00000001
00000000
00000001
00000000
,
00000100
00000000
00000000
00000010
00000000
00000000
00010000
00000000
00001000
00000000
00100000
00000000
00010000
00000000
00010000
00000000
,
01000000
00000000
00000000
00100000
00000000
00000000
10000000
00000000
01000000
00000000
00010000
00000000
00001000
00000000
00001000
00000000
,
00010000
00000000
00000000
00000010
00000000
00000000
00001000
00000000
00000100
00000000
00000010
00000000
00000001
00000000
00000001
00000000
,
00000100
00000000
00000000
00001000
00000000
00000000
00000100
00000000
00000010
00000000
00010000
00000000
00001000
00000000
00001000
00000000
,
00100000
00000000
00000000
01000000
00000000
00000000
00010000
00000000
01000000
00000000
00100000
00000000
00010000
00000000
10000000
00000000
,
00010000
00000000
00000000
01000000
00000000
00000000
00100000
00000000
00010000
00000000
00001000
00000000
00000100
00000000
00000001
00000000
,
00001001
00000000
00000001
00000000
00000010
00000000
00000001
00000100
,
00000000
00000000
00000000
00000000
00000010
00000000
00000000
00001000
00000010
00000000
00000000
00000000
00000000
00000000
00000010
00000000
,
00001000
00000100
00000000
00010000
00000000
00000000
00001000
01000000
,
00010000
00100000
01000000
10000000
00000000
00001000
00010000
00000000
,
00010100
00000000
00001000
00000000
00000010
00000000
00001000
00000001
,
00000000
00000000
00000000
00000000
00000100
00000000
00000000
00000010
00000100
00000000
00000000
00000000
00000001
00000000
00000100
00000000
,
00001000
00000100
00000000
00000020
00000000
00000030
00000000
00010000
,
00001000
00100000
00000000
01000000
00000000
00010000
01000000
10000000
,
00010000
00000000
00100000
01000000
00000000
00010000
00000000
00001000
,
00010000
00000000
00000000
00000100
00001000
00000000
00000000
00001000
00000010
00000000
00000000
00000010
00000100
00000000
00000001
00000000
,
00000010
00000000
00000100
00001000
00000000
00000010
00010000
00100000
,
00000000
01000000
00000000
00010000
00000000
00100000
01000000
10000000
,
20010000
00000000
30010000
01000000
00100000
00100000
00010000
00010000
,
00000010
00000000
00000000
00001010
00000000
00000000
00000100
00000000
00000000
00000000
00000001
00000000
00000010
00000000
00000100
00000000
,
00002000
00000000
00003010
00000100
00001000
00001000
01000000
00010000
,
00100000
00000000
00000000
10010000
00000000
00000000
10000000
00000000
00000000
00000000
00100000
00000000
01000000
00000000
00001000
00000000
,
00020000
00000000
00130000
00100000
01000000
00001000
00010000
00000100
,
00001100
00000000
00000000
00010010
00000000
00000000
00000101
00000000
00000000
00000000
00000001
00000000
00000010
00000000
00000100
00000000
,
00000020
00000000
00000031
00000001
00000100
00001000
00010000
01000000
,
00000000
00000000
00000000
00000000
00000000
00000000
10000000
00000000
00100000
00000000
00000000
01000000
00000000
00000000
00010000
00000000
,
00100000
01000000
00000000
01000000
00000000
00000000
00010000
00000000
00001000
00000000
00000010
00000000
00000001
00000000
00000001
00000000
,
00000100
00000010
00000000
00000010
00000000
00000000
00001000
00000000
00000100
00000000
00010000
00000000
00001000
00000000
00001000
00000000
,
00100000
01000000
00000000
01000000
00000000
00000000
00010000
00000000
01000000
00000000
00100000
00000000
00001000
00000000
00001000
00000000
,
00010000
00000010
00000000
00000010
00000000
00000000
00000100
00000000
00001000
00000000
00010000
00000000
00100000
00000000
00100000
00000000
,
01000000
00010000
00000000
00010000
00000000
00000000
00100000
00000000
01000000
00000000
00100000
00000000
00001000
00000000
00001000
00000000
,
00010000
00000100
00000000
00000100
00000000
00000000
00000010
00000000
00001000
00000000
00010000
00000000
00001000
00000000
00001000
00000000
,
01000000
00100000
00000000
00100000
00000000
00000000
00010000
00000000
00001000
00000000
00010000
00000000
00000100
00000000
00000100
00000000
,
00000010
00000001
00000000
00000001
00000100
00000000
00001000
00000000
00010000
00000000
00100000
00000000
10000000
00010000
10000000
00000000
,
10010000
00000000
00010000
00000000
00100000
00000000
01000000
10000000
,
00000000
00000000
00000000
00000000
00010000
00000000
00000000
01000000
00010000
00000000
00000000
00000000
00000000
00000000
00010000
00000000
,
00100000
00001000
00000000
00010000
00000000
00000000
00000010
00000100
,
00000001
00000010
00000000
00000001
00000000
00010000
00001000
00000000
,
01001000
00000000
00010000
00000000
00100000
00000000
01000000
10000000
,
00000000
00000000
00000000
00000000
00100000
00000000
00000000
01000000
00100000
00000000
00000000
00000000
00000000
00000000
10000000
00000000
,
01000000
00100000
00000000
00001000
00000000
00000000
00010000
00000010
,
00000100
00000001
00000010
00000100
00000000
00010000
00001000
01000000
,
01100000
00000000
00100000
10000000
00000000
01000000
00000000
00100000
,
00001000
00000000
00000000
00010000
00000100
00000000
00000000
00000100
00001000
00000000
00000000
00001000
00000010
00000000
00010000
00000000
,
00001000
00000000
00100000
01000000
00000000
00100000
00001000
00000010
,
00000000
00000001
00000000
00000100
00000000
00000010
00001000
00000100
,
00020100
00000000
00031000
00001000
01000000
00010000
00100000
01000000
,
10000000
00000000
00000000
00100000
00000000
00000000
00010000
00000000
00000000
00000000
00001000
00000000
01000000
00000000
00100000
00000000
,
00020000
00000000
00031000
00001000
00000100
00000010
00001000
00000001
,
00000010
00000000
00000000
00001100
00000000
00000000
00010000
00000000
00000000
00000000
00001000
00000000
01000000
00000000
00100000
00000000
,
20000000
00000000
31000000
00100000
00010000
01000000
00010000
00010000
,
00000100
00000000
00000000
00001010
00000000
00000000
00010100
00000000
00000000
00000000
00000001
00000000
00000010
00000000
00000100
00000000
,
00002000
00000000
00003001
00000001
00000010
00001000
00010000
00100000
,
00000000
00000000
00000000
00000000
00000000
00000000
10000000
00000000
01000000
00000000
00000000
00100000
00000000
00000000
00010000
00000000
,
01000000
00001000
00000000
00010000
00001000
00000000
00010000
00000000
00001000
00000000
00000010
00000000
00000001
00000000
00000001
00000000
,
00000100
00000010
00000000
00001000
00000100
00000000
00001000
00000000
00000100
00000000
00010000
00000000
00001000
00000000
00001000
00000000
,
01000000
00010000
00000000
00100000
01000000
00000000
00100000
00000000
01000000
00000000
00010000
00000000
00001000
00000000
00001000
00000000
,
00000100
00000010
00000000
00001000
00000100
00000000
00001000
00000000
00000100
00000000
00010000
00000000
00001000
01000000
00001000
00000000
,
00010000
00100000
00000000
10000000
01000000
00000000
10000000
00000000
00010000
00000000
00100000
00000000
00010000
00000000
00010000
00000000
,
01000000
00001000
00000000
00010000
00001000
00000000
00010000
00000000
00000100
00000000
00000010
00000000
00001000
00000000
00001000
00000000
,
00010000
00000100
00000000
00000010
00000100
00000000
00000010
00000000
00000001
00000000
00000100
00000000
00000010
00000000
00000010
00000000
,
00001000
00000001
00000000
00000100
00000001
00000000
00000100
00000000
00001000
00000000
00010000
00000000
00100000
01000000
00010000
00000000
,
02002000
00000000
03003000
00000000
;

//---------------dance-single - D. Bernardone----------------
#NOTES:
     dance-single:
     D. Bernardone:
     Beginner:
     1:
     0.109,0.113,0.043,0.000,0.000:
0000
0000
0000
0000
,
0000
0000
0000
0000
,
1000
0000
0000
0000
,
0100
0000
0000
0000
,
0010
0000
0000
0000
,
0001
0000
0000
0000
,
0100
0000
0000
0000
,
0010
0000
0000
0000
,
1000
0000
0000
0000
,
0001
0000
1000
0000
,
1001
0000
0000
0001
,
0000
0000
0000
0010
,
0000
0000
0000
0100
,
0000
0000
0000
0010
,
0000
0000
0000
0001
,
0000
0000
0000
1000
,
0000
0000
0000
0010
,
0000
0000
0000
0100
,
0100
0000
0010
0000
,
1000
0000
0001
0000
,
0010
0000
0100
0000
,
1000
0000
0001
0000
,
1001
0000
0000
0000
,
1000
0000
1000
0000
,
0001
0000
0000
0000
,
0010
0000
0010
0000
,
0100
0000
0000
0000
,
1000
0000
0000
0000
,
0001
0000
0001
0000
,
0100
0000
0000
0000
,
0010
0000
0000
0000
,
1000
0000
0000
0000
,
0100
0000
0000
0000
,
0010
0000
0000
0000
,
0001
0000
0000
0000
,
0100
0000
0000
0000
,
0010
0000
0000
0000
,
1000
0000
0001
0000
,
1001
0000
0000
1000
,
0000
0000
0000
0100
,
0000
0000
0000
0010
,
0000
0000
0000
0100
,
0000
0000
0000
1000
,
0000
0000
0000
0001
,
0000
0000
0000
0100
,
0000
0000
0000
0010
,
0010
0000
1000
0000
,
0001
0000
0010
0000
,
0100
0000
1000
0000
,
0001
0000
1000
0000
,
1001
0000
0000
0000
,
0001
0000
0001
0000
,
0010
0000
0000
0000
,
0100
0000
0100
0000
,
0010
0000
0000
0000
,
0001
0000
0001
0000
,
1000
0000
0000
0000
,
0100
0000
0000
0000
,
0010
0000
0000
0000
,
0001
0000
0000
0000
,
0100
0000
0000
0000
,
0010
0000
0000
0000
,
1000
0000
0000
0000
,
0100
0000
0000
0000
,
0010
0000
0000
0000
,
0001
0000
1000
0000
,
1001
0000
0000
0000
;

//---------------dance-single - D. Bernardone----------------
#NOTES:
     dance-single:
     D. Bernardone:
     Easy:
     3:
     0.269,0.257,0.103,0.103,0.000:
0000
0000
0000
0000
,
0000
0000
0000
0000
,
1001
0000
0001
0001
,
0001
0000
0100
0100
,
0010
0000
1000
0100
,
0010
0000
0001
1000
,
0001
0000
0100
0100
,
0100
0000
0010
0010
,
1000
0000
0001
0010
,
0100
0000
1000
0001
,
1001
1000
0010
0100
,
0000
0001
0010
0100
,
0000
1000
0010
0100
,
0000
0001
0010
0100
,
0000
1000
0100
0010
,
0000
0001
0100
0010
,
0000
1000
0100
0010
,
0000
0001
0100
0010
,
0110
0100
0001
0010
,
0100
1000
0010
0100
,
0001
0010
0100
1000
,
2002
0000
3003
0000
,
0001
0000
2000
0001
,
0100
0010
3001
0000
,
0100
0000
0020
0100
,
0001
1000
0130
0000
,
0001
0000
2000
0001
,
0010
0100
3001
0000
,
1000
0000
0010
0100
,
1001
0000
0110
0000
,
0001
0000
0010
0010
,
0010
0000
0100
0100
,
1000
0000
0010
0100
,
0001
0000
0010
0100
,
0010
0000
0001
0001
,
0001
0000
1000
1000
,
0010
0000
0100
0001
,
1000
0000
0100
0010
,
0110
0000
0100
0000
1000
00M0
0001
0000
,
0000
0000
0100
0000
0001
00M0
1000
0000
,
0000
0000
0100
0000
1000
00M0
0001
0000
,
0000
0000
0100
0000
0001
00M0
1000
0000
,
0000
0000
0010
0000
1000
0M00
0001
0000
,
0000
0000
0010
0000
0001
0M00
1000
0000
,
0000
0000
0010
0000
1000
0M00
0001
0000
,
0000
0000
0010
0000
0001
0M00
1000
0000
,
1001
0000
0001
0000
0100
M000
0010
0000
,
100M
0100
0010
M001
,
0100
0000
0010
000M
1000
0000
0100
0000
,
0220
0000
0330
0000
,
0001
0000
0200
1000
,
0001
0010
0301
0000
,
1000
0000
0200
0001
,
1000
0010
1300
0000
,
0001
0000
0020
1000
,
0001
0100
0031
0000
,
1000
0000
0010
0100
,
1001
0000
0110
0000
,
0001
0001
0001
0000
,
1000
1000
0100
0000
,
0010
0100
1000
0000
,
0001
0100
0001
0000
,
0010
0010
0010
0000
,
0100
0100
1000
0000
,
0100
0010
0001
0000
,
1000
0100
1000
0001
,
2002
0000
3003
0000
;
