#TITLE:Disconnected;
#SUBTITLE:Sanxion7 remix;
#ARTIST:Inspector K vs. Sanxion7;
#TITLETRANSLIT:;
#SUBTITLETRANSLIT:;
#ARTISTTRANSLIT:;
#GENRE:Techno;
#CREDIT:Sync by HellRazor;
#BANNER:Disconnected Sanxion7 remix-bn.png;
#BACKGROUND:Disconnected Sanxion7 remix-bg.png;
#LYRICSPATH:;
#CDTITLE:;
#MUSIC:Disconnected Sanxion7 remix.ogg;
#OFFSET:-1.016;
#SAMPLESTART:112.250;
#SAMPLELENGTH:12.000;
#SELECTAsBLE:YES;
#DISPLAYBPM:125.000:63.000;
#BPMS:0=125,96=62.5,98=125,130=62.5,132=125,136=62.5,138=125,142=62.5,144=125,148=62.5,150=125,153.75=62.5,170=125;
#STOPS:153.750=1.800
;
#BGCHANGES:0.000=Disconnected Sanxion7 remix-bg.png=1.000=0=0=1=====,
16.000=In The Groove Rebirth/203_JB_HD.mpg=1.000=0=0=1=====,
28.500=In The Groove Rebirth/203_JB_HD.mpg=1.000=1=0=1=SongBgWithMovieViz==CrossFade==,
32.000=In The Groove Rebirth/205_JB_HD.mpg=1.000=0=0=1=====,
44.500=In The Groove Rebirth/205_JB_HD.mpg=1.000=1=0=1=SongBgWithMovieViz==CrossFade==,
48.000=In The Groove Rebirth/272_JB_HD.mpg=1.000=0=0=1=====,
60.500=Disconnected Sanxion7 remix-bg.png=1.000=1=0=1===CrossFade==,
64.000=In The Groove Rebirth/219_JB_HD.mpg=1.000=0=0=1=====,
80.000=In The Groove Rebirth/201_JB_HD.mpg=1.000=0=0=1=====,
96.000=Disconnected Sanxion7 remix-bg.png=1.000=1=0=1===CrossFade==,
98.000=In The Groove Rebirth/873_JumpBack.mpg=1.000=0=0=1=====,
114.000=In The Groove Rebirth/205_JB_HD.mpg=1.000=0=0=1=====,
130.000=Disconnected Sanxion7 remix-bg.png=1.000=1=0=1===CrossFade==,
132.500=In The Groove Rebirth/203_JB_HD.mpg=1.000=0=0=1=====,
136.000=In The Groove Rebirth/203_JB_HD.mpg=1.000=1=0=1=SongBgWithMovieViz==CrossFade==,
138.000=In The Groove Rebirth/259_JB_HD.mpg=1.000=0=0=1=====,
142.000=Disconnected Sanxion7 remix-bg.png=1.000=1=0=1===CrossFade==,
144.500=In The Groove Rebirth/201_JB_HD.mpg=1.000=0=0=1=====,
148.000=In The Groove Rebirth/201_JB_HD.mpg=1.000=1=0=1=SongBgWithMovieViz==CrossFade==,
153.750=Disconnected Sanxion7 remix-bg.png=1.000=0=0=1=====,
154.000=In The Groove Rebirth/203_JB_HD.mpg=1.000=0=0=1=====,
162.000=In The Groove Rebirth/272_JB_HD.mpg=1.000=0=0=1=SongBgWithMovieViz====,
162.083=In The Groove Rebirth/272_JB_HD.mpg=1.000=1=0=1===CrossFade==,
169.000=Disconnected Sanxion7 remix-bg.png=1.000=1=0=1===CrossFade==,
170.000=In The Groove Rebirth/219_JB_HD.mpg=1.000=0=0=1=====,
186.000=In The Groove Rebirth/201_JB_HD.mpg=1.000=0=0=1=====,
202.000=In The Groove Rebirth/873_JumpBack.mpg=1.000=0=0=1=====,
218.000=In The Groove Rebirth/259_JB_HD.mpg=1.000=0=0=1=====,
234.000=Disconnected Sanxion7 remix-bg.png=1.000=0=0=1=====,
238.500=Disconnected Sanxion7 remix-bg.png=1.000=0=0=1=====,
99999=-nosongbg-=1.000=0=0=0 // don't automatically add -songbackground-
;
#BGCHANGES2:16.000=white flash=1.000=0=0=1=====,
96.000=white flash=1.000=0=0=1=====,
114.000=white flash=1.000=0=0=1=====,
130.000=white flash=1.000=0=0=1=====,
142.000=white flash=1.000=0=0=1=====,
153.750=white flash=1.000=0=0=1=====,
154.000=white flash=1.000=0=0=1=====,
162.000=white flash=1.000=0=0=1=====,
186.000=yellow flash=1.000=0=0=1=====,
218.000=yellow flash=1.000=0=0=1=====,
234.000=white flash=1.000=0=0=1=====,
238.500=flash=1.000=0=0=1====0^0^1^1=,
;
#KEYSOUNDS:;

//---------------dance-single - D. Bernardone----------------
#NOTES:
     dance-single:
     D. Bernardone:
     Challenge:
     11:
     0.829,0.843,0.662,0.519,1.000:
0000
0000
0000
0000
,
0000
0000
0000
0000
,
0000
0000
0000
0000
,
0000
0000
1100
0000
0000
M010
0001
M100
0010
M000
0000
0000
2020
0000
3030
0000
,
1000
0100
0010
0001
0000
0000
010M
1000
000M
0100
100M
0100
000M
1000
0100
0001
,
0010
0100
1000
0100
0000
M000
0001
M100
0000
M001
0100
M001
0000
0100
1000
0010
,
0100
0001
1000
0001
0000
0000
001M
1000
000M
0010
100M
0010
000M
1000
0010
0001
,
0000
0000
0101
0000
0000
001M
1000
010M
0010
000M
0000
0000
0020
0000
0030
0000
,
0001
0100
1000
0100
0001
0100
1000
0100
0010
1000
0010
1000
0010
0000
0110
0000
,
0100
0001
0010
0001
0100
0001
0010
0001
0100
0010
0100
0010
0100
0000
0110
0000
,
0010
1000
0001
0010
0001
1000
0010
1000
0001
0100
0001
0100
0001
0000
1001
0000
,
1000
0000
1010
0000
0000
M100
0001
M010
0100
M000
0000
0000
2200
0000
3300
0000
,
0001
0010
1000
0010
0001
0010
1000
0010
0100
1000
0100
1000
0100
0000
0110
0000
,
0010
0001
0100
0001
0010
0001
0100
0001
0010
0100
0010
0100
0010
0000
0110
0000
,
0100
1000
0001
0100
0001
1000
0100
1000
0001
0010
0001
0010
0001
0000
1001
0000
,
0001
0000
0011
0000
0000
010M
1000
001M
0100
000M
0000
0000
0202
0000
0303
0000
,
1000
0100
0010
1000
0010
0100
1000
0010
0001
0010
0100
0001
1001
0000
0100
0010
,
0100
0000
0000
0000
0001
1000
0001
1000
0001
0000
0000
0000
0101
0000
0000
0000
1000
0000
0010
0000
0001
0000
0010
0000
0110
0000
0000
0000
1000
0000
0001
0000
,
1000
0000
1100
0000
0101
0000
1001
0000
0001
0010
1000
0010
0110
0000
0001
1000
,
0001
0000
0110
0000
0000
100M
0100
M010
0001
0MM0
0000
0000
2002
0000
3003
0000
,
0001
0100
0010
0001
0010
0100
0001
0010
1000
0010
0100
1000
1001
0000
0100
0010
,
0100
0000
0000
0000
1000
0001
1000
0001
1000
0000
0000
0000
1100
0000
0000
0000
0001
0000
0100
0000
1000
0000
0100
0000
0110
0000
0000
0000
1000
0000
0001
0000
,
1000
0000
1010
0000
0011
0000
1001
0000
1000
0100
0001
0100
0110
0000
0001
1000
,
0001
0000
0110
0000
0000
M001
0100
001M
1000
0MM0
0000
0000
2002
0000
3003
0000
,
1100
0000
0000
0000
0000
0000
0000
0000
0000
0000
0000
0000
0002
0000
0000
0000
0000
0000
0000
0000
0000
0000
0000
0000
0M00
0000
0000
0000
0000
0000
2000
0000
0000
0000
0000
0000
0000
0000
0000
0000
0000
0000
0000
0000
0000
0000
0000
0000
0020
0000
0000
0000
0000
0000
0000
0000
0000
0000
0000
0000
0000
0000
0000
0000
0000
0000
0000
0000
0000
0000
0000
0000
3033
0000
0000
0000
0000
0000
0000
0000
0000
0000
0000
0000
1000
0000
0000
0000
0100
0000
0000
0000
0010
0000
0000
0000
0001
0000
0000
0000
0000
0000
0000
0000
0000
0000
0000
0000
0000
0000
0000
0000
0000
0000
0000
0000
0000
0000
0000
0000
0200
0000
0000
0000
0000
0000
0000
0000
0000
0000
0000
0000
0000
0000
0000
0000
0000
0000
0000
0000
0000
0000
0000
0000
1000
0000
0000
0000
0000
0000
0000
0000
0000
0000
0000
0000
0000
0000
0000
0000
0000
0000
0000
0000
0000
0000
0000
0000
0310
0000
0000
0000
0000
0000
0000
0000
0000
0000
0000
0000
0000
0000
0000
0000
0000
0000
0000
0000
0000
0000
0000
0000
,
0000
1010
0000
0001
0012
0000
0103
0000
1000
0010
0100
0010
2000
0000
3001
0000
,
0000
0011
0000
1000
2010
0000
3100
0000
0001
0010
0100
0010
0002
0000
1003
0000
,
0000
1100
0000
0001
0102
0000
0013
0000
0100
0000
1100
0000
0000
M001
0010
010M
,
1000
0MM0
0000
0000
0202
0000
0303
0000
0001
0000
0020
0000
1000
0000
0130
0000
,
0000
0011
0000
1000
2010
0000
3100
0000
1000
0100
0010
0100
2000
0000
3010
0000
,
0000
0110
0000
0001
0102
0000
1003
0000
0100
0010
0100
1000
0200
0000
0310
0000
,
0000
1001
0000
1000
2010
0000
3001
0000
0010
0000
0011
0000
0000
100M
0100
M010
,
0001
0000
0MM0
0000
0000
0000
0000
0000
2020
0000
0000
0000
3030
0000
0000
0000
0101
0000
2000
0000
0000
0002
0000
0000
0020
0000
0000
0000
3033
0000
2000
0000
,
3100
0000
2002
0000
3003
0010
0100
0001
1000
0000
0000
0000
2200
0000
3300
0000
,
0011
0000
0000
0101
0000
0000
0110
0000
1000
0001
0000
0100
0001
0000
0020
0000
0130
0000
0000
0000
2200
0000
0000
0000
3300
0000
0010
0000
0001
0000
0100
0000
,
0020
0000
0000
0000
0030
0000
0000
0000
2002
0000
0000
0000
3003
0000
0000
0000
0101
0000
0000
0110
0000
0000
1010
0000
1000
0001
0000
0010
0001
0000
2000
0000
,
3010
0000
0220
0000
0330
0001
1000
0010
0200
0000
0300
0000
2002
0000
3003
0000
,
0011
0000
1000
0100
0010
0000
0001
0000
0100
0010
1000
0010
0100
0000
0002
0000
1003
0000
0000
0000
2020
0000
0000
0000
3030
0000
0100
0000
0001
0000
1000
0000
,
0200
0000
0300
0000
0022
0000
0000
0033
1101
0000
1000
0000
0010
0000
0100
0000
,
0002
0000
0000
0000
00M0
0000
0000
M000
0M00
M000
0M00
0000
0013
0000
0100
0000
1000
0000
0000
0000
0020
0000
0000
0000
0130
0000
0000
0000
0001
0000
1000
0000
,
0002
0000
2000
3003
1011
0001
0100
0010
,
2000
0000
0000
0000
0MM0
0000
0000
000M
3100
0000
0000
0000
0010
0000
0001
0000
0100
0000
0000
0000
0020
0000
0000
0000
1030
0000
0000
0000
0100
0000
0010
0000
,
0002
M000
0M00
00M0
M000
0M00
00M0
0M00
1003
0000
0001
0000
0100
0010
1000
0100
0010
0000
0001
0000
0100
0000
0010
0000
0001
0000
0010
0000
1000
0000
0100
0000
,
0010
0000
0000
0000
0001
0000
0100
0000
1000
0000
0000
0000
1000
0000
0100
0000
0001
0000
0000
0000
1000
0001
1000
0001
1000
0000
0000
0000
0100
0000
0010
0000
,
0001
0010
0100
1000
0001
0000
0110
0000
1000
0001
0100
0001
0010
0001
1000
0100
,
1000
0000
0010
0100
0001
0000
0010
0100
1000
0001
0100
0001
1001
0000
M00M
0000
,
0001
1000
0100
1000
1001
0000
M00M
0000
0111
0000
0000
0000
0001
0010
0100
0001
,
0100
0000
1000
0000
0010
0000
0100
0000
0001
0000
0000
0000
0010
0000
0100
0000
1000
0000
0000
0000
0001
1000
0001
1000
0001
0000
0000
0000
0100
0000
0010
0000
,
1000
0010
0100
0001
1000
0000
0110
0000
0001
1000
0100
1000
0010
0000
0100
0001
,
1000
0001
1000
0100
0110
0000
0001
1000
0001
1000
0010
0100
0101
0000
1000
0001
,
0010
0001
1000
0000
0001
0100
1000
0100
0001
0000
010M
1000
010M
0010
010M
1000
,
010M
0000
0010
0000
100M
0000
0100
0000
001M
0000
0000
0000
0001
0000
1000
0000
0001
0000
0000
0000
0100
0010
0100
0010
0100
0000
0000
0000
0101
0000
0000
0000
,
0001
1000
0001
1000
0101
0000
0001
0010
0100
0000
1100
0000
0011
0000
0001
0100
,
0010
1000
0100
0010
0011
0000
1000
0100
1000
0000
1001
0000
0000
M001
0010
010M
,
1000
0MMM
0000
0000
0202
0000
0303
0000
1000
0000
M100
0001
M100
0010
M100
0001
,
M100
0000
0010
0000
M001
0000
0100
0000
M010
0000
0000
0000
1000
0000
0001
0000
1000
0000
0000
0000
0010
0100
0010
0100
0010
0000
0000
0000
1010
0000
0000
0000
,
0001
1000
0001
1000
0011
0000
1000
0001
0100
0000
0101
0000
1010
0000
1000
0100
,
0010
0001
0100
0010
1010
0000
0001
0100
0001
0000
1001
0000
0000
100M
0010
M100
,
0001
MMM0
0000
0000
2200
0000
3300
0000
MM22
0000
0000
0000
0000
0000
0000
0000
,
0033
0000
0000
0000
;

//---------------dance-single - D. Bernardone----------------
#NOTES:
     dance-single:
     D. Bernardone:
     Easy:
     3:
     0.214,0.200,0.113,0.128,0.000:
0000
0000
0000
0000
,
0000
0000
0000
0000
,
0000
0000
0000
0000
,
0000
0000
0000
0000
,
2000
0000
3000
0000
,
0002
0000
0003
0000
,
0200
0000
0300
0000
,
0010
1000
0100
0010
,
0001
0000
0100
0100
,
0100
0000
0010
0010
,
0010
0000
1000
1000
,
1000
0100
0010
0001
,
0100
0000
0010
0010
,
0010
0000
1000
1000
,
1000
0000
0100
0100
,
0100
0010
0001
0100
,
0020
0000
1000
0130
,
0000
0001
1000
0100
,
0020
0000
0001
0130
,
0000
1000
0010
0100
,
0002
0000
0100
1003
,
0000
0100
0010
0001
,
2000
0000
0100
3001
,
0000
0100
0010
1000
,
0200
0300
0010
0001
,
0000
1001
0000
0110
,
0000
1001
0000
0110
,
0000
1001
1000
0100
,
0010
0001
0100
0110
,
0000
1001
0000
0110
,
0000
1001
0000
0110
,
0000
1001
0001
0010
,
0100
1000
0020
0030
,
0100
0100
0100
0100
,
0002
0003
1000
1000
,
1000
1000
0002
0003
,
0010
0010
0010
0010
,
0200
0300
0001
0001
,
0001
0000
0000
0000
0002
0000
0000
0003
0100
0000
0000
0000
0010
0000
0000
0000
,
1000
0000
1000
0001
,
0010
0100
1001
1000
,
0010
0100
0100
0001
,
1000
0000
0100
0010
0001
0000
0100
0000
,
0010
1000
0001
0000
,
0000
0001
0010
0001
,
0100
0010
1000
0000
,
0100
0000
0110
0001
,
0010
0100
1000
0000
,
0100
0010
0010
0001
,
0100
0010
1000
0000
,
0100
0100
0120
0000
,
1000
0130
0000
0001
,
1000
0100
0000
0010
,
0001
0000
0010
0100
,
1000
0010
0200
0000
,
0010
0301
0000
1000
,
0100
0010
0000
0001
,
1000
0000
0010
0100
,
0001
0010
0220
0000
,
0000
0330
0000
0000
;

//---------------dance-double - J. Gowen----------------
#NOTES:
     dance-double:
     J. Gowen:
     Challenge:
     11:
     0.761,0.769,0.278,0.436,1.000:
00000000
00000000
00000000
00000000
,
00000000
00000000
00000000
00000000
,
00000000
00000000
00000000
00000000
,
00000000
00000000
00001001
00000000
0000M000
00000010
00000100
00001000
00000020
00000000
00200030
00000000
02300000
00000000
03000000
00000000
,
00010000
00001000
00100000
00010000
00000000
00000000
01000000
00001000
00000000
00010000
00100000
01000000
00000000
00010000
10000000
00100000
,
00000000
01000000
00010000
00100000
01000000
00000000
00010000
00000100
00000000
00000010
00001000
00010000
00000000
01000000
00100000
00001000
,
00000000
00010000
00000010
00000100
00000001
00000000
00001000
00000010
00000000
00100000
00010000
10000000
00000000
01000000
00010000
00001000
,
00000000
00000000
10010000
00000000
M0000000
00100000
00001000
00010000
00010100
00000000
00011000
00000000
00010010
00000000
00101000
00000000
,
00010000
10000000
01000000
00100000
00001000
00010000
00000100
00001000
00000000
00000001
00000100
00000010
00000000
00010000
00001000
00100000
,
00000000
00010000
01000000
00001000
00100000
00000000
01000000
10000000
00000000
00010000
00100000
00001000
00000000
00010000
00100000
10000000
,
00000000
00010000
01000000
00001000
00010000
00000000
00000010
00001000
00000000
00000100
00010000
00001000
00000000
00100000
00010000
01000000
,
00000000
00000000
0M011000
00000000
00000000
00100000
00010000
10000000
02000000
00000000
03020000
00000000
00030020
00000000
00000030
00000000
,
00000100
00000001
00000010
00000100
00001000
00000010
00010000
00001000
00000000
00000010
00001000
00010000
00000000
01000000
00010000
00001000
,
00000000
00100000
00010000
01000000
10000000
01000000
00010000
00100000
00000000
01000000
10000000
00100000
00000000
01000000
00001000
00010000
,
00000000
01000000
00010000
00001000
00100000
00010000
01000000
00001000
00000000
00010000
00000010
00001000
00000000
00000100
00000010
00001000
,
0000000M
00000000
001010M0
00000000
00000M00
10000000
0100M000
00100000
00020M00
00000000
020300M0
00000000
0300020M
00000000
00000300
00000000
,
00010000
00001000
00000010
00000000
00001000
00010000
00001000
00000100
00000001
00000010
00000000
00000011
00000000
00000000
00001000
00000100
,
00000010
00001000
00010000
00000000
01000000
00010000
00001000
00100000
01000000
10000000
00000000
11000000
00000000
00000000
00100000
00010000
,
01000000
00100000
00010000
00000000
00001000
00000100
00001000
00010000
00000100
00001000
00000000
00001100
00000000
00000000
00010000
00001000
,
00000010
00001000
00010000
0000M000
00000000
01000000
00010000
01000000
00200000
00000000
00300020
00000000
00000230
00000000
00000300
00000000
,
00000001
00000010
00001000
00000000
00010000
01000000
00100000
00010000
10000000
01000000
00000000
11000000
00000000
00000000
00100000
00010000
,
01000000
00100000
00010000
00000000
00001000
00000100
00000010
00001000
00000001
00000100
00000000
00000101
00000000
00000000
00001000
00000100
,
00000010
00001000
00010000
00000000
00001000
00000100
00001000
00010000
00100000
01000000
00000000
01100000
00000000
00000000
00001000
00010000
,
00100000
00010000
00001000
000M0000
00000000
00000100
00000001
00000010
00000200
00000000
00020300
00000000
02000000
00000000
00000000
00000000
,
0000M000
00000000
20000M00
0000M000
00000000
00100MM0
00000000
00000000
000310MM
00000000
00000000
0000000M
33000000
00000000
00000000
00000000
10000000
00000000
01000000
00000000
00000000
00000000
00100000
00000000
00010000
00000000
00000000
00000000
01000000
00000000
00000000
00000000
,
00000000
00000000
00000000
00000100
00000000
00000000
00000000
00000000
00000000
00001000
00000000
00000000
00000010
00000000
00000000
00000000
00000000
00000000
00000100
00000000
00000000
00000000
00000000
00000000
00000000
00000000
00000000
00000001
00000000
00000000
00001000
00000000
00000010
00000000
00001000
00000000
00000100
00000000
00000000
00000000
00000000
00000000
00010000
00000000
00000000
00000000
00000000
00000000
,
00000000
00000001
00000000
00010000
00001000
00000000
10000000
00000000
00010000
00010000
01000000
00010000
01000000
00000000
00011000
00000000
,
00000000
00000100
00000000
00000010
00001000
00000000
00010000
00000000
00000000
00000000
01000100
00000000
0M000000
00010000
00001000
00010000
,
00000020
00000000
00200030
00000000
00300200
00000000
00000300
00000000
00010000
00010000
00001000
00010000
00001000
00000000
00001100
00000000
,
00000000
00000000
00000000
01000000
00000000
00000000
00000000
00000000
00000000
00010000
00000000
00000000
10000000
00000000
00000000
00000000
00000000
00000000
01000000
00000000
00000000
00000000
00000000
00000000
00000000
00000000
00000000
00100000
00000000
00000000
00010000
00000000
01000000
00000000
00010000
00000000
10000000
00000000
00000000
00000000
00000000
00000000
01000000
00000000
00000000
00000000
00000000
00000000
,
00000000
00100000
00000000
00000100
00001000
00000000
00000001
00000000
00000010
00000010
00000100
00000010
00000100
00000000
00001001
00000000
,
00000000
00000010
00000000
00100000
01000000
00000000
10000000
00000000
00000000
00000000
01001000
00000000
0M000000
00010000
00000010
00010000
,
00002000
00000000
00000000
00000000
00003200
00000000
00000000
00000000
00000302
00000000
00000000
00000000
00000000
00000000
00000000
00000000
MMMM0000
00000000
MMMM0200
00000000
0MM00000
00002000
0MM00000
00000000
0MM00020
00000000
0MM03333
00000000
0MM00000
00000000
MMMM0000
00000000
,
MMMM0000
00000000
00000101
00000000
00000000
00000010
00010000
00001000
02000000
00000000
03200000
00000000
20300000
00000000
30000000
00000000
,
0001MMMM
00000000
00000000
00000000
00000000
00000000
00000000
00000000
00000000
00000000
00000000
00000000
0200MMMM
00000000
00000000
00000000
00000000
00000000
00020000
00000000
00000000
00000000
00000000
00000000
00000MM0
00000000
00000000
00000000
00000000
00000000
00000000
00000000
00000000
00000000
00000000
00000000
10100MM0
00000000
00000000
00000000
00000000
00000000
00000000
00000000
00000000
00000000
00000000
00000000
00000MM0
00000000
00000000
00000000
00000000
00000000
00000000
00000000
00000000
00000000
00000000
00000000
03030MM0
00000000
00000000
00000000
00000000
00000000
00000000
00000000
00000000
00000000
00000000
00000000
00000MM0
00000000
00000000
00000000
00000000
00000000
00000000
00000000
00000000
00000000
00000000
00000000
00000MM0
00000000
00000000
00000000
00000000
00000000
00000000
00000000
00000000
00000000
00000000
00000000
00010MM0
00000000
00000000
00000000
00000000
00000000
00000000
00000000
00000000
00000000
00000000
00000000
01000000
00000000
00000000
00000000
00000000
00000000
00000000
00000000
00000000
00000000
00000000
00000000
00010000
00000000
00000000
00000000
00000000
00000000
00000000
00000000
01000000
00000000
00000000
00000000
00000000
00000000
00000000
00000000
00010000
00000000
00000000
00000000
00000000
00000000
00000000
00000000
01000000
00000000
00000000
00000000
00000000
00000000
00000000
00000000
00000000
00000000
00000000
00000000
00001000
00000000
00000000
00000000
00000000
00000000
00000000
00000000
00000000
00000000
00000000
00000000
00010000
00000000
00000000
00000000
00000000
00000000
00000000
00000000
00000000
00000000
00000000
00000000
00000010
00000000
00000000
00000000
00000000
00000000
00000000
00000000
00000000
00000000
00000000
00000000
,
00000200
00000000
00000000
00000000
00000302
00000000
00000000
00000000
00000023
00000000
00000000
00000000
00000030
00000000
00000000
00000000
MMMM2200
00000000
MMMM0000
00000022
M0003300
00000000
M0002200
00000000
M0000033
00000000
M0MM3300
00000000
M00M0000
00000000
MMMM0000
00000000
,
MMMM0000
00000000
00011000
00000000
00000000
00100000
00010000
01000000
00200000
00000000
20300000
00000000
02000000
00000000
00000000
00000000
,
001100MM
00000000
00100M0M
00001000
00000M0M
00100000
000100MM
00000000
33000M0M
00000000
0000M00M
00000000
00000000
00000000
00000000
00000000
10000000
00000000
01000000
00000000
00100000
00000000
00010000
00000000
01000000
00000000
00100000
00000000
00010000
00000000
00001000
00000000
,
00100000
00010000
01000000
00001000
00010000
00000100
00000010
00001000
00022000
00000000
00000010
00000000
00100000
00000000
00000100
00000000
,
01000000
00000000
00033000
00000000
00000000
00000000
00010000
00200000
02000000
00000000
10000000
00000000
00010000
03300000
01000000
00002000
,
00020000
00000000
00000000
00000000
00100010
00000000
00033000
00000000
02011200
00000000
00010000
00000000
00001000
03000000
00020000
00000000
,
00000010
00000000
00030300
00000000
00001100
00000000
00000010
00000001
00002000
00000000
00023000
00000000
20030000
00000000
31000000
00100000
,
00010000
00000000
10000000
00000000
00010000
00000000
10000000
00000000
00010000
00000000
01000000
00000000
00010000
00000000
01000000
00000000
00004000
00040000
00000000
00000000
00000000
00000000
00000000
00000000
00000000
00000000
00000000
00000000
00033000
00000000
00000000
00000000
00001000
00000000
00000000
00000000
00010000
00000000
00000000
00000000
00001000
00000000
00000000
00000000
00000000
00000000
00000000
00000000
00100000
00000000
00000000
00000000
00010000
00000000
00000000
00000000
10000000
00000000
00000000
00000000
01000000
00000000
00000000
00000000
,
00100000
00000000
00000000
00010000
00000000
00000000
01000000
00000000
00000000
00000000
00000000
00000000
01010000
00000000
00000000
00000000
00000000
00000000
10000000
00000000
00000000
00010000
00000000
00000000
01000000
00000000
00000000
00001000
00000000
00000000
00010000
00000000
00001000
00000000
00010000
00000000
00000010
00000000
00000000
00000000
00000000
00000000
00001000
00000000
00000000
00000001
00000000
00000000
,
00000010
00000100
00001000
00000000
00000101
00000000
00000010
00001000
00000100
00010000
00001000
00000000
00100000
00001000
00100000
01000000
,
10000000
00000000
00000000
00100000
00000000
00000000
01000000
00000000
00000000
00000000
00000000
00000000
10010000
00000000
00000000
00000000
00000000
00000000
00100000
00000000
00000000
00010000
00000000
00000000
01000000
00000000
00000000
00001000
00000000
00000000
00010000
00000000
00001000
00000000
00010000
00000000
00001000
00000000
00000000
00000000
00000000
00000000
00100000
00000000
00000000
00000000
00000000
00000000
,
00000010
00000000
01000000
00000000
00100000
00000000
00000000
00000000
10000000
00010000
10000000
00000000
00010000
00100000
00010000
01000000
,
00001000
00000000
00000000
00010000
00000000
00000000
00001000
00000000
00000000
00000000
00000000
00000000
00011000
00000000
00000000
00000000
00000000
00000000
01000000
00000000
00000000
00010000
00000000
00000000
00100000
00000000
00000000
00001000
00000000
00000000
00010000
00000000
00001000
00000000
00010000
00000000
00000100
00000000
00000000
00000000
00000000
00000000
00001000
00000000
00000000
00000001
00000000
00000000
,
00000100
00000010
00001000
00000000
00000011
00000000
00000100
00001000
00000010
00010000
00001000
00000000
00100000
00010000
01000000
00001000
,
00100000
00000000
00000000
01000000
00000000
00000000
10000000
00000000
00000000
00000000
00000000
00000000
00110000
00000000
00000000
00000000
00000000
00000000
10000000
00000000
00000000
01000000
00000000
00000000
00100000
00000000
00000000
00010000
00000000
00000000
01000000
00000000
00010000
00000000
01000000
00000000
00010000
00000000
00000000
00000000
00000000
00000000
00100000
00000000
00000000
00000000
00000000
00000000
,
00000010
00000000
00000100
00000000
00000101
00000000
00000000
00000000
00000010
00001000
00000001
00000000
00010000
00001000
00100000
00010000
,
10000000
01000000
00000000
00010000
01000000
00000000
00100000
00010000
01000000
00001000
00010000
00000000
00000100
00000010
00001000
00010000
,
01000000
00100000
00000000
00010000
01000000
00000000
00100000
00010000
00001000
00010000
00100000
00000000
01000000
00010000
00100000
00001000
,
00010000
00000100
00000000
00000010
00000001
00000000
00000100
00000010
00000001
00000010
00000100
000000M0
00000000
00000001
00001000
00000010
,
00200000
00000000
02300000
00000000
23000000
00000000
30000000
00000000
00100000
01000000
00010000
00000000
00100000
00001000
00010000
00000100
,
00000010
00000001
00000000
00000100
00001000
00000000
00000100
00000010
00010000
00001000
00100000
00000000
00001000
00010000
00000010
00000100
,
00001000
00010000
00000000
00001000
00000010
00000000
00001000
00010000
01000000
00010000
00001000
00000000
00100000
00010000
01000000
00001000
,
00010000
00000100
00000000
00000010
00000001
00000000
00001000
00000100
00000010
00001000
00010000
01000000
00100000
00001000
00010000
00000010
,
00000100
00001000
00010000
00100000
01000000
00010000
00100000
01000000
0002MMMM
00000000
0000M000
00000000
0000MMMM
00000000
0000000M
00000000
,
0003MMMM
00000000
00000000
00000000
00000000
00000000
00000000
00000000
00000000
00000000
00000000
00000000
00000000
00000000
00000000
M00M0010
00001000
00000010
M0M01000
00000000
00000000
MM000000
00000000
00000000
,
M0M00000
M00M0000
00000000
00000000
00000000
00000000
00000000
00000000
;

//---------------dance-single - D. Bernardone----------------
#NOTES:
     dance-single:
     D. Bernardone:
     Beginner:
     1:
     0.104,0.132,0.030,0.038,0.000:
0000
0000
0000
0000
,
0000
0000
0000
0000
,
0000
0000
0000
0000
,
0000
0000
0000
0000
,
1000
0000
0000
0000
,
0001
0000
0000
0000
,
0010
0000
0000
0000
,
0100
0000
0100
0000
,
1000
0000
0000
0000
,
0001
0000
0000
0000
,
0100
0000
0000
0000
,
0010
0000
0010
0000
,
1000
0000
0000
0000
,
0001
0000
0000
0000
,
0010
0000
0000
0000
,
0100
0000
0100
0000
,
0000
1000
0000
1000
,
0000
1000
0000
1000
,
0000
0001
0000
0001
,
0000
0001
0000
0001
,
0000
0100
0000
0100
,
0000
0100
0000
0100
,
0000
0010
0000
0010
,
0000
0010
0000
0010
,
0020
0030
0000
1000
,
0000
0001
0000
0000
,
0000
0010
0000
0000
,
0000
0100
0000
0100
,
0000
0010
0000
0001
,
0000
0000
0000
1000
,
0000
0000
0000
0001
,
0000
0000
0000
0100
,
0000
0000
0020
0030
,
1000
0000
0001
0000
,
0200
0300
0010
0000
,
1000
0000
0002
0003
,
0010
0000
0100
0000
,
2000
3000
0001
0000
,
0100
0000
1001
0000
,
0000
0000
0100
0000
,
0010
0000
0110
0000
,
1000
0000
0001
0000
,
1000
0000
0001
0000
,
0000
0000
0100
0000
,
0000
0000
0010
0000
,
0010
0000
0010
0000
,
0100
0000
1001
0000
,
0000
0000
1000
0000
,
0000
0000
0100
0000
,
0000
0000
0010
0000
,
0000
0000
0000
0001
,
0000
1000
0000
0001
,
0000
0100
0000
0010
,
0000
0100
0000
0001
,
0000
1000
0000
0100
,
0000
0010
0000
0100
,
0000
1000
0000
0001
,
0000
0100
0000
0010
,
0000
1000
1001
0000
;

//---------------dance-double - D. Bernardone----------------
#NOTES:
     dance-double:
     D. Bernardone:
     Easy:
     3:
     0.226,0.225,0.098,0.135,0.000:
00000000
00000000
00000000
00000000
,
00000000
00000000
00000000
00000000
,
00000000
00000000
00000000
00000000
,
00000000
00000000
00000000
00000000
,
10000000
01000000
00010000
00000000
,
00001000
00000100
00000001
00000000
,
00000010
00000100
00010000
00000000
,
00012000
00100000
01000000
00013000
,
00001000
00100000
01000000
01000000
,
10000000
00010000
01000000
00001000
,
00001000
00010000
01000000
00100000
,
01200000
00010000
10000000
01300000
,
10000000
00010000
00100000
00100000
,
00001000
00010000
00000100
00000100
,
00001000
00000010
00000100
00000100
,
00002001
00000001
00000010
00003100
,
00001000
00001001
00000010
00010000
,
00000000
00001000
00100000
00010000
,
00000000
10000000
00100000
01000000
,
10020000
10000000
00100000
01030000
,
00010000
00100000
00001000
00000000
,
00010000
00000100
00001000
00000000
,
00000010
00010000
00001000
00000000
,
00021000
00000010
00000100
00031000
,
02000000
03000000
00010000
00100000
,
00000000
01000000
00000000
10000000
,
00000000
00010000
00000000
00100000
,
00000000
00001000
00021000
00001000
,
00000100
00030010
00001000
00000001
,
00000000
00000010
00000000
00000100
,
00000000
00001000
00000000
00000010
,
00000000
00010000
00012000
00010000
,
01000000
00103000
00020000
00030000
,
10000000
01000000
00100000
00001000
,
00020000
00030000
00000010
00001000
,
00000001
00000010
00000200
00000300
,
00001000
00000010
00010000
00001000
,
00002000
00003000
01000000
00010000
,
00100000
00000000
00000000
00000000
02000000
00000000
00000000
03000000
1M010000
00000000
00000000
00000000
00000000
00000000
00000000
00000000
,
01000000
00000000
00000100
00000000
,
00001000
00000000
00001001
00000000
,
00000010
00000000
00100000
00010000
,
10000000
00000000
01000000
10000000
00010000
00000000
00100000
00000000
,
00001000
00010000
00000100
00000000
,
00000000
00000010
00000001
00000100
,
00000010
00010000
00001000
00000000
,
01000000
00000000
00110000
00000000
,
10000000
01000000
00100000
00000000
,
00010000
01000000
00001000
00010000
,
00001000
00000100
00000010
00000000
,
00001000
00000001
00000020
00000000
,
00000130
00000100
00000000
00010000
,
00001000
01000000
00000000
00010000
,
00100000
00001000
00021000
00000100
,
00000010
00031000
00020000
00000000
,
00030100
00000100
00000000
00001000
,
00000010
00000100
00000000
00000010
,
00010000
00001000
00012000
01000000
,
00100000
00013000
00002000
00000000
,
00003000
00000000
00000000
10000000
;

//---------------dance-single - D. Bernardone----------------
#NOTES:
     dance-single:
     D. Bernardone:
     Medium:
     5:
     0.337,0.421,0.233,0.203,0.041:
0000
0000
0000
0000
,
0000
0000
0000
0000
,
0000
0000
0000
0000
,
0000
0000
0000
0000
,
1000
0000
1000
0000
1000
0100
0000
0100
,
0010
0000
0010
0000
0010
0001
0000
0001
,
0100
0000
0100
0000
0100
0010
0000
0010
,
1000
0000
1000
0000
1000
0001
0000
0001
,
1000
0010
0100
0000
0001
0000
0010
0000
,
0100
1000
0001
0000
0100
0000
0010
0000
,
0100
0001
1000
0000
0100
0000
0010
0000
,
0100
0010
0001
0000
0100
0000
0010
0000
,
0100
0001
1000
0000
0100
0000
1000
0000
,
0001
0100
0010
0000
1000
0000
0001
0000
,
0010
0100
1000
0000
0001
0000
0100
0000
,
0010
0100
0001
0000
1000
0000
1001
0000
,
0001
0100
0001
0000
0010
0000
0100
0000
,
1000
0001
1000
0000
0010
0000
0100
0000
,
0001
1000
0001
0000
0010
0000
0100
0000
,
1000
1001
0000
1000
0100
0000
0110
0000
,
0001
0100
0001
0000
0010
0000
0100
0000
,
1000
0001
1000
0000
0010
0000
0100
0000
,
0001
0010
0001
0000
1000
0000
0100
0000
,
0010
0110
0000
0001
0100
0000
0110
0000
,
2002
0000
0M00
0000
0000
00M0
0000
0000
0M00
0000
0000
0000
3003
0000
0000
0000
1000
0000
0000
0000
0010
0000
0000
0000
0100
0000
0000
0000
0010
0000
0000
0000
,
0000
1000
0001
1000
0000
0001
0100
0001
,
0000
0100
0010
0100
0000
0010
1000
0010
,
0000
1000
0100
1000
0000
1001
0000
0001
,
0010
0000
0110
0000
1000
0001
0100
0001
,
0000
1000
0010
1000
0000
0100
1000
0100
,
0000
1000
0001
1000
0000
0001
0100
0001
,
0000
1000
0100
1000
0000
1001
0000
0010
,
0001
0000
0000
0000
0000
0000
0000
0000
1001
0000
0000
0000
0000
0000
0000
0000
0220
0000
0000
M000
0000
0000
000M
0000
0000
0000
0000
0000
0330
0000
0000
0000
,
1000
0001
0000
0000
1001
0000
0110
0000
,
2002
0000
0000
0M00
0000
0000
00M0
0000
0000
0000
0000
0000
3003
0000
0000
0000
0001
0000
0000
0000
0100
0000
0000
0000
0000
0000
0000
0000
0000
0000
0000
0000
,
0110
0000
0000
0000
0000
0000
0000
0000
1001
0000
0000
0000
0000
0000
0000
0000
0220
0000
0000
000M
0000
0000
M000
0000
0000
0000
0000
0000
0330
0000
0000
0000
,
0100
0001
0000
0000
1001
0000
0110
0000
,
2002
0000
0000
0M00
0000
0000
00M0
0000
0000
0000
0000
0000
3003
0000
0000
0000
1000
0000
0000
0000
0100
0000
0000
0000
0000
0000
0000
0000
0000
0000
0000
0000
,
0110
0000
0000
0000
2002
0000
0000
3MM3
1001
0000
1000
0000
0001
0000
1000
0000
,
0001
0000
0000
0200
0310
1000
0001
0020
,
0130
0000
1000
0000
1001
0001
1000
0001
,
1000
0000
0010
0200
0301
0010
0100
2000
,
3001
0000
0200
0310
1000
0001
1000
0000
,
1000
0000
1000
0000
0010
0100
0010
0000
,
0010
0000
0010
0000
0100
0001
0100
0000
,
0100
0000
0100
0000
0010
1000
0010
0000
,
0010
0000
0010
0000
1000
0100
1000
0000
,
1000
0000
1000
0000
0001
0010
0001
0000
,
0001
0000
0001
0000
0100
0001
0100
0000
,
0100
0000
0100
0000
0010
1000
0010
0000
,
0010
0010
0220
0000
,
0330
0000
0000
0000
1000
0001
0001
0000
,
0000
0000
2002
0000
,
3003
0000
0000
0000
0000
0110
0000
0010
,
1000
1001
0220
0000
,
0330
0000
0000
0000
0001
1000
1000
0000
,
0000
0000
2002
0000
,
3003
0000
0000
0000
1000
0001
1000
0001
,
1000
0100
0010
0100
0220
0000
0000
0000
,
0330
0000
0000
0000
;

//---------------dance-single - D. Bernardone----------------
#NOTES:
     dance-single:
     D. Bernardone:
     Hard:
     9:
     0.609,0.555,0.677,0.180,0.459:
0000
0000
0000
0000
,
0000
0000
0000
0000
,
0000
0000
0000
0000
,
0000
0000
0000
0000
,
1000
0000
0001
0100
0001
0000
0010
0000
0100
0000
1000
0000
0010
0000
0100
0000
,
0001
0000
1000
0100
1000
0000
0010
0000
0100
0000
0001
0000
0010
0000
0100
0000
,
1000
0000
0001
0100
0001
0000
0010
0000
0100
0000
1000
0000
0010
0000
0100
0000
,
0001
0000
1001
0000
0000
0100
0010
0100
0010
0000
0000
0000
1001
0000
0000
0000
,
0001
0010
0001
0010
0001
0000
1000
0000
0010
0000
0100
0000
0001
0000
1000
0000
,
0100
0010
0100
0010
0100
0000
1000
0000
0010
0000
0100
0000
0001
0000
0010
0000
,
0100
1000
0100
1000
0100
0000
0010
0000
0001
0000
0100
0000
0010
0000
1000
0000
,
0001
0000
0000
0000
0101
0000
0000
0000
0000
0000
1000
0000
0010
0000
1000
0000
0010
0000
0000
0000
0000
0000
0000
0000
0102
0000
0000
0000
0000
0000
0000
0003
,
0001
1000
0001
1000
0001
0000
0010
0000
0100
0000
0010
0000
0001
0000
1000
0000
,
0010
0100
0010
0100
0010
0000
1000
0000
0100
0000
0010
0000
0001
0000
0010
0000
,
0001
1000
0001
1000
0001
0000
0100
0000
0010
0000
0100
0000
0001
0000
1000
0000
,
0001
0000
0011
0000
0000
1000
0100
1000
0100
0000
0000
0000
0012
0000
0000
0003
,
0001
0000
0100
0000
1000
0000
0100
0000
0010
1000
0001
1000
0100
0000
1000
0000
,
0001
0000
0010
0001
0100
0000
0001
0000
0010
0000
0100
0000
0001
0000
0100
0000
,
1000
0000
1010
0000
0110
0000
0001
0000
0010
0100
1000
0001
0100
0000
0010
0000
,
1000
0000
0000
0000
1001
0000
0000
0000
0000
0000
0010
0000
0100
0000
0010
0000
0100
0000
0000
0000
0000
0000
0000
0000
2002
0000
0000
0000
0000
0000
0000
3003
,
1001
0001
0010
1000
0010
0100
1000
0001
,
0100
0000
0010
1000
0100
0000
1000
0000
0001
0100
0001
1000
0100
0000
0010
0000
,
0001
0000
0101
0000
0110
0000
0010
0000
1000
0001
0010
0100
0010
0000
0001
0000
,
1000
0000
0000
0000
1010
0000
0000
0000
0000
0000
0100
0000
0001
0000
0100
0000
0001
0000
0000
0000
0000
0000
0000
0000
2010
0000
0000
0000
0000
0000
0000
3000
,
1002
0000
0100
0000
0000
0010
0000
0000
2003
0000
0000
0000
3000
0000
0100
0010
0001
0000
0000
0000
0011
0000
0000
0000
0100
0000
0000
0000
1010
0000
0000
0000
,
0000
0000
1000
0001
1000
0000
1001
0000
0000
0000
0101
0000
0010
0000
1100
0000
,
0000
0000
0001
1000
0001
0000
1001
0000
0000
0000
0110
0000
1000
0000
0101
0000
,
0000
0000
0100
0010
0100
0000
0110
0000
0000
0000
1100
0000
0000
0010
0001
0010
,
0001
0000
0000
0000
0000
0000
0000
0000
2200
0000
0000
0000
0000
0000
0000
3300
1100
0000
0000
0000
1001
0000
0000
0000
0010
0000
0000
0000
0101
0000
0000
0000
,
0000
0000
1000
0001
1000
0000
1001
0000
0000
0000
0101
0000
0010
0000
1001
0000
,
0000
0000
1000
0100
1000
0000
1100
0000
0000
0000
0110
0000
0001
0000
1100
0000
,
0000
0000
0001
1000
0001
0000
1001
0000
0000
0000
0110
0000
0000
1000
0001
1000
,
0001
0000
0000
0000
0000
0000
0000
0000
0120
0000
0000
0000
0000
0000
0000
0030
1010
0000
0000
0101
0000
0000
1010
0000
0000
0000
0000
M0M0
0000
0000
0000
0000
,
1000
0000
0000
0000
1001
0000
0000
0000
0000
0000
0010
0000
0100
0000
0010
0000
0100
0000
0000
0000
0000
0000
0000
0000
1002
0000
0000
0000
0000
0000
0000
0003
,
0011
0000
0000
1100
0000
0000
0011
0000
0000
0000
0000
00MM
0000
0000
0000
0000
0001
0000
0000
0000
1001
0000
0000
0000
0000
0000
0100
0000
0010
0000
0100
0000
,
0010
0000
0000
0000
0000
0000
0000
0000
2001
0000
0000
0000
0000
0000
0000
3000
1100
0000
0000
0101
0000
0000
1100
0000
0000
0000
0000
MM00
0000
0000
0000
0000
,
0010
0000
0000
0000
0110
0000
0000
0000
0000
0000
0001
0000
1000
0000
0001
0000
1000
0000
0000
0000
0000
0000
0000
0000
0120
0000
0000
0000
0000
0000
0000
0030
,
1010
0000
0000
0011
0000
0000
1010
0000
0000
0000
0000
M0M0
0000
0000
0000
0000
0100
0000
0000
0000
0110
0000
0000
0000
0000
0000
1000
0000
0001
0000
1000
0000
,
0001
0000
0000
0000
0000
0000
0000
0000
0000
0000
0000
0000
0000
0000
0000
0000
0210
0000
0000
0000
0000
0000
0000
0000
0000
0000
0000
0000
M0M0
0000
0000
0300
0101
0000
0000
0000
0000
0000
0000
0000
0001
0000
0000
0000
0000
0000
0000
0000
0010
0000
0000
0000
0000
0000
0000
0000
0100
0000
0000
0000
0000
0000
0000
0000
,
2000
0000
0000
0000
3000
0000
0001
0100
0010
0000
1001
0000
0110
0000
0010
1000
,
0200
0000
0310
0000
1MM1
0001
0100
0010
,
2000
0000
0000
0000
3001
0000
0010
0100
1000
0000
1001
0000
0110
0000
0100
0001
,
0020
0000
0000
0000
0000
0000
0000
0000
0130
0000
1000
0000
0010
0100
0010
0100
0001
0000
0000
0000
1000
0000
0001
0000
1000
0000
0001
0000
1000
0000
0001
0000
,
1000
0000
0000
0000
0011
0000
0000
0000
1100
0000
0100
0010
0001
0000
0100
0010
,
0100
0010
0100
0010
0100
0000
0001
0000
1000
0000
0000
0000
1010
0000
0000
0000
,
0101
0000
0000
0000
0001
0000
0010
0000
0100
0000
1000
0001
1000
0001
1000
0000
,
0110
0000
0000
0000
0010
0000
0100
0000
1001
0000
0001
0100
0001
0100
0001
0100
,
0001
0000
0000
0000
1010
0000
0000
0000
1100
0000
0100
0010
0001
0000
0000
0000
,
1100
0000
1000
0001
0100
0000
0110
0000
,
1010
0000
0000
0000
1000
0000
0001
0000
0010
0000
0100
1000
0100
1000
0100
0000
,
0010
0000
0001
0000
0100
0000
0010
1000
0001
0000
0010
0100
0010
0100
0010
0100
,
0010
0000
0011
0000
0101
0000
0000
000M
0000
0000
0100
0010
1000
0000
0100
0000
,
0010
0001
0010
0001
0010
0000
0000
00M0
0000
0000
0001
1000
0001
1000
0001
1000
,
0001
0000
0101
0000
0110
0000
0000
00M0
0000
0000
1001
0000
0000
0100
0010
0100
,
0010
0000
0000
0000
0000
0000
0000
0000
2002
0000
0000
0000
0000
0000
0000
3003
1001
0000
0000
0000
0001
0000
0100
0000
0001
0000
0100
0000
0001
0000
0100
0000
,
0001
0000
0011
0000
0110
0000
0000
00M0
0000
0000
0100
1000
0001
0000
0010
0000
,
0100
1000
0100
1000
0100
0000
0000
0M00
0000
0000
1000
0001
1000
0001
1000
0001
,
1000
0000
1010
0000
0110
0000
0000
0M00
0000
0000
1001
0000
0000
0010
0100
0010
,
0100
0000
0000
0000
0000
0000
0000
0000
2002
0000
0000
0000
0000
0000
0000
3003
2012
0000
0000
0000
0000
0000
0000
0000
0000
0000
0000
0000
0000
0000
0000
0000
,
3003
0000
0000
0000
;

//---------------dance-double - D. Bernardone----------------
#NOTES:
     dance-double:
     D. Bernardone:
     Medium:
     6:
     0.343,0.359,0.361,0.143,0.008:
00000000
00000000
00000000
00000000
,
00000000
00000000
00000000
00000000
,
00000000
00000000
00000000
00000000
,
00000000
00000000
00000000
00000000
,
10010000
00010000
01000000
00001000
,
00010000
00000100
00001000
00000010
,
00000100
00000001
00001000
00000100
,
00010000
00001000
00000000
00010000
00001000
00000000
00001000
00000000
,
01000000
00010000
10000000
00000000
01000000
00000000
00100000
00000000
,
00010000
01000000
00001000
00000000
00010000
00000000
00000100
00000000
,
00001000
00000010
00000100
00000000
00000001
00000000
00000010
00000000
,
00000100
00001000
00000000
00000100
00001000
00000000
00001100
00000000
,
00010100
00010000
00001000
01000000
,
10000000
01000000
00010000
00100000
,
00001000
00010000
00000100
00000001
,
00000100
00000000
00001000
00001100
,
00000110
00000000
00000001
00000100
00000010
00000000
00001010
00000000
,
00000000
00001000
00000100
00000000
00010100
00000000
00010100
00000000
,
00010000
00001000
00100000
00000000
00010000
00000000
01010000
00000000
,
01000000
00100000
00000000
01000000
00100000
00000000
01100000
00000000
,
10010000
00000000
00010000
01000000
00001000
00000000
00011000
00000000
,
00000000
00010000
00000100
00000000
00001100
00000000
00001100
00000000
,
00000100
00000010
00000001
00000000
00000100
00000000
00000110
00000000
,
00000010
00001000
00000000
00000010
00001000
00000000
00001010
00000000
,
00020020
00000000
00030030
00000000
00010000
00001000
01000000
00010000
,
00000000
00000000
00100000
00100000
00000000
00000000
01000000
01000000
,
00000000
00000000
10000000
10000000
00000000
00000000
00010000
00010000
,
00000000
00000000
01000000
01000000
00001000
00010000
00000000
00001000
,
00010000
00000000
00011000
00000000
00010000
00000100
00001000
00000010
,
00000000
00000000
00000100
00000100
00000000
00000000
00000001
00000001
,
00000000
00000000
00001000
00001000
00000000
00000000
00000010
00000010
,
00000000
00000000
00010000
00010000
00001000
01000000
00000000
00001000
,
01000000
01001000
02020000
03030000
,
01000000
00100000
00000000
01000000
00100000
00000000
01100000
00000000
,
20200000
00000000
30300000
00000000
10000000
00010000
00000000
10000000
,
00010000
10010000
00220000
00330000
,
00100000
00001000
00000000
00100000
00001000
00000000
00101000
00000000
,
00022000
00000000
00033000
00000000
00010000
00000100
00000000
00010000
,
00000100
00010100
00002200
00000010
,
00010000
00000000
00003300
00001000
00000001
00000100
00001000
00010000
,
00100000
01000000
02020000
00001000
,
00100000
03030000
00010000
10000000
01000000
00010000
00001000
00000010
,
00000001
00000000
00000100
00000000
00000001
00000001
00000001
00000001
00000001
00000000
00000000
00000000
00001000
00000000
00000100
00000000
,
00010000
00000000
00011000
00000000
01001000
01000000
00010000
00000000
,
00M00000
00000000
10000000
01000000
00100000
00000000
00101000
00000000
,
00011000
00000000
00010000
00000100
00002000
00000000
00000000
00000000
,
00003010
00000000
00000000
00000000
00000110
00000000
00001000
00000001
,
00000010
00000000
00000110
00000000
00001100
00000100
00001000
00000000
,
0001001M
00000000
00010000
00001000
00010000
00000000
00002000
00000000
,
01003000
00000000
00010000
00100000
02000000
00000000
00000000
00000000
,
13000000
00010000
10000000
00000000
10010000
00000000
00010000
00000000
,
01000000
00000000
01000000
00010000
10000000
01000000
01000000
00000000
,
00000000
01100000
00000000
00101000
,
00000000
00000000
00011000
00000000
00010000
00000100
00000000
00010000
,
00000100
00010100
00001100
00001000
,
00000010
00000000
00000010
00001000
00000001
00000010
00000010
00000000
,
00000000
00000110
00000000
00010100
,
00000000
00000000
00011000
00000000
00010000
00001000
00000000
00010000
,
00001000
00001000
00011000
01000000
02002000
00000000
00000000
00000000
,
03003000
00000000
00000000
00000000
00000000
00010000
10000000
00000000
;

//---------------dance-double - D. Bernardone----------------
#NOTES:
     dance-double:
     D. Bernardone:
     Hard:
     9:
     0.547,0.494,0.331,0.135,0.425:
00000000
00000000
00000000
00000000
,
00000000
00000000
00000000
00000000
,
00000000
00000000
00000000
00000000
,
00000000
00000000
00000000
00000000
,
00000000
00000000
10000000
01000000
00000000
00000000
01000000
00010000
00000000
00001000
00010000
00001000
00000000
00010000
00000010
00000100
,
00000000
00000000
00000001
00000010
00000000
00000000
00000010
00001000
00000000
00010000
00000100
00010000
00000000
00001000
00010000
00100000
,
00000000
00000000
10000000
00010000
00000000
00000000
01000000
00001000
00000000
00010000
00000100
00010000
00000000
00001000
00000010
00000001
,
00000000
00000000
00000101
00000000
00000000
00001000
00000010
00001000
00000010
00000000
00000000
00000000
00000101
00000000
00000000
00000000
,
00000001
00000000
00000010
00000000
00000100
00000000
00010000
00000000
00001000
00000010
00001000
00000000
00010000
00000000
00000000
00000000
,
01000000
00000000
00010000
00000000
00001000
00000000
00010000
00000000
00100000
01000000
00001000
00000000
00100000
00000000
00000000
00000000
,
00010000
00000000
10000000
00000000
01000000
00000000
00100000
00000000
01000000
00010000
00001000
00000000
00010000
00000000
00000000
00000000
,
00000100
00000000
00010100
00000000
00000000
00001000
00000010
00001000
00000010
00000000
00000000
00000000
00010100
00000000
00000000
00000000
,
00000100
00000000
00001000
00000000
00000010
00000000
00000100
00000000
00001000
00010000
01000000
00000000
00010000
00000000
00010000
00000000
,
00001000
00000000
00000010
00000000
00000100
00000000
00010000
00000000
00001000
00000100
00001000
00000000
00010000
01000000
00010000
00000000
,
10000000
00000000
00100000
00000000
00001000
00000000
00010000
00000000
00100000
10000000
00010000
00000000
01000000
10000000
01000000
00000000
,
00001000
00000000
01001000
00000000
00000000
00010000
00100000
00010000
00100000
00000000
00000000
00000000
01001000
00000000
00000000
00000000
,
00001000
00000000
00010000
00000000
00000100
00000000
00001000
00000000
00000010
00000100
00000010
00000100
00000010
00000000
00001000
00000000
,
00000001
00000000
00000100
00000000
00001000
00000000
00010000
00000000
00001000
01000000
00001000
00010000
00001000
00000000
00100000
00000000
,
00010000
00000000
01000000
00000000
00100000
00000000
10000000
00000000
01000000
00100000
01000000
00010000
01000000
00000000
10000000
00000000
,
00010000
00000000
01010000
00000000
00000000
00001000
00100000
00001000
00100000
00000000
00000000
00000000
01010000
00000000
00000000
00000000
,
01000000
00000000
00001000
00000000
00010000
00000000
00000010
00000000
00001000
00000001
00001000
00000100
00001000
00000000
00000010
00000000
,
00000100
00000000
00001000
00000000
00010000
00000000
01000000
00000000
10000000
00100000
01000000
00010000
10000000
00000000
00100000
00000000
,
01000000
00000000
00001000
00000000
00010000
00000000
00000100
00000000
00001000
00000010
00010000
00000010
00000100
00000000
00000001
00000000
,
00000010
00000000
00001100
00000000
00000000
00010000
00000010
00010000
00000010
00000000
00000000
00000000
00001100
00000000
00000000
00000000
,
00020200
00000000
00001000
00030300
00010000
00001000
01000000
00010000
,
00000000
00100000
00000000
01000000
10000000
00000000
10010000
00000000
00000000
00010000
00000000
01000000
00001000
00000000
00011000
00000000
,
00000000
00010000
00000000
00000100
00001000
00000000
00001010
00000000
00000000
00000010
00000000
00000100
00000001
00000000
00000011
00000000
,
00000000
00000010
00000000
00000100
00010000
00000000
00011000
00000000
00000000
00000000
00101000
00000000
00000000
00010000
01000000
00010000
,
01000000
00000000
00101000
00000000
00100000
00001000
00010000
01000000
,
00000000
10000000
00000000
00010000
01000000
00000000
01100000
00000000
00000000
00100000
00000000
10000000
00010000
00000000
01010000
00000000
,
00000000
01000000
00000000
00001000
00010000
00000000
00010100
00000000
00000000
00000100
00000000
00001000
00000010
00000000
00000110
00000000
,
00000000
00000100
00000000
00000001
00001000
00000000
00001010
00000000
00000000
00000000
00010010
00000000
00000000
00001000
00000100
00001000
,
00000100
00000000
00010010
00000000
00022000
00000000
00000010
00033000
,
00001000
00000000
01000000
00000000
00000000
00010000
00100000
00010000
00100000
00000000
00000000
00000000
01001000
00000000
00000000
00000000
,
00022000
00000000
00000000
00000000
01000000
00000000
00033000
00000000
00010000
00000000
00000100
00000000
00000000
00001000
00000010
00001000
,
00000010
00000000
00010100
00000000
00022000
00000000
00000100
00033000
,
00001000
00000000
00100000
00000000
00000000
00010000
01000000
00010000
01000000
00000000
00000000
00000000
00101000
00000000
00000000
00000000
,
00022000
00000000
00000000
00000000
00100000
00000000
00033000
00000000
00000100
00000000
01000000
00000000
00000000
00000010
00100000
00000010
,
00100000
00000000
00000000
00000000
00022000
00000000
00000000
MM0330MM
00100100
00000000
00100000
00000000
00010000
00000000
01000000
00000000
,
00002000
00000000
00000000
00000000
00003000
00000000
00010000
00000010
00001000
00000000
00000001
00000000
00000100
00000000
00000010
00001000
,
00000020
00000000
00001030
00000000
00010200
000M1300
00000010
00010000
,
00002000
00000000
00000000
00000000
01003000
00000000
00010000
00100000
01000000
00000000
10000000
00000000
00010000
00000000
01000000
00001000
,
01000000
00000000
00000000
00000000
00101000
00000000
00000000
00000000
00010000
00000000
00000100
00000000
00001000
00000010
00001000
00000010
00000100
00000000
00000000
00000000
00000000
00000000
00000000
00000000
00000001
00000000
00000000
00000000
00000010
00000000
00000000
00000000
,
00001000
00000000
00010000
00000000
00100000
00000000
00000000
00000000
01000000
00000000
00010000
00100000
00001000
00000000
00010000
00000000
,
00000100
00000000
00010000
00000010
00000001
00000000
00000010
00001000
,
00000100
00000000
00000001
00000100
00010000
00000010
00001000
00000100
,
00010000
00010000
00010000
00010000
01001000
00000000
00001000
01000000
,
00010000
00000000
10000000
00000000
01000000
00000000
00000000
00000000
00100000
00000000
00001000
00010000
00001000
00000000
01000000
00000000
,
00010000
00000000
10000000
01000000
00001000
00000000
01000000
00010000
,
00001000
00010000
01000000
10000000
00100000
00000000
01001000
00000000
,
00001000
00000000
00000100
00000000
00000001
00000010
00000100
00001000
00001100
00000000
00000100
00000000
00010000
00000000
00001000
00000000
,
00100000
01000000
00000000
01000000
10000000
00000000
00010000
00000000
01000000
00000000
00001000
00010000
00001000
00000000
00010000
00000000
,
00000100
00000010
00000001
00000010
00000100
00000000
00001000
00000000
00000010
00000000
00000100
00000000
00001000
00000000
00010000
00000000
,
01000000
10000000
00000000
10000000
00100000
00000000
10000000
00000000
00010000
00000000
01010000
00000000
00000000
00100000
00001000
00100000
,
00001000
00000000
01010000
00000000
01000000
00001000
00010000
00000100
,
00010000
00001000
00000000
00001000
01000000
00000000
00010000
00000000
00100000
00000000
00001000
00010000
00001000
00000000
00010000
00000000
,
00000010
00000100
00000001
00000100
00000010
00000000
00001000
00000000
00000100
00000000
00000010
00000000
00001000
00000000
00010000
00000000
,
00100000
01000000
00000000
01000000
00001000
00000000
00010000
00000000
00000100
00000000
00001100
00000000
00001000
00000010
00010000
00000010
,
00000100
00000000
00000001
00000000
00001100
00000000
00001000
00000100
00020200
00000000
00000000
00000000
00000000
00000000
00000000
00000000
,
00030300
00000000
00000000
00000000
00000000
00000000
00000000
00000000
00000000
00000000
00001000
01000000
00001000
00000000
00000000
00000000
;
