#TITLE:Disconnected;
#SUBTITLE:-Delight Mix-;
#ARTIST:Zeta Aspect;
#TITLETRANSLIT:;
#SUBTITLETRANSLIT:;
#ARTISTTRANSLIT:;
#GENRE:Happy Hardcore;
#CREDIT:Sync by HellRazoR;
#BANNER:Disconnected Delight Mix-bn.png;
#BACKGROUND:Disconnected Delight Mix-bg.png;
#LYRICSPATH:;
#CDTITLE:;
#MUSIC:Disconnected -Delight Mix-.ogg;
#OFFSET:-0.061;
#SAMPLESTART:33.367;
#SAMPLELENGTH:12.000;
#SELECTABLE:YES;
#DISPLAYBPM:180.000:90.000;
#BPMS:0.000=180.000,128.000=90.000,144.000=180.000;
#STOPS:;
#BGCHANGES:0.000=Disconnected Delight Mix-bg.png=1.000=0=0=1=====,
16.000=-random-=1.000=0=0=1=====,
28.000=Disconnected Delight Mix-bg.png=1.000=0=0=1=StretchNormalGreen====,
29.000=Disconnected Delight Mix-bg.png=1.000=0=0=1=StretchNormalBlue====,
30.000=Disconnected Delight Mix-bg.png=1.000=0=0=1=====,
32.000=-random-=1.000=0=0=1=====,
48.000=-random-=1.000=0=0=1=====,
64.000=-random-=1.000=0=0=1=====,
80.000=-random-=1.000=0=0=1=====,
96.000=-random-=1.000=0=0=1=====,
112.000=-random-=1.000=0=0=1=====,
128.000=-random-=1.000=0=0=1=SongBgWithMovieViz====,
144.000=-random-=1.000=0=0=1=====,
160.000=-random-=1.000=0=0=1=====,
176.000=-random-=1.000=0=0=1=====,
192.000=-random-=1.000=0=0=1=====,
208.000=-random-=1.000=0=0=1=====,
224.000=-random-=1.000=0=0=1=====,
240.000=-random-=1.000=0=0=1=====,
256.000=-random-=1.000=0=0=1=====,
272.000=Disconnected Delight Mix-bg.png=1.000=1=0=1===CrossFade==,
99999=-nosongbg-=1.000=0=0=0 // don't automatically add -songbackground-
;
#KEYSOUNDS:;

//---------------dance-single - M. Simmons----------------
#NOTES:
     dance-single:
     M. Simmons:
     Challenge:
     12:
     1.000,1.000,0.799,0.334,0.921:
0000
0000
0000
0000
,
0000
0000
0000
0000
,
1000
0010
0100
0000
0001
0000
0010
0000
0100
1000
0001
0000
0100
0001
1000
0000
,
0010
0000
0000
0000
0000
0000
0110
0000
0010
0000
0000
1000
0100
0000
0010
0001
,
1000
0010
1000
0000
0001
0000
0010
0000
1010
0000
0000
0000
0001
0000
0010
0000
,
0100
1000
0001
0000
0100
0000
0001
0000
1100
0000
0000
0000
0001
0000
0100
0000
,
0010
1000
0001
0000
0010
0100
1000
0000
0001
0100
0010
0000
1000
0001
0010
0000
,
0011
0000
0000
0000
1100
0000
0000
0000
1001
0000
0000
0000
0001
0100
0010
0100
,
0001
0000
1000
0100
0010
0000
0100
1000
0001
0000
0101
0000
1010
0000
0001
0000
,
0010
0100
1000
0000
0001
0000
0010
0000
1000
0010
0001
0000
0010
0001
0100
0000
,
0020
2030
3002
0203
0301
0000
0101
0000
1010
0000
0001
0000
0010
0000
0100
0000
,
1000
0100
0010
0000
0001
0000
1001
0000
0001
0000
0100
0000
0210
0000
0000
0000
,
0301
0010
0100
0000
1000
0000
0001
0100
0001
0000
1000
0000
0100
0010
0100
0000
,
1000
0000
0001
0100
0001
0000
0000
0000
1000
0001
0010
0000
0110
0000
1001
0000
,
0010
0000
1000
0001
0100
0000
0001
1000
0001
0000
0010
0100
1000
0000
0001
0100
,
0020
0230
2300
3200
0302
0003
1001
0000
,
0011
0000
0100
1000
0010
0000
0100
0001
1000
0000
0001
0010
0001
0000
0010
0100
,
1000
0000
0000
0000
0101
0000
0000
0000
1100
0000
0001
0010
0100
0000
0010
0001
,
1000
0000
0010
0100
0001
0000
0100
0010
1000
0000
0100
0010
0001
0000
0010
0100
,
1000
0000
0000
0000
1100
0000
0000
0000
0101
0000
0001
0000
0001
0000
1000
0100
,
0010
0000
0100
1000
0001
0000
0010
0001
1000
0000
0010
0001
0010
0000
1000
0001
,
0100
0000
0000
0000
1010
0000
0000
0000
0011
0000
0001
1000
0100
0000
0010
0001
,
1000
0000
0010
0000
0100
0000
0001
0000
1000
0100
0010
0000
0001
0000
1000
0010
,
1000
0000
0000
0000
0011
0000
0000
0000
1010
0000
0000
0000
0010
1000
0001
0010
,
0100
1100
0100
0110
0010
1001
0001
0101
,
0020
0000
0000
0000
0000
0000
0100
0000
0130
0000
0010
0000
0010
1000
0001
0100
,
0001
1100
0100
0110
0010
1100
1000
0101
,
0002
0000
0000
0000
0000
0000
1000
0000
1003
0000
0001
0000
0001
0010
0100
1000
,
0010
0110
0010
1010
1000
0110
0010
0011
,
0020
0000
0000
0000
0000
0000
0100
0000
0130
0000
0010
0000
0010
0100
1000
0010
,
0100
1001
0001
0101
0001
1100
0100
0110
,
0200
0000
0000
0000
1000
0000
1300
0000
0001
0000
0001
0100
0010
0000
1000
0100
,
0010
0011
0000
1010
0000
0110
0000
1001
0000
M000
0M00
M000
000M
00M0
0M00
M000
,
0000
0011
0000
1100
0000
0110
0000
1001
0002
0000
0203
0000
0310
0000
0000
1000
,
0100
0000
0010
0000
0001
0000
1000
0000
0010
0000
0000
0000
0100
0000
0000
0000
0010
1000
0010
0000
0100
0010
0100
0000
0001
0100
0001
0000
1001
0000
0001
0000
,
0010
0000
0100
0000
1000
0010
1000
0000
0010
0000
0100
0001
0000
0000
0101
0000
0010
0000
0000
0000
1001
0000
0000
0001
0100
0000
0010
0000
1000
0001
1000
0000
,
1001
0000
0001
0000
0010
0000
0100
0000
1000
0001
0100
0000
0010
1000
0001
0000
,
0010
0000
0100
0000
1100
0000
0100
0000
0010
0001
1000
0000
0010
0100
0001
0000
,
2000
3200
0302
0203
2300
3020
0031
0000
,
0010
0000
1000
0001
0100
0000
0001
1000
0100
0000
0010
0001
0010
0100
1000
0100
,
0010
0000
0001
0000
1000
0000
0010
0000
0100
0010
1000
0000
0001
0100
0001
0000
,
1000
0000
0100
0000
0110
0000
0010
0000
0001
1000
0010
0000
0100
1000
0100
0000
,
0001
0010
0001
0000
0011
0000
0100
1000
0100
0000
1100
0000
0010
0001
1000
0000
,
0010
0100
0001
0000
1001
0000
1000
0100
0010
0000
0011
0000
0010
0000
0110
0000
,
1000
0100
1000
0000
0001
0000
0100
0000
0010
1000
0010
0000
0100
0000
0001
0000
,
1000
0000
0010
0000
0101
0000
0010
0000
1000
0001
0100
0000
0001
0010
1000
0000
,
0010
0001
1000
0000
0010
0000
0100
0000
0010
1000
0001
0000
0101
0000
1010
0000
,
0100
0001
1000
0000
0100
0000
0010
0000
0001
1000
0010
0000
0110
0000
1010
0000
,
0001
0100
0001
0000
1000
0000
0100
0000
0010
0100
1000
0000
0001
0000
0100
0000
,
0010
0000
0100
0000
0011
0000
0100
0000
1000
0001
0100
0000
0010
1000
0010
0000
,
01M0
0001
010M
1000
M100
0010
10M0
0001
,
0010
0000
0100
1000
0100
0000
0010
0001
1000
0000
0010
0100
0001
0100
0010
0000
,
1010
0000
0001
0000
0000
0000
0110
0000
0000
0000
1000
0100
0010
0000
0110
0000
,
0000
0000
0100
1000
0001
0000
0100
1000
0100
0000
0010
1000
0100
0000
0010
0001
,
1000
1001
0000
0010
1001
0100
0000
0101
,
0000
0000
0100
0001
1000
0000
0100
0010
1000
0000
0010
0001
1000
0010
0100
0010
,
2000
3001
0000
0012
0000
0003
0000
2002
,
0000
3003
0001
0100
0010
1000
0100
1000
0001
0100
0001
1000
0100
0010
0001
1000
,
0010
0110
0000
2001
0000
3000
0000
0011
,
0010
0100
1000
0000
0000
0001
0100
0010
1000
0001
0100
0001
1000
0100
0010
0100
,
1000
0000
0101
0000
0000
0000
1010
0000
0000
0001
0010
0000
0000
0000
0100
1000
,
0200
0000
0310
0001
0010
0000
0100
0000
1000
0000
0010
0000
0100
0001
0100
0001
,
0100
0000
0010
1000
0000
0000
0100
0010
0001
1000
0001
0000
0000
0000
0100
0010
,
1000
0001
0100
0001
1000
0000
0100
0010
0001
0000
1000
0100
1000
0001
0100
0000
,
0010
1000
0001
0010
0100
0000
2100
0000
3000
0000
0001
0010
0100
0000
1000
0001
,
0200
0000
0320
0000
1030
0000
0100
0010
0100
0000
1000
0100
0010
0001
1000
0010
,
0100
0001
0000
0010
0100
0000
1000
0001
0000
0100
0010
0000
1000
0100
0010
0001
,
1000
0000
0010
0100
0001
0000
1000
0100
0010
0001
1000
0010
0100
0000
0010
2000
,
0002
0000
0000
0000
,
3003
0000
0000
0000
;

//---------------dance-single - M. Simmons----------------
#NOTES:
     dance-single:
     M. Simmons:
     Hard:
     8:
     0.545,0.838,0.536,0.142,0.106:
0000
0000
0000
0000
,
0000
0000
0000
0000
,
0000
0000
0000
0000
,
0000
0000
0000
0000
,
0001
0010
0011
0000
,
0010
0100
0110
0000
,
0100
1000
0010
0001
,
0100
1000
0001
0000
,
0010
0000
0100
1000
0000
0010
0000
0100
,
0001
1001
1001
0001
,
0010
0100
0010
0100
1000
0000
0001
1000
,
0010
0000
0110
0010
0000
1001
0000
0000
,
0001
1000
0100
1000
0001
0100
0001
0000
,
1000
0001
0100
0001
1000
0100
1000
0000
,
0001
0010
0100
0000
1000
0010
0100
0000
,
0010
1000
0010
1000
0010
0000
1010
0000
,
1001
0002
0000
0013
,
0110
0200
1300
0000
,
0001
0000
0100
0001
0000
1000
0000
0100
,
0020
0001
0130
0000
,
1000
0020
0000
0130
,
0110
0200
0301
0000
,
0001
0000
0010
0100
0000
1000
0000
0100
,
0010
0011
1010
0000
,
0000
1001
0000
0011
0000
1001
0000
1010
,
0020
0100
0100
0000
,
0030
0110
0000
1001
0000
0110
0000
1001
,
0200
0010
0010
0000
,
0300
1100
0000
0011
0000
1100
0000
0011
,
0002
1000
1000
0000
,
0003
1001
0000
0101
0000
1001
0000
1100
,
0220
0000
0000
0000
0000
0000
0000
0330
,
0000
0010
0000
0100
0000
1000
0000
0001
0000
00M0
0000
0M00
0000
M000
0000
000M
,
0000
0010
0000
0100
0000
1000
0000
0001
0100
0000
0110
0000
0110
0000
0000
0010
,
1000
0000
0100
0000
0020
0000
0000
0000
0130
0000
1000
0001
1000
0000
0010
0000
,
0010
0100
0001
1000
0100
1000
0001
0010
0100
0000
1100
0000
0110
0000
0011
0000
,
1000
0001
0010
0000
0110
0000
0000
0000
,
0000
1100
0011
0000
,
0001
0100
0010
1000
0001
0100
0010
1000
,
0002
0000
0000
0000
0400
0000
0000
0303
,
0001
0100
0010
0000
1001
0000
0000
0000
,
0000
0011
1100
0000
,
0001
0010
0100
1000
0001
0010
0100
1000
,
0001
0100
0010
0100
0001
1000
0100
0010
,
0001
0100
0010
0000
1010
0000
0000
0000
,
0000
0110
1001
0000
,
0010
0100
0010
0000
1001
0000
0001
0000
,
0010
0100
0010
0000
1001
0000
0001
0000
,
0001
0010
0100
1000
0001
0000
0100
0000
,
0010
1010
0110
0000
,
0001
0100
0001
0100
0001
0000
0101
0000
,
0010
0000
1000
0010
1000
0000
0010
1000
0010
0000
1000
0010
1000
0000
0010
0000
,
1000
0001
0000
0100
0000
0001
1000
0100
,
0010
0001
0000
0100
0000
0010
0000
0100
,
0010
1000
0000
0100
0000
0010
0000
0001
,
0000
0010
0000
0100
0000
1000
0010
0100
,
0010
1000
0001
1000
0000
0100
0000
0010
,
0000
0001
0010
0100
1000
0001
0010
0100
,
0000
1000
0000
0010
0000
0100
0000
0010
,
0000
1000
0001
0000
0100
0000
0001
0000
,
1000
0100
0000
0010
0000
0100
0000
1000
,
0001
0000
0100
0000
0010
0000
1000
0100
,
0010
0000
0001
0100
0000
0001
1000
0000
,
0000
0100
0000
0010
0000
0001
1000
0001
,
1000
0000
0010
0100
0010
1000
0000
0000
,
0100
0010
0100
0000
0110
0000
0110
0000
,
0100
1100
0010
0011
,
0001
0100
0010
1000
0100
0001
0100
1000
,
2002
0000
0000
0000
,
3003
0000
0000
0000
;

//---------------dance-double - M. Simmons----------------
#NOTES:
     dance-double:
     M. Simmons:
     Hard:
     8:
     0.567,0.978,0.506,0.152,0.076:
00000000
00000000
00000000
00000000
,
00000000
00000000
00000000
00000000
,
00000000
00000000
00000000
00000000
,
00000000
00000000
00000000
00000000
,
00010000
00000000
00000100
00001000
00001100
00000000
00000100
00000000
,
00010000
00000000
00000100
00001000
00001100
00000000
00000100
00000000
,
00010000
00001000
00100000
00001000
,
00011000
00011000
00011000
00000000
,
00001000
00000000
01000000
00100000
00000000
10000000
00000000
01000000
,
00100000
10000000
10100000
00000000
,
00100000
00001000
00010000
00000100
00000010
00000000
00000001
00001000
,
00000001
00000000
00000100
00000101
00000000
00001010
00000000
00000000
,
00000100
00001000
00000100
00000010
00000001
00000000
00000110
00000000
,
00000100
00010000
00001000
01000000
00100000
00000000
01010000
00000000
,
00100000
10000000
01000000
00000000
00100000
00010000
01000000
00000000
,
00100000
01000000
00100000
01000000
00100000
00000000
10010000
00000000
,
01000000
00001000
00000000
01000000
00000000
00000100
00000000
00010000
,
00011000
00011000
00100010
00000000
,
00000000
00001000
00000000
01000000
00000000
00100000
00000000
10000000
,
11000000
00110000
00001100
00000000
,
00000000
00000001
00000000
00000100
00000000
00000010
00000000
00001000
,
00001010
00000110
00001001
00000000
,
00000000
00000001
00000000
00001000
00000000
00010000
00000000
10000000
,
10010000
01100000
10010000
00000000
,
00010000
01000000
00100000
01000000
00001000
00010000
00000100
00000010
,
00000002
00000000
00000000
00000000
,
00000103
00000010
00001000
00000100
00010000
00001000
01000000
00100000
,
20000000
00000000
00000000
00000000
,
31000000
00100000
00001000
00010000
00000100
00000010
00001000
00000010
,
00000002
00000000
00000000
00000000
,
00000103
00001000
00010000
01000000
00100000
00001000
01000000
00100000
,
20000000
00000000
00000000
00000000
,
30000000
00010000
00000000
01000000
00000000
10000000
00000000
01000000
00000000
00000000
00000000
00000000
00000000
00000000
00000000
00000000
,
00000000
00000001
00000000
00000010
00000000
00000100
00000000
00001000
00000010
00000000
00001010
00000000
00000101
00000000
00000000
00000001
,
00000010
00000100
00001000
00000001
00000100
00000000
00000000
00000000
00001010
00000000
00001100
00000000
00010100
00000000
00011000
00000000
,
00001000
01000000
00100000
10000000
00010000
01000000
00010000
10000000
01000000
00000000
01100000
00000000
10010000
00000000
01100000
00000000
,
10010000
00000000
01100000
00000000
00010000
01000000
00001000
00000000
,
00010000
00010100
00010100
00000000
,
00000100
00000010
00000100
00000010
00000100
00001000
00000001
00000000
,
00002002
00000000
00000000
00003003
,
00000001
00000010
00000110
00000100
,
00010000
00001000
00100000
00000000
00101000
00000000
00000000
00000000
,
00100000
01000000
10000000
01000000
00100000
00010000
00100000
01000000
,
10000000
00010000
01000000
00100000
10000000
00100000
01000000
00010000
,
10000000
00010000
00110000
00000000
,
00100000
00001000
00101000
00000000
00010100
00000000
00000000
00000000
,
00000010
00000100
00000001
00000100
00000010
00000100
00000010
00000000
,
00001000
00000001
00000100
00000001
00001000
00000100
00000010
00000000
,
00000100
00010000
00001000
00000000
00011000
00000000
00000000
00000000
,
00100000
01000000
10000000
00010000
10010000
00000000
00100000
00000000
,
01000000
00010000
01000000
00100000
01000000
00000000
01010000
00000000
,
00200000
02300000
23000000
30000000
,
00010000
00100000
00000000
01000000
00000000
00100000
00001000
00010000
,
00000000
00000100
00000010
00000100
00000010
00000001
00000010
00000100
,
00000010
00000001
00000000
00001000
00000000
00000010
00000100
00000010
,
00000000
00001000
00000000
00000001
00000100
00000001
00001000
00000100
,
00000010
00000100
00010000
00001000
00000000
00000000
00000000
00022000
,
00030000
00400000
00000000
00000000
00000000
00000000
00000000
00000000
,
00303000
00001000
00000000
00010000
00000000
00000100
00000010
00000001
,
00000000
00000100
00000010
00001000
00000010
00000000
00000110
00000000
,
00010010
00010000
00000000
00001000
00000000
01000000
00000000
00100000
,
10000000
00010000
00200000
02300000
13000000
00010000
01000000
00010000
,
10000000
00000000
00100000
01000000
00000000
00100000
00000000
10000000
,
00010000
00000000
00100000
00000000
01000000
00100000
01000000
00000000
,
00100000
00001000
00000000
00011000
00000000
00010000
00000000
00000100
,
00000000
00000010
00000001
00001000
00000001
00000000
00000100
00000010
,
00000100
00000010
00001000
00000010
00000100
00000000
00000010
00001000
,
00000000
00000001
00000010
00000000
00000100
00001000
00000001
00001000
,
00002002
00000000
00000000
00000000
,
00003003
00000000
00000000
00000000
;

//---------------dance-double - Oren G.----------------
#NOTES:
     dance-double:
     Oren G.:
     Challenge:
     12:
     0.833,1.000,0.567,0.344,0.607:
00000000
00000000
00000000
00000000
,
00000000
00000000
00000000
00000000
,
10010000
00000000
MMMM1000
00000000
00002MM2
00003003
00000000
00000000
,
00010000
00000000
00001000
00000000
00000000
00000000
00010000
00000000
00000100
00000000
00000000
00001000
00000001
00000000
00000100
00000000
,
00000010
00000000
0001MMMM
00000000
2MM20000
30030000
00000000
00000000
,
01100000
00000000
MMM1M000
00000000
000M220M
00003300
00000000
00000000
,
00011000
100MM000
00110000
00MM0100
,
00020000
00000000
00000000
00000000
00100000
00000000
00000000
00000000
00031000
00000000
00000000
00000000
01000000
00010000
01000000
00100000
,
10000000
01000000
00010000
00001000
01000000
00100000
10000000
00010000
,
00110000
00010010
01010000
00010100
,
00001000
00000001
00001000
00000000
00000010
00000000
00010000
00000000
00001000
00000000
00000100
00000000
00000001
00000000
00000010
00000000
,
00000110
00000000
00001000
00011000
00000000
000MM010
00000000
00000000
,
00001000
00000001
00000010
00000000
00000100
00000000
00001000
00000000
00000001
00000000
00000100
00000000
00000010
00001000
00000010
00000000
,
00010000
00001000
00100000
00000000
00010000
00000000
01000000
00100000
10000000
00000000
01000000
00000000
00100000
00000000
00001000
00000000
,
00010100
001MMM00
00010010
010MMMM0
,
00000200
00000000
00200300
00000000
00300020
00000000
00020030
00000000
00030002
00000000
00000003
00000000
00000400
00000040
00000000
00000300
,
00001030
00000100
00000010
00000100
00010000
00000100
00000001
00000100
,
00001010
0010M0M0
00001010
0000M0M0
,
00010000
00000100
00010000
00001000
00010000
00100000
00010000
10000000
,
11000000
MM001000
11000000
MM000000
,
00010000
01000000
10000000
01000000
00001000
01000000
00100000
01000000
,
00110000
00MM0010
00110000
00MM0000
,
00001000
00000000
01000000
00000000
00001000
00010000
00001000
00000000
00000010
00000000
00001000
00000001
00001000
00000000
00000010
00000100
,
00001000
00000000
00000010
00000000
00001000
00000001
00001000
00000010
00000000
00010000
00000100
00000000
00001000
00000001
00001000
00000000
,
00000000
0000M00M
00000110
00000000
00000000
00000000
00010001
00000000
00000000
00000000
00101000
00000000
00000000
00000000
00001010
00000000
,
00020000
00000000
00000000
00000000
00000000
00000000
00000000
00000000
00000000
00000000
00000000
00000000
00000000
00000000
00000000
00000000
00100000
00000000
00000000
00000000
00000000
00000000
00000000
00000000
00000000
00000000
00000000
00000000
00000000
00000000
00000000
00000000
00001000
00000000
00000000
00000000
00000000
00000000
00000000
00000000
00000000
00000000
00000000
00000000
00000000
00000000
00000000
00030000
40000000
00000000
00000000
00000000
00400000
00000000
00000000
00000000
00000000
00000000
00000000
00000000
30300000
00000000
00000000
00000000
,
00000000
01100000
00000000
10001000
00000000
00010010
00000000
00110000
,
00002000
00000000
00000000
00000000
00000010
00000000
00000000
00000000
00010000
00000000
00000000
00003000
00000004
00000040
00000000
00000033
,
00000000
00000101
00000000
01000100
00000000
00101000
00000000
00001100
,
00020000
00000000
00000000
00000000
00100000
00000000
00000000
00000000
00032000
00000000
00000000
00000000
40003000
04000000
00000000
33000000
,
00000000
00110000
00000000
01000100
00000000
00010010
00000000
01010000
,
00002000
00000000
00000000
00000000
00000010
00000000
00000000
00000000
00023000
00000000
00031000
00100000
00001000
00000000
01000000
00010000
,
10000000
00000000
00000000
02000000
00000000
00000000
00000000
00000000
00000000
03100000
00000000
00000000
00000000
00000000
00000000
00000020
00000000
00000000
00000000
00000000
00000030
00001010
00000000
00000000
00000000
00000000
00000000
00000000
00000000
00000000
00000000
00000000
00000000
00000000
00000000
00000000
00000000
00000000
00000000
00000000
00000000
00000000
00000000
00000000
00000000
00000000
00000000
00000000
,
00000000
00000000
00000000
00000200
00000000
00000000
00000000
00000000
00000000
00001300
00000000
00000000
00000000
00000000
00000000
02000000
00000000
00000000
00000000
00000000
03000000
01010000
00000000
00000000
00002000
00000000
00000000
00000000
00000000
00000000
00203000
00000000
00000000
00000000
00000000
00000000
00300020
00000000
00000000
00000000
00000000
00000000
00000030
00000000
00000000
00010000
00000000
00000000
,
00001000
00000000
00100000
00000000
00010000
00000000
10000000
00000000
01000000
00000000
00000000
00000000
M0000000
00000000
0M000000
00000000
00100000
00010000
00100000
00000000
00001000
01000000
00001000
00000000
00010000
00000100
00010000
00000000
00000010
00000000
00001000
00000000
,
00001001
00000000
00000100
00000000
00000010
00001000
00000010
00000000
00010010
00000000
00010000
00001000
00000000
00000000
00100000
00000000
00110000
00000000
00000000
00000000
00010100
00000000
00010000
00000000
00001000
00000000
00100000
00010000
10000000
00000000
00100000
00000000
,
01000000
00001000
00100000
01000000
00001000
01000000
00100000
00001000
,
01000000
10010000
MMMMMM2M
00000000
,
00001000
00000100
00001030
00020000
00001000
00000100
00031000
00000000
,
M1MMMMM0
00000000
00000000
00000000
00101000
00000000
00000000
00000000
00000010
00000000
00010000
00000000
00000001
00000100
00000001
00000100
,
00000010
00010000
00000100
00000010
00010000
00000010
00000100
00010000
,
00000010
00001001
M2MMMMMM
00000000
,
03001000
00010000
00001000
00000000
10000000
00000000
00001000
00010000
00001000
00000000
10000000
00000000
00001000
00010000
00001000
00000000
,
00010000
00001000
00010000
00000000
00000001
00000000
00001000
00000010
00001000
00000000
00000001
00000000
00000100
00000000
00001000
00000000
,
01000000
00000100
00000010
00000100
01000000
00000010
00000100
00000010
,
01000000
00110000
MMMMMMM2
00000000
,
00001003
00000010
00001000
00000010
00000000
00000000
00010000
00000000
00000000
00001000
00000000
00000000
00110000
00000000
00000000
00000000
00000000
00000000
00000000
00000000
00000000
00000000
10000000
01000000
,
10000000
00000000
00010000
00000000
00000000
00000000
01000000
00000000
00001000
00010000
00001000
00000000
00100000
00000000
01000000
00000000
,
00010000
00000100
01000000
00010000
00000100
00010000
01000000
00000100
,
00010000
00000000
00001001
00000000
1MMMMMMM
00000000
00000000
00100000
,
M0200000
00310000
00M20000
00030100
000M0200
00000300
00000M00
00000000
,
01000000
00000000
00001000
00010000
00001000
00000000
10000000
00010000
10000000
00000000
00001000
01000000
00001000
00010000
00000010
00000000
,
00001010
00000000
00000100
00000000
0000M0M0
00000000
00000001
00000000
00001010
00000000
00010000
00001000
00100000
00000000
01000000
00000000
,
00000000
00000000
00000000
00000000
00000000
00000000
00000000
00000000
00000000
00000000
00000000
00000000
00000000
00000000
00000000
00000000
00000000
00000000
00000000
00000000
00000000
00000000
00000000
00000000
00000MMM
00000000
00000000
00000000
00000000
00000000
10000000
00000000
00000000
00000000
00000000
00000000
00000000
00000000
00000000
00000000
00000000
00000000
00010000
00000000
00000000
00000000
00000000
00000000
00000000
00000000
00000000
00000000
00000000
00000000
00000M00
00000000
00000000
00000000
00000000
00000000
00000000
00000000
00000000
00000000
00000000
00000000
00000000
00000000
00000000
00000000
00000000
00000000
00000000
00000000
00000000
00000000
00000000
00000000
01000000
00000000
00000000
00000000
00000000
00000000
00MMMM00
00000000
00000000
00000000
00000000
00000000
00000010
00000000
00000000
00000000
00000000
00000000
00000000
00000000
00000000
00000000
00000000
00000000
00000000
00000000
00000000
00000000
00000000
00000000
00000000
00000000
00000000
00000000
00000000
00000000
00M00000
00000000
00000000
00000000
00000000
00000000
00000000
00000000
00000000
00000000
00000000
00000000
00001000
00000000
00000000
00000000
00000000
00000000
00000000
00000000
00000000
00000000
00000000
00000000
00000001
00000000
00000000
00000000
00000000
00000000
MMM00000
00000000
00000000
00000000
00000000
00000000
00000000
00000000
00000000
00000000
00000000
00000000
00000000
00000000
00000000
00000000
00000000
00000000
00000000
00000000
00000000
00000000
00000000
00000000
00000010
00000000
00000000
00000000
00000000
00000000
00000000
00000000
00000100
00000000
00000000
00000000
00000000
00000000
00000000
00000000
00000010
00000000
00000000
00000000
00000000
00000000
00000000
00000000
,
00000100
00000000
00000000
00000000
00000000
00000000
00000000
00000000
00000000
00000000
00000000
00000000
00000000
00000000
00000000
00000000
00000000
00000000
00000000
00000000
00000000
00000000
00000000
00000000
00010000
00000000
00000000
00000000
00000000
00000000
00000000
00000000
00000000
00000000
00000000
00000000
00000M00
00000000
00000000
00000000
00000000
00000000
00000000
00000000
00000000
00000000
00000000
00000000
00000000
00000000
00000000
00000000
00000000
00000000
00000000
00000000
00000000
00000000
00000000
00000000
00000000
00000000
00000000
00000000
00000000
00000000
00000000
00000000
00000000
00000000
00000000
00000000
00001000
00000000
00000000
00000000
00000000
00000000
00000000
00000000
00100000
00000000
00000000
00000000
00000000
00000000
00000000
00000000
00001000
00000000
00000000
00000000
00000000
00000000
00000000
00000000
00100000
00000000
00000000
00000000
00000000
00000000
00000000
00000000
00000000
00000000
00000000
00000000
00000000
00000000
00000000
00000000
00000000
00000000
00000000
00000000
00000000
00000000
00000000
00000000
01000000
00000000
00000000
00000000
00000000
00000000
00000000
00000000
00000000
00000000
00000000
00000000
00000000
00000000
00000000
00000000
00000000
00000000
M0000000
00000000
00000000
00000000
00000000
00000000
00000000
00000000
00000000
00000000
00000000
00000000
00000000
00000000
00000000
00000000
00000000
00000000
00000000
00000000
00000000
00000000
00000000
00000000
00000000
00000000
00000000
00000000
00000000
00000000
1MM00000
00000000
00000000
00000000
00000000
00000000
00000000
00000000
00000000
00000000
00000000
00000000
00000000
00000000
00000000
00000000
00000000
00000000
00000000
00000000
00000000
00000000
00000000
00000000
,
00000000
M0000000
00000000
00000000
00001000
00000000
01000000
00000000
00001000
00000000
00000000
00000000
00010000
00000000
00000000
00000000
00000010
00000000
00000000
00000000
00001000
00000000
00000000
00000000
00000001
00000000
00000010
00000000
00000001
00000000
00000000
00000000
,
00000100
00000000
00001000
00000000
00010000
00000000
00000010
00000000
00001001
00000000
00000000
0000MMMM
00100000
00000000
00001000
00000000
,
00000000
00000000
01000000
00100000
01000000
00000000
00010000
10000000
00010000
00000000
00100000
00001000
00010000
00000100
00001000
00000000
,
00000001
00MMMM00
00000010
00000000
00000000
00000000
00001000
00000000
00000110
00000000
00001000
00000001
00000000
00000000
00000100
00000000
,
00000010
00001000
00000001
00000000
00000010
00000000
00001000
00010000
01000000
00000000
00100000
00000000
00010000
01000000
00001000
01000000
,
00010000
00000000
10000000
00000000
01000000
00000000
00010000
00001000
00100000
00000000
00001000
00000000
00010000
00000000
00000010
00000100
,
00000001
00000000
00000010
00000100
00001000
00000000
00000010
00000000
00200000
003000M0
00010000
00000000
01000000
00001000
00010000
00000010
,
00001000
00000000
00000000
00000000
00000100
00000000
00000000
00000000
00000010
00000000
00001000
00000000
00000000
00000000
00010000
00000000
00001000
00000000
00000000
00000000
01000000
000MMMMM
00000000
00000000
00000000
00000000
00000000
00000000
00010000
00000000
00000000
00000000
,
10000000
00000000
01000000
00100000
01000000
00000000
00010000
01000000
00010000
00000000
00004000
00000000
MMMM0000
00000000
00003000
00000000
,
00010000
00000010
00001000
00000001
00000010
00000000
00000100
00000000
00001000
00000000
00000001
00000100
00001000
00000000
00010000
00000000
,
00100000
00000000
01000000
00000000
00010000
00000000
00000000
00000000
00100000
00000000
00000000
00000000
00001000
00000000
00010000
00000000
00000000
00000000
01000000
00000000
10000000
00000000
00000000
00000000
00010000
01000000
00010000
00000000
01000000
00000000
00000000
00000000
,
00001000
00100000
00010000
10000000
01000000
00000000
10000000
00100000
01000000
00000000
00010000
00000000
00100000
00001000
00010000
00000000
,
00M1MM1M
000M11M0
M1MM1M00
0MMMMMM1
,
2MMMMMMM
0MMMMMMM
0MMMMMMM
0MMMMMMM
,
3MMMMMMM
00000000
00000000
00000000
;

//---------------dance-single - M. Simmons----------------
#NOTES:
     dance-single:
     M. Simmons:
     Beginner:
     1:
     0.123,0.138,0.091,0.061,0.000:
0000
0000
0000
0000
,
0000
0000
0000
0000
,
0000
0000
0000
0000
,
0000
0000
0000
0000
,
0000
0000
0000
0000
,
0000
0000
0000
0000
,
0000
0000
0000
0000
,
0000
0000
0000
0000
,
0001
0000
0000
0000
,
0010
0000
0000
0000
,
0100
0000
0000
0000
,
1000
0000
0000
0000
,
0001
0000
0000
0000
,
0010
0000
0000
0000
,
0001
0000
0000
0000
,
1000
0000
0000
0001
,
0000
0000
0000
0000
,
1000
1000
1000
0000
,
0000
0000
0000
0000
,
0100
0100
0100
0000
,
0000
0000
0000
0000
,
0010
0010
0010
0000
,
0000
0000
0000
0000
,
0001
0001
0001
0000
,
0000
0000
0000
0000
,
0002
0000
0003
0000
,
0000
0000
0000
0000
,
0020
0000
0030
0000
,
0000
0000
0000
0000
,
0200
0000
0300
0000
,
0000
0000
0000
0000
,
2000
0000
3000
0000
,
1001
0000
0000
0000
,
0000
0000
0001
0000
,
1000
0000
0100
0000
,
0010
0000
0001
0000
,
1001
0000
0000
0000
,
0000
0010
0010
0000
,
0000
0000
0000
0000
,
2002
0000
3003
0000
,
0110
0000
0000
0000
,
0000
0100
0100
0000
,
0001
0000
0000
0000
,
1000
0000
0000
0000
,
0110
0000
0000
0000
,
0000
0001
0001
0000
,
1000
0000
0000
0000
,
0010
0000
0000
0000
,
1001
0000
0000
0000
,
0000
1000
1000
0000
,
0001
0000
0000
0000
,
0010
0000
0000
0000
,
0100
0000
0000
0000
,
0000
1000
1000
0000
,
1001
0000
0000
0000
,
0000
0001
0001
0000
,
0110
0000
0000
0000
,
0000
0010
0010
0000
,
1000
0000
0000
0000
,
0100
0000
0000
0000
,
0010
0000
0000
0000
,
0001
0000
0000
0000
,
1000
0000
0000
0000
,
0010
0000
0000
0000
,
0100
0000
0000
0000
,
0010
0000
0000
0000
,
1000
0000
0000
0000
,
0001
0000
0000
0000
,
1001
0000
0000
0000
;

//---------------dance-single - M. Simmons----------------
#NOTES:
     dance-single:
     M. Simmons:
     Easy:
     4:
     0.361,0.559,0.233,0.182,0.000:
0000
0000
0000
0000
,
0000
0000
0000
0000
,
0000
0000
0000
0000
,
0000
0000
0000
0000
,
0001
0010
0100
0000
,
1000
0001
0100
0000
,
0010
1000
0010
1000
,
0110
0110
0110
0000
,
0001
0010
0100
1000
,
0001
0100
0110
0000
,
0100
0010
1000
0001
,
0010
0000
0100
1000
0000
0001
0000
0000
,
0001
0100
0001
0000
,
1000
0100
1000
0000
,
0001
0100
0001
1000
,
0100
1000
0100
1000
0100
0000
0000
0000
,
0010
0001
0000
1000
,
0010
0100
0002
0000
,
1003
0100
0000
0010
,
0001
1000
0020
0000
,
0130
0010
0000
1000
,
0100
0010
0200
0000
,
1300
0001
0000
0100
,
0010
1000
0002
0000
,
1003
0001
0010
0100
,
2000
0000
0000
0000
,
3001
0100
0010
0100
,
0002
0000
0000
0000
,
0103
0010
1000
0100
,
0020
0000
0000
0000
,
0130
1000
0001
0100
,
0002
0000
0000
0000
,
1003
0000
0000
0000
,
0000
0000
0000
0000
0001
0010
0100
0000
,
1000
0001
1000
0000
1001
1001
1001
0000
,
0020
0000
0230
0000
0301
1000
0001
0000
,
0001
1000
0100
0010
,
0100
0100
0100
0000
,
1000
1000
0001
0001
,
2002
0000
0000
3003
,
0001
0001
0100
0100
,
0010
1000
0010
0010
,
0100
0100
0001
0001
,
1000
0100
0010
0001
,
0010
0100
1000
0001
,
0001
0100
0100
0010
,
1000
0001
0110
0000
,
0010
1000
1001
0000
,
0001
0100
0001
1000
,
0100
0010
0001
0000
,
1000
0010
1000
0000
,
1001
1001
1001
0000
,
0002
0000
0023
0000
,
0130
1000
0100
0000
,
0110
0000
1001
0000
,
0001
0001
0001
0000
,
2000
0000
3020
0000
,
0130
0100
0100
0000
,
0010
1000
0010
1000
,
1001
1001
1001
0000
,
0010
1000
0001
0010
,
0100
0100
0100
0000
,
1000
0001
0010
0001
,
0000
1001
1001
0001
,
0001
0010
0100
1000
,
0010
0110
0110
0000
,
0010
1000
0001
0100
,
0001
1000
0100
0010
,
0220
0000
0000
0000
,
0330
0000
0000
0000
;

//---------------dance-single - M. Simmons----------------
#NOTES:
     dance-single:
     M. Simmons:
     Medium:
     6:
     0.483,0.838,0.698,0.132,0.030:
0000
0000
0000
0000
,
0000
0000
0000
0000
,
0000
0000
0000
0000
,
0000
0000
0000
0000
,
0001
0010
0100
0000
0110
0000
0000
0000
,
1000
0001
1000
0000
0011
0000
0000
0000
,
0100
1010
0100
0011
,
1001
0110
1001
0000
,
0001
0000
0100
0010
0000
1000
0000
0001
,
0100
0001
1001
0000
,
0100
0010
0100
1000
0100
0000
0010
0000
,
0002
0000
0003
1001
0000
0000
0000
0000
,
0001
0100
0001
0000
1001
0000
0000
0000
,
1000
0100
0010
0000
0110
0000
0000
0000
,
0100
1100
0100
1100
,
0001
0100
0010
1000
0001
0000
1001
0000
,
1001
0011
0000
1010
,
0010
0010
1000
0000
,
0000
0011
0000
0000
0000
1010
0000
0000
,
0001
1000
1001
0000
,
0000
0110
0000
0000
0000
1001
0000
0000
,
0010
1000
1010
0000
,
0000
0011
0000
0000
0000
1010
0000
0000
,
0010
0100
0110
0000
,
0000
0110
0000
0110
0000
0110
0000
0110
,
0020
1000
1000
0000
,
0030
1001
0000
1001
0000
1001
0000
1001
,
0002
0010
0010
0000
,
0003
0011
0000
0011
0000
0011
0000
0011
,
0020
0100
0100
0000
,
0030
1100
0000
1100
0000
1100
0000
1100
,
2000
0001
0001
3001
,
1001
0000
0000
0000
,
0000
0000
0000
0000
0001
0010
0100
0000
,
1000
0001
1000
0001
1000
0000
0000
0000
0020
0030
0020
0030
0020
0030
0110
0000
,
0010
1000
0000
0001
0010
0001
0000
1000
0001
0000
1001
0000
1001
0000
0000
0000
,
0010
0000
0100
0001
0100
0000
0010
0000
,
1000
0000
0001
0010
0001
0000
1000
0000
,
0001
0010
0001
0010
0001
0010
0001
0000
,
2002
0000
0000
0000
0000
0000
0000
3003
,
0001
0000
0110
0100
,
0100
1001
1001
0010
,
1000
0100
1000
0000
0001
0100
0001
0000
,
1000
0010
1000
0010
1000
0010
1000
0000
,
1001
0001
1001
0000
,
0000
1010
1010
0000
,
0001
0010
0100
0000
0110
0000
0100
0000
,
1000
0100
0010
0000
0110
0000
0010
0000
,
0001
1000
1001
0000
,
0010
0010
1010
0000
,
0001
0100
0001
0100
0001
0000
0000
0000
,
1100
0101
1100
0000
,
0001
0010
0000
0100
0000
1000
0001
0000
,
0010
0100
0000
0010
0000
0100
0010
0000
,
0100
1000
0001
0100
,
0010
1000
0010
0100
,
0001
1000
0000
1001
0000
0000
0000
0020
,
0000
0130
0001
0000
0001
1000
0000
1000
,
0100
0010
0100
0010
,
1001
1001
1001
0000
,
0010
1000
0001
0010
,
0100
1000
1001
0000
,
0001
0001
1000
1000
,
0000
1010
1010
0000
,
0001
0010
0100
1000
,
0001
0010
0001
1000
,
0010
0100
0001
0100
,
0010
1000
0100
0010
,
0220
0000
0000
0000
,
0330
0000
0000
0000
;

//---------------dance-double - M. Simmons----------------
#NOTES:
     dance-double:
     M. Simmons:
     Easy:
     3:
     0.325,0.419,0.283,0.152,0.000:
00000000
00000000
00000000
00000000
,
00000000
00000000
00000000
00000000
,
00000000
00000000
00000000
00000000
,
00000000
00000000
00000000
00000000
,
01000000
00000000
01100000
00000000
,
10000000
00000000
10010000
00000000
,
00010000
00100000
01000000
10000000
,
00010000
00010000
00010000
00000000
,
01000000
00100000
10000000
00000000
,
00010000
00000000
00100000
00000000
,
01000000
00100000
00001000
00000000
,
00010000
00000000
00011000
00000000
,
00010000
00000100
00000010
00000000
,
00000001
00000100
00000010
00000000
,
00001000
00000001
00001000
00000001
,
00000010
00000100
00000010
00000100
00000010
00000000
00000000
00000000
,
00000100
00010000
00000000
00001000
,
01000000
00100000
01000000
00000000
,
00010000
10000000
00000000
01000000
,
00100000
00010000
00100000
00000000
,
00010000
00100000
00000000
01000000
,
00100000
00001000
00010000
00000000
,
00010000
00000010
00000000
00000100
,
00000001
00001000
00001000
00000000
,
00000100
00001000
00000100
00001000
,
00000020
00000000
00000000
00000000
,
00000130
00000001
00001000
00000100
,
00020000
00000000
00000000
00000000
,
00031000
00100000
00010000
00100000
,
00020000
00000000
00000000
00000000
,
01030000
00100000
10000000
00010000
,
20000000
00000000
00000000
00000000
,
30000000
00000000
00000000
00000000
,
00000000
00000000
00000000
00000000
00011000
00011000
00011000
00000000
,
00002000
01003000
00200000
01300000
,
00020000
00000000
10030000
00000000
01000000
01000000
01000000
00000000
,
10000000
00000000
10010000
00000000
,
00000000
00100000
00100000
00000000
,
00001000
00010000
00000100
00010000
,
00022000
00000000
00000000
00033000
,
00010000
00000100
00000010
00000001
,
00000000
00001010
00001010
00000000
,
00000020
00001030
00000020
00001030
,
00000020
00001030
00000200
00010300
,
00001000
00000000
01010000
00000000
,
00000000
00001000
00001000
00000000
,
01000000
01100000
00100000
10000000
,
00010000
10010000
00010000
00100000
,
01000000
00100000
00010000
00000000
,
01000000
00001000
01000000
00000000
,
00001000
00010000
00011000
00000000
,
00010000
00000100
00010100
00000000
,
00000110
00000000
00000010
00000000
,
00000000
00000001
00000001
00000000
,
00001001
00000000
00001010
00000000
,
00000000
00010000
00010000
00000000
,
00011000
00000000
00101000
00000000
,
00000000
00100000
00100000
00000000
,
01100000
00000000
11000000
00000000
,
00010000
10000000
00010000
00000000
00010000
00000000
00000000
00000000
,
00100000
01000000
00100000
00000000
,
00000000
00011000
00011000
00000000
,
00010000
00000100
00010000
00000000
,
00000000
00000000
00001100
00000000
00000100
00001000
00000100
00001000
,
00000100
00000000
00000011
00000000
,
00000001
00000001
00000001
00000000
,
00001000
00000000
00010100
00000000
,
00001000
00010000
00001000
00010000
,
00022000
00000000
00000000
00000000
,
00033000
00000000
00000000
00000000
;

//---------------dance-double - M. Simmons----------------
#NOTES:
     dance-double:
     M. Simmons:
     Medium:
     7:
     0.546,0.768,0.516,0.263,0.061:
00000000
00000000
00000000
00000000
,
00000000
00000000
00000000
00000000
,
00000000
00000000
00000000
00000000
,
00000000
00000000
00000000
00000000
,
11000000
00000000
01100000
00000000
00110000
00000000
00000000
00010000
,
10000000
00000000
10010000
00000000
01100000
00000000
00000000
01000000
,
00001000
00011000
00010100
00001100
,
00000110
00001001
00001001
00000000
,
00000001
00000000
00000010
00001000
00000000
00000010
00000000
00000100
,
00010000
00001000
00011000
00000000
,
00001000
01000000
00010000
01000000
00100000
00000000
10000000
00000000
,
10010000
00000000
01100000
00000000
,
10000000
00000000
01000000
00100000
00001000
00000000
00010000
00000000
,
00000100
00001000
00000010
00000000
00000110
00000000
00000000
00000000
,
00000001
00001001
00000100
00010100
,
00010000
00001000
00100000
00010000
10000000
00000000
00000000
00000000
,
00100000
01000000
00010000
00000000
10000000
00000000
10010000
00000000
,
02000000
03000000
02000000
03000000
02000000
03000000
00000000
00000000
,
00010000
00100000
00001000
00000000
00010000
00000000
00010100
00000000
,
00000200
00000300
00000200
00000300
00000200
00000300
00000000
00000000
,
00000010
00000001
00001000
00000000
00000010
00000000
00001010
00000000
,
00000200
00000300
00000200
00000300
00000200
00000300
00000000
00000000
,
00000010
00001000
00000001
00000000
00000010
00000000
00001100
00000000
,
00020000
00030000
00020000
00030000
00020000
00030000
00000000
00000000
,
00000000
00001000
00000000
00100000
00000000
00010000
00000000
10000000
,
00200000
01000000
10000000
01300000
,
01000000
00001000
00000000
00010000
00000000
00001000
00000000
00010000
,
00000200
00000010
00000010
00000310
,
00000100
00001000
00000000
00000001
00000000
00000100
00000000
00000010
,
00020000
00001000
00000100
00031000
,
00001000
01000000
00000000
00100000
00000000
01000000
00000000
00010000
,
10000000
00010000
10010000
00000000
,
00000000
01000000
00000000
00010000
00000000
10000000
00000000
00010000
00000000
00000000
00000000
00000000
00000000
00000000
00000000
00000000
,
00000000
00100000
00000000
00001000
00000000
00010000
00000000
00000100
00001000
00000000
00000100
00000000
00001100
00000000
00000000
00000000
,
00000010
00001000
00000010
00001000
00000010
00000000
00000000
00000000
00000110
00000000
00000110
00000000
00000110
00000000
00000000
00000000
,
00000001
00001000
00000001
00001000
00000001
00000000
00000000
00000000
00010010
00000000
00010010
00000000
00010010
00000000
00000000
00000000
,
00001000
01000000
00001000
00000000
00110000
00000000
01100000
00000000
,
01000000
00000000
10000000
00010000
10010000
00000000
00110000
00000000
,
00100000
00001000
00010000
00000100
00001000
00000100
00010000
00000000
,
00021000
00000000
00000100
00000000
00031000
00010000
00001000
00010000
,
00001000
00001000
01001000
00100000
,
10000000
01000000
10000000
00000000
10010000
00000000
00000000
00000000
,
00010000
01000000
00001000
00000000
00001000
00100000
00010000
00000000
,
00110000
00101000
00011000
00010100
,
00000010
00000000
00000001
00001000
00000001
00000000
00000000
00000000
,
00000010
00000100
00000010
00001000
00000010
00000000
00000000
00000000
,
00000001
00000000
00001000
00000000
00000010
00010000
00000000
00001000
,
00010000
00000000
00001000
00000000
01000000
00100000
00000000
10000000
,
00010000
00100000
01100000
01000000
,
10000000
00010000
10000000
00000000
10010000
00000000
00000000
00000000
,
00100000
01000000
00100000
01000000
00010000
00000000
00000000
00000000
,
01010000
10100000
10010000
00000000
,
00020000
00100000
00000000
00130000
00000000
00100000
00001000
00010000
,
00000000
00000200
00000000
00000320
00000000
00000032
00000000
00001003
,
00000010
00001000
00000000
00000100
00010000
00001000
00000000
01000000
,
00000000
00100000
00000000
10000000
00010000
00100000
01000000
00100000
,
00010000
10000000
00000000
10010000
00000000
00000000
00000000
00200000
,
00000000
01300000
00010000
01000000
00010000
01000000
00010000
00000000
,
10000000
01000000
00000000
00100000
00000000
00010000
00000000
01000000
,
00000000
00001000
00010000
00001000
00000000
00010000
00000100
00010000
,
00001000
00010000
00000000
00000010
00000100
00000010
00000000
00000100
,
00000002
00002003
00003200
00000000
00001300
00000000
00000100
00001000
,
00000100
00000000
00000000
00000000
00011000
00001000
00000000
00001000
,
00000000
01000000
00100000
10000000
00100000
01000000
00100000
10000000
,
00010000
00100000
00000000
01100000
00000000
00000000
00000000
00000000
,
00100000
00001000
00000000
00010000
00000000
00000100
00000000
00010000
,
00001000
00010000
00000000
00000100
00000000
00000010
00000000
00000001
,
00001000
00001010
00001001
00000000
,
00020020
00000000
00000000
00000000
,
00030030
00000000
00000000
00000000
;
