#TITLE:Dead Souls;
#SUBTITLE:;
#ARTIST:Tekno Dred;
#TITLETRANSLIT:;
#SUBTITLETRANSLIT:;
#ARTISTTRANSLIT:;
#GENRE:Drum & Bass;
#CREDIT:Sync by HellRazoR;
#BANNER:Dead Souls-bn.png;
#BACKGROUND:Dead Souls-bg.png;
#LYRICSPATH:;
#CDTITLE:;
#MUSIC:Dead Souls.ogg;
#OFFSET:0.2068;
#SAMPLESTART:100.000;
#SAMPLELENGTH:12.000;
#SELECTABLE:YES;
#BPMS:0.000=155.000,132.000=77.500,164.000=155.000;
#STOPS:;
#BGCHANGES:0.000=Dead Souls-bg.png=1.000=0=0=1=====,
20.000=In The Groove Rebirth/207_JB_HD.mpg=1.000=1=0=1===CrossFade==,
36.000=In The Groove Rebirth/215_JB_HD.mpg=1.000=0=0=1=====,
52.000=In The Groove Rebirth/250_JB_HD.mpg=1.800=0=0=1=====,
64.000=Dead Souls-bg.png=1.000=1=0=1===CrossFade==,
66.000=Dead Souls-bg.png=1.000=0=0=1====0^0^1^1=,
67.000=Dead Souls-bg.png=1.000=0=0=1====0^1^0^1=,
68.000=In The Groove Rebirth/255_JB_HD.mpg=1.000=0=0=1=====,
100.000=In The Groove Rebirth/317_JB_HD.mpg=1.000=0=0=1=====,
132.000=In The Groove Rebirth/791_JumpBack.mpg=1.000=0=0=1=SongBgWithMovieViz====,
148.000=In The Groove Rebirth/1154_JumpBack.mpg=1.000=1=0=1=SongBgWithMovieViz==CrossFade==,
162.000=Dead Souls-bg.png=1.000=1=0=1===CrossFade==,
164.000=In The Groove Rebirth/1135_JumpBack.mpg=1.000=0=0=1=====,
196.000=In The Groove Rebirth/207_JB_HD.mpg=1.000=0=0=1=====,
220.000=Dead Souls-bg.png=1.000=0=0=1=====,
223.500=Dead Souls-bg.png=1.000=0=0=1====0^0^1^1=,
224.500=Dead Souls-bg.png=1.000=0=0=1====0^1^0^1=,
225.500=Dead Souls-bg.png=1.000=0=0=1====1^0^0^1=,
226.000=Dead Souls-bg.png=1.000=0=0=1====0^1^0^1=,
226.500=Dead Souls-bg.png=1.000=0=0=1====0^0^1^1=,
227.000=Dead Souls-bg.png=1.000=0=0=1=====,
228.000=In The Groove Rebirth/208_JB_HD.mpg=1.000=0=0=1=====,
244.000=In The Groove Rebirth/314_JB_HD.mpg=1.000=0=0=1=====,
260.000=In The Groove Rebirth/401_JB_HD.mpg=0.400=0=0=1=Kaleidoscope2x2====,
276.000=Dead Souls-bg.png=1.000=0=0=1=====,
99999=-nosongbg-=1.000=0=0=0 // don't automatically add -songbackground-
;
#BGCHANGES2:36.000=white flash=1.000=0=0=1=====,
68.000=white flash=1.000=0=0=1=====,
84.000=white flash=1.000=0=0=1=====,
100.000=white flash=1.000=0=0=1=====,
116.000=flash=1.000=0=0=1====0.5^0.5^0.5^1=,
132.000=white flash=1.000=0=0=1=====,
164.000=white flash=1.000=0=0=1=====,
220.000=white flash=2.000=0=0=1=====,
222.000=white flash=1.000=0=0=1=====,
228.000=white flash=1.000=0=0=1=====,
260.000=white flash=1.000=0=0=1=====,
264.000=yellow flash=1.000=0=0=1=====,
268.000=white flash=1.000=0=0=1=====,
272.000=yellow flash=1.000=0=0=1=====,
276.000=white flash=1.000=0=0=1=====,
;
#KEYSOUNDS:;

//---------------dance-single - M. Simmons----------------
#NOTES:
     dance-single:
     M. Simmons:
     Challenge:
     12:
     0.930,0.000,0.777,0.275,0.995:
0000
0000
0000
0000
,
0000
0000
0000
0000
,
0000
0000
0000
0000
,
0000
0000
1000
0000
0100
0000
0000
0001
0000
0000
0100
0000
0010
0000
0000
0000
,
0000
0000
0001
0000
0100
0000
0000
0010
0000
0000
0001
0000
0010
0000
0000
0000
,
0000
0000
1000
0000
0100
0000
0000
0010
0000
0000
0100
0000
0010
0000
0000
0000
,
0000
0000
0001
0000
0010
0000
0000
0100
0000
0000
1000
0000
0010
0000
0000
0000
,
0000
0000
0100
0000
0010
0000
0000
0001
0000
0000
0010
0000
0100
0000
0000
0000
,
0000
0000
0001
0000
1000
0000
0000
0100
0000
0000
0010
0000
0001
0000
1000
0000
,
0110
0010
0100
0010
0100
0010
0100
0001
0100
0001
1000
0001
1000
0010
1000
0010
,
1000
0010
0100
0010
0100
0001
0100
0010
1000
0010
1000
0001
1000
0100
1000
0100
,
1000
0100
0010
0100
0010
0001
0010
0001
1000
0001
1000
0010
1000
0100
0010
0100
,
0010
0100
0010
0001
0010
0100
1000
0100
1000
0100
0010
0100
1000
0001
1000
0001
,
1000
0001
0100
0001
0100
0010
0100
0010
1000
0010
1000
0001
1000
0100
1000
0100
,
1000
0100
0010
0001
0010
0100
0010
0100
1000
0100
1000
0001
0100
0010
0100
0010
,
0100
0010
0100
0001
1000
0100
1000
0100
1000
0100
0010
0001
1000
0010
0100
0000
,
0110
0101
0000
1100
0100
0010
0001
0100
,
0110
0000
0001
0000
0110
0000
1000
0100
0000
1000
0100
0000
0010
0000
0010
0000
,
0101
0000
1000
0000
0101
0000
0010
1000
0000
0010
1000
0000
0100
0000
0010
0000
,
1100
0000
0001
0000
1100
0000
0001
0100
0000
0001
0100
0000
1000
0000
0100
0000
,
0101
0000
0010
0000
0101
0000
0100
0001
0000
0100
0001
0000
0110
0000
1010
0000
,
0101
0000
1000
0000
1100
0000
0010
0100
0000
0010
0100
0000
1000
0000
0001
0000
,
0110
0000
0001
0000
1100
0000
0001
0100
0000
0001
0100
0000
1000
0000
1000
0000
,
0101
0000
0010
0000
1001
0000
1000
0100
0000
0010
0100
0000
0010
0000
0001
0000
,
2100
0000
3001
0000
1200
0000
0310
0001
0000
0001
1000
0000
0010
0100
0010
0000
,
1010
0000
0100
0000
0011
0000
0100
1000
0000
1000
0010
0000
0100
0000
0001
0000
,
1010
0000
0100
0000
0021
0000
0130
1000
0000
0100
1000
0000
0001
0000
0001
0000
,
0201
0000
0310
0000
0021
0000
0130
1000
0000
0100
0010
0000
0001
0000
1000
0000
,
2001
0000
3100
0000
0102
0000
0013
0100
0000
1000
0010
0000
1000
0001
1000
0000
,
1020
0000
0130
0000
0021
0000
1030
0010
0000
0100
0010
0000
0001
0000
1000
0000
,
0201
0000
1300
0000
1200
0000
0310
0100
0000
0010
0001
0000
1000
0000
0010
0000
,
0102
0000
0013
0000
2100
0000
3010
1000
0000
0001
1000
0000
0100
0000
1000
0000
,
0110
0000
0000
0000
1001
0000
0000
0110
0000
1000
0100
0010
0001
0000
1000
0000
,
2001
0000
0000
0000
3100
0000
0000
M000
0M20
0000
0032
2000
0000
3003
001M
0100
,
0000
0001
M000
0101
0000
0010
000M
1000
0100
0010
M000
0101
00M0
1100
0000
M021
,
0000
010M
0000
0031
0M00
0000
0000
0001
M100
0000
001M
2000
0000
31M0
0000
M110
,
0000
11MM
0000
M110
0000
0000
0000
0100
1000
00M1
0000
0100
0000
M010
0000
0210
,
000M
0000
00M0
0300
0110
0000
0001
10M0
0100
0000
001M
2000
0M00
0000
0001
01M0
,
3000
1000
0000
0M10
M000
0001
0000
1000
001M
0100
0000
M101
0000
0011
0000
1200
,
00M0
0002
0300
M023
0000
0130
0000
M001
0M10
0000
1000
00M2
0000
01M3
0000
2M0M
,
0000
301M
0000
M002
0M00
2000
0003
0010
310M
0010
0M00
1000
0000
0100
M00M
0010
,
0110
0000
0010
0000
0101
0000
0001
1000
0100
1000
0010
0000
0101
0000
1000
0000
,
0110
0000
0010
0000
1001
0000
0001
0100
0010
0001
0010
0000
1010
0000
0100
0000
,
0011
0000
0100
0000
1001
0000
1000
0010
0001
0010
0100
0000
0011
0000
0100
0000
,
1010
0000
0001
0000
0101
0000
0001
1000
0100
0001
0100
0000
0110
0000
0001
0000
,
1100
0000
0001
0000
0201
0000
0310
0001
0010
1000
0001
0000
1100
0000
1000
0000
,
1001
0000
0100
0000
0110
0000
0001
0010
0100
1000
0100
0000
0011
0000
0100
0000
,
1001
0000
0100
0000
1010
0000
0001
0100
0010
0001
0010
0000
1100
0000
0100
0010
,
0100
0000
0010
0000
0001
0000
1010
0000
0010
0000
0100
0010
0100
0000
0001
0000
,
1000
0100
0010
0000
0100
1000
0001
0000
0100
0010
1000
0000
0001
0100
0001
0000
,
1000
0100
0010
0000
0001
0010
0100
0000
1000
0010
0100
0000
0001
0100
1000
0000
,
0100
0010
0001
0000
0010
1000
0001
0000
0010
0100
0001
0000
0100
0010
0100
0000
,
1000
0001
0100
0000
0010
1000
0100
0000
0001
0100
1000
0000
0010
0001
1000
0000
,
0100
0010
1000
0000
0100
0010
0100
0000
0010
0001
1000
0000
0010
0001
0010
0000
,
1000
0001
0010
0000
0100
0010
0001
0000
1000
0100
0001
0000
0100
1000
0001
0000
,
2002
0000
0000
0000
0100
0000
3003
1001
,
0000
0101
0000
0001
0010
0100
1000
0001
,
1100
0100
1000
0000
1001
0000
0001
0100
0000
0010
1000
0000
0001
0100
0010
0100
,
0001
1000
0100
0000
0011
0000
0100
1000
0000
0100
0010
0000
0001
1000
0010
0100
,
0010
1000
0001
0000
1100
0000
0100
0010
0000
0001
0100
0000
0010
0001
0010
1000
,
0001
0100
0001
0000
0110
0000
1000
0100
0000
1000
0001
0000
0101
0000
1100
0000
,
0011
0001
0010
0000
1100
0000
1000
0010
0000
0100
0001
0000
1000
0100
0001
0100
,
0010
0001
0100
0000
0110
0000
0001
1000
0000
0100
0010
0000
0100
1000
0001
0100
,
0001
0010
0100
0000
0011
0000
1000
0010
0000
0100
0001
0000
0100
0010
0001
0010
,
1000
0100
1000
0000
0110
0000
0001
0100
0000
0010
0100
0000
0011
0000
1100
0000
,
1010
0010
1000
0000
0101
0000
0001
1000
0000
0100
1000
0000
0010
0100
0010
0000
,
0101
0001
1000
0000
0101
0000
0001
0100
0000
0010
0100
0000
0001
1000
0100
0000
,
0011
0010
0100
1000
0001
0100
0010
0100
0001
0010
1000
0010
0100
1000
0001
0100
,
0010
0001
0010
0100
0010
0001
0010
1000
0001
0010
0100
0001
0100
0010
0001
1000
,
0020
0000
1030
1000
2000
0000
0001
0001
,
0002
0000
3003
0000
;

//---------------dance-single - M. Simmons----------------
#NOTES:
     dance-single:
     M. Simmons:
     Hard:
     8:
     0.600,0.000,0.186,0.129,0.461:
0000
0000
0000
0000
,
0000
0000
0000
0000
,
0000
0000
0000
0000
,
0000
0000
1000
0000
0100
0000
0000
0010
0000
0000
0001
0000
1000
0000
0000
0000
,
0000
0000
1000
0000
0100
0000
0000
0010
0000
0000
0001
0000
1000
0000
0000
0000
,
0000
0000
0001
0000
0100
0000
0000
0010
0000
0000
1000
0000
0001
0000
0000
0000
,
0000
0000
0001
0000
0100
0000
0000
0010
0000
0000
1000
0000
0001
0000
0000
0000
,
0000
0000
0010
0000
0100
0000
0000
1000
0000
0000
0100
0000
0010
0000
0000
0000
,
0000
0000
0010
0000
0100
0000
0000
1000
0000
0000
0100
0000
0010
0000
0000
0000
,
1001
0000
0001
0000
0100
0000
0000
0010
0000
0000
1000
0000
0010
0000
0010
0000
,
0100
0000
0001
0000
1000
0000
0000
0100
0000
0000
0010
0000
0100
0000
1000
0000
,
1000
0000
0001
0000
0100
0000
0000
0010
0000
0000
0100
0000
0010
0000
1000
0000
,
1000
0000
0001
0000
0010
0000
0000
0100
0000
0000
1000
0000
0001
0000
0001
0000
,
0100
0000
0010
0000
1000
0000
0000
0010
0000
0000
0100
0000
0010
0000
1000
0000
,
1000
0000
0001
0000
0010
0000
0000
0100
0000
0000
0010
0000
0001
0000
1000
0000
,
0001
0100
0010
1000
0001
0100
0010
1000
,
2001
0000
0010
0010
,
3010
0000
0000
0000
0100
0000
0000
0110
0000
0100
0001
0000
1000
0000
0100
0000
,
0010
0000
0000
0000
0001
0000
0000
1001
0000
1000
0010
0000
0100
0000
0001
0000
,
0100
0000
0000
0000
0010
0000
0000
1010
0000
1000
0001
0000
0100
0000
0001
0000
,
1000
0000
0000
0000
0100
0000
0000
0110
0000
0010
0100
0000
1000
0000
1000
0000
,
0020
0000
0030
0000
0100
0000
0000
0101
0000
0001
1000
0000
0100
0000
1000
0000
,
0001
0000
0000
0000
0100
0000
0000
0110
0000
0100
0001
0000
0010
0000
0100
0000
,
0010
0000
0000
0000
0001
0000
0000
0011
0000
0010
0100
0000
1000
0000
0010
0000
,
0100
0000
0000
0000
0010
0000
0000
1010
0000
1000
0100
0000
0010
0000
0010
0000
,
0200
0000
0300
0000
1000
0000
0000
0011
0000
0001
1000
0000
0010
0000
0100
0000
,
0010
0000
0000
0000
0100
0000
0000
0011
0000
0001
1000
0000
0100
0000
1000
0000
,
0010
0000
0000
0000
1000
0000
0000
1100
0000
0100
0001
0000
0100
0000
0010
0000
,
0001
0000
0000
0000
1000
0000
0000
1010
0000
0010
0100
0000
0001
0000
0001
0000
,
0020
0000
0030
0000
0100
0000
0000
1100
0000
0100
0010
0000
0001
0000
1000
0000
,
0001
0000
0000
0000
0100
0000
0000
0110
0000
0010
1000
0000
0100
0000
1000
0000
,
0010
0000
0000
0000
0100
0000
0000
0011
0000
0010
0100
0000
1000
0000
0001
0000
,
1000
0000
0000
0000
0010
0000
0000
1001
0000
0001
1000
0000
0100
0000
0001
0000
,
0200
0000
0000
0000
0000
0000
0000
0000
1300
0000
0001
0010
0000
0000
0001
0200
,
0000
0000
0000
0000
0000
0300
0000
0010
1000
0001
0000
1000
0000
0100
0000
0020
,
0000
0000
0000
0000
0030
0000
0000
0000
0100
0000
1000
0010
0000
0100
0000
0102
,
0000
0000
0000
0000
0000
0000
0000
0000
1003
0001
0000
0010
0000
0001
0000
2000
,
0000
0000
0000
0000
3100
0000
0000
0000
0010
0000
0001
0100
0000
0000
0010
0200
,
0000
0000
0000
0000
0301
0000
0000
1000
0100
0010
0000
0100
0000
1000
0000
0002
,
0000
0000
0000
0000
0000
0000
0000
0000
0013
0000
0100
1000
0000
0001
0000
0201
,
0000
0000
0000
0000
0000
0000
0000
0000
0310
1000
0000
0100
0000
1000
0000
0001
,
1000
0000
0100
0000
0010
0000
0001
0000
1000
0000
0010
0100
0010
0000
1000
0000
,
0001
0000
0010
0000
0100
0000
1000
0000
0100
0000
0010
0001
0010
0000
0001
0000
,
1000
0000
0010
0000
0100
0000
0001
0000
0100
0000
0010
1000
0010
0000
0100
0000
,
0001
0000
0010
0000
0100
0000
0001
0000
0100
0000
1000
0100
1000
0000
0010
0000
,
0100
0000
0001
0000
0100
0000
0010
0000
1000
0000
0001
0010
0001
0000
0010
0000
,
0100
0000
1000
0000
0001
0000
0100
0000
0010
0000
0100
0001
0100
0000
0010
0000
,
1000
0000
0100
0000
0010
0000
0100
0000
1000
0000
0001
0100
0010
0000
0100
0000
,
0001
0000
1000
0000
0001
0000
0010
0000
0100
0000
0010
0100
0010
0000
0100
0000
,
0010
0000
0100
0000
1000
0000
0001
0000
0010
0000
0001
0100
0001
0000
1000
0000
,
0100
0000
0010
0000
0001
0000
0010
0000
0100
0000
1000
0010
0100
0000
0010
0000
,
1000
0000
0001
0000
0100
0000
0001
0000
0010
0000
0100
1000
0100
0000
0010
0000
,
0001
0000
1000
0000
0100
0000
1000
0000
0010
0000
0100
0010
0100
0000
0001
0000
,
1000
0000
0100
0000
0010
0000
0100
0000
0001
0000
0100
1000
0100
0000
0010
0000
,
0001
0000
1000
0000
0010
0000
0100
0000
0001
0000
0100
0010
0100
0000
0001
0000
,
2002
0000
0000
0000
,
0000
0000
0000
3003
,
0001
0000
0010
0000
0100
0000
1000
0010
0000
0100
0010
0000
1000
0000
0001
0000
,
0010
0000
0100
0000
0010
0000
0001
0100
0000
0010
0100
0000
0001
0000
1000
0000
,
0100
0000
0010
0000
0100
0000
1000
0001
0000
0100
0001
0000
1000
0000
0010
0000
,
0100
0000
0001
0000
0010
0000
0100
0010
0000
0100
0010
0000
0001
1000
0001
1000
,
0001
0000
0100
0000
0010
0000
0100
0001
0000
1000
0100
0000
0010
0000
0001
0000
,
0010
0000
0001
0000
0100
0000
0010
1000
0000
0100
1000
0000
0100
0000
0010
0000
,
0001
0000
1000
0000
0010
0000
0001
0010
0000
0100
0010
0000
1000
0000
0001
0000
,
0010
0000
0100
0000
0010
0000
0001
0100
0000
0010
0100
0000
0010
0000
1000
0000
,
0010
0000
0100
0000
0001
0000
1000
0100
0000
0001
0100
0000
0010
0000
0001
0000
,
1001
0000
0001
0000
0100
0000
0010
1000
0000
0100
1000
0000
0001
0000
0010
0000
,
1001
0000
0001
0000
0100
0000
0010
1000
0000
0010
0100
0000
0010
0000
1000
0000
,
0100
0000
0010
0000
0001
0000
1000
0100
0000
1000
0010
0000
0100
0010
0100
0020
,
0200
0000
0000
0000
,
0330
0000
0000
0000
;

//---------------dance-single - M. Simmons----------------
#NOTES:
     dance-single:
     M. Simmons:
     Beginner:
     1:
     0.089,0.000,0.073,0.000,0.000: // measure 1
0000
0000
0000
0000
,  // measure 2
0000
0000
0000
0000
,  // measure 3
0000
0000
0000
0000
,  // measure 4
0000
0000
0000
0000
,  // measure 5
0000
0000
0000
0000
,  // measure 6
0000
0000
0000
0000
,  // measure 7
0000
0000
0000
0000
,  // measure 8
0000
0000
0000
0000
,  // measure 9
0000
0000
0000
0000
,  // measure 10
1001
0000
0000
0000
,  // measure 11
0001
0000
0000
0000
,  // measure 12
1000
0000
0000
0000
,  // measure 13
0100
0000
0000
0000
,  // measure 14
0010
0000
0000
0000
,  // measure 15
0100
0000
0000
0000
,  // measure 16
1000
0000
0000
0000
,  // measure 17
1001
0000
0000
0000
,  // measure 18
0001
0000
0000
0000
,  // measure 19
0010
0000
0000
0000
,  // measure 20
0100
0000
0000
0000
,  // measure 21
1000
0000
0000
0100
,  // measure 22
0100
0000
0000
0000
,  // measure 23
0010
0000
0000
0000
,  // measure 24
0001
0000
0000
0000
,  // measure 25
1000
0000
0000
0010
,  // measure 26
0010
0000
0000
0000
,  // measure 27
0100
0000
0000
0000
,  // measure 28
0010
0000
0000
0000
,  // measure 29
1000
0000
0000
0100
,  // measure 30
0100
0000
0000
0000
,  // measure 31
1000
0000
0000
0000
,  // measure 32
0001
0000
0000
0000
,  // measure 33
0100
0000
0000
0010
,  // measure 34
0010
0000
0000
0000
,  // measure 35
1001
0000
0000
0000
,  // measure 36
1001
0000
0000
0000
,  // measure 37
0110
0000
0000
0000
,  // measure 38
0110
0000
1000
0000
,  // measure 39
0010
0000
0100
0000
,  // measure 40
0001
0000
1000
0000
,  // measure 41
0100
0000
0010
0000
,  // measure 42
0110
0000
0000
0000
,  // measure 43
0010
0000
0000
0000
,  // measure 44
1000
0000
0000
0000
,  // measure 45
0100
0000
0000
0000
,  // measure 46
1000
0000
0000
0000
,  // measure 47
0001
0000
0000
0000
,  // measure 48
0010
0000
0000
0000
,  // measure 49
0001
0000
0000
0000
,  // measure 50
0100
0000
0000
0000
,  // measure 51
0010
0000
0000
0000
,  // measure 52
0100
0000
0000
0000
,  // measure 53
0010
0000
0000
0000
,  // measure 54
1000
0000
0000
0000
,  // measure 55
0001
0000
0000
0000
,  // measure 56
0110
0000
0000
0000
,  // measure 57
0000
0000
0000
0000
,  // measure 58
0100
0000
0000
0000
,  // measure 59
1000
0000
0000
0000
,  // measure 60
0010
0000
0000
0000
,  // measure 61
0100
0000
0000
0000
,  // measure 62
0001
0000
0000
0000
,  // measure 63
1000
0000
0000
0000
,  // measure 64
0100
0000
0000
0000
,  // measure 65
1000
0000
0000
0000
,  // measure 66
0010
0000
0000
0000
,  // measure 67
0100
0000
0000
0000
,  // measure 68
0001
0000
0000
0000
,  // measure 69
0010
0000
0000
0000
,  // measure 70
0110
0000
0000
0000
;

//---------------dance-double - D. Bernardone----------------
#NOTES:
     dance-double:
     D. Bernardone:
     Easy:
     3:
     0.259,0.084,0.024,0.259,0.000: // measure 1
00000000
00000000
00000000
00000000
,  // measure 2
10020000
00000000
00000000
00000000
,  // measure 3
00000000
00000000
00000000
00000000
,  // measure 4
02030000
00000000
00000000
00000000
,  // measure 5
00000000
00000000
00000000
00000000
,  // measure 6
03002000
00000000
00000000
00000000
,  // measure 7
00000000
00000000
00000000
00000000
,  // measure 8
00023000
00000000
00000000
00000000
,  // measure 9
00000000
00000000
00000000
00000000
,  // measure 10
00030010
00000000
00000100
00000000
,  // measure 11
00000010
00000000
00000100
00000000
,  // measure 12
00000010
00000010
00010000
00000000
,  // measure 13
00001000
00000000
00010000
00010000
,  // measure 14
00010000
00001000
01000000
00000000
,  // measure 15
00100000
00000000
01000000
00000000
,  // measure 16
00100000
00100000
00000000
10000000
,  // measure 17
00020000
00000000
00000000
00000000
,  // measure 18
10030000
01000000
00000000
00000000
,  // measure 19
01000000
00010000
00000000
00000000
,  // measure 20
00010000
00001000
00000000
00000000
,  // measure 21
00001000
00000100
00000001
00001000
,  // measure 22
00000001
00000010
00000000
00000000
,  // measure 23
00000010
00001000
00000000
00000000
,  // measure 24
00001000
00010000
00000000
00000000
,  // measure 25
00010000
00100000
10000000
00010000
,  // measure 26
01000000
00001000
00000000
00000000
,  // measure 27
00010000
00000100
00000000
00000000
,  // measure 28
00001000
00000010
00000000
00000000
,  // measure 29
00010000
00001000
00100000
00010000
,  // measure 30
10000000
01000000
00000000
00000000
,  // measure 31
10000000
00010000
00000000
00000000
,  // measure 32
01000000
00001000
00000000
00000000
,  // measure 33
00010000
00001000
00000100
00000001
,  // measure 34
00002000
00000000
00003100
00000100
,  // measure 35
00000200
00000000
00010300
00001000
,  // measure 36
02000000
00000000
03100000
00100000
,  // measure 37
20000000
00000000
31000000
00010000
,  // measure 38
00002000
00010000
00013000
00000010
,  // measure 39
00000200
00000001
00000301
00000010
,  // measure 40
00000200
00001000
00010300
00001000
,  // measure 41
02000000
00100000
03010000
00100000
,  // measure 42
02000000
13000000
02000000
13000000
,  // measure 43
02000000
13000000
02000000
13000000
,  // measure 44
00020000
01030000
00020000
01030000
,  // measure 45
00020000
01030000
00020000
01030000
,  // measure 46
00002000
00013000
00002000
00013000
,  // measure 47
00002000
00013000
00002000
00013000
,  // measure 48
00000200
00000310
00000200
00000310
,  // measure 49
00000200
00000310
00000200
00000310
,  // measure 50
00000001
00000001
00000001
00000001
,  // measure 51
00000001
00000001
00000001
00000001
,  // measure 52
00000100
00000100
00000100
00000100
,  // measure 53
00000100
00000100
00000100
00000100
,  // measure 54
00001000
00001000
00001000
00001000
,  // measure 55
00001000
00001000
00001000
00001000
,  // measure 56
00022000
00000000
00000000
00033000
,  // measure 57
00002000
00000000
00000000
00000000
,  // measure 58
00103000
01000000
10000000
00000000
,  // measure 59
00010000
01000000
00010000
00000000
,  // measure 60
00100000
00001000
00010000
00000000
,  // measure 61
00000100
00001000
00000100
00000100
,  // measure 62
00000010
00000001
00000010
00000000
,  // measure 63
00000100
00010000
00000100
00000000
,  // measure 64
00010000
00001000
00010000
00000000
,  // measure 65
00001000
01000000
00001000
00010000
,  // measure 66
00100000
01000000
00100000
00000000
,  // measure 67
10000000
01000000
10000000
00000000
,  // measure 68
00010000
00100000
00010000
00000000
,  // measure 69
01000000
00001000
00010000
00001000
,  // measure 70
00011000
00000000
00000000
00000000
;

//---------------dance-single - D. Bernardone----------------
#NOTES:
     dance-single:
     D. Bernardone:
     Easy:
     3:
     0.213,0.000,0.049,0.138,0.000:
0000
0000
0000
0000
,
0000
0000
0000
0000
,
0000
0000
0000
0000
,
0000
0000
0000
0000
,
0000
0000
0000
0000
,
0000
0000
0000
0000
,
1000
0000
0000
0000
,
0000
0000
0000
0000
,
0001
0000
0000
0000
,
0020
0000
0000
0000
,
0000
0000
0030
0000
,
0200
0000
0000
0000
,
0000
0000
0300
0000
,
1000
0000
0000
0000
,
0001
0000
0000
0000
,
0100
0000
0000
0000
,
0020
0000
0000
0030
,
1000
1000
0000
0000
,
0100
0100
0000
0000
,
0010
0010
0000
0000
,
0100
0100
1000
0010
,
0100
0100
0000
0000
,
0001
0001
0000
0000
,
0010
0010
0000
0000
,
0100
0100
1000
0001
,
0100
0010
0000
0000
,
1000
0100
0000
0000
,
1000
0001
0000
0000
,
0100
0001
1000
0001
,
0010
0100
0000
0000
,
1000
0010
0000
0000
,
0100
0001
0000
0000
,
0010
0100
1000
0001
,
0200
0000
0300
0000
,
0020
0000
0030
0000
,
2000
0000
3000
0000
,
0002
0000
0003
0000
,
0020
0030
0200
0300
,
2000
3000
0002
0003
,
0200
0300
0020
0030
,
2000
3000
0200
0010
,
1300
0001
0001
0000
,
0100
0001
0001
0000
,
0010
0100
0100
0000
,
1000
0001
0100
0001
,
0010
0010
0100
0000
,
1000
1000
0010
0000
,
0100
0100
0010
0000
,
1000
0001
0010
0001
,
1000
1000
0100
0100
,
1000
1000
0100
0100
,
0010
0010
0001
0001
,
0010
0010
0001
0001
,
0100
0100
0010
0010
,
0100
0100
0010
0010
,
0220
0000
0000
0000
,
0000
0000
0330
0000
,
0001
1000
0100
0100
,
1000
0001
0100
0100
,
0001
1000
0100
0100
,
1000
0001
0110
0110
,
1000
0001
0010
0010
,
0001
1000
0010
0010
,
1000
0001
0010
0010
,
0001
1000
0110
0110
,
0001
0010
0100
0100
,
1000
0010
0100
0100
,
0001
0100
0010
0010
,
1000
0100
0010
0010
,
1001
0000
0000
0000
;

//---------------dance-single - D. Bernardone----------------
#NOTES:
     dance-single:
     D. Bernardone:
     Medium:
     5:
     0.334,0.000,0.065,0.105,0.012:
0000
0000
0000
0000
,
0000
0000
0000
0000
,
0000
0000
0000
0000
,
0000
0000
0000
0000
,
0000
0000
0000
0000
,
0000
0000
0000
0000
,
0000
0000
0000
0000
,
0000
0000
0000
0000
,
0000
0000
0000
0000
,
1001
0001
0100
0000
,
1000
0100
0001
0000
,
0010
0100
1000
0000
,
0001
0100
0010
0000
,
1000
0001
0010
0000
,
1000
0010
0100
0000
,
1000
0010
0100
0001
,
2002
0000
0000
3003
,
1000
0000
0001
0000
0000
0100
0000
0000
,
0100
0000
0010
0000
0000
1000
0000
0000
,
0001
0000
0010
0000
0000
0100
0000
0000
,
0010
0000
0001
0000
0100
0001
0100
0000
,
0010
0000
1000
0000
0000
0100
0000
0000
,
1000
0000
0010
0000
0000
0100
0000
0000
,
0001
0000
0010
0000
0000
0100
0000
0000
,
0010
0000
0001
0000
1000
0010
1000
0000
,
0001
0000
0010
0000
0100
0100
0100
0000
,
1000
0000
0001
0000
0100
0100
0100
0000
,
0010
0000
1000
0000
0001
0001
0001
0000
,
0010
0000
0100
0000
1000
0001
0100
0000
,
0010
0000
1000
0000
0001
0001
0001
0000
,
0010
0000
0100
0000
1000
1000
1000
0000
,
0010
0000
0100
0000
0010
0010
0010
0000
,
1000
0000
0001
0000
0010
0100
1000
0000
,
0002
0000
0103
0010
,
2000
0000
3100
0010
,
0002
0000
0103
0010
,
0200
0000
1300
0100
,
0002
0000
0013
0000
0100
1000
0100
1000
,
0002
0000
0103
0000
0010
1000
0010
1000
,
0200
0000
0310
0000
0001
1000
0001
1000
,
0200
0000
0310
0000
0001
0100
0010
1000
,
0001
0100
0001
0000
0100
0001
0100
0000
,
0010
0100
0010
0000
0100
0010
0100
0000
,
0010
1000
0010
0000
1000
0010
1000
0000
,
0001
1000
0001
0000
1000
0001
1000
0000
,
0001
0010
0001
0000
0010
0001
0010
0000
,
0100
1000
0100
0000
1000
0100
1000
0000
,
0100
0010
0100
0000
0010
0100
0010
0000
,
0001
0100
0010
0000
1000
0100
0010
0000
,
0001
0000
0001
0000
0001
0001
0100
0000
,
0010
0000
0010
0000
0010
0010
1000
0000
,
0001
0000
0001
0000
0001
0001
0010
0000
,
0100
0000
0100
0000
0100
0100
1000
0000
,
0010
0000
0010
0000
0010
0010
0100
0000
,
0001
0000
0001
0000
0001
0001
0010
0000
,
0220
0000
0000
0000
,
0000
0000
0000
0330
,
1000
0000
1000
0000
0100
0010
0001
0000
,
0100
0000
0100
0000
0010
1000
0001
0000
,
0010
0000
0010
0000
0100
1000
0001
0000
,
1000
0100
0001
0000
0001
0100
1000
0000
,
0010
0000
0000
0000
0010
0000
0000
0010
0000
0000
0000
0000
0100
0000
0001
0000
,
0100
0000
0000
0000
0001
0000
0000
0001
0000
0000
0000
0000
0010
0000
0100
0000
,
0010
0000
0000
0000
0100
0000
0000
0100
0000
0000
0000
0000
1000
0000
0010
0000
,
0100
0102
0010
0103
,
0110
0000
1000
0000
1000
0001
1000
0000
,
0110
0000
0001
0000
0001
1000
0001
0000
,
1001
0000
0100
0000
0100
0010
0100
0000
,
1001
0000
0010
0000
0010
0100
0010
1000
,
0100
0000
0000
0000
;

//---------------dance-double - D. Bernardone----------------
#NOTES:
     dance-double:
     D. Bernardone:
     Medium:
     6:
     0.373,0.056,0.146,0.178,0.028:
00000000
00000000
00000000
00000000
,
00010000
00000000
00001000
00000000
,
00000100
00000000
00001000
00000000
,
00010000
00000000
01000000
00000000
,
00010000
00000000
00001000
00000000
,
00010000
00000000
00001000
00000000
,
00000010
00000000
00001000
00000000
,
00010000
00000000
00100000
00000000
,
00010000
00000000
00001000
00000000
,
00011000
00010000
00000010
00001000
,
00000100
00010000
00001000
01000000
,
00001000
10000000
00001000
01000000
,
00010000
00100000
00001000
00010000
,
00000001
00010000
00000100
00001000
,
00000010
00010000
00001000
00010000
,
00000100
00010000
00001000
01000000
,
00022000
00000000
00000000
00033000
,
00001000
01000000
00100000
01000000
,
00010000
00100000
01000000
00010000
,
00001000
00010000
00000010
00000100
,
00001000
00000100
00000001
00000010
,
00000100
00000000
00000100
00000000
00000000
00001000
00000000
00001000
,
00000010
00000000
00010000
00000000
00000000
00001000
00000000
00100000
,
00010000
00000000
01000000
00000000
00000000
00100000
00000000
10000000
,
00010000
00000000
00100000
00000000
01000000
00010000
00001000
00000000
,
00010000
00000000
00000010
00000000
00000010
00000100
00000000
00000001
,
00000010
00000000
00001000
00000000
00001000
00010000
00000000
00001000
,
01000000
00000000
00100000
00000000
00100000
01000000
00000000
00010000
,
00100000
00000000
01000000
00000000
00010000
00001000
00010000
00000000
,
00000010
00000100
00001000
00010000
,
00100000
01000000
00010000
00100000
,
01000000
00010000
00001000
00000010
,
00000100
00000000
00001000
00000000
00000010
00000000
00000100
00000001
,
00000202
00000000
00001000
00000303
,
00002200
00000000
00010000
00013300
,
00022000
00000000
00100000
00033000
,
02002000
00000000
00010000
03013000
,
01000000
00020000
20000000
00000000
00101000
00000000
30030000
00000000
,
00010000
20000000
02000000
00000000
00101000
00000000
33000000
00000000
,
10000000
00020000
02000000
00000000
00101000
00000000
03030000
00000000
,
00010000
02000000
00002000
00000000
00010010
00000000
03003000
00000000
,
00001000
00010000
00000100
00000000
00000010
00000000
00000010
00000000
,
00000100
00001000
00000010
00000000
00000001
00000000
00000001
00000000
,
00000010
00000100
00001000
00000000
00010000
00000000
00010000
00000000
,
00001000
00010000
00100000
00000000
01000000
00000000
01000000
00000000
,
10000000
01000000
00010000
00000000
00100000
00000000
00100000
00000000
,
01000000
00010000
00002000
00000000
00000100
00000000
00003100
00000000
,
00001000
00010000
00000020
00000000
00000100
00000000
00000130
00000000
,
00001100
00000000
00011000
00000000
00010000
00000100
00010000
00001000
,
01000000
00100000
00010000
00000000
00100000
10000000
01000000
00000000
,
10000000
00100000
00010000
00000000
00100000
01000000
00001000
00000000
,
00010000
00000010
00001000
00000000
00000001
00000010
00001000
00000000
,
00000010
00000100
00010000
00000000
00001000
01000000
00100000
00000000
,
01000000
00100000
00010000
00000000
00100000
00010000
00001000
00000000
,
00010000
00001000
00000100
00000000
00001000
00000100
00000010
00000000
,
00000220
00000000
00000000
00000000
,
00000000
00000000
00000000
00000330
,
00000001
00000000
00000010
00000000
00001000
00010000
00001000
00000000
,
01000000
00000000
00100000
00000000
00010000
00100000
10000000
00000000
,
01000000
00000000
00100000
00000000
00001000
01000000
00010000
00000000
,
01000000
00000000
00001000
00000000
00010000
00010000
00000100
00000100
,
00001000
00000000
00000000
00000000
00000010
00000000
00000000
00000010
00000100
00000000
00000000
00000000
00000001
00000000
00000000
00000000
,
00000010
00000000
00000000
00000000
00000100
00000000
00000000
00000100
00010000
00000000
00000000
00000000
00001000
00000000
00000000
00000000
,
01000000
00000000
00000000
00000000
00010000
00000000
00000000
00010000
00100000
00000000
00000000
00000000
01000000
00000000
00000000
00000000
,
10000000
00000000
00000000
00000000
00010000
00000000
00000000
00010000
01000000
00000000
00000000
01000000
00001000
00000000
00000000
00000000
,
00011000
00000000
00000100
00000000
00001000
00000010
00001000
00000000
,
00011000
00000000
01000000
00000000
00010000
00100000
00010000
00000000
,
00011000
00000000
00000000
00000000
00000010
00000000
00000000
00001000
00000100
00000000
00000000
00000000
00001000
00000000
00000000
00000000
,
00011000
00000000
00000000
00000000
00100000
00000000
00000000
00010000
01000000
00000000
00000000
00000000
00010000
00000000
10000000
00000000
,
10010000
00000000
00000000
00000000
;

//---------------dance-double - D. Bernardone----------------
#NOTES:
     dance-double:
     D. Bernardone:
     Hard:
     8:
     0.525,0.112,0.073,0.097,0.271:
00000000
00000000
00000000
00000000
,
00010000
10000000
00100000
00010000
,
00100000
01000000
00001000
00100000
,
00001000
01000000
00010000
00000100
,
00001000
01000000
00010000
00000100
,
00001000
00100000
01000000
00010000
,
00001000
00000100
00000001
00001000
,
00000010
00010000
01000000
00100000
,
00001000
00000100
00000010
00011000
,
01000000
00010000
00000000
00010000
00100000
10000000
00000000
10000000
,
00100000
01000000
00000000
01000000
00100000
00001000
00000000
00010000
,
00000010
00000100
00001000
00000100
00000010
00010000
00000100
00000010
,
00000001
00000100
00000000
00000100
00000010
00001000
00000100
00010000
,
00001000
01000000
00000000
01000000
00100000
00010000
00000000
00010000
,
00100000
10000000
00000000
10000000
01000000
00100000
00000000
01000000
,
00010000
00001000
00000010
00000001
00000010
00000100
00001000
00000010
,
00000200
00000000
00000000
00000300
,
00000001
00000000
00000000
00000000
00000001
00000000
00000000
00001000
00000100
00000000
00010000
00000000
00001000
00000000
01000000
00000000
,
00100000
00000000
00000000
00000000
00100000
00000000
00000000
10000000
01000000
00000000
10000000
00000000
00100000
00000000
00010000
00000000
,
00001000
00000000
00000000
00000000
00001000
00000000
00000000
00001000
00010000
00000000
00000010
00000000
00000100
00000000
00001000
00000000
,
00000100
00000000
00000000
00000000
00000100
00000000
00000100
00000001
00000000
00000001
00000010
00000000
00000100
00000000
00001000
00000000
,
00000010
00000000
00000010
00000000
00000010
00000000
00000000
00010000
00001000
00000000
00100000
00000000
00010000
00000000
01000000
00000000
,
00100000
00000000
00100000
00000000
00100000
00000000
00000000
10000000
01000000
00000000
00010000
00000000
01000000
00000000
00100000
00000000
,
00001000
00000000
00010000
00000000
00001000
00000000
00000000
00001000
00010000
00000000
00000010
00000000
00000100
00000000
00001000
00000000
,
00000200
00000000
00000000
00000000
00000301
00000000
00000000
00000001
00000000
00000010
00000000
00000100
00001000
00000000
00000001
00000000
,
00000100
00000000
00000100
00000000
00000100
00001000
00010000
0100M000
,
00010000
00000000
00010000
00000000
00010000
00001000
000M0100
00001000
,
00010000
00000000
00010000
00000000
00010000
00100000
100M0000
00100000
,
00010000
00000000
00010000
00000000
00010000
00000100
000M0001
00000100
,
00001000
00000000
00001000
00000000
00001000
00000010
00010000
000100M0
,
00001000
00000000
00001000
00000000
00001000
00000010
00M01M00
00010000
,
00001000
00000000
00001000
00000000
00001000
00000100
0M0010M0
00010000
,
00001000
00000000
00001000
00000000
00001000
01000000
10MMM000
01000000
,
00020000
00000000
00000000
00000000
00100000
00000000
00000000
00000000
01030000
00000000
00001000
00010000
00000000
00000000
00010000
00000100
,
00000020
00000000
00000000
00000000
00001000
00000000
00000000
00000031
00000100
00001000
00000000
00010000
00000000
01000000
00000000
00100000
,
00000000
00100000
00000000
00100000
00000000
00100000
00000000
00100000
00010000
00000000
01000000
00001000
00000000
00001000
00000000
00010000
,
00000200
00000000
00000000
00000000
00000010
00000000
00000000
00000000
00001300
00000001
00000000
00000100
00000000
00001000
00000000
00010000
,
00001000
00000000
00000000
00000000
00000000
00000000
00000000
00000000
00100000
00000000
01000000
00010000
00000000
00000000
00001000
00000100
,
00000000
00000000
00000000
00000000
00000000
00000000
00000000
00000001
00000010
00001000
00000000
00010000
00000000
00000100
00000000
00001000
,
00000000
00000000
00000000
00000000
00000000
00000000
00000000
00000000
00000010
00000000
00010000
00001000
00000000
01000000
00000000
00010000
,
00000000
00000000
00000000
00000000
00000000
00000000
00000000
00000000
00100000
01000000
00000000
00010000
00000000
00002000
00000000
00000000
,
00003010
00000001
00000100
00000000
00000100
00001000
00010000
00000000
,
00010000
00100000
01000000
00000000
01000000
00001000
00010000
00000000
,
00010000
00001000
00000010
00000000
00000010
00000100
00001000
00000000
,
00001000
00000010
00010000
00000000
00001000
01000000
01000000
00010000
,
01000000
00100000
00010000
00000000
00010000
00001000
00000100
00000000
,
00000100
00000010
00000001
00000000
00000001
00000010
00001000
00000000
,
00001000
00000100
00010000
00000000
00010000
00001000
01000000
00000000
,
10010000
00000000
10010000
00000000
00100000
10000000
01000000
00010000
,
00001000
00010000
00000010
00000000
00000001
00000010
00001000
00000000
,
00000010
00000100
00001000
00000000
00010000
00001000
01000000
00000000
,
10000000
01000000
00010000
00000000
01000000
00100000
00010000
00000000
,
00001000
00010000
01000000
00000000
00100000
00001000
00010000
00000000
,
00001000
00010000
00100000
00000000
01000000
00001000
00010000
00000000
,
00001000
00100000
00100000
01000000
00010000
00001000
00000100
00001000
,
00022000
00000000
00000000
00000000
,
00033000
00000000
00000000
00000000
,
00000001
00000000
00000010
00000000
00001000
00000000
00010000
00000010
00000000
00010000
00000010
00000000
00000100
00000000
00000100
00000000
,
00001000
00000000
00010000
00000000
01000000
00000000
00100000
00001000
00000000
00100000
00001000
00000000
01000000
00000000
01000000
00000000
,
00100000
00000000
10000000
00000000
00010000
00000000
00100000
00001000
00000000
00010000
00000010
00000000
00000100
00000000
00000100
00000000
,
00000001
00000000
00000010
00000000
00001000
00000000
00010000
00100000
00000000
10000000
00100000
00000000
00010000
00000000
00100000
00000000
,
10000000
00000000
01000000
00000000
00010000
00000000
00001000
01000000
00000000
00010000
01000000
00000000
00100000
00000000
00100000
00000000
,
00010000
00000000
00001000
00000000
00000010
00000000
00000100
00001000
00000000
00000100
00010000
00000000
00100000
00000000
00100000
00000000
,
10000000
00000000
00010000
00000000
00100000
00000000
00001000
01000000
00000000
00000100
00010000
00000000
00000010
00000000
00000010
00000000
,
00000001
00000000
00000010
00000000
00000100
00000000
00001000
00010000
00000000
00000100
00000000
00000010
00001000
00000000
00010000
00000000
,
00012000
00000000
00000000
00000000
01000000
00000000
00000000
10003000
00010000
10000000
00010000
00000000
01000000
00000000
01000000
00000000
,
00021000
00000000
00000000
00000000
00000100
00000000
00000000
00030001
00001000
00000001
00001000
00000000
00000100
00000000
00000100
00000000
,
00012000
00000000
00000000
00000000
00003010
00000000
00000000
00000100
00010000
00000100
00010000
00000000
00001000
00000000
00001000
00000000
,
00021000
00000000
00000000
00000000
00130000
00000000
00100000
01000000
00000000
01000000
00010000
00000000
00100000
00000000
00100000
00000000
,
11000000
00000000
00000000
00000000
;

//---------------dance-double - D. Bernardone----------------
#NOTES:
     dance-double:
     D. Bernardone:
     Challenge:
     10:
     0.651,0.113,0.332,0.194,0.360:
00000000
00000000
00000000
00000000
,
10000000
01000000
00001000
01000000
,
10000000
01000000
00001000
01000000
,
10000000
00010000
00100000
01000000
,
00010000
00000100
00001000
00001000
,
00000001
00000100
00010000
00000100
,
00000001
00000100
00010000
00000100
,
00000001
00000010
00001000
00100000
,
01000000
20000000
00010000
30010000
,
10000000
01000000
00100000
01000000
10000000
01000000
00100000
01000000
,
10000000
01000000
00100000
01000000
10000000
01000000
00100000
01000000
,
10000000
01000000
00010000
01000000
10000000
01000000
00010000
01000000
,
10000000
01000000
00010000
01000000
10000000
01000000
00010000
01000000
,
10000000
01000000
00001000
01000000
10000000
01000000
00001000
01000000
,
10000000
01000000
00001000
01000000
10000000
01000000
00001000
01000000
,
10000000
01000000
00001000
00000100
00001000
01000000
10000000
01000000
,
00022000
00000000
00000000
00033000
,
00000011
00000000
00000000
00000000
00000011
00000000
00000000
00001000
00000100
00001000
00000100
00000000
00010000
00000000
00010000
00000000
,
00101000
00000000
00000000
00000000
00101000
00000000
00000000
10000000
00010000
10000000
00010000
00000000
01000000
00000000
01000000
00000000
,
10001000
00000000
00000000
00000000
10001000
00000000
00000000
00010000
00100000
00010000
00100000
00000000
00001000
00000000
00001000
00000000
,
00010100
00000000
00000000
00000000
00010200
00000000
00000000
00000310
00000000
00000001
00000100
00000000
00001000
00000000
00000100
00000000
,
00000110
00000000
00000000
00000000
00000110
00000000
00000000
00010000
00001000
01000000
00001000
00000000
00100000
00000000
00100000
00000000
,
11000000
00000000
00000000
00000000
11000000
00000000
00000000
00010000
00100000
00001000
00010000
00000000
00000010
00000000
00000100
00000000
,
00001001
00000000
00000000
00000000
00001001
00000000
00000000
00000010
00010000
00001000
00100000
00000000
01000000
00000000
10000000
00000000
,
00210000
00000000
00000000
00000000
00300200
00000000
00000000
00010300
00000000
00000010
00000000
00000100
00000001
00000000
00001000
00000000
,
00010010
00000000
00000000
00000000
01001000
00000000
00000000
00010000
10000000
01000000
00100000
00000000
00001000
00000000
00001000
00000000
,
00000110
00000000
00000000
00000000
00001001
00000000
00000000
00001000
00000100
00000010
00000001
00000000
00010000
00000000
00010000
00000000
,
10001000
00000000
00000000
00000000
01010000
00000000
00000000
10000000
00010000
00100000
01000000
00000000
00010000
00000000
00010000
00000000
,
00001100
00000000
00000000
00000000
00000012
00000000
00000000
00000103
00000000
00001000
00010000
00000000
00100000
00000000
10000000
00000000
,
01010000
00000000
00000000
00000000
00010100
00000000
00000000
00000010
00010000
00000100
00001000
00000000
00000001
00000000
00000001
00000000
,
00010100
00000000
00000000
00000000
00101000
00000000
00000000
10000000
00010000
10000000
01000000
00000000
00100000
00000000
00100000
00000000
,
00101000
00000000
00000000
00000000
00001010
00000000
00000000
00000001
00001000
00000001
00001000
00000000
00000100
00000000
00010000
00000000
,
02000000
00000000
00000000
00000000
23000000
00000000
00000000
30100000
00000000
01000000
00000000
00010000
00100000
00000000
00001000
00000000
,
00021000
00000000
00000000
00000000
00000000
00000000
00000000
00000000
10000000
00000000
00000000
00000000
00000000
00000000
00000000
00031000
01000000
00000000
00000000
00000000
10000000
00000000
01000000
00000000
01000000
00000000
00000000
00000000
00000100
00000000
00000010
00000000
,
00000002
00000000
00000000
00000000
00001000
00000000
00000000
00000103
00001000
00010000
00000000
00100000
00000000
01000000
00000000
00000200
,
00020000
00001000
00000000
00001000
00000000
00001000
00000000
00030300
00010100
00000000
00010000
00001000
00000000
00100000
00000000
00002000
,
02000000
00010000
00000000
00010000
00000000
00010000
00000000
03003000
01001000
00011000
00000000
00101000
00000000
11000000
00000000
10010000
,
10000000
00000000
00000000
00000000
01000000
00000000
00000000
00000000
00001000
00000000
00000000
00000000
00000010
00000000
00000000
00000100
00000001
00000000
00000000
00000000
00000010
00000000
00000010
00000000
00001000
00000000
00000000
00000000
00010000
00000000
00200000
00000000
,
02000000
00000000
00000000
00000000
00001000
03300000
00000000
10000000
10100000
00001000
00000000
00000100
00000000
00000010
00000000
00020000
,
00002000
00000000
00000000
00000000
10000000
00033000
00000000
00000000
00001000
00000000
01000000
10000000
00000000
01000000
00000000
00000200
,
00002000
00000000
00000000
00000000
00100000
00003300
00000000
00000000
00001001
00000001
00000000
00000100
00000000
00001000
00000000
00010000
,
00001000
01000000
00100000
01000000
10000000
01000000
00010000
00000000
,
00010000
00100000
01000000
00010000
01000000
10000000
00001000
00000000
,
00001000
01000000
00010000
00100000
00010000
00100000
10000000
00000000
,
10000000
00100000
01000000
10000000
00100000
00010000
00001000
00000000
,
00010000
00000010
00001000
00000100
00010000
00100000
10000000
00100000
,
01000000
00001000
01000000
00000000
00010000
00100000
00001000
00000000
,
00010000
00001000
01000000
00000000
00010000
10000000
01000000
00010000
,
00001000
00000000
00001000
00000000
00000100
00000001
00000010
00000100
,
00001000
00000001
00000010
00000000
00000010
00001000
00100000
00000000
,
00100000
00001000
00000010
00000001
00000010
00001000
00100000
00001000
,
00000010
00000001
00001000
00000000
00001000
00000010
00000100
00000000
,
00000100
00001000
01000000
10000000
01000000
00001000
00000100
00000001
,
00000010
00001000
00010000
00000000
00010000
00000010
00000100
00000000
,
00000100
00001000
00100000
00000000
00100000
00001000
00000100
00001000
,
00220000
00000000
00000000
00000000
00000000
00000000
00000000
00000000
00000000
00000000
00000000
00000000
00330000
00000000
00000000
10000000
,
00000000
00010000
00000000
00001000
00000001
00000100
00000010
00000000
,
00001000
00000000
00000100
00000000
00010000
00000000
00001000
01000000
00010000
00100000
01000000
00000000
10000000
00000000
00100000
00000000
,
00010000
00000000
00001000
00000000
00000010
00000000
00000100
00010000
00000010
00000100
00001000
00000000
00010000
00000000
01000000
00000000
,
00100000
00000000
00001000
00000000
00000010
00000000
00000100
00010000
00001000
00010000
00100000
00000000
01000000
00000000
10000000
00000000
,
01000000
00000000
00010000
00000000
00100000
00000000
00000010
00001000
00000100
00000010
00002000
00000000
00010000
00000000
00100000
00000000
,
10003000
00000000
01000000
00000000
00010000
00000000
01000000
00100000
00010000
01000000
00001000
00000000
00010000
00000000
00000010
00000000
,
00000100
00000000
00001000
00000000
00000100
00000000
00000010
00010000
00001000
00010000
00000100
00000000
00000010
00000000
00000001
00000000
,
00000100
00000000
00001000
00000000
00000100
00000000
00000001
00000010
00000100
00010000
00001000
00000000
00010000
00000000
00001000
00000000
,
00011000
00000000
00001000
01000000
00010000
00000000
00010000
00100000
01000000
00010000
00000000
00010000
00001000
00000000
00001000
00000000
,
01000000
00100000
10000000
00010000
00100000
01000000
00001000
01000000
,
00010000
00001000
00000100
00000010
00000100
00010000
00000100
00001000
,
00010000
00100000
01000000
00100000
00001000
00100000
00010000
00001000
,
00000010
00000001
00001000
00000100
00000010
00010000
00000010
00001000
,
00040000
00000000
00000000
00000000
,
00030000
00000000
00000000
00000000
;
