#TITLE:Come With Me;
#SUBTITLE:;
#ARTIST:Special D;
#TITLETRANSLIT:;
#SUBTITLETRANSLIT:;
#ARTISTTRANSLIT:;
#GENRE:Dance;
#CREDIT:Sync by HellRazoR;
#BANNER:Come With Me-bn.png;
#BACKGROUND:Come With Me-bg.png;
#LYRICSPATH:;
#CDTITLE:;
#MUSIC:Come With Me.ogg;
#OFFSET:-1.209;
#SAMPLESTART:30.380;
#SAMPLELENGTH:10.580;
#SELECTABLE:YES;
#DISPLAYBPM:140.000;
#BPMS:0.000=140.000;
#STOPS:32.000=1.2875;
#BGCHANGES:0.000=Come With Me-bg.png=1.000=0=0=1=====,
16.000=In The Groove Rebirth/1130_JumpBack.mpg=1.000=0=0=1=====,
32.000=Come With Me-bg.png=1.000=1=0=1===CrossFade==,
33.000=In The Groove Rebirth/1125_JumpBack.mpg=1.000=0=0=1=====,
49.000=In The Groove Rebirth/1142_JumpBack.mpg=1.000=0=0=1=====,
65.000=In The Groove Rebirth/900_JumpBack.mpg=1.000=0=0=1=====,
81.000=In The Groove Rebirth/514_JB_HD.mpg=1.000=0=0=1=====,
97.000=Come With Me-bg.png=2.000=1=0=1===CrossFade==,
99.000=Come With Me-bg.png=2.000=0=0=1====1^0^0^1=SlideUp==,
100.000=Come With Me-bg.png=2.000=0=0=1====0^1^0^1=SlideUp==,
101.000=Come With Me-bg.png=2.000=0=0=1====0^0^1^1=SlideUp==,
102.000=Come With Me-bg.png=2.000=0=0=1====0^1^0^1=SlideUp==,
103.000=Come With Me-bg.png=2.000=0=0=1====1^0^0^1=SlideUp==,
104.000=Come With Me-bg.png=2.000=0=0=1===SlideUp==,
105.000=In The Groove Rebirth/218_JB_HD.mpg=1.000=0=0=1=====,
121.000=In The Groove Rebirth/168_JB_HD.mpg=1.000=0=0=1=====,
137.000=In The Groove Rebirth/900_JumpBack.mpg=1.000=1=0=1===CrossFade==,
153.000=In The Groove Rebirth/1148_JumpBack.mpg=1.000=0=0=1=====,
169.000=In The Groove Rebirth/1130_JumpBack.mpg=1.000=0=0=1=====,
185.000=In The Groove Rebirth/1125_JumpBack.mpg=1.000=0=0=1=====,
201.000=In The Groove Rebirth/514_JB_HD.mpg=1.000=0=0=1=====,
217.000=In The Groove Rebirth/168_JB_HD.mpg=1.000=0=0=1=====,
233.000=In The Groove Rebirth/900_JumpBack.mpg=1.000=1=0=1=SongBgWithMovieViz==CrossFade==,
249.000=In The Groove Rebirth/218_JB_HD.mpg=1.000=1=0=1=SongBgWithMovieViz==CrossFade==,
265.000=Come With Me-bg.png=1.000=0=0=1=====,
99999=-nosongbg-=1.000=0=0=0 // don't automatically add -songbackground-
;
#BGCHANGES2:16.000=white flash=1.000=0=0=1=====,
105.000=flash=1.000=0=0=1====0.5^0.5^0.5^1=,
265.000=white flash=1.000=0=0=1=====,
;
#KEYSOUNDS:;

//---------------dance-single - M. Simmons----------------
#NOTES:
     dance-single:
     M. Simmons:
     Easy:
     3:
     0.270,0.335,0.059,0.101,0.000,205.000,7.000,12.000,0.000,0.000,0.000:
0000
0000
0000
0000
,
0000
0000
0000
0000
,
0000
0000
0000
0000
,
0000
0000
0000
0000
,
1001
0000
0001
0000
,
1000
0000
0010
0000
,
0100
0000
0001
0000
,
1000
0100
1000
0100
,
1000
0001
0100
0000
,
0010
0000
1000
0000
,
0010
0000
0100
0000
,
0001
0000
1000
0000
,
0100
0100
0100
0000
,
1000
0000
0001
0000
,
0100
0000
0010
0000
,
0100
0000
0001
0000
,
1000
0100
0010
0100
,
0000
1000
0001
0100
,
0000
0010
0100
0010
,
0000
1000
0001
0100
,
0000
0001
1000
0001
,
0100
0010
0100
0001
,
0000
1000
0010
0100
,
0001
1000
0100
0010
,
0001
2001
0000
0010
,
0010
0010
0010
0010
,
3010
1001
0100
0001
,
1000
0100
1000
0001
,
0010
0001
1000
0001
,
0100
0001
1000
0100
,
0010
0001
1000
0001
,
0100
0010
0100
0001
,
1000
0100
0010
0001
,
0010
0100
0000
0000
,
0000
1000
0010
0100
,
0000
0010
1000
0001
,
0000
0100
0001
1000
,
0000
0100
0010
0100
,
0000
0010
0001
0010
,
0100
1000
0001
0001
,
0000
1000
0001
1000
,
0010
0100
0001
1000
,
0000
0100
0010
0200
,
0010
0001
0001
0310
,
0000
0010
0001
2000
,
0001
0010
0001
3001
,
0000
0001
0100
0020
,
1000
0100
0100
1030
,
0000
1000
0001
0100
,
0010
0100
0001
1000
,
0100
1001
0001
0100
,
0010
1000
0010
0100
,
0000
0100
0001
1000
,
0100
0010
0001
0010
,
0000
0001
1000
0001
,
0100
0010
0100
0010
,
0000
1000
0010
0100
,
0001
1000
0010
0100
,
1001
1001
0010
0100
,
0020
0130
0001
2000
,
3001
0100
0001
2000
,
3100
0020
0000
0000
,
0031
1000
0001
0200
,
0310
0100
0001
0002
,
0103
0001
1000
0020
,
0130
0002
0000
0000
,
1003
1001
0000
0000
;

//---------------dance-single - M. Simmons & edited by D. Bernardone----------------
#NOTES:
     dance-single:
     M. Simmons & edited by D. Bernardone:
     Challenge:
     9:
     0.635,0.866,0.228,0.034,0.535,496.000,27.000,4.000,7.000,0.000,0.000: // measure 1
0000
0000
0000
0000
,  // measure 2
0000
0000
0000
0000
,  // measure 3
0000
0000
0000
0000
,  // measure 4
0000
0000
0000
0000
,  // measure 5
1000
0000
0001
0000
0100
0000
0010
1000
0000
0000
0001
0000
0010
0000
0001
0010
,  // measure 6
0000
0000
0000
0100
1000
0000
0001
1000
0000
0000
0010
0000
0100
0000
0010
0100
,  // measure 7
0000
0000
0010
0000
1000
0000
0001
0100
0000
0000
0001
0000
1000
0000
0100
0010
,  // measure 8
0000
0000
0001
0000
1000
0000
0001
0100
0000
0000
0010
0000
1000
0000
0001
0010
,  // measure 9
0000
0000
0000
0000
0100
0000
1000
0000
0001
0000
0100
0001
0000
0000
1000
0000
,  // measure 10
0010
0000
0100
0010
0000
0000
0100
0000
0001
0000
0100
0001
0000
0000
1000
0000
,  // measure 11
0100
0000
0010
0001
0000
0000
0000
0010
0100
0000
0010
0001
0000
0000
1000
0000
,  // measure 12
0001
0000
0000
0000
1000
0000
0010
0000
0000
0000
0000
0000
0100
0000
0000
0000
0010
0000
0000
0100
0000
0000
0001
0000
0000
0000
0000
0000
1000
0000
0000
0000
,  // measure 13
0100
0000
0010
0001
0000
0000
0010
0000
0100
0000
1000
0100
0000
0000
0010
0000
,  // measure 14
0100
0000
0010
0001
0000
0000
0000
0010
0001
0000
1000
0001
0000
0000
0100
0000
,  // measure 15
0010
0000
1000
0010
0000
0000
0100
0000
0010
0000
1000
0010
0000
0000
0100
0000
,  // measure 16
0001
0000
0100
0010
0000
0000
0100
0000
0001
0000
1000
0001
0000
0000
0100
0000
,  // measure 17
0001
0000
1000
0100
0000
0000
0010
0000
0001
0000
0010
0001
0000
0000
1000
0000
,  // measure 18
0001
0000
0100
0001
0000
0000
1000
0000
0010
0000
0100
0010
0000
0000
0100
0000
,  // measure 19
0001
0000
0000
1000
0000
0000
0001
0000
0000
0000
0000
0000
0000
0000
0000
0000
0010
0000
0000
0000
0100
0000
1000
0000
0000
0000
0000
0000
0010
0000
0000
0000
,  // measure 20
0100
0000
0001
0010
0000
0000
0100
0000
1000
0000
0010
0100
0000
0000
0001
0000
,  // measure 21
1000
0000
0001
1000
0000
0000
0000
0000
0001
0000
1000
0200
0000
0000
0310
0000
,  // measure 22
0001
0000
1000
0002
0000
0000
0103
0000
0010
0000
1000
0000
0001
0000
0100
0000
,  // measure 23
0001
0000
1000
0100
0000
0000
0010
0000
0001
0000
1000
0010
0000
0000
0100
0000
,  // measure 24
0010
0000
1000
0002
0000
0000
0103
0000
0001
0000
1000
0200
0000
0000
0310
0000
,  // measure 25
0001
0000
1000
0001
1000
0000
0000
0000
0000
0001
0000
0000
M110
0000
0000
0000
,  // measure 26
1M01
M011
101M
01M1
,  // measure 27
1M01
0000
0000
0000
011M
0000
1000
0000
0100
0000
0010
0100
0000
0000
1000
0000
,  // measure 28
0100
0000
0010
0100
0000
0000
1000
0000
0100
0010
0000
0100
0000
0000
0010
0000
,  // measure 29
0001
0000
1000
0001
0000
0000
0010
0000
0100
0000
0010
0001
0000
0000
0010
0000
,  // measure 30
0100
0000
0010
0001
0000
0000
0010
0000
0100
0010
0000
0001
0000
0000
0010
0000
,  // measure 31
0100
0000
1000
0001
0000
0000
0100
0000
0010
0000
1000
0010
0000
0000
0100
0000
,  // measure 32
0001
0000
1000
0001
0000
0000
0100
0000
0010
0000
1000
0010
0000
0000
1000
0000
,  // measure 33
0100
0000
0010
0001
0010
0100
1000
0001
0100
0010
1000
0010
0100
0001
1000
0100
,  // measure 34
1000
0100
0010
0001
0010
0001
1000
0010
0100
0001
1000
0100
0010
0100
1000
0001
,  // measure 35
1000
0000
0100
1000
0000
0000
0100
0000
0010
0000
0001
1000
0010
0000
0001
0000
,  // measure 36
0010
0000
0100
0001
1000
0000
0100
0000
0010
0100
0000
0100
0010
0000
0001
0000
,  // measure 37
1000
0000
0001
1000
0010
0000
1000
0000
0001
0000
0100
1000
0100
0000
0001
0000
,  // measure 38
0100
0000
0010
0100
0010
0000
1000
0000
0001
0010
0000
0010
0100
0000
1000
0000
,  // measure 39
0010
0000
0100
0001
1000
0000
0001
0000
0100
0000
0010
1000
0100
0000
0010
0000
,  // measure 40
0100
0000
0010
0001
0100
0000
0001
0000
0010
0000
0100
1000
0010
0000
0100
0000
,  // measure 41
0010
0000
0100
0001
0010
0000
0100
0000
1000
0000
0001
0100
0000
0000
0010
0000
,  // measure 42
1000
0000
0001
0010
0000
0000
0011
0000
0000
0000
1001
0000
0000
0000
1010
0000
,  // measure 43
0000
0000
1100
0000
0001
0000
1000
0000
0100
0000
0010
0001
0000
0000
1000
0000
,  // measure 44
0010
0000
0100
0010
0000
0000
1000
0000
0001
0100
0000
0001
0000
0000
1000
0000
,  // measure 45
0100
0000
0010
0100
0000
0000
1000
0000
0001
0000
0100
0010
0000
0000
0001
0000
,  // measure 46
0010
0000
0100
0010
0000
0000
1000
0000
0001
0010
0000
0100
0000
0000
1000
0000
,  // measure 47
0100
0000
0010
0001
0000
0000
1000
0000
0001
0000
1000
0001
0000
0000
1000
0000
,  // measure 48
0001
0000
1000
0001
0000
0000
1000
0000
0001
0000
1000
0001
0000
0000
1000
0000
,  // measure 49
0001
0000
1000
0001
0000
0000
0010
0000
0100
0000
0010
0001
0000
0000
1000
0000
,  // measure 50
0010
0000
0100
0001
1000
0000
0100
0010
0001
0000
1000
0010
0100
0010
1000
0001
,  // measure 51
0100
0000
0001
1000
0001
0000
1000
0000
0100
0000
0010
0001
0000
0000
0010
0000
,  // measure 52
0100
0000
1000
0001
0000
0000
0100
0000
0010
0001
0000
0010
0000
0000
1000
0000
,  // measure 53
0001
0000
1000
0100
0000
0000
0010
0000
0001
0000
1000
0001
0000
0000
0100
0000
,  // measure 54
0010
0000
1000
0010
0000
0000
0100
0000
0001
1000
0000
0001
0000
0000
0010
0000
,  // measure 55
0100
0000
0010
0001
0000
0000
1000
0000
0010
0000
1000
0010
0000
0000
1000
0000
,  // measure 56
0010
0000
1000
0010
0000
0000
0100
0000
0001
0000
0100
0001
0000
0000
0100
0000
,  // measure 57
0001
0000
0100
0001
0000
0000
1000
0000
0001
0000
0100
0001
0000
0000
1000
0000
,  // measure 58
0100
0000
0010
0001
0010
0000
0000
0000
1100
0000
0000
0000
1010
0000
0000
0000
,  // measure 59
1001
0000
0110
0000
0101
0000
0001
0010
,  // measure 60
1000
0000
0011
0000
1010
0000
1000
0010
,  // measure 61
0001
0000
1100
0000
0101
0000
1000
0100
,  // measure 62
0001
0000
0100
1000
0100
1000
0001
1000
,  // measure 63
0001
0000
0011
0000
1010
0000
0001
0100
,  // measure 64
1000
0000
0101
0000
1100
0000
0001
0010
,  // measure 65
1000
0000
1010
0000
0011
0000
1000
0100
,  // measure 66
0001
0000
0100
0010
0100
0010
0001
1000
,  // measure 67
0001
1001
0000
0000
;

//---------------dance-single - M. Simmons----------------
#NOTES:
     dance-single:
     M. Simmons:
     Beginner:
     1:
     0.079,0.112,0.025,0.000,0.000,63.000,3.000,0.000,0.000,0.000,0.000:
0000
0000
0000
0000
,
0000
0000
0000
0000
,
0000
0000
0000
0000
,
0000
0000
0000
0000
,
1000
0000
0000
0000
,
1000
0000
0000
0000
,
0100
0000
0000
0000
,
0010
0000
0000
0000
,
1001
0001
0000
0000
,
0000
1000
0000
0000
,
0000
0100
0000
0000
,
0000
0010
0000
0000
,
0000
0100
0000
0000
,
0000
1000
0000
0000
,
0000
0001
0000
0000
,
0000
0100
0000
0000
,
0000
0010
0000
0000
,
0000
0100
0000
0000
,
0000
0001
0000
0000
,
0000
1000
0000
0000
,
0000
0001
0000
0000
,
0000
0010
0000
0000
,
0000
0100
0000
0000
,
0000
0010
0000
0000
,
0000
1001
0000
0000
,
0000
0000
0000
0000
,
0000
0001
0000
0000
,
0000
0100
0000
0000
,
0000
0010
0000
0000
,
0000
1000
0000
0000
,
0000
0010
0000
0000
,
0000
0100
0000
0000
,
0000
0001
0000
0000
,
0000
1000
0000
0000
,
0000
0001
0000
0000
,
0000
0010
0000
0000
,
0000
0100
0000
0000
,
0000
1000
0000
0000
,
0000
0001
0000
0000
,
0000
0010
0000
0000
,
0000
0100
0000
0000
,
0000
0010
0000
0000
,
0000
0100
0000
0000
,
0000
1000
0000
0000
,
0000
0001
0000
0000
,
0000
1000
0000
0000
,
0000
0001
0000
0000
,
0000
0100
0000
0000
,
0000
0010
0000
0000
,
0000
1000
0000
0000
,
0000
0010
0000
0000
,
0000
0100
0000
0000
,
0000
0001
0000
0000
,
0000
1000
0000
0000
,
0000
0100
0000
0000
,
0000
0010
0000
0000
,
0000
0100
0000
0000
,
0000
1000
0000
0000
,
0000
0001
0000
0000
,
0000
0100
0000
0000
,
0000
0010
0000
0000
,
0000
1000
0000
0000
,
0000
0010
0000
0000
,
0000
0100
0000
0000
,
0000
0010
0000
0000
,
0000
1000
0000
0000
,
0000
1001
0000
0000
;

//---------------dance-single - M. Simmons----------------
#NOTES:
     dance-single:
     M. Simmons:
     Hard:
     9:
     0.530,0.475,0.169,0.025,0.308,417.000,20.000,3.000,0.000,0.000,0.000:
0000
0000
0000
0000
,
0000
0000
0000
0000
,
0000
0000
0000
0000
,
0000
0000
0000
0000
,
1000
0100
0010
0100
1000
0001
0100
0010
,
0100
0000
0010
1000
0001
0100
0001
1000
,
0100
0000
0010
0001
1000
0001
0100
0010
,
0100
0000
0010
1000
0010
0100
0010
1000
,
0010
0000
1000
0100
0001
0000
0100
1000
,
0001
0000
0100
1000
0100
0000
0010
1000
,
0010
0000
0100
0001
0010
0000
0100
1000
,
0010
0000
1000
0001
0010
0000
0001
1000
,
0010
0100
0010
0000
1000
0010
0001
0000
,
0010
1000
0001
0000
0010
1000
0010
0000
,
0001
1000
0001
0000
0100
1000
0100
0000
,
0010
0001
0010
0000
1000
0001
0010
0000
,
0100
1000
0001
0000
1010
0000
0100
0000
,
0011
0000
1000
0100
0010
0000
0100
1000
,
0001
0100
0011
0100
,
1010
0000
0100
0001
1000
0100
0010
0001
,
0010
0100
1010
0001
,
1001
0000
0100
0010
1000
0010
0100
0001
,
0010
0100
1001
0010
,
0011
0000
0100
1000
0010
0010
0100
0001
,
0001
1000
0001
0000
0000
0000
1010
0000
,
0110
0011
0110
1010
,
0110
0000
0000
0000
0001
0000
1000
0000
0010
0000
0100
0010
0000
0000
1000
0000
,
0001
0000
1000
0100
0000
0000
1000
0000
0001
1000
0000
0100
0000
0000
0010
0000
,
0001
0000
0010
0001
0000
0000
1000
0000
0010
0000
0100
0010
0000
0000
0100
0000
,
0010
0000
1000
0010
0000
0000
0100
0000
0001
1000
0000
0001
0000
0000
0010
0000
,
0001
0000
0010
0001
0010
0000
1000
0000
0010
0000
0001
0000
1000
0000
0010
0000
,
0100
0010
1000
0001
0100
0001
1000
0100
,
0010
0001
0011
0000
0010
0100
0010
0001
,
1000
0001
1000
0100
0010
0001
1000
0001
,
0100
0000
0010
0000
1000
0000
0000
0010
0100
0000
0000
0010
0001
0000
0000
0010
,
0100
0000
0000
0010
1000
0000
0000
0010
0001
0000
0000
0010
0100
0000
0000
0010
,
0100
0000
0000
0010
0001
0000
0000
0010
1000
0000
0000
0010
0100
0000
0000
0010
,
0100
0000
0000
0010
1000
0000
0000
0010
0001
0000
0000
0010
1000
0000
0000
0010
,
0100
0000
0000
0001
1000
0000
0000
0001
0010
0000
0000
0001
1000
0000
0000
0001
,
0100
0000
0000
0001
0010
0000
0000
0001
0100
0000
0000
0001
1000
0000
0000
0001
,
1000
0000
0000
0001
0010
0000
0000
0001
0100
0000
0000
0001
0010
0000
0000
0001
,
1000
0000
0000
0001
0100
0000
0000
0001
1000
0000
0000
0001
0010
0000
0000
0001
,
0100
0000
0010
0000
1000
0000
0000
0100
1000
0000
0000
0100
0010
0000
0000
0100
,
1000
0000
0000
0100
0001
0000
0000
0100
1000
0000
0000
0100
1000
0000
0000
0100
,
0010
0000
0000
0100
0001
0000
0000
0100
0010
0000
0000
0100
0010
0000
0000
0100
,
1000
0000
0000
0100
0001
0000
0000
0100
1000
0000
0000
0100
1000
0000
0000
0100
,
1000
0000
0000
0100
1000
0000
0000
1000
0001
0000
0000
1000
0010
0000
0000
1000
,
0001
0000
0000
1000
0100
0000
0000
1000
0010
0000
0000
1000
0100
0000
0000
1000
,
0001
0000
0000
1000
0001
0000
0000
1000
0010
0000
0000
1000
0001
0000
0000
1000
,
0100
0000
0000
1000
0010
0000
0000
1000
0001
0000
0000
1000
0010
0000
0000
1000
,
0100
0000
0000
1000
0010
0000
0100
0000
0010
0000
1000
0000
0001
0000
0100
0000
,
0001
1000
0100
0010
0001
0010
0200
0000
,
1000
0000
0301
0000
0100
1000
0001
0100
,
0010
1000
0010
0100
0001
0100
0020
0000
,
1000
0000
0130
0000
0010
1000
0001
0100
,
0001
1000
0100
0010
0001
0010
0200
0000
,
1000
0000
0301
0000
0100
1000
0001
0100
,
0010
0110
1001
0110
,
1001
0000
1000
0000
0100
0000
0010
0001
,
0010
0000
0100
0000
1000
0000
0010
0100
,
0010
0000
1000
0000
0100
0000
0010
0001
,
0010
0000
0001
1000
0001
1000
0010
0100
,
0010
0000
0100
0000
0001
0000
0100
0010
,
1000
0000
0100
0000
0010
0000
0001
0100
,
0010
0000
0100
0000
0001
0000
1000
0010
,
1000
0000
0001
1000
0001
1000
0100
0010
,
0100
1001
0000
0000
;

//---------------dance-single - M. Simmons----------------
#NOTES:
     dance-single:
     M. Simmons:
     Medium:
     6:
     0.393,0.391,0.169,0.034,0.089,302.000,20.000,4.000,0.000,0.000,0.000:
0000
0000
0000
0000
,
0000
0000
0000
0000
,
0000
0000
0000
0000
,
0000
0000
0000
0000
,
1000
0000
0100
0000
0010
0000
0000
0001
0000
0000
0100
0000
0010
0000
0000
1000
,
0000
0000
0000
0000
0110
0000
0000
0000
1001
0000
0000
0000
0001
0000
0000
0001
,
0000
0000
1000
0000
0100
0000
0000
0010
0000
0000
0100
0000
1000
0000
0000
0001
,
0000
0000
1000
0000
0010
0000
0000
0100
0000
0000
0010
0000
0100
0000
0010
0000
,
0100
0010
1000
0001
,
0100
0001
1000
0100
,
0010
0100
0010
0000
0001
0000
1000
0000
,
0001
0100
0010
1000
,
0010
0100
0010
0000
0100
0000
0001
0000
,
1000
0100
0010
0001
,
0010
0100
0010
0000
0100
0000
1000
0000
,
0001
0000
0100
0000
0010
0000
0100
0010
,
0100
0010
0100
0000
0001
0000
1000
0000
,
1001
0100
0010
1000
,
0001
1000
0001
0000
0100
0000
0001
0000
,
1001
0100
0010
1000
,
0100
0010
0100
0000
0010
0000
0001
0000
,
0011
0010
0100
1000
,
0001
0100
0001
0000
1000
0000
0010
0000
,
1010
0000
0100
0000
0001
0000
1000
0001
,
1000
0001
2000
0000
0000
0000
0001
0000
,
0010
0001
0100
0010
,
0100
0000
0000
0000
3001
0000
0000
0000
1000
0000
0000
0010
0000
0000
0000
0000
,
0100
0000
0000
0001
0000
0000
0000
0000
1000
0000
0000
0001
0000
0000
0000
0000
,
1001
0000
0000
0000
1001
0000
0000
0000
0001
0000
0000
0010
0000
0000
0000
0000
,
0001
0000
0000
1000
0000
0000
0000
0000
0010
0000
0000
0100
0000
0000
0000
0000
,
1001
0000
0000
0000
1001
0000
0000
0000
1000
0000
0000
0100
0000
0000
0000
0000
,
0010
0000
0000
0001
0000
0000
0000
0000
1000
0000
0000
0001
0000
0000
0000
0000
,
1010
0000
0000
0000
1010
0000
0000
0000
0100
0000
0000
0001
0000
0000
0000
0000
,
1000
0000
0000
0100
0000
0000
0000
0000
0010
0000
0000
0100
0000
0000
0000
0000
,
0011
0000
0011
0001
0010
0001
0000
0001
,
1000
0001
0000
0100
0001
0100
0000
0010
,
2000
0000
3001
0001
1000
0001
0000
0100
,
0001
0100
0000
0010
0100
0010
0000
1000
,
0020
0000
0130
0100
0010
0100
0000
0001
,
1000
0100
0000
1000
0001
0100
0000
0010
,
2000
0000
3100
0100
0010
0001
0000
0010
,
0100
0010
0000
0001
1000
0001
0000
0001
,
1000
0011
0001
1000
,
0010
0000
0100
0000
0010
0000
1000
0100
,
0010
0001
0010
0000
0100
0000
1000
0000
,
0001
0000
0100
0000
0010
0000
1000
0010
,
0100
0010
1000
0000
0001
0000
0100
0000
,
0001
0000
1000
0000
0100
0000
0010
0001
,
0010
0001
0010
0000
0100
0000
1000
0000
,
0001
0000
1000
0100
1000
0000
0010
0100
,
0010
1000
0001
0100
,
0001
1000
0100
0010
,
0001
0000
0000
1000
0000
0000
0000
0000
0010
0000
0000
0000
0100
0000
0000
0000
,
0010
1000
0001
0100
,
0001
0000
0000
0010
0000
0000
0000
0000
0100
0000
0000
0000
1000
0000
0000
0000
,
0001
0100
0010
0100
,
0010
0000
0000
1000
0000
0000
0000
0000
0001
0000
0000
0000
0010
0000
0000
0000
,
0100
1001
0101
0110
,
1001
0000
0010
0000
0100
0000
1000
0001
,
1000
0000
0010
0000
0100
0000
0001
1000
,
0001
0000
0100
0000
0010
0000
1000
0010
,
1000
0000
0010
0100
0010
0100
0010
0100
,
0010
0000
1000
0000
0001
0000
0100
0001
,
0100
0000
0010
0000
1000
0000
0100
0010
,
0100
0000
0010
0000
0001
0000
1000
0001
,
1000
0000
0010
0100
0001
0100
0001
0100
,
0010
1001
0000
0000
;

//---------------dance-double - M. Simmons----------------
#NOTES:
     dance-double:
     M. Simmons:
     Challenge:
     9:
     0.623,0.586,0.236,0.067,0.459,481.000,28.000,8.000,0.000,0.000,0.000:
00000000
00000000
00000000
00000000
,
00000000
00000000
00000000
00000000
,
00000000
00000000
00000000
00000000
,
00000000
00000000
00000000
00000000
,
00000100
00000000
00000010
00000000
00001000
00000000
00000100
00000010
00000000
00000001
00001000
00000000
00000010
00000000
00000100
00000010
,
00000000
00000010
00010000
00001000
01000000
00000000
00010000
01000000
00000000
00100000
10000000
00000000
00010000
00000000
01000000
00010000
,
00000000
00000000
00100000
00000000
00001000
00000000
00010000
00000100
00000000
00001000
00000100
00000000
00000010
00000000
00000001
00001000
,
00000000
00000001
00000100
00000000
00000010
00000000
00010000
00000000
00001000
00000000
01000000
00000000
00100000
00000000
10000000
00000000
,
10000000
00000000
00000000
00000000
00000001
00000000
00000100
00000000
00000010
00000000
00001000
00000100
00000000
00001000
00000010
00000000
,
00000100
00000000
00000001
00001000
00000000
00000010
00010000
00000000
00001000
00000000
01000000
00010000
00000000
10000000
00010000
00000000
,
01000000
00000000
00010000
01000000
00000000
00000000
00000000
00001000
00010000
00000000
00010000
00000100
00000000
00000010
00000001
00000000
,
00001000
00000000
00000000
00000000
00000000
00000000
00000010
00000000
00000000
00010000
00000000
00000000
00000000
00000000
00000000
00000100
00000000
00000000
00010000
00000000
00000000
00000000
00000000
00000000
00001000
00000000
00000000
00000000
01000000
00000000
00000000
00000000
00000000
00010000
00000000
00000000
00000000
00000000
00000000
00000000
00000000
00000000
10000000
00000000
00000000
00000000
00000000
00000000
,
01000000
00000000
00100000
00010000
00000000
00000000
00100000
00000000
00001000
00000000
00010000
00000100
00000000
00000100
00000010
00000000
,
00000001
00000000
00001000
00000010
00000000
00000000
00000000
00000100
00000001
00000000
00001000
00000100
00000000
00000000
00010000
00000000
,
00001000
00000000
01000000
00001000
00000000
00000000
01000000
00000000
00100000
00000000
10000000
00010000
00000000
00010000
00100000
00000000
,
00001000
00000000
00010000
00001000
00000000
00001000
00000100
00000000
00000010
00000000
00001000
00000001
00000000
00000001
00000010
00000000
,
00000100
00000000
00001000
00000010
00000100
00000000
00000010
00000000
00000100
00000000
00000010
00001000
00000000
00000100
00001000
00000000
,
00000100
00000000
00010000
00001000
00000000
00001000
00100000
00000000
00010000
00000000
01000000
00100000
00000000
00100000
10000000
00000000
,
00010000
00000000
00000000
00000000
10000000
00000000
00000000
00000000
00000000
00010000
00000000
00000000
00000000
00000000
00000000
00000000
00000000
00000000
00100000
00000000
00000000
00000000
00000000
00000000
00001000
00000000
00000000
00000000
00000000
00000000
00010000
00000000
00000000
00001000
00000000
00000000
00000000
00000000
00000000
00001000
00000000
00000000
00010000
00000000
00000000
00000000
00000000
00000000
,
00000100
00000000
00000010
00000001
00000000
00000001
00000010
00000000
00000100
00000000
00001000
00000001
00000000
00000001
00000100
00000000
,
00000010
00000000
00001000
00000001
00000000
00000000
00000000
00001000
00000100
00000000
00000100
00010000
00000000
00000000
00001000
00000000
,
01000000
00000000
00100000
10000000
00000000
10000000
00100000
00000000
01000000
00000000
00010000
20000000
00000000
00000000
30010000
00000000
,
00100000
00000000
00001000
00010000
00000000
00000000
00010000
00000000
00000100
00000000
00001000
00000002
00000000
00000000
00000103
00000000
,
00000010
00000000
00001000
00000002
00000000
00000000
00001003
00000000
00000100
00000000
00010000
00002000
00000000
00000000
01003000
00000000
,
00100000
00000000
10000000
00100000
01000000
00000000
00000000
00000000
00000000
00010000
00000000
00000000
10010000
00000000
00000000
00000000
,
01100000
00101000
00110000
00101000
,
00100010
00000000
00000000
00000000
00001000
00000000
00010000
00000000
00001000
00000000
00100000
00010000
00000000
00000000
01000000
00000000
,
00010000
00000000
10000000
01000000
00000000
00000000
00100000
00000000
00010000
00100000
00000000
00001000
00000000
00000000
00010000
00000000
,
00010100
00000000
00000000
00000000
00001010
00000000
00001000
00000000
00000001
00000000
00000010
00000001
00000000
00000000
00001000
00000000
,
00000010
00000000
00010000
00001000
00000000
00000000
00100000
00000000
00010000
10000000
00000000
00010000
00000000
00000000
10000000
00000000
,
10100000
00000000
00000000
00000000
01010000
00000000
10000000
00000000
01000000
00000000
00100000
01000000
00000000
00000000
00100000
00000000
,
00010000
00000000
10000000
00010000
00000000
00000000
01000000
00000000
00010000
00000000
00100000
00001000
00000000
00000000
00010000
00000000
,
00010100
00000000
00000000
00000000
00010010
00000000
00001000
00000000
00000100
00000000
00010000
00000100
00000000
00000000
00000010
00000000
,
00000001
00000000
00001000
00000001
00000000
00000000
00000100
00000000
00000010
00000000
00001000
00000100
00000000
00000000
00010000
00000000
,
00002000
00000000
00013000
00001000
01000000
00100000
10000000
01000000
,
10000000
00010000
00100000
01000000
00100000
00001000
00010000
00000010
,
00000100
00000001
00001000
00000100
00010000
00000010
00000100
00000001
,
00001000
00000100
00010000
00001000
01000000
00100000
00010000
00100000
,
10000000
01000000
00100000
00001000
00010000
00000100
00010000
00001000
,
01000000
00100000
01000000
00001000
00010000
00000010
00000100
00000001
,
00000010
00001000
00010000
00000100
00010000
00001000
01000000
00100000
,
10000000
01000000
00100000
00020000
00000000
02030000
00000000
03200000
,
00000000
00000000
01300000
00000000
01000000
00000000
00100000
00000000
10000000
00000000
00010000
01000000
00000000
00000000
00010000
00000000
,
00100000
00000000
00001000
01000000
00000000
00000000
00010000
00000000
10000000
01000000
00000000
00100000
00000000
00000000
00010000
00000000
,
00110000
00000000
00000000
00000000
00101000
00000000
00010000
00000000
00000100
00000000
00001000
00000100
00000000
00000000
00001000
00000000
,
00000001
00000000
00000100
00000001
00000000
00000000
00001000
00000000
00000010
00001000
00000000
00000001
00000000
00000000
00000100
00000000
,
00010010
00000000
00000000
00000000
00011000
00000000
00001000
00000000
00100000
00000000
00001000
00010000
00000000
00000000
00010000
00000000
,
00000100
00000000
00010000
00001000
00000000
00000000
01000000
00000000
00100000
00000000
10000000
00010000
00000000
00000000
01000000
00000000
,
01010000
00000000
00010000
00000000
00110000
00000000
00100000
00000000
00001000
00000000
00100000
00001000
00000000
00000000
00010000
00000000
,
00001000
00000000
00010000
00001000
00000000
00000000
00010000
00000000
00000100
00010000
00000000
00000100
00000000
00000000
00010000
00000000
,
00010100
00000000
00000000
00000000
00001001
00000000
00000001
00000000
00000100
00000000
00000010
00010000
00000000
00000000
00001000
00000000
,
00100000
00000000
00010000
10000000
00000000
00000000
00010000
00000000
01000000
00001000
00000000
00010000
00000000
00000000
00001000
00000000
,
00101000
00000000
00100000
00000000
00110000
00000000
00010000
00000000
01000000
00000000
00010000
10000000
00000000
00000000
01000000
00000000
,
00100000
00000000
00010000
00100000
00000000
00000000
00001000
00000000
00010000
00000010
00000000
00001000
00000000
00000000
00000001
00000000
,
00001001
00000000
00001000
00000000
00001010
00000000
00000001
00000000
00001000
00000000
00000100
00010000
00000000
00000000
00001000
00000000
,
01000000
00000000
00100000
10000000
00000000
00000000
00010000
00000000
01000000
00000000
00010000
00100000
00000000
00000000
00100000
00000000
,
01000000
00000000
10000000
00010000
00000000
00000000
01000000
00000000
00010000
00000000
00100000
00001000
00000000
00000000
00010000
00000000
,
00001000
00000000
00010000
00000100
00010000
00000000
00000000
00000000
00011000
00000000
00000000
00000000
00101000
00000000
00000000
00000000
,
01001000
00000000
10000000
00000000
01000000
00000000
00010000
00001000
,
00000100
00000000
00000001
00000000
00001000
00000000
00000010
00000001
,
00000010
00000000
00010000
00000000
00001000
00000000
01000000
10000000
,
01000000
00000000
00010000
00010000
00010000
00010000
00100000
00100000
,
00100000
00000000
00001000
00000000
00010000
00000000
00000100
00000001
,
00000100
00000000
00010000
00000000
00001000
00000000
01000000
10000000
,
01000000
00000000
00010000
00000000
10000000
00000000
01000000
00100000
,
01000000
00000000
00010000
00001000
00010000
01000000
00010000
00001000
,
00000100
00001100
00000000
00000000
;

//---------------dance-double - M. Simmons----------------
#NOTES:
     dance-double:
     M. Simmons:
     Hard:
     8:
     0.529,0.447,0.253,0.101,0.232,397.000,30.000,12.000,0.000,0.000,0.000:
00000000
00000000
00000000
00000000
,
00000000
00000000
00000000
00000000
,
00000000
00000000
00000000
00000000
,
00000000
00000000
00000000
00000000
,
00001000
00000000
00010000
00000000
00001000
00000000
00000000
01000000
00000000
00000000
00001000
00000000
00010000
00000000
00000000
00000100
,
00000000
00000000
00000000
00010000
00001000
00000000
00001000
00010000
00000000
00000000
00001000
00000000
01000000
00000000
00001000
00000000
,
00010000
00000000
00000100
00000000
00001000
00000000
00000100
00010000
00000000
00000000
00001000
00000000
01000000
00000000
00010000
01000000
,
00000000
00000000
00100000
00000000
01000000
00000000
00001000
00010000
00000000
00000000
00000100
00000000
00000010
00000000
00000001
00000000
,
00001000
00000000
00000010
00000100
00000001
00000000
00001000
00000100
,
00010000
00000000
00001000
00100000
00010000
01000000
00010000
10000000
,
00010000
00000000
10000000
00010000
00000000
00000000
00000000
00000000
00100000
00000000
00001000
00000000
00010000
00000000
00000000
00000000
,
00000100
00000010
00000001
00000000
00001000
00000010
00000100
00000010
,
00001000
00000000
00000001
00000100
00000000
00000000
00000000
00000000
00000010
00000000
00010000
00000000
00001000
00000000
00000000
00000000
,
01000000
00100000
10000000
00000000
00010000
00100000
00001000
00010000
,
00001000
00000000
00010000
00000100
00000000
00000000
00000000
00000000
00000010
00000000
00000001
00000000
00001000
00000000
00000000
00000000
,
00000001
00000100
00000010
00000000
00010010
00000000
00011000
00000000
,
00010100
00000000
00000000
00000000
00100000
00000000
00001000
00000000
01000000
00000000
00100000
10000000
00000000
00000000
00010000
00000000
,
01000000
00000000
00001000
00010000
00000000
00000000
00000000
00000000
00000200
00000000
00000000
00000000
00000320
00000000
00000000
00000000
,
00000032
00000000
00000000
00000000
00001003
00000000
00000010
00000000
00010000
00000000
00001000
01000000
00000000
00000000
00010000
00000000
,
10000000
00000000
01000000
00010000
00000000
00000000
00000000
00000000
00002000
00000000
00000000
00000000
00003200
00000000
00000000
00000000
,
00000320
00000000
00000000
00000000
00001030
00000000
00000001
00000000
00000100
00000000
00000001
00001000
00000000
00000000
00000100
00000000
,
00010000
00000000
00001000
01000000
00000000
00000000
00000000
00000000
00200000
00000000
00000000
00000000
20300000
00000000
00000000
00000000
,
30020000
00000000
00000000
00000000
00130000
00000000
00001000
00000000
00010000
00000000
00000100
00000010
00000000
00000000
00000001
00000000
,
00001000
00000000
00000010
00000100
00000000
00000000
00000000
00000000
00000020
00000000
00000000
00000000
00020030
00000000
00000000
00000000
,
00032000
00000000
00000000
00000000
00103000
00000000
00000000
00000000
00000000
00010000
00000000
00000000
11000000
00000000
00000000
00000000
,
01100000
00110000
01100000
11000000
,
10010000
00000000
00000000
00000000
01000000
00000000
00001000
00000000
00010000
00000000
00000000
00001000
00000000
00000000
00010000
00000000
,
00000100
00000000
00000000
00000010
00000000
00000000
00000001
00000000
00001000
00000000
00000000
00000010
00000000
00000000
00000000
00000000
,
00001010
00000000
00000000
00000000
00001010
00000000
00000100
00000000
00000001
00000000
00000000
00001000
00000000
00000000
00000100
00000000
,
00010000
00000000
00000000
00001000
00000000
00000000
01000000
00000000
00100000
00000000
00000000
01000000
00000000
00000000
00000000
00000000
,
01010000
00000000
00000000
00000000
00101000
00000000
00001000
00000000
00010000
00000000
00000000
00000010
00000000
00000000
00000100
00000000
,
00000001
00000000
00000000
00000100
00000000
00000000
00000010
00000000
00010000
00000000
00000000
00001000
00000000
00000000
00000000
00000000
,
00011000
00000000
00000000
00000000
00011000
00000000
00001000
00000000
01000000
00000000
00000000
00100000
00000000
00000000
10000000
00000000
,
00010000
00000000
00000000
01000000
00000000
00000000
00010000
00000000
10000000
00000000
00000000
01000000
00000000
00000000
00100000
00000000
,
01100000
00000000
00000000
00000000
01000000
00000000
10000000
00000000
00010000
00000000
00000000
01000000
00000000
00000000
00001000
00000000
,
00010000
00000000
00000000
00000100
00000000
00000000
00000010
00000000
00000100
00000000
00000000
00001000
00000000
00000000
00000000
00000000
,
00001001
00000000
00000000
00000000
00001001
00000000
00000001
00000000
00000100
00000000
00000000
00000010
00000000
00000000
00010000
00000000
,
00001000
00000000
00000000
00010000
00000000
00000000
00000100
00000000
00010000
00000000
00000000
00001000
00000000
00000000
00000000
00000000
,
00101000
00000000
00000000
00000000
00011000
00000000
00001000
00000000
01000000
00000000
00000000
00100000
00000000
00000000
01000000
00000000
,
00100000
00000000
00000000
10000000
00000000
00000000
00010000
00000000
01000000
00000000
00000000
00010000
00000000
00000000
00000000
00000000
,
00110000
00000000
00000000
00000000
00110000
00000000
00100000
00000000
00001000
00000000
00000000
00010000
00000000
00000000
00000100
00000000
,
00000010
00000000
00000000
00000001
00000000
00000000
00001000
00000000
00000010
00000000
00000000
00000100
00000000
00000000
00000010
00000000
,
00001000
00000000
00001000
00000010
00000000
00000000
00010000
00000000
00001000
00000000
01000000
00000000
00100000
00000000
10000000
00000000
,
01000000
00010000
00001000
00000100
00000010
00001000
00000001
00000100
,
00000001
00001000
00000100
00010000
00001000
01000000
00100000
10000000
,
00010000
01000000
00010000
10000000
01000000
00100000
00001000
00010000
,
00000100
00000010
00000001
00001000
00000010
00001000
00000100
00010000
,
00001000
01000000
00100000
10000000
00010000
01000000
00010000
10000000
,
01000000
00100000
00010000
00100000
00001000
00010000
00000100
00000010
,
00000001
00000000
00001000
00000000
00000010
00000000
00000100
00000000
00000010
00001000
00000000
00000001
00000000
00000000
00000100
00000000
,
00000001
00000000
00001000
00000100
00000000
00000000
00010000
00000000
00001000
00000000
01000000
00000000
00100000
00000000
10000000
00000000
,
00010000
00000000
01000000
00000000
00010000
00000000
10000000
00000000
01000000
00100000
00000000
00010000
00000000
00000000
00100000
00000000
,
00001000
00000000
00010000
00000100
00000000
00000000
00001000
00000000
00000010
00000000
00000100
00000000
00000010
00000000
00001000
00000000
,
00000001
00000000
00000100
00000000
00000001
00000000
00001000
00000000
00000100
00010000
00000000
00001000
00000000
00000000
00100000
00000000
,
00010000
00000000
10000000
01000000
00000000
00000000
10000000
00000000
00010000
00000000
01000000
00000000
00010000
00000000
00100000
00000000
,
00001000
00000000
00010000
00000000
00000100
00000000
00000010
00000000
00000001
00000000
00001000
00000100
00000000
00000000
00001000
00000000
,
00000001
00000000
00000100
00000010
00000000
00000000
00001000
00000000
00000001
00000000
00000100
00000000
00000001
00000000
00001000
00000000
,
00000100
00010000
00001000
00000000
01010000
00000000
10000000
00000000
,
01000000
00000000
11000000
00000000
00110000
00000000
00100000
00001000
,
00010000
00000000
00000100
00000000
00000010
00000000
00000001
00001000
,
00000010
00000000
00000110
00000000
00001001
00000000
00000001
00000100
,
00000010
00000000
00010000
00001000
00010000
00001000
00010000
00001000
,
00010000
00000000
00000100
00000000
00010000
00000000
00001000
01000000
,
00100000
00000000
10100000
00000000
01010000
00000000
00010000
10000000
,
01000000
00000000
00100000
00000000
00001000
00000000
00010000
00000100
,
00000010
00000000
00001000
00000001
00001000
00000001
00001000
00000001
,
00001000
00010100
00000000
00000000
;

//---------------dance-double - M. Simmons----------------
#NOTES:
     dance-double:
     M. Simmons:
     Medium:
     5:
     0.408,0.447,0.228,0.135,0.072,296.000,27.000,16.000,0.000,0.000,0.000:
00000000
00000000
00000000
00000000
,
00000000
00000000
00000000
00000000
,
00000000
00000000
00000000
00000000
,
00000000
00000000
00000000
00000000
,
00001000
00010000
00000100
00001000
,
00000001
00000100
00000010
00010000
,
00001000
01000000
00100000
10000000
,
00010000
01000000
00010000
10000000
,
10010000
10000000
01000000
00100000
,
00001000
00000000
00010000
00000000
00000100
00000000
00000010
00000100
,
00000010
00000001
00001000
00000010
,
00000100
00000000
00000010
00000000
00010000
00000000
00001000
00010000
,
00001000
00000000
00000000
00000000
01000000
00000000
00010000
00000000
01000000
00000000
00000000
00010000
00000000
00000000
01000000
00000000
,
00010000
00000000
00000000
01000000
00000000
00000000
00000000
00000000
01010000
00000000
00000000
00000000
01001000
00000000
00000000
00000000
,
00011000
00000000
00010100
00000000
00010000
00000100
00010000
00000000
,
00000010
00000100
00000001
00001000
,
00000110
00001001
00000010
00010000
,
00001000
01000000
00010000
10000000
,
01000000
00100000
01000000
00000000
00100000
00000000
00010000
00000000
,
00100000
00001000
00010000
00000100
,
00001000
00000001
00001000
00000000
00000001
00000000
00001000
00000000
,
00000100
00010000
00001000
01000000
,
00100000
01000000
00100000
00000000
10000000
00000000
00010000
00000000
,
00100000
00001000
00010000
00000100
,
00010000
00001000
00010000
00000000
00000000
00000000
00011000
00000000
,
00011000
00011000
00011000
00011000
,
00011000
00000000
00000000
00000000
00001000
00000000
00000000
00000000
01000000
00000000
00000000
00100000
00000000
00000000
00000000
00000000
,
01000000
00000000
00000000
00010000
00000000
00000000
00000000
00000000
10000000
00000000
00000000
01000000
00000000
00000000
00000000
00000000
,
00100000
00000000
00000000
00001000
00000000
00000000
00000000
00000000
00010000
00000000
00000000
00000100
00000000
00000000
00000000
00000000
,
00001000
00000000
00000000
00000001
00000000
00000000
00000000
00000000
00001000
00000000
00000000
00000010
00000000
00000000
00000000
00000000
,
00000100
00000000
00000000
00000010
00000000
00000000
00000000
00000000
00010000
00000000
00000000
00000000
00001000
00000000
00000000
00000000
,
00100000
00010000
10000000
00100000
,
01100000
01100000
01000000
00010000
,
10000000
01000000
00100000
00010000
,
00110000
00000000
00100000
00001000
00020000
00001000
00030000
00000100
,
00002000
00000001
00003000
00000010
00000200
00000010
00000300
00000010
,
00020000
00001000
00030000
00001000
02000000
00100000
03000000
00100000
,
20000000
00010000
30000000
01000000
00200000
00010000
00300000
00001000
,
00020000
00000100
00030000
00000100
00020000
00001000
00030000
00001000
,
00200000
00010000
00300000
00010000
20000000
00010000
30000000
00100000
,
02000000
00100000
03000000
00010000
00200000
00001000
00300000
00001000
,
00020000
00000100
00030000
00000100
00000020
00000001
00000030
00000001
,
00000020
00000031
00000010
00000000
00000100
00000000
00010000
00000000
,
00001000
01000000
00100000
10000000
,
00010000
01000000
00010000
00100000
,
00001000
00010000
00000100
00001000
,
00000010
00000000
00000000
00000000
00000100
00000000
00000010
00000000
00001000
00000000
00000000
00000001
00000000
00000000
00001000
00000000
,
00000100
00000000
00000000
00010000
00000000
00000000
00001000
00000000
01000000
00000000
00000000
00100000
00000000
00000000
01000000
00000000
,
00100000
00000000
00000000
10000000
00000000
00000000
00010000
00000000
00100000
00000000
00000000
00001000
00000000
00000000
00010000
00000000
,
00001000
00000000
00000000
00010000
00000000
00000000
00000100
00000000
00000010
00000000
00000000
00000001
00000000
00000000
00000010
00000000
,
00000011
00000010
00000011
00000000
00000100
00000000
00001000
00000000
,
00000100
00010000
00001000
00100000
,
01100000
10010000
00010000
01000000
,
00010000
00100000
00001000
00010000
,
00011000
00011000
00010000
00000100
,
00001000
00000010
00000100
00000110
,
00000110
00001000
00000001
00000100
,
00000010
00010000
00001000
00011000
,
00110000
00000000
01000000
00000000
10000000
00000000
00010000
10000000
,
00010000
00000000
01000000
00000000
00001000
00000000
00010000
00001000
,
00010000
00000000
00000100
00000000
00001000
00000000
00000001
00001000
,
00000001
00000000
00001000
00000001
00001000
00000001
00001000
00000001
,
00001000
00000000
00000010
00000000
00010000
00000000
00001000
00010000
,
00001000
00000000
01000000
00000000
00010000
00000000
10000000
00010000
,
10000000
00000000
00100000
00000000
01000000
00000000
00001000
01000000
,
00001000
00000000
00010000
00001000
00010000
00001000
00010000
00001000
,
00010000
00011000
00000000
00000000
;

//---------------dance-double - M. Simmons----------------
#NOTES:
     dance-double:
     M. Simmons:
     Easy:
     2:
     0.204,0.335,0.067,0.067,0.000,153.000,8.000,8.000,0.000,0.000,0.000:
00000000
00000000
00000000
00000000
,
00000000
00000000
00000000
00000000
,
00000000
00000000
00000000
00000000
,
00000000
00000000
00000000
00000000
,
00110000
00000000
00010000
00000000
,
00100000
00000000
00001000
00000000
,
00010000
00000000
00000100
00000000
,
00000010
00000000
00000001
00001000
,
00000001
00001000
00000010
00000000
,
00001000
00000000
00000100
00000000
,
00010000
00001000
00001000
00000000
,
01000000
00000000
00100000
00000000
,
01000000
01000000
00010000
00000000
,
00100000
00000000
00001000
00000000
,
00010000
00010000
00000100
00000000
,
00000010
00000000
00000001
00000000
,
00001000
00001000
00000010
00000000
,
00001000
00000000
00000100
00000000
,
00010000
00010000
00001000
00000000
,
01000000
00000000
00100000
00000000
,
10000000
10000000
00010000
00000000
,
01000000
00000000
00010000
00000000
,
00100000
00100000
00001000
00000000
,
00010000
00000000
00001000
00000000
,
00010000
00010000
00000000
00000110
,
00000110
00000110
00000110
00000110
,
00000110
00000001
00000100
00000000
,
00000010
00000000
00010000
00000000
,
00001000
00000000
00100000
00000000
,
00010000
00000000
10000000
00000000
,
00010000
00000000
01000000
00000000
,
00001000
00000000
00010000
00000000
,
00000100
00000000
00000010
00000000
,
00000001
00000000
00001000
00000000
,
00000010
00000000
00010000
00000000
,
00001000
00000000
00100000
00000000
,
00010000
00000000
00100000
00000000
,
00001000
00000000
00010000
00000000
,
00000010
00000000
00000100
00000000
,
00000010
00000000
00001000
00000000
,
00000100
00000000
00010000
00000000
,
00001000
00000000
01000000
00000000
,
00100000
00000000
10000000
00000000
,
00010000
00000000
01000000
00000000
,
00010000
00000000
10000000
00000000
,
01000000
00000000
00100000
00000000
,
00001000
00000000
00010000
00000000
,
00001000
00000000
00010000
00000000
,
00000100
00000000
00000010
00000000
,
00000001
00000000
00001000
00000000
,
00000001
00000000
00000100
00000000
,
00000010
00000000
00001000
00000000
,
00000010
00000000
00000100
00000000
,
00000001
00000000
00001000
00000000
,
00000100
00000000
00010000
00000000
,
00001000
00000000
00100000
00000000
,
00010000
00000000
01000000
00000000
,
00010000
10000000
10000000
10000000
,
00010000
01000000
00010000
02000000
,
03010000
00100000
00001000
00020000
,
00030100
00001000
00000001
00000200
,
00000310
00002000
00000000
00000000
,
00003001
00000100
00000010
00020000
,
00031000
00100000
00010000
20000000
,
30010000
01000000
00100000
02000000
,
03010000
20000000
00000000
00000000
,
30010000
10010000
00000000
00000000
;
