#TITLE:Clouds From The East;
#SUBTITLE:;
#ARTIST:DJ Meas;
#TITLETRANSLIT:;
#SUBTITLETRANSLIT:;
#ARTISTTRANSLIT:;
#GENRE:Ethnic;
#CREDIT:Sync by HellRazoR;
#BANNER:Clouds From The East-bn.png;
#BACKGROUND:Clouds From The East-bg.png;
#LYRICSPATH:;
#CDTITLE:;
#MUSIC:Clouds From The East.ogg;
#OFFSET:-0.0665;
#SAMPLESTART:86.270;
#SAMPLELENGTH:12.980;
#SELECTABLE:YES;
#DISPLAYBPM:122.000:61.000;
#BPMS:0=122.5,144=61.250,146=122.5,150=61.250,152=122.5,156=61.250,158=122.5,162=61.250,166=122.5;
#STOPS:;
#BGCHANGES:0.000=Clouds From The East-bg.png=1.000=0=0=1=====,
16.000=In The Groove Rebirth/406_JB_HD.mpg=1.000=0=0=1===FadeLeft==,
32.000=In The Groove Rebirth/408_JB_HD.mpg=1.000=0=0=1===FadeDown==,
48.000=In The Groove Rebirth/520_JB_HD.mpg=1.000=0=0=1===FadeUp==,
64.000=In The Groove Rebirth/508_JB_HD.mpg=0.400=0=0=1=Checkerboard2File2x2=Clouds From The East-bg.png===,
80.000=In The Groove Rebirth/1133_JumpBack.mpg=1.000=0=0=1===SlideUp==,
96.000=In The Groove Rebirth/520_JB_HD.mpg=1.000=0=0=1=====,
112.000=In The Groove Rebirth/419_JB_HD.mpg=1.000=0=0=1=====,
128.000=In The Groove Rebirth/508_JB_HD.mpg=1.000=0=0=1===FadeUp==,
144.000=In The Groove Rebirth/1133_JumpBack.mpg=0.400=0=0=1=Checkerboard2File2x2=Clouds From The East-bg.png===,
146.000=In The Groove Rebirth/1133_JumpBack.mpg=0.400=0=0=1=Kaleidoscope2x2====,
150.000=Clouds From The East-bg.png=1.000=0=0=1=Checkerboard2File2x2=In The Groove Rebirth/1133_JumpBack.mpg===,
152.000=In The Groove Rebirth/1133_JumpBack.mpg=0.400=0=0=1=Kaleidoscope2x2====,
156.000=In The Groove Rebirth/514_JB_HD.mpg=0.400=0=0=1=Checkerboard2x2=Clouds From The East-bg.png===,
158.000=In The Groove Rebirth/514_JB_HD.mpg=0.400=0=0=1=Kaleidoscope2x2====,
162.000=Clouds From The East-bg.png=1.000=0=0=1=Checkerboard2File2x2=In The Groove Rebirth/514_JB_HD.mpg===,
164.000=Clouds From The East-bg.png=1.000=1=0=1===CrossFade==,
166.000=In The Groove Rebirth/406_JB_HD.mpg=1.000=0=0=1=====,
182.000=In The Groove Rebirth/408_JB_HD.mpg=1.000=0=0=1===FadeUp==,
198.000=In The Groove Rebirth/520_JB_HD.mpg=1.000=0=0=1=====,
214.000=In The Groove Rebirth/411_JB_HD.mpg=1.000=0=0=1===FadeDown==,
226.000=Clouds From The East-bg.png=1.000=1=0=1===CrossFade==,
99999=-nosongbg-=1.000=0=0=0 // don't automatically add -songbackground-
;
#BGCHANGES2:64.000=white flash=1.000=0=0=1=====,
112.000=white flash=1.000=0=0=1=====,
198.000=white flash=1.000=0=0=1=====,
;
#KEYSOUNDS:;

//---------------dance-single - MG edited by S. Venkat----------------
#NOTES:
     dance-single:
     MG edited by S. Venkat:
     Challenge:
     9:
     0.552,0.000,0.192,0.100,0.305:
0000
0000
0000
0000
,
0000
0000
0000
0000
,
0000
0000
0000
0000
,
0000
0000
0000
0000
,
0010
0000
1100
0000
0101
0000
1000
0100
,
0010
0001
0010
0100
1000
0000
0000
M010
,
010M
0000
0000
00M1
M100
0000
1000
0100
,
0010
0000
1001
0MM0
2002
0000
3003
0000
,
0010
0000
0101
0000
1100
0000
0001
0010
,
0100
0000
0010
0000
0001
1000
0001
0100
0010
0000
0000
0000
1000
0000
0100
0000
,
1000
0000
0000
0000
0010
0000
0000
0000
0100
0000
0001
0010
0001
0000
0100
0000
,
0010
0000
1001
0MM0
2002
0000
3003
0000
,
0100
0000
1010
0000
0011
0000
1000
0010
,
0100
0000
0010
0000
1000
0001
1000
0100
0010
0000
0000
0000
0001
0000
0100
0000
,
0001
0000
0010
0000
0100
0000
1000
0010
,
0100
1001
0110
1001
,
M1MM
0000
0010
1000
0001
0000
1100
0000
0010
0001
0010
0100
1000
0001
0100
0000
,
0010
0000
0100
0001
1000
0000
0011
0000
0100
1000
0100
0010
0001
1000
0010
0000
,
0100
0000
0001
1000
0010
0000
0101
0000
0010
1000
0001
1000
0100
0010
0001
0000
,
1100
0000
0001
0010
0100
1000
0100
0010
0001
0100
0010
1000
0010
0100
0001
1000
,
0100
0000
0000
0000
0010
0000
0100
0000
1000
0000
0000
0MM0
M00M
0000
0010
0000
,
0100
0000
0000
0000
0010
0000
0000
0000
1000
0000
0000
0000
0100
0010
0100
0000
1000
0000
0000
0000
0000
0000
0MM0
0000
M00M
0000
0000
0000
0010
0000
0000
0000
,
0100
0000
0000
0000
0100
0000
0001
0000
0010
0000
0000
0MM0
M00M
0000
0010
0000
,
0100
0000
0000
0000
0100
0000
1000
0000
0010
0000
0000
0100
M01M
0000
0000
0000
,
0110
0000
0000
0000
1000
0000
0100
0000
0001
0000
0000
0MM0
M00M
0000
0100
0000
,
1000
0000
0000
0000
0000
0000
0000
0000
0000
0000
0000
0000
0000
0000
0000
0000
0000
0000
0000
0000
0000
0000
0000
0000
0010
0000
0000
0000
0000
0000
0000
0000
0000
0000
0000
0000
0000
0000
0000
0000
0000
0000
0000
0000
0000
0000
0000
0000
0100
0000
0000
0000
0000
0000
0000
0000
0000
0000
0000
0000
0000
0000
0000
0000
0000
0000
0000
0000
0000
0000
0000
0000
0001
0000
0000
0000
0000
0000
0010
0000
0000
0000
0000
0000
0001
0000
0000
0000
0000
0000
0000
0000
0000
0000
0000
0000
0100
0000
0000
0000
0000
0000
0000
0000
0000
0000
0000
0000
0000
0000
0000
0000
0000
0000
0000
0000
0000
0000
0000
0000
0000
0000
0000
0000
0000
0000
0000
0000
0000
0000
0000
0000
0000
0000
0000
0000
0MM0
0000
0000
0000
0000
0000
0000
0000
M00M
0000
0000
0000
0000
0000
0000
0000
0000
0000
0000
0000
0000
0000
0000
0000
0000
0000
0000
0000
0000
0000
0000
0000
0010
0000
0000
0000
0000
0000
0000
0000
0000
0000
0000
0000
0000
0000
0000
0000
0000
0000
0000
0000
0000
0000
0000
0000
,
0100
0000
0001
0010
0100
0000
1000
0000
,
0020
0000
0000
0000
0100
0000
0000
0000
0130
0000
M00M
0000
0MM0
1000
0001
1000
,
0001
0010
0100
1000
0010
0100
0010
1000
,
0100
0000
0000
0000
0010
0000
0000
0000
0001
0000
0000
0000
1000
0100
1000
0000
0001
0000
0000
0000
0100
0000
0000
0000
0010
0000
0000
0000
0100
0000
0000
0000
,
0001
0010
0100
1000
0010
0100
0010
1000
,
0100
0010
0001
0100
0010
0100
0001
1000
,
0100
0010
0001
0100
1000
0100
0001
0010
,
0100
0000
0000
0000
1000
0000
0000
0000
0001
0000
0000
0000
0100
0010
0100
0000
0001
0000
0000
0000
1000
0000
0000
0000
0100
0000
0000
0000
1000
0000
0000
0000
,
0010
0100
0001
0010
0001
0100
0010
1000
,
0001
0010
1000
0010
0001
0100
0010
1000
,
0200
0000
0000
0010
0310
0000
1MM1
0000
0100
0000
0010
0000
1000
0000
0010
0000
,
0000
0100
0001
0000
0010
0000
0100
0000
0020
0000
0000
0100
0130
0000
1MM1
0000
,
0010
0000
0100
0000
0001
0000
0100
0000
0000
0010
1000
0000
0100
0000
0010
0000
,
0200
0000
0000
1000
0310
0000
1MM1
0000
0100
0000
0010
0000
0001
0000
0010
0000
,
0000
0100
1000
0000
0010
0000
0100
0000
0020
0000
0000
1000
0130
0000
1MM1
0000
,
2002
0010
0010
3003
0100
0010
0100
0001
,
1000
0100
1000
0000
0010
0000
0100
0000
0001
0000
1000
0000
0100
0000
0010
0000
,
0001
1000
0001
0000
0100
0000
0010
0000
1000
0100
1000
0100
1000
0000
0010
0000
,
0100
0001
0100
0001
0100
0000
0010
0000
1000
0000
0100
0000
0001
0000
0100
0000
,
1000
0001
1000
0000
0010
0100
0010
1000
,
0100
0010
0100
0000
1000
0000
0010
0000
0100
0000
0001
0000
1000
0000
0001
0000
,
0010
0100
0010
0000
0001
0000
0100
0000
0010
1000
0010
1000
0010
0000
0100
0000
,
0001
0010
0001
0010
0001
0000
0100
0000
0001
0000
0010
0000
1000
0000
0010
0000
,
0001
0000
0100
0000
0001
0000
0000
0000
1000
0100
0010
0000
0001
0010
0100
0000
,
1000
0000
0001
0000
1000
0000
0000
0000
0010
0000
0000
0000
0100
0000
0000
0000
0001
0000
0000
0000
1000
0000
0000
0000
0100
0010
0100
0000
1000
0000
0000
0000
,
0001
0000
0100
0010
0100
0000
0001
0000
0010
0000
0100
0000
0010
0000
0001
0000
,
0100
0000
0010
1000
0010
0000
0100
0000
0001
0000
1000
0000
0100
0000
0010
0000
,
0100
0000
1000
0000
0010
0000
0000
0000
1000
0010
0100
0000
0001
0100
0010
0000
,
1000
0000
0001
0000
1000
0000
0000
0000
0100
0000
0000
0000
0010
0000
0000
0000
0001
0000
0000
0000
1000
0000
0000
0000
0010
0100
0010
0000
1000
0000
0000
0000
,
0001
0000
0010
0100
0010
0000
0001
0000
0100
0000
0010
0000
0100
0000
0001
0000
,
1000
0000
0100
0010
0100
0000
1000
0000
0010
0000
M10M
0000
0010
0000
MM01
0000
,
0010
M10M
0010
1M0M
0020
0000
0000
0000
,
0030
0000
0000
0000
;

//---------------dance-single - MG----------------
#NOTES:
     dance-single:
     MG:
     Hard:
     7:
     0.452,0.000,0.100,0.234,0.071:
0000
0000
0000
0000
,
0000
0000
0000
0000
,
0000
0000
0000
0000
,
0000
0000
0000
0000
,
2000
0000
0100
0000
3100
0000
0001
0010
,
0100
1000
0100
0010
0001
0000
0000
0100
,
0100
0000
0000
0010
0010
0000
1000
0001
,
1000
0100
0100
0000
,
2000
0000
0001
0000
3001
0000
0100
0010
,
1000
0000
0001
0000
0100
0010
0100
0000
0001
0000
0000
0000
0010
0000
0100
0000
,
1000
0000
0000
0000
0001
0000
0000
0000
1000
0000
0010
0100
0010
0000
1000
0000
,
0001
0010
0010
0000
,
0002
0000
0010
0000
0013
0000
1000
0100
,
0010
0000
0001
0000
1000
0001
1000
0000
0010
0000
0000
0000
0100
0000
0100
0000
,
0100
0001
0010
0100
,
2000
0010
0010
3010
,
0110
1000
0001
0100
0010
0100
0001
1000
,
0110
0001
1000
0010
0100
0010
1000
0001
,
0110
1000
0001
1000
0010
0100
0010
1000
,
0001
0110
0000
1001
0000
1100
0000
1010
,
0002
0000
1003
0100
0020
0000
0000
0130
,
1000
0000
0001
0000
0100
0000
0001
1000
0002
0000
0000
0000
0000
0000
0010
0000
,
0013
0000
0001
1000
0200
0000
0000
1000
,
1300
0000
0010
0100
0002
0000
0003
0000
,
2000
0000
3100
0010
0002
0000
0000
0103
,
0010
0000
0100
0000
0001
0000
1000
0100
2000
0000
0000
0000
0000
0000
0010
0000
,
3010
0000
0100
0010
0200
0000
1000
0000
,
0302
0010
0010
MMM3
,
1000
0100
0010
0100
2000
0000
3010
0000
,
0100
0000
0001
0000
0010
0000
0100
0010
0200
0000
0000
0000
1300
0000
0000
0000
,
0010
0100
0001
0100
2000
0000
3100
0000
,
0010
1000
0010
0100
0002
0000
0013
0000
,
1000
0100
0010
0001
0020
0000
0130
0000
,
1000
0000
0001
0000
0100
0000
0010
1000
0020
0000
0000
0000
0130
0000
0000
0000
,
0001
0010
0100
1000
0100
0010
0001
0100
,
0010
1000
0100
0001
0100
1000
0010
0100
,
0002
0000
0000
1000
1003
0000
0110
0000
1000
0000
0100
0000
0010
0000
0001
0000
,
0000
1000
0001
0000
0010
0000
0100
0000
2000
0000
0000
0001
3001
0000
0110
0000
,
0001
0000
0010
0000
0100
0000
1000
0000
0000
0001
1000
0000
0100
0000
0010
0000
,
0002
0000
0000
1000
1003
0000
0110
0000
1000
0000
0010
0000
0100
0000
0001
0000
,
0000
1000
0001
0000
0100
0000
0010
0000
2000
0000
0000
0001
3001
0000
0100
0000
,
0200
0010
0020
0330
1000
0100
0001
0100
,
1000
0100
0001
0100
1000
0010
0100
0010
,
1000
0010
0100
0010
1000
0001
0100
0000
,
0010
1000
0100
0000
0010
0001
1000
0001
,
0100
0000
1001
0000
0010
0100
0001
0100
,
0010
0100
0001
0010
0100
1000
0001
0010
,
0100
0010
0001
1000
0010
0100
0001
0000
,
1000
0100
0010
0000
0100
1000
0001
1000
,
0100
0000
1001
0000
0100
0001
0010
0001
,
0100
0000
0000
0000
0010
0000
1000
0000
0100
0000
1000
0000
0010
0100
0010
0000
,
1000
0100
0010
0001
0100
0000
0010
0000
,
1000
0000
0001
0010
0001
0000
1000
0000
0200
0000
0000
0000
0010
0000
0000
0000
,
0310
0000
0000
0000
0001
0100
0001
0010
,
0100
0000
0000
0000
1000
0000
0010
0000
1000
0000
0001
0000
0100
0010
0100
0000
,
0001
0010
0100
1000
0010
0000
0100
0001
,
0100
0000
0010
1000
0100
0000
0010
0000
,
0100
1000
0020
0000
,
0030
0000
0000
0000
;

//---------------dance-single - MG----------------
#NOTES:
     dance-single:
     MG:
     Medium:
     6:
     0.349,0.000,0.058,0.075,0.017:
0000
0000
0000
0000
,
0000
0000
0000
0000
,
0000
0000
0000
0000
,
0000
0000
0000
0000
,
1000
0000
0010
0000
0100
0000
0001
0010
,
0001
0100
0001
1000
0001
0000
0000
1000
,
0100
0000
0000
0100
1000
0000
0010
0100
,
0010
1000
1000
0000
,
0001
0000
0010
0000
0100
0000
1000
0010
,
1000
0100
1000
0001
1000
0000
0010
0100
,
0001
0000
1000
0000
0100
0000
0010
0100
,
1000
0010
0010
0000
,
0100
0000
0001
0000
0100
0000
0010
1000
,
0010
0100
0010
1000
0010
0000
0100
0001
,
1000
0000
0100
0000
0010
0000
0001
1000
,
0001
0100
0100
0110
,
1000
0100
0000
1000
0000
0100
0000
1000
,
0001
1000
0000
0010
0000
0100
0000
0001
,
1000
0001
0000
0010
0000
0001
0000
0100
,
0010
0100
0000
0010
0000
0010
0000
0010
,
1001
0000
0100
0010
0100
0000
0000
0010
,
1000
0001
1000
0010
0100
0000
0000
0001
,
0010
0000
0100
1000
0010
0000
0000
0100
,
0001
0000
0010
0100
1000
0000
0000
0000
,
0001
0000
0100
0010
1000
0000
0000
0100
,
0010
0100
1000
0001
0100
0000
0000
0010
,
1000
0000
0010
0100
0001
0000
1000
0000
,
0200
0010
0310
MMMM
,
1000
0010
1000
0100
1000
0000
0001
0000
,
0100
0010
0100
0001
0100
0000
0010
0000
,
1000
0100
0010
0000
0001
0010
0100
0000
,
1000
0010
0100
0000
0001
0100
0010
0000
,
1000
0100
0010
0001
1000
0000
0010
0000
,
1000
0001
0010
0100
1000
0000
0001
0000
,
0100
0010
0100
0000
0001
0000
0010
0100
,
1000
0010
0100
0010
,
2000
0000
0000
0001
3001
0000
0100
0000
0010
0000
0000
0000
1000
0000
0000
0000
,
0010
0000
0100
0000
0001
0000
0000
0000
2000
0000
0000
0100
3100
0000
0010
0000
,
0100
0000
1000
0000
0100
0010
0001
0000
,
0200
0000
0000
0010
0310
0000
1000
0000
0001
0000
0010
0000
0100
0000
0000
0000
,
0010
0000
0001
0000
1000
0000
0000
0000
0200
0000
0000
0010
0310
0000
0100
0000
,
2002
0000
0000
3003
0010
0000
0100
0000
,
0001
0000
1000
0100
0010
0001
0010
0100
,
1000
0000
0000
0010
0100
0000
0000
0100
,
0010
0000
1000
0001
1000
0000
0100
0000
,
0100
0000
0010
0001
,
0100
0000
0010
1000
0010
0100
0001
0100
,
0010
0000
0000
1000
0100
0000
0000
0100
,
1000
0000
0010
0100
0010
0000
0100
0000
,
0100
0000
0001
0011
,
1100
0000
0010
0100
0010
1000
0010
0100
,
0010
0000
1000
0001
1000
0000
0010
0000
,
0100
0001
2000
0100
,
3100
0000
0010
0011
,
0101
0000
0010
1000
0010
0100
0010
1000
,
0001
0000
0010
0100
1000
0000
0010
0000
,
0100
0000
0001
1000
0001
0000
0010
0000
,
0100
1000
0020
0000
,
0030
0000
0000
0000
;

//---------------dance-single - MG----------------
#NOTES:
     dance-single:
     MG:
     Easy:
     4:
     0.243,0.000,0.075,0.092,0.000: // measure 1
0000
0000
0000
0000
,  // measure 2
0000
0000
0000
0000
,  // measure 3
0000
0000
0000
0000
,  // measure 4
0000
0000
0000
0000
,  // measure 5
0010
0100
0010
0000
,  // measure 6
1000
0000
0001
1000
0001
0000
0000
0000
,  // measure 7
0100
0100
0100
0000
,  // measure 8
0010
0010
0010
0000
,  // measure 9
0100
0010
0100
0000
,  // measure 10
0001
0000
1000
0001
1000
0000
0000
0000
,  // measure 11
0010
0010
0010
0000
,  // measure 12
0100
0100
0100
0000
,  // measure 13
0001
1000
0001
0000
,  // measure 14
0100
0000
0010
0100
0010
0000
0000
0000
,  // measure 15
1000
0100
0010
0001
,  // measure 16
1000
0000
1100
0011
,  // measure 17
1001
0000
0100
0000
,  // measure 18
0010
0000
0100
0000
,  // measure 19
1001
0000
0010
0000
,  // measure 20
0100
0000
0010
0000
,  // measure 21
1001
0010
0010
0000
,  // measure 22
1001
0100
0100
0000
,  // measure 23
0010
1000
0100
0000
,  // measure 24
0001
0010
0100
0000
,  // measure 25
0110
1000
1000
0000
,  // measure 26
0110
0001
0001
0000
,  // measure 27
1000
0100
0010
0001
,  // measure 28
0010
0100
1000
0000
,  // measure 29
0010
0000
0100
0010
0100
0000
0000
0000
,  // measure 30
0001
0000
1000
0001
1000
0000
0000
0000
,  // measure 31
0100
0000
0010
0100
0010
0000
0000
0000
,  // measure 32
1000
0000
0001
1000
0001
0000
0000
0000
,  // measure 33
0100
0000
0010
0100
0010
0000
0000
0000
,  // measure 34
1000
0000
0001
1000
0001
0000
0000
0000
,  // measure 35
0100
0001
1000
0001
,  // measure 36
0100
0010
0100
0000
,  // measure 37
0002
0000
2000
3003
0010
0000
1000
0000
,  // measure 38
0001
0000
0100
0000
0020
0000
0200
0330
,  // measure 39
0001
0010
0100
1000
,  // measure 40
0020
0000
2000
3030
0100
0000
0001
0000
,  // measure 41
1000
0000
0100
0000
0020
0000
0200
0330
,  // measure 42
2002
0000
0000
3003
0010
0000
0100
0000
,  // measure 43
0010
0000
1000
0000
0001
0000
1000
0001
,  // measure 44
1000
0000
0010
0010
,  // measure 45
0010
0000
0100
0100
,  // measure 46
0100
0000
0001
0010
,  // measure 47
0001
0000
1000
0000
0001
0000
1000
0100
,  // measure 48
1000
0000
0010
0010
,  // measure 49
0010
0000
0100
0100
,  // measure 50
0100
0000
0001
0010
,  // measure 51
0100
0000
1000
0000
0100
0000
0010
0001
,  // measure 52
0010
0000
0100
1000
,  // measure 53
0100
0000
0010
0001
,  // measure 54
0010
0000
0001
0100
,  // measure 55
0010
0000
1000
0000
0010
0000
0100
0001
,  // measure 56
0100
0000
0010
1000
,  // measure 57
0001
1000
0100
0010
,  // measure 58
0100
0100
0200
0000
,  // measure 59
0300
0000
0000
0000
;

//---------------dance-single - MG----------------
#NOTES:
     dance-single:
     MG:
     Beginner:
     1:
     0.113,0.000,0.109,0.000,0.000:
0000
0000
0000
0000
,
0000
0000
0000
0000
,
0000
0000
0000
0000
,
0000
0000
0000
0000
,
1000
0000
0000
0000
,
0001
0000
0000
0000
,
1001
0000
0000
0000
,
1001
0000
0000
0000
,
0010
0000
0000
0000
,
0100
0000
0000
0000
,
0110
0000
0000
0000
,
0110
0000
0000
0000
,
0001
0000
0000
0000
,
1000
0000
0000
0000
,
1001
0000
0000
0000
,
0110
0000
0000
0000
,
1000
0000
0000
0000
,
0001
0000
0000
0000
,
1000
0000
0000
0000
,
0001
0000
0000
0000
,
0100
0100
0100
0000
,
0000
0000
0000
0000
,
0010
0010
0010
0000
,
0000
0000
0000
0000
,
1000
1000
1000
0000
,
0000
0000
0000
0000
,
0001
0001
0001
0000
,
0000
0000
0000
0000
,
1001
0000
0001
0000
,
1000
0000
0001
0000
,
1001
0000
0000
0000
,
0110
0000
0000
0000
,
0110
0000
0100
0000
,
0010
0000
0100
0000
,
1001
0000
0001
0000
,
1000
0000
0001
0000
,
0100
0000
0010
0000
,
0000
0000
1000
0000
,
0001
0000
0000
0000
,
0100
0000
0010
0000
,
0000
0000
1000
0000
,
0001
0000
1000
0000
,
1000
0000
1000
0000
,
0001
0000
0001
0000
,
0000
0000
0110
0000
,
0000
0000
0100
0000
,
0100
0000
0010
0000
,
0010
0000
1000
0000
,
0000
0000
1001
0000
,
0000
0000
0010
0000
,
0100
0000
0010
0000
,
0010
0000
1000
1000
,
1000
0000
0001
0001
,
0001
0000
0010
0000
,
0100
0000
0010
0000
,
0100
0000
1000
1000
,
1000
0000
0001
0001
,
0001
0000
0000
0000
;

//---------------dance-double - M. Simmons----------------
#NOTES:
     dance-double:
     M. Simmons:
     Challenge:
     9:
     0.477,0.000,0.184,0.409,0.092:
00000000
00000000
00000000
00000000
,
00000000
00000000
00000000
00000000
,
00000000
00000000
00000000
00000000
,
00000000
00000000
00000000
00000000
,
00000001
00000000
00001000
00000000
00000010
00000000
00000010
00010000
,
00001000
00100000
00001000
00010000
00000010
00000000
00000100
00000200
,
00000301
00000000
00010000
00002000
00013000
00000000
00001000
02000000
,
00100000
00100000
03100000
0MM00000
,
00010000
00000000
01000000
00000000
00100000
00000000
01000000
00010000
,
00100000
00010000
00000100
00000010
00000100
00000000
00000010
00000200
,
00000310
00000000
00010000
00002000
00013000
00000000
00001000
00200000
,
00010000
00010000
00310000
00MM0000
,
01000000
00000000
00010000
00000000
00100000
00000000
00010000
01000000
,
00001000
00010000
00001000
00100000
00010000
00000000
01000000
00020000
,
01030000
00000000
00001000
00020000
00031000
00000000
00000100
00000020
,
00000100
00000100
00000130
00000MM0
,
00000001
00010000
00001000
10000000
00010000
10000000
00001000
00010000
,
00000001
00001000
00000010
00000100
00000001
00001000
00000100
00001000
,
00100000
01000000
00100000
00010000
00100000
01000000
00010000
00010000
,
00000100
00000200
00000000
00000320
00000000
00020030
00000000
00032000
,
01000000
00003000
0M001000
00010000
00001000
00000000
00M0MM00
00010000
,
00000100
00000000
00000000
00000000
00000010
00000000
00000000
00000000
00000001
00000000
00000000
00000000
00000100
00000010
00000100
00000000
00000001
00000000
00000000
00000000
00000000
00000000
00000000
00000000
00000000
00000000
00000000
00000000
00010000
00000000
00000000
00000000
,
00002000
00000000
00100000
00100000
01003000
00000000
00000000
00001000
,
00020000
00000000
01000000
01000000
00031000
00000000
00MM0M00
00000000
,
00011000
00000000
00010000
00000100
00001000
00000000
00000000
00001000
,
00000001
00000000
00000000
00000000
00000010
00000000
00000000
00000000
00000100
00000000
00000000
00000000
00010000
00001000
00010000
00000000
00001000
00000000
00000000
00000000
00000000
00000000
00000000
00000000
00000000
00000000
00000000
00000000
00010000
00000000
00000000
00000000
,
02000000
00000000
00100000
00100000
13000000
00000000
10100000
00000000
,
01001000
00000000
00000000
00000000
M0M0M0M0
00000000
00000000
00000000
0M0M0M0M
00000000
00000000
00000000
00000000
00001000
01000000
00001000
,
00010000
00000000
00001000
00010000
00000100
00001000
00001100
00000010
,
00000001
00000000
00000000
00000000
00000100
00000000
00000000
00000000
00000010
00000000
00000000
00000000
00001000
00000001
00001000
00000000
00000001
00000000
00000000
00000000
00000010
00000000
00000000
00000000
00000110
00000000
00000000
00000000
00000100
00000000
00000000
00000000
,
00020000
00000000
00001000
00001000
00030010
00000000
00000000
00000010
,
00002000
00000000
00000100
00000100
00003001
00000000
00000000
00000000
,
00011000
00000000
00001000
00010000
00100000
00010000
00110000
00010000
,
00100000
00000000
00000000
00000000
10000000
00000000
00000000
00000000
00100000
00000000
00000000
00000000
10000000
00100000
10000000
00000000
00100000
00000000
00000000
00000000
10000000
00000000
00000000
00000000
10100000
00000000
00000000
00000000
10000000
00000000
00000000
00000000
,
00002000
00000000
00010000
00010000
00100000
00000000
01000000
00000000
,
10003000
10000000
01000000
00100000
,
00002000
00000000
00000000
00000100
00003100
00000000
00000100
00000000
00001000
00000000
00010000
00000000
00001000
00000000
00100000
00000000
,
00000000
10000000
00100000
00000000
00110000
00000000
01000000
00000000
00200000
00000000
00000000
01000000
01300000
00000000
00100000
00000000
,
01000000
00000000
00001000
00000000
00000100
00000000
00001000
00000000
00000000
00000100
00000001
00000000
00000010
00000000
00000100
00000000
,
00000020
00000000
00000000
00000001
00000001
00000000
00000031
00000000
00000010
00000000
00001000
00000000
00010000
00000000
00100000
00000000
,
00000000
10000000
00100000
00000000
01000000
00000000
00010000
00000000
00020000
00000000
00000000
10000000
10000000
00000000
00001000
00000000
,
00002000
00000000
00000000
00033000
00020000
00000000
02030000
00000000
,
03002000
00000000
00013000
00000100
00000010
00000001
00010000
00001000
,
00100000
00010000
00101000
00020000
00130000
01000000
10100000
02000000
,
03001000
00010000
00000011
00000001
00002000
00000000
00003200
00000000
,
00000302
00000003
00000200
00020300
,
00032000
00000000
01003000
00100000
10000000
00010000
01000000
00001000
,
00010000
00000100
00001100
00002000
00003100
00000001
00001100
00000100
,
00000001
00000100
00000011
00001000
00000020
00000000
00020030
00000000
,
00030200
00000300
00011000
00002000
,
00023000
00000000
00000000
00000000
00000000
00000000
00000000
00000000
00030100
00000000
00000000
00000000
00000010
00000000
00000000
00000000
00000001
00000000
00000000
00000000
00001000
00000000
00000000
00000000
00000010
00000100
00000010
00000000
00001000
00000000
00000000
00000000
,
00000100
00000000
00010000
01000000
00100000
00000000
00010000
00000000
,
01000000
00000000
00010000
00100000
00001000
00000000
00010000
00000000
00002000
00000000
00000000
00000000
00203000
00000000
00000000
00000000
,
00302000
00003000
00110000
00011000
,
00001100
00000000
00000000
00000000
00000000
00000000
00000000
00000000
00000010
00000000
00000000
00000000
00000001
00000000
00000000
00000000
00000100
00000000
00000000
00000000
00000010
00000000
00000000
00000000
00010000
00001000
00010000
00000000
00001000
00000000
00000000
00000000
,
00010000
00001000
00110000
00002000
01003000
00100000
00110000
02000000
,
13000000
00010000
00101000
00001000
00020000
0000M000
00030020
00000000
,
000M0032
00000010
00000013
00000000
000000MM
00000000
00000000
00000000
;

//---------------dance-double - MG----------------
#NOTES:
     dance-double:
     MG:
     Hard:
     7:
     0.452,0.000,0.175,0.192,0.050:
00000000
00000000
00000000
00000000
,
00000000
00000000
00000000
00000000
,
00000000
00000000
00000000
00000000
,
00000000
00000000
00000000
00000000
,
00002000
00000000
00010000
00000000
00013000
00000000
00100000
00001000
,
00010000
00000100
00010000
00001000
00100000
00000000
00000000
01000000
,
10000000
00000000
00000000
00100000
01000000
00000000
00001000
00010000
,
00001000
00010000
00022000
00033000
,
00020000
00000000
00001000
00000000
00031000
00000000
00000100
00010000
,
00001000
00000000
00100000
00000000
00001000
00010000
00001000
00000000
01000000
00000000
00000000
00000000
00010000
00000000
00100000
00000000
,
01000000
00000000
00000000
00000000
00100000
00000000
00000000
00000000
00001000
00000000
01000000
00100000
01000000
00000000
00001000
00000000
,
00100000
00001000
00022000
00033000
,
00002000
00000000
00010000
00000000
00013000
00000000
00000100
00010000
,
00000010
00000000
00001000
00000000
00000100
00010000
00000100
00000000
00001000
00000000
00000000
00000000
00000001
00000000
00000100
00000000
,
00000010
00010000
00000100
00010000
,
00200000
10000000
00010000
01300000
,
00001000
00010000
00001000
00000010
00001000
00000000
00011000
00000000
,
00001000
00000100
00001000
00100000
00001000
00000000
00011000
00000000
,
00010000
00000100
00010000
00100000
00010000
00000000
00011000
00000000
,
00001000
00010000
00001000
00000100
00001000
00010000
01000000
00010000
,
00002000
00000000
01003000
00100000
00020000
00000000
00000000
00130000
,
01000000
00000000
00001000
00000000
00010000
00000000
00000100
00001000
00000200
00000000
00000000
00000000
00000000
00000000
00000010
00000000
,
00000320
00000000
00000031
00000100
00000101
00000000
00000000
00011000
,
00011000
00000000
10000000
00010000
01010000
00000000
00000000
00000000
,
02000000
00000000
03001000
00000100
00000020
00000000
00000000
00001030
,
00000100
00000000
00001000
00000000
00000010
00000000
00010000
00001000
00020000
00000000
00000000
00000000
00000000
00000000
00031000
00000000
,
00002000
00000000
01003000
00100000
01100000
00000000
00011000
00000000
,
00000120
00000001
00001000
00000031
,
00000100
00001000
00010000
00001000
00000100
00000000
00000010
00000000
,
00010000
00001000
00000100
00001000
00010000
00000000
00100000
00000000
,
10000000
01000000
00010000
01000000
10000000
00000000
00100000
00000000
,
01000000
10000000
01000000
00100000
01000000
00000000
01100000
00000000
,
00100000
00010000
00001000
00010000
00100000
00000000
01000000
00000000
,
00001000
00010000
00100000
00010000
00001000
00000000
00000010
00000000
,
00000001
00000100
00001000
00000100
00000001
00000000
00000010
00000000
,
00000100
00001000
00000010
00001000
,
00000002
00000000
00000000
00000100
00000103
00000000
00000101
00000000
00000010
00000000
00010000
00000000
00001000
00000000
01000000
00000000
,
00000000
00001000
00100000
00000000
00010000
00000000
10000000
00000000
00020000
00000000
00000000
01000000
01030000
00000000
01010000
00000000
,
00100000
00000000
00001000
00000000
00010000
00000000
00000100
00000000
00000000
00010000
00000010
00000000
00001000
00000000
00000001
00000000
,
00002000
00000000
00000000
00000010
00003010
00000000
00001010
00000000
00000100
00000000
00000001
00000000
00000100
00000000
00001000
00000000
,
00000000
00010000
00001000
00000000
01000000
00000000
00010000
00000000
20000000
00000000
00000000
01000000
31000000
00000000
11000000
00000000
,
00210000
00001000
00000100
00000000
00310000
01000000
10000000
01000000
,
00010000
01000000
10000000
01000000
00010000
00100000
00001000
00100000
,
00010000
00100000
00001000
00100000
01000000
00010000
00001000
00000000
,
00001000
00000100
00000001
00000000
00000010
00000001
00001000
00000001
,
00000100
00000000
00000011
00000000
00001000
00000100
00000001
00000100
,
00001000
00000100
00000001
00000100
00010000
00000010
00010000
00001000
,
00010000
00000010
00010000
00001000
00010000
00100000
10000000
00000000
,
01000000
00100000
00010000
00000000
01000000
00001000
01000000
00010000
,
01000000
00000000
00110000
00000000
00010000
01000000
10000000
01000000
,
00100000
01000000
00010000
00100000
00001000
00010000
00000100
00010000
,
00000010
00001000
00000100
00001000
00000001
00000100
00001000
00000000
,
00000100
00000001
00000010
00000000
00000100
00000010
00000001
00000010
,
00000100
00000000
00001001
00000000
00000010
00010000
00000100
00010000
,
00000010
00010000
00001000
01000000
00100000
00010000
00100000
01000000
,
00001000
01000000
00100000
00010000
00001000
00000100
00000010
00000000
,
00001000
00000100
00000001
00000000
00000100
00001000
00000100
00000010
,
00000001
00000100
00000010
00001000
00000200
00000000
00000000
00000000
,
00000300
00000000
00000000
00000000
;

//---------------dance-double - MG----------------
#NOTES:
     dance-double:
     MG:
     Medium:
     6:
     0.348,0.000,0.175,0.092,0.017: // measure 1
00000000
00000000
00000000
00000000
,  // measure 2
00000000
00000000
00000000
00000000
,  // measure 3
00000000
00000000
00000000
00000000
,  // measure 4
00000000
00000000
00000000
00000000
,  // measure 5
00001000
00000000
00010000
00000000
00001000
00000000
00100000
00001000
,  // measure 6
00010000
00000000
00001000
00010000
00000100
00000000
00000000
00001000
,  // measure 7
00000001
00000000
00000000
00000001
00001000
00000000
00000010
00000100
,  // measure 8
00000010
00001000
00001001
00000000
,  // measure 9
00010000
00000000
00001000
00000000
00010000
00000000
00000100
00010000
,  // measure 10
00001000
00000000
00010000
00001000
00100000
00000000
01000000
10000000
,  // measure 11
01000000
00000000
00100000
00000000
00010000
01000000
00010000
00000000
,  // measure 12
00100000
00100000
00101000
00000000
,  // measure 13
00010000
00000000
00000100
00000000
00010000
00000000
00000010
00001000
,  // measure 14
00000001
00000000
00000100
00000010
00000100
00000000
00000001
00000010
,  // measure 15
00000100
00001000
00000010
00010000
,  // measure 16
00001000
00100000
00001000
00010000
,  // measure 17
MM0110MM
00000000
110MM000
00000000
,  // measure 18
MM0110MM
00000000
000MM011
00000000
,  // measure 19
MM0110MM
00000000
110MM000
00000000
,  // measure 20
MM0110MM
000MM000
MM0220MM
00033000
,  // measure 21
00001000
00000000
01000000
00100000
10000000
00000000
00000000
10000000
,  // measure 22
01000000
00100000
00010000
00100000
00001000
00000000
00000000
00010000
,  // measure 23
00000010
00000000
00000100
00000001
00000100
00000000
00000000
00000010
,  // measure 24
00001000
00000000
00000100
00010000
00000100
00000000
00000000
00000000
,  // measure 25
00001000
00000000
00000010
00000100
00000001
00000000
00000000
00000010
,  // measure 26
00000100
00000010
00000001
00001000
00000100
00000000
00000000
00010000
,  // measure 27
00000010
00000000
00010000
00001000
00010000
00000000
00001000
00000000
,  // measure 28
02000000
00100000
03100000
00000000
,  // measure 29
10000000
01000000
10000000
01000000
00100000
00000000
00000000
00000000
,  // measure 30
00001000
01000000
00001000
01000000
00100000
00000000
00000000
00000000
,  // measure 31
10000000
01000000
00100000
00000000
00100000
01000000
10000000
00000000
,  // measure 32
00100000
01000000
00001000
00000000
00001000
01000000
00100000
00000000
,  // measure 33
10000000
01000000
00100000
00010000
00100000
00000000
00001000
00000000
,  // measure 34
00010000
00000100
00001000
00000100
00000010
00000000
00000001
00000000
,  // measure 35
00000100
00000010
00001000
00000000
00000010
00000100
00000001
00000000
,  // measure 36
00001000
00000000
00000100
00000000
00010000
00001000
00010000
00000000
,  // measure 37
00002000
00000000
00000000
00010000
00013000
00000000
00011000
00000000
01000000
00000000
00000000
00000000
00100000
00000000
00000000
00000000
,  // measure 38
10000000
00000000
01000000
00000000
00010000
00000000
00000000
00000000
00020000
00000000
00000000
00001000
00031000
00000000
00011000
00000000
,  // measure 39
00000100
00000000
00000010
00000000
00000001
00000100
00001000
00000000
,  // measure 40
00002000
00000000
00000000
00010000
00013000
00000000
00011000
00000000
00100000
00000000
00000000
00000000
01000000
00000000
00000000
00000000
,  // measure 41
10000000
00000000
00100000
00000000
00010000
00000000
00000000
00000000
00020000
00000000
00000000
00001000
00031000
00000000
00011000
00000000
,  // measure 42
00022000
00000000
00000000
00033000
00010000
00000000
00000010
00000000
,  // measure 43
00010000
00000000
00000100
00001000
00000100
00000010
00000100
00001000
,  // measure 44
00000100
00000000
00000000
00000010
00000001
00000000
00000000
00000001
,  // measure 45
00000100
00000000
00000010
00001000
00000010
00000000
00010000
00000000
,  // measure 46
00011000
00000000
00001000
01000000
,  // measure 47
00001000
00000000
00100000
00010000
00100000
01000000
00100000
00010000
,  // measure 48
00100000
00000000
00000000
01000000
10000000
00000000
00000000
10000000
,  // measure 49
00100000
00000000
01000000
00010000
01000000
00000000
00001000
00000000
,  // measure 50
00001000
00000000
00010000
00011000
,  // measure 51
00110000
00000000
01000000
10000000
01000000
00100000
00010000
00100000
,  // measure 52
01000000
00000000
00100000
01000000
00100000
00000000
00100000
00000000
,  // measure 53
00001000
00000000
00010000
00000100
00010000
00000000
00000010
00000000
,  // measure 54
00000010
00000000
00000100
00000101
,  // measure 55
00001010
00000000
00000100
00000001
00000100
00000010
00010000
00001000
,  // measure 56
00010000
00000000
00000100
00010000
00000100
00000000
00010000
00000000
,  // measure 57
00001000
00000000
01000000
00100000
01000000
00000000
00001000
00000000
,  // measure 58
00010000
00100000
20020000
00000000
,  // measure 59
30030000
00000000
00000000
00000000
;

//---------------dance-double - MG----------------
#NOTES:
     dance-double:
     MG:
     Easy:
     3:
     0.236,0.000,0.209,0.025,0.000: // measure 1
00000000
00000000
00000000
00000000
,  // measure 2
00000000
00000000
00000000
00000000
,  // measure 3
00000000
00000000
00000000
00000000
,  // measure 4
00000000
00000000
00000000
00000000
,  // measure 5
00010000
01000000
00010000
00000000
,  // measure 6
00100000
00001000
00100000
00000000
,  // measure 7
00110000
00000000
11000000
00000000
,  // measure 8
00010000
01000000
01000000
00000000
,  // measure 9
00001000
01000000
00001000
00000000
,  // measure 10
00010000
00000010
00010000
00000000
,  // measure 11
00001100
00000000
00000011
00000000
,  // measure 12
00000001
00000001
00000100
00000000
,  // measure 13
00000010
00010000
00000010
00000000
,  // measure 14
00001000
00000100
00001000
00000000
,  // measure 15
00000110
00000000
00011000
00000000
,  // measure 16
02200000
00000000
03300000
00000000
,  // measure 17
10000000
00000000
11000000
00000000
,  // measure 18
00100000
00000000
00110000
00000000
,  // measure 19
00001000
00000000
00001100
00000000
,  // measure 20
00000010
00000000
00000011
00000000
,  // measure 21
00000100
00000010
00001000
00000000
,  // measure 22
00000100
00010000
00000100
00000000
00001000
00000000
00000000
00000000
,  // measure 23
00000010
00000100
00000010
00000000
,  // measure 24
00010000
00000000
00001000
00010000
00001000
00000000
00000000
00000000
,  // measure 25
00100000
01000000
00100000
00000000
,  // measure 26
00010000
01000000
00010000
00000000
00100000
00000000
00000000
00000000
,  // measure 27
00001000
01000000
00001000
00100000
,  // measure 28
00010000
00000000
01010000
00000000
,  // measure 29
00100000
10000000
00100000
01000000
,  // measure 30
00001000
00010000
00001000
00000000
00000100
00000000
00000000
00000000
,  // measure 31
00000001
00000010
00000100
00010000
,  // measure 32
00001000
00010000
00001000
00000000
00100000
00000000
00000000
00000000
,  // measure 33
01000000
10000000
00100000
01000000
,  // measure 34
00001000
00010000
00001000
00000000
00000010
00000000
00000000
00000000
,  // measure 35
00000001
00000100
00001000
00010000
,  // measure 36
00100000
10000000
01000000
00000000
,  // measure 37
10010000
00000000
01000000
01000000
01000000
00000000
00000000
00000000
,  // measure 38
01100000
00000000
00000000
00000000
00011000
00000000
00001000
00001000
,  // measure 39
00001000
00000000
00000110
00000000
,  // measure 40
00001001
00000000
00000100
00000100
00000100
00000000
00000000
00000000
,  // measure 41
00001001
00000000
00000000
00000000
00011000
00000000
00001000
00001000
,  // measure 42
00001000
00011000
10000000
00100000
,  // measure 43
01000000
00010000
00100000
00100000
,  // measure 44
00100000
00000000
00101000
00000000
,  // measure 45
10100000
00000000
00100000
00100000
,  // measure 46
00100000
00000000
01000000
00001000
,  // measure 47
01000000
00010000
00100000
00001000
,  // measure 48
00010000
00000000
00001100
00000000
,  // measure 49
00000011
00000000
00001001
00000100
,  // measure 50
00000100
00000000
00000010
00010000
,  // measure 51
00000010
00000100
00000001
00000010
,  // measure 52
00000100
00000000
00010000
00000010
,  // measure 53
00010000
00000000
00001000
01000000
,  // measure 54
00001000
00000000
00100000
01000000
,  // measure 55
10000000
00010000
01000000
00100000
,  // measure 56
01000000
00000000
00001000
00100000
,  // measure 57
00001000
00010000
00000010
00010000
,  // measure 58
00001000
01000000
00200000
00000000
,  // measure 59
00300000
00000000
00000000
00000000
;
