#TITLE:Cloud Nine and a Half;
#SUBTITLE:;
#ARTIST:Sanxion7;
#TITLETRANSLIT:;
#SUBTITLETRANSLIT:;
#ARTISTTRANSLIT:;
#GENRE:Techno;
#CREDIT:Sync by HellRazoR;
#BANNER:Cloud Nine and a Half-bn.png;
#BACKGROUND:Cloud Nine and a Half-bg.png;
#LYRICSPATH:;
#CDTITLE:;
#MUSIC:Cloud Nine and a Half.ogg;
#OFFSET:-2.058;
#SAMPLESTART:66.580;
#SAMPLELENGTH:11.960;
#SELECTABLE:YES;
#DISPLAYBPM:36.000:142.000;
#BPMS:0.000=35.500,20.000=71.000,36.000=142.000,220.000=71.000;
#STOPS:;
#BGCHANGES:0.000=Cloud Nine and a Half-bg.png=0.500=0=0=1=====,
2.125=Cloud Nine and a Half-bg.png=0.700=1=0=1===CrossFade=1^0^0^1=,
3.125=Cloud Nine and a Half-bg.png=1.000=1=0=1===CrossFade=0^0^1^1=,
4.000=In The Groove Rebirth/163_JB_HD.mpg=1.000=0=0=1=====,
12.000=In The Groove Rebirth/175_JB_HD.mpg=1.000=1=0=1===CrossFade==,
20.000=In The Groove Rebirth/164_JB_HD.mpg=1.000=0=0=1=====,
36.000=In The Groove Rebirth/215_JB_HD.mpg=1.000=0=0=1=====,
52.000=In The Groove Rebirth/174_JB_HD.mpg=1.000=0=0=1=====,
68.000=In The Groove Rebirth/218_JB_HD.mpg=1.000=0=0=1=====,
84.000=In The Groove Rebirth/308_JB_HD.mpg=1.000=0=0=1===FadeLeft==,
100.000=In The Groove Rebirth/503_JB_HD.mpg=1.000=0=0=1=====,
116.000=In The Groove Rebirth/175_JB_HD.mpg=1.000=0=0=1=====,
132.000=In The Groove Rebirth/161_JB_HD.mpg=1.000=0=0=1=====,
148.000=In The Groove Rebirth/257_JB_HD.mpg=1.000=0=0=1===FadeRight==,
164.000=In The Groove Rebirth/215_JB_HD.mpg=1.000=0=0=1=====,
180.000=In The Groove Rebirth/174_JB_HD.mpg=1.000=0=0=1=====,
196.000=In The Groove Rebirth/218_JB_HD.mpg=1.000=0=0=1=====,
220.000=Cloud Nine and a Half-bg.png=1.000=0=0=1=====,
99999=-nosongbg-=1.000=0=0=0 // don't automatically add -songbackground-
;
#BGCHANGES2:4.000=white flash=1.000=0=0=1=====,
20.000=flash=1.000=0=0=1====1^0^1^1=,
68.000=yellow flash=1.000=0=0=1=====,
132.000=flash=1.000=0=0=1====0^1^1^1=,
196.000=white flash=1.000=0=0=1=====,
220.000=flash=1.000=0=0=1====0^1^1^1=,
;
#KEYSOUNDS:;

//---------------dance-single - R. Uchima----------------
#NOTES:
     dance-single:
     R. Uchima:
     Challenge:
     10:
     0.672,0.596,0.347,0.254,0.802:
0000
0000
0000
0000
,
1000
0100
0020
0002
0000
1000
0033
0000
0001
0100
0020
2000
0000
0001
3030
0000
0010
0100
0002
2000
0000
0010
3003
0000
0001
1000
0200
0020
0000
0001
0330
0000
,
0010
0001
0200
0020
0000
1000
0330
0000
0100
0001
2000
0200
0000
0010
3300
0000
1000
0010
0200
0002
0000
0010
0303
0000
0100
0010
2000
0002
0000
0010
3003
0000
,
1001
0000
0000
0000
0000
0000
0010
0000
0000
0000
0100
0000
0000
0000
0000
0000
0000
MMMM
0000
0000
0000
0000
0000
0000
1000
0000
0000
0100
0000
0000
0001
0000
0010
0000
0000
0000
1000
0000
0010
0000
0000
0000
0110
0000
0000
0000
0000
0000
0000
MMMM
0000
0000
0000
0000
0000
0000
0001
0000
0000
0100
0000
0000
1000
0000
,
0010
0000
0000
0000
0001
0000
0100
0000
0000
0000
1001
0000
0000
0000
0000
0000
0000
MMMM
0000
0000
0000
0000
0000
0000
1000
0000
0000
0100
0000
0000
0001
0000
1000
0000
0000
0000
0010
0000
0001
0000
0000
0000
0011
0000
0000
0000
0000
0000
0000
MMMM
0000
0000
0000
0000
0000
0000
0001
0000
0000
0100
0000
0000
0010
0000
,
1010
0000
0000
0000
0000
0000
10M0
0100
1000
0000
0000
0000
0011
0000
0000
0000
0000
0000
001M
0000
0000
0000
0001
1000
0001
0000
0000
0000
0110
0000
0000
0000
,
0000
0000
0M10
0000
0000
0000
1000
0010
1000
0000
0000
0000
0101
0000
0000
0000
0000
0000
0M01
0000
0000
0000
0010
0001
0010
0000
0000
0000
1100
0000
0000
0000
,
0000
0000
M100
0000
0000
0000
1000
0010
0100
0000
0000
0000
1001
0000
0000
0000
0000
0000
M001
0000
0000
0000
0010
0001
0100
0000
0000
0000
1010
0000
0000
0000
,
0000
0000
10M0
0000
0000
0000
0100
1000
0010
0000
0000
0000
0101
0000
0000
0000
0000
0000
010M
0000
0000
0000
0010
0100
0001
0000
0000
0000
1010
0000
0000
0000
,
1100
0000
0100
0010
0001
0000
0010
0000
0110
0000
0100
0000
1100
0000
1000
0000
,
0001
0000
0100
0010
1000
0000
0010
0000
1010
0000
1000
0000
1001
0000
0001
0000
,
0010
0000
0001
0100
0010
0000
0100
0000
0101
0000
0001
0000
0011
0000
0010
0000
,
0100
0000
0010
0001
1000
0000
0010
0000
0110
0000
0100
0000
0101
0000
0001
0000
,
1000
0000
0100
1000
0010
0000
0100
0000
0110
0000
0010
0000
1010
0000
1000
0000
,
0001
0000
0010
0100
1000
0000
0001
0000
1001
0000
1000
0000
1010
0000
0010
0000
,
0100
0000
0001
0010
0100
0000
0010
0000
0110
0000
0100
0000
1100
0000
1000
0000
,
0010
1000
0100
0010
0001
0100
0010
0100
0001
0010
0100
1000
0001
1000
0010
0100
,
0010
0000
1000
0100
0010
0000
0001
0000
0100
0000
0010
0100
0001
0000
0010
0000
,
0001
0000
1000
0100
0010
0000
0100
0000
1000
0000
0100
1000
0010
0000
0100
0000
,
0001
0000
0010
0001
0100
0000
0001
0000
0100
0000
0001
0010
0100
0000
1000
0000
,
0010
0000
0100
0001
1000
0000
0010
0000
0100
0000
0010
1000
0001
0000
1000
0000
,
0100
0000
0010
0001
1000
0000
0010
0000
1000
0000
0100
1000
0001
0000
0100
0000
,
0010
0000
1000
0100
0010
0000
0001
0000
0100
0000
0001
0010
0100
0000
1000
0000
,
0010
0000
0100
0001
1000
0000
0010
0000
0100
0000
0010
1000
0001
0000
0010
0000
,
0001
0000
0100
0010
1000
0000
0010
0000
1000
0000
0001
0100
0010
0100
0010
1000
,
0100
0000
1000
0100
0010
0001
0100
0010
0100
0000
0001
0010
0100
1000
0010
0100
,
0010
0000
1000
0010
0100
0010
1000
0001
0010
0000
0001
0100
0010
0100
0001
1000
,
0100
0000
0010
0001
0100
0001
0010
0001
1000
0000
0100
1000
0010
1000
0100
1000
,
0001
0000
0100
0010
1000
0001
1000
0100
0010
0000
0100
0010
0001
1000
0001
0100
,
0010
0000
0100
0010
1000
0100
0010
0100
1000
0000
0010
0100
0001
0010
0100
0010
,
0001
0000
0100
0001
1000
0010
0100
0001
1000
0000
0100
1000
0001
0010
0100
1000
,
0001
0000
0010
0001
1000
0100
0010
0001
1000
0000
0010
1000
0001
0100
0010
1000
,
0001
1000
0100
0010
0100
1000
0010
1000
0010
0100
0001
0100
0001
0010
0001
1000
,
0100
0000
2000
0002
0000
0010
3003
M00M
,
0000
0000
0000
0MM0
0000
0000
0000
0000
0010
0000
0000
1000
0000
0000
0001
0000
,
0100
0000
0020
2000
0000
0001
3030
M0M0
,
0000
0000
0000
0M0M
0000
0000
0000
0000
1000
0000
0000
0100
0000
0000
1000
0000
,
0001
0000
0200
0020
0000
1000
0330
0MM0
,
0000
0000
0000
M00M
0000
0000
0000
0000
0100
0000
0000
0001
0000
0000
1000
0000
,
0100
0000
0020
0002
0000
1000
0033
00MM
,
0000
0000
0000
MM00
0000
0000
0000
0000
0010
0000
0000
0001
0000
0000
1000
0000
,
1010
0000
0200
0002
0000
0010
0303
0M0M
,
1010
0000
0000
M1M0
0001
0000
0100
0000
0101
0000
0000
0110
0000
0000
1010
0000
,
1100
0000
0002
0020
0000
1000
0033
00MM
,
1100
0000
0000
MM10
0001
0000
0010
0000
0011
0000
0000
0101
0000
0000
0110
0000
,
0101
0000
2000
0020
0000
0001
3030
M0M0
,
0101
0000
0000
0M1M
1000
0000
0100
0000
1100
0000
0000
0011
0000
0000
0101
0000
,
0110
0000
2000
0002
0000
0010
3003
M00M
,
0110
0000
0000
0MM1
1000
0000
0100
0000
0010
0001
0100
0010
0100
0001
0010
0100
,
1000
0000
0010
1000
0100
0000
0010
0000
0001
0100
0000
0100
0010
0000
0100
0000
,
0010
0000
1000
0100
0010
0000
0001
0000
0100
0010
0000
0010
1000
0000
0100
0000
,
1000
0000
0010
1000
0001
0000
0100
0000
0010
1000
0000
1000
0100
0000
0010
0000
,
0001
0000
0010
0001
0100
0000
0010
0000
1000
0001
0000
0001
1000
0000
0010
0000
,
0100
0010
1000
0100
0010
0100
1000
0001
0010
0001
0100
0010
0100
0001
1000
0001
,
0010
0100
1000
0010
0100
0001
0010
0001
0100
0001
1000
0010
1000
0100
1000
0010
,
0200
0300
0000
0000
;

//---------------dance-single - R. Uchima----------------
#NOTES:
     dance-single:
     R. Uchima:
     Medium:
     6:
     0.350,0.170,0.193,0.077,0.181: // measure 1
0000
0000
0000
0000
,  // measure 2
1000
0000
0000
0000
0000
0000
0000
1000
0001
0000
0000
0000
0000
0000
0000
0001
0100
0000
0000
0000
0000
0000
0000
0100
0010
0000
0000
0000
0000
0000
0000
0010
,  // measure 3
1000
0000
0000
0000
0000
0000
0000
1000
0001
0000
0000
0000
0000
0000
0000
0001
0010
0000
0000
0000
0000
0000
0000
0010
0100
0000
0000
0000
0000
0000
0000
0100
,  // measure 4
1000
0000
1000
0010
0000
0010
0000
0000
0000
0000
0000
0000
0100
0000
0000
0100
0001
0000
0001
1000
0000
1000
0000
0000
0000
0000
0000
0000
1000
0000
0000
1000
,  // measure 5
0010
0000
0010
0100
0000
0100
0000
0000
0000
0000
0000
0000
0001
0000
0000
0001
0010
0000
0010
0100
0000
0100
0000
0000
0000
0000
0000
0000
0010
0000
0000
0010
,  // measure 6
0100
0000
0000
0000
1000
0000
1000
0000
0000
0100
0000
0100
0010
0000
0010
0000
,  // measure 7
0000
0001
0000
0001
1000
0000
1000
0000
0000
0010
0000
0010
0100
0000
0100
0000
,  // measure 8
0000
0001
0000
1000
0001
0000
1000
0000
0000
0100
0000
0010
0100
0000
0010
0000
,  // measure 9
0000
0001
0000
0010
0100
0000
1000
0000
0000
1000
0000
0100
0010
0000
0001
0000
,  // measure 10
1001
0000
0000
1000
0100
0000
1000
0000
,  // measure 11
0000
0100
0000
0100
1000
0000
0100
0000
,  // measure 12
0000
1000
0000
1000
0010
0000
1000
0000
,  // measure 13
0000
0010
0000
0010
0100
0000
0010
0000
,  // measure 14
0000
0100
0000
0100
0001
0000
0100
0000
,  // measure 15
0000
0001
0000
0001
0010
0000
0001
0000
,  // measure 16
0000
0010
0000
0010
0100
0000
0010
0000
,  // measure 17
0000
0100
0000
0100
1000
0000
0010
0000
,  // measure 18
1010
0000
0010
0100
0010
0000
0100
0000
,  // measure 19
0001
0000
0010
0001
0010
0000
0001
0000
,  // measure 20
1000
0000
0100
1000
0100
0000
0010
0000
,  // measure 21
0100
0000
0010
0001
0010
0000
0001
0000
,  // measure 22
0100
0000
0010
0100
0010
0000
1000
0000
,  // measure 23
0001
0000
0100
0001
0100
0000
0001
0000
,  // measure 24
1000
0000
0100
0010
0100
0000
1000
0000
,  // measure 25
0001
0000
1000
0001
1000
0000
0001
0000
,  // measure 26
1001
0000
0000
1000
0001
0000
0001
0100
,  // measure 27
0000
0100
0000
0100
0010
0000
0010
1000
,  // measure 28
0000
1000
0000
1000
0100
0000
0100
0010
,  // measure 29
0000
0010
0000
0010
0001
0000
0001
1000
,  // measure 30
0000
1000
0000
1000
0010
0000
0010
0100
,  // measure 31
0000
0100
0000
0100
0001
0000
0001
0010
,  // measure 32
0000
0010
0000
0001
0010
0000
0001
0100
,  // measure 33
0000
0010
0000
1000
0100
0000
1000
0000
,  // measure 34
1001
0000
0001
0100
0000
0102
0000
0000
,  // measure 35
1MM3
0000
0000
0000
1000
0000
0000
0000
0001
0000
0000
1000
0000
0000
0001
0000
,  // measure 36
1000
0000
1000
0010
0000
2010
0000
0000
,  // measure 37
3MM1
0000
0000
0000
0001
0000
0000
0000
1000
0000
0000
0001
0000
0000
1000
0000
,  // measure 38
0001
0000
0001
0010
0000
0021
0000
0000
,  // measure 39
M13M
0000
0000
0000
0100
0000
0000
0000
0010
0000
0000
0100
0000
0000
0010
0000
,  // measure 40
0100
0000
0100
1000
0000
1200
0000
0000
,  // measure 41
M31M
0000
0000
0000
0010
0000
0000
0000
0100
0000
0000
0010
0000
0000
0100
0000
,  // measure 42
0010
0000
0001
1000
0000
2001
0000
0000
,  // measure 43
31MM
0000
0000
0000
1100
0000
0000
0000
1000
0000
0000
0100
0000
0000
1000
0000
,  // measure 44
0100
0000
0100
0010
0000
0120
0000
0000
,  // measure 45
MM31
0000
0000
0000
0011
0000
0000
0000
0010
0000
0000
0001
0000
0000
0010
0000
,  // measure 46
0001
0000
1000
0001
0000
1002
0000
0000
,  // measure 47
M1M3
0000
0000
0000
0101
0000
0000
0000
0001
0000
0000
0100
0000
0000
0001
0000
,  // measure 48
0100
0000
0100
0010
0000
0120
0000
0000
,  // measure 49
1M3M
0000
0000
0000
1010
0000
0000
0000
0010
0000
0000
1000
0000
0000
0010
0000
,  // measure 50
1000
1010
0010
0110
,  // measure 51
0100
0000
0101
0000
0001
1000
0001
0000
,  // measure 52
1000
1001
0001
0011
,  // measure 53
0010
0000
0110
0000
0100
1000
0100
0000
,  // measure 54
1000
1001
0001
0101
,  // measure 55
0100
0000
0010
0000
0000
0000
0010
0000
1000
0000
0000
0100
0000
0000
0010
0000
,  // measure 56
0022
0033
0000
0000
;

//---------------dance-single - R. Uchima----------------
#NOTES:
     dance-single:
     R. Uchima:
     Easy:
     2:
     0.209,0.085,0.069,0.200,0.004:
0000
0000
0000
0000
,
1000
0001
0100
0010
,
0100
0001
0010
0100
,
1000
1000
1000
1000
0001
0001
0001
0001
,
0100
0000
0100
0000
0100
0000
0100
0000
0010
0000
0010
0000
0010
0000
1000
1000
,
1000
0000
0001
0001
0000
0000
0100
0100
,
0000
0000
0010
0010
0000
0000
1000
1000
,
0000
0000
0100
0100
0000
0000
0010
0010
,
0000
0000
0001
0001
0000
0000
1000
1000
,
1000
0000
0001
1001
,
0000
0000
1000
1010
,
0000
0000
0010
0110
,
0000
0000
0100
0101
,
0000
0000
0001
0011
,
0000
0000
0010
0110
,
0000
0000
0100
1100
,
0000
0000
1000
1010
,
0010
0000
0100
0000
,
0001
0000
0010
0001
,
0010
0000
0100
0000
,
1000
0000
0010
1000
,
0010
0000
0100
0000
,
0001
0000
1000
0001
,
1000
0000
0010
0000
,
0100
0000
0010
0100
,
0010
0000
1000
0000
,
0001
0000
0010
0001
,
1000
0000
0001
0000
,
0100
0000
0010
1000
,
0001
0000
0100
0000
,
0010
0000
1000
0001
,
0100
0000
0010
0000
,
1000
0000
0001
1000
,
0200
0000
0020
0300
,
0002
0030
0010
1003
,
2000
0000
0020
3000
,
0200
0030
0010
0301
,
0002
0000
2000
0003
,
0200
3000
1000
0310
,
0020
0000
0002
0030
,
0200
0003
0001
0310
,
0020
0000
2000
0030
,
0200
3000
0010
0010
,
2000
0300
0002
3000
,
0020
0003
0100
0100
,
0002
0030
2000
0003
,
0020
3000
0100
0100
,
2000
0030
0200
3000
,
0020
0300
0001
0001
,
0130
0000
1000
0000
,
0010
0000
0100
0001
,
0010
0000
0100
0000
,
1000
0000
0010
1000
,
0100
0000
0010
0000
,
0100
0000
1000
0001
,
2002
3003
0000
0000
;

//---------------dance-single - R. Uchima----------------
#NOTES:
     dance-single:
     R. Uchima:
     Beginner:
     1:
     0.105,0.042,0.123,0.000,0.000:
0000
0000
0000
0000
,
1000
0000
0001
0000
,
0100
0000
0010
0000
,
1000
0001
1000
0001
,
0010
0100
0010
0100
,
0010
0000
1000
0000
,
0001
0000
0100
0000
,
0010
0000
1000
0000
,
0001
0000
1000
0000
,
1001
0000
0000
0000
,
0010
0000
0000
0000
,
0110
0000
0000
0000
,
0001
0000
0000
0000
,
1001
0000
0000
0000
,
0100
0000
0000
0000
,
0110
0000
0000
0000
,
1000
0000
0000
0000
,
1001
0000
1000
0000
,
1000
0000
0000
0000
,
0001
0000
0001
0000
,
0001
0000
0000
0000
,
0100
0000
0100
0000
,
0100
0000
0000
0000
,
0010
0000
0010
0000
,
0010
0000
0000
0000
,
1001
0000
0001
0000
,
0001
0000
0000
0000
,
0100
0000
0100
0000
,
0100
0000
0000
0000
,
0010
0000
0010
0000
,
0010
0000
0000
0000
,
1000
0000
1000
0000
,
1000
0000
0000
0000
,
0110
0000
0000
0000
,
0001
0000
0000
0000
,
0110
0000
0000
0000
,
1000
0000
0000
0000
,
0110
0000
0000
0000
,
0001
0000
0000
0000
,
0110
0000
0000
0000
,
1000
0000
1000
0000
,
1001
0000
0000
0000
,
0010
0000
0000
0000
,
1001
0000
0000
0000
,
0100
0000
0000
0000
,
1001
0000
0000
0000
,
0010
0000
0000
0000
,
1001
0000
0000
0000
,
0100
0000
0000
0000
,
1001
0000
0001
0000
,
0001
0000
0000
0000
,
0100
0000
0100
0000
,
0100
0000
0000
0000
,
0010
0000
0010
0000
,
0010
0000
0000
0000
,
1001
0000
0000
0000
;

//---------------dance-double - D. Bernardone----------------
#NOTES:
     dance-double:
     D. Bernardone:
     Easy:
     3:
     0.182,0.170,0.046,0.154,0.000:
00000000
00000000
00000002
00002003
,
00003200
00000000
00020300
00000000
,
00032000
00000000
02003000
00000000
,
03020000
00000000
00230000
00000000
,
00302000
00000000
00023000
00000000
,
00030010
00000000
00000000
00000100
,
00000000
00000010
00000000
00010000
,
00000000
00001000
00000000
01000000
,
00000000
00010000
00000000
00100000
,
01000000
00000000
01000000
00000000
,
10000000
00000000
10000000
00000000
,
00010000
00000000
00010000
00000000
,
01000000
00000000
01000000
00000000
,
00001000
00000000
00001000
00000000
,
00010000
00000000
00010000
00000000
,
00000010
00000000
00000010
00000000
,
00000100
00000000
00000100
00000000
,
00000110
00000000
00000001
00000000
,
00001000
00000000
00000100
00000000
,
00010000
00000000
00001000
00000000
,
00100000
00000000
00010000
00000000
,
01000000
00000000
00001000
00000000
,
00010000
00000000
00000100
00000000
,
00001000
00000000
00000010
00000000
,
00010000
00000000
00001000
00000000
,
00011000
00000000
01000000
01000000
,
01000000
00000000
00010000
00010000
,
00010000
00000000
10000000
10000000
,
10000000
00000000
01000000
01000000
,
01000000
00000000
00100000
00100000
,
00100000
00000000
00001000
00001000
,
00001000
00000000
00010000
00010000
,
00010000
00000000
00001000
00001000
,
00021000
00000000
00030100
00000000
,
00000000
00001000
00000010
00000010
,
00000200
00000000
00000301
00000000
,
00001000
00000010
00000010
00010000
,
00002000
00000000
00013000
00000000
,
00001000
00100000
00100000
00010000
,
20000000
00000000
31000000
00000000
,
00100000
00010000
01000000
00100000
,
01200000
00000000
10300000
00000000
,
10000000
00010000
00010000
01000000
,
00002000
00000000
00013000
00000000
,
00010000
00000100
00000100
00001000
,
00000020
00000000
00000130
00000000
,
00000001
00000010
00000010
00000100
,
00002000
00000000
00003001
00000000
,
00000010
00000001
00000100
00000010
,
00000110
00000000
00000001
00000000
,
00000000
00000001
00000001
00000100
,
00000000
00001000
00001000
00001000
,
00000000
00001000
00010000
01000000
,
00000000
10000000
10000000
10000000
,
00000000
10000000
00010000
00100000
,
02200000
03300000
00000000
00000000
;

//---------------dance-double - D. Bernardone----------------
#NOTES:
     dance-double:
     D. Bernardone:
     Medium:
     5:
     0.287,0.256,0.100,0.085,0.008:
00000000
00000000
20000000
30020000
,
01030000
00100000
20000000
00000000
31000000
00010000
00002000
00000000
,
00013000
00000010
00000200
00000000
00000301
00000010
00000100
00000000
,
00000110
00000001
00000200
00000000
00001300
00010000
00002000
00000000
,
00103000
01000000
20000000
00000000
30100000
01000000
00020000
00000000
,
10030000
01000000
00010000
00001000
00010000
00000010
00000100
00000001
,
00001000
00000001
00000100
00001000
00010000
00001000
00100000
01000000
,
10000000
00010000
10000000
00100000
00010000
00001000
00010000
00000100
,
00000010
00000000
00000001
00000000
00001000
00000000
00000001
00000000
00000010
00000000
00001000
00000000
00010000
00001000
00100000
00010000
,
01000000
00100000
01000000
00000000
00010000
00000000
00100000
00000000
,
00001000
00010000
00001000
00000000
00010000
00000000
00000010
00000000
,
00000100
00000001
00000100
00000000
00001000
00000000
00010000
00000000
,
00001000
00100000
00001000
00000000
01000000
00000000
00010000
00000000
,
00100000
01000000
00100000
00000000
00010000
00000000
01000000
00000000
,
00001000
00010000
00001000
00000000
00010000
00000000
00000100
00000000
,
00001000
00000010
00001000
00000000
00000100
00000000
00000010
00000000
,
00000001
00001000
00000001
00000000
00000010
00000100
00001000
00000001
,
00000100
00000010
00001000
00000100
,
00010000
00001000
00011000
00011000
,
00001000
01000000
00010000
00010000
,
00100000
01000000
11000000
11000000
,
10000000
00010000
00100000
00100000
,
01000000
10000000
10010000
10010000
,
00010000
01000000
00001000
00001000
,
00010000
00000100
00001000
00000010
,
00000110
00000000
00000001
00001000
00000001
00000000
00000001
00000000
,
00000000
00000000
00000100
00000010
00000100
00000000
00000100
00000000
,
00000000
00000000
00000010
00010000
00000010
00000000
00000010
00000000
,
00000000
00000000
00010000
00001000
00010000
00000000
00010000
00000000
,
00000000
00000000
00001000
01000000
00001000
00000000
00001000
00000000
,
00000000
00000000
00100000
00010000
00100000
00000000
00100000
00000000
,
00000000
00000000
00010000
10000000
00010000
00000000
00010000
00000000
,
00000000
00000000
01000000
00100000
01000000
00000000
01000000
00000000
,
10010000
00000000
10000000
00010000
00000000
00000000
00000000
00000000
,
00000000
01000000
00000000
00000000
00001000
00000000
00010000
00000000
,
00000000
00000010
00000000
00000000
00001000
00000000
00000001
00000000
,
00000000
00000010
00000000
00000000
00000100
00000000
00001000
00000000
,
00000000
00000010
00000000
00000000
00010000
00000000
00001000
00000000
,
00000000
01000000
00000000
00000000
00010000
00000000
00100000
00000000
,
00000000
01000000
00000000
00000000
10000000
00000000
00010000
00000000
,
00000000
00100000
00000000
00000000
00001000
00000000
00010000
00000000
,
00011000
00000000
00001000
00010000
00000000
00000000
00000000
00000000
,
00000000
00000100
00000000
00000000
00001000
00000000
00000010
00000000
,
00000000
00000100
00000000
00000000
00000001
00000000
00000010
00000000
,
00000000
00000100
00000000
00000000
00010000
00000000
00001000
00000000
,
00000000
00100000
00000000
00000000
00010000
00000000
01000000
00000000
,
00000000
00100000
00000000
00000000
10000000
00000000
00010000
00000000
,
00000000
01000000
00000000
00000000
00001000
00000000
00100000
00000000
,
00000000
00010000
00000000
00000000
01000000
00000000
00001000
00000000
,
00011000
00000000
00001001
00000000
,
00000000
00000000
00000000
00000001
00001000
00000000
00000100
00000010
,
00000000
00000001
00000000
00000000
00000100
00000000
00000100
00000000
,
00000000
00000010
00000000
00010000
00001000
00000000
00010000
00001000
,
00000000
00100000
00000000
00000000
00010000
00000000
00010000
00000000
,
00000000
01000000
00000000
00100000
10000000
00000000
00010000
00000000
,
02020000
03030000
00000000
00000000
;

//---------------dance-double - D. Bernardone----------------
#NOTES:
     dance-double:
     D. Bernardone:
     Hard:
     9:
     0.472,0.572,0.339,0.000,0.455:
00000000
00000000
00000000
00000000
00000000
00000000
00000000
00000000
00000000
00000000
00000000
00000000
00000000
00000000
00000000
00000000
00000000
10000000
00000000
00000000
00000000
00000000
00000000
00000000
00000000
00000001
00000000
00000000
00000000
00000000
00000000
00000000
,
00011000
00001000
00100000
01000000
00000000
10000000
00000000
01000000
00010000
00001000
00000100
00000010
00000000
00001000
00000000
00000001
00000010
00001000
00010000
00100000
00000000
01000000
00000000
00010000
00100000
01000000
00010000
00001000
00000000
00000100
00000000
00000010
,
00000100
00001000
00010000
01000000
00000000
10000000
00000000
00100000
10000000
01000000
00010000
00001000
00000000
01000000
00000000
00010000
00100000
01000000
00010000
00001000
00000000
00000010
00000000
00000001
00000100
00001000
00010000
00100000
00000000
10000000
00000000
00010000
,
10010000
00000000
00000000
00000000
10000000
00000000
01000000
00000000
00000000
00000000
00100000
00000000
00000000
00000000
00010000
00000000
01000000
00000000
00001000
00000000
00010000
00000000
00000100
00000000
00000010
00000000
00000000
00000011
00000000
00000000
00000101
00000000
00001001
00000000
00000000
00000000
00000001
00000000
00000010
00000000
00000000
00000000
00000100
00000000
00000000
00000000
00001000
00000000
00000010
00000000
00010000
00000000
00001000
00000000
00100000
00000000
01000000
00000000
00000000
11000000
00000000
00000000
10100000
00000000
,
10010000
00000000
00000000
00000000
00010000
00000000
01000000
00000000
00000000
00000000
00001000
00000000
00000000
00000000
00010000
00000000
00001000
00000000
00010000
00000000
00100000
00000000
01000000
00000000
00001000
00000000
00000000
00011000
00000000
00000000
00010100
00000000
00001100
00000000
00000000
00000000
00001000
00000000
00000001
00000000
00000000
00000000
00000100
00000000
00000000
00000000
00000010
00000000
00000100
00000000
00001000
00000000
00010000
00000000
01000000
00000000
10000000
00000000
00000000
10100000
00000000
00000000
10010000
00000000
,
01010000
00000000
01000000
00000000
00100000
10000000
01000000
00000000
00100000
00001000
00000000
00010000
00000100
00000000
00001000
00000000
,
00000010
00000100
00000000
00000001
00000010
00000000
00000100
00000000
00010000
00001000
00000000
01000000
00010000
00000000
00100000
00000000
,
01000000
10000000
00000000
00100000
00010000
00000000
00001000
00000000
00100000
00001000
00000000
00010000
00001000
00000000
00010000
00000000
,
00000010
00000001
00000000
00000010
00001000
00000000
00000001
00000000
00000100
00001001
00000000
00001001
00000010
00000000
00010010
00000000
,
00010000
00001000
00000000
00100000
01000000
00000000
11000000
00000000
,
01000000
00100000
00000000
00001000
00010000
00000000
00010100
00000000
,
00000100
00000010
00000000
00000001
00000010
00000000
00000110
00000000
,
00000100
00010000
00000000
00001000
01000000
00000000
01010000
00000000
,
01000000
00100000
00000000
01000000
00010000
00000000
00110000
00000000
,
00100000
00001000
00000000
00010000
00000010
00000000
00000110
00000000
,
00000001
00000100
00000000
00000010
00010000
00000000
00011000
00000000
,
00001000
00110000
00000000
00110000
00001000
00000000
01001000
00000000
,
01000000
00010000
00100000
01000000
10000000
00000000
10010000
00000000
,
00010000
00100000
00001000
00010000
00000100
00000000
00000110
00000000
,
00000001
00000100
00001000
00010000
00001000
00000000
00101000
00000000
,
00100000
01000000
00010000
00001000
00010000
00000000
00010010
00000000
,
00000010
00000100
00001000
00010000
00100000
00000000
01100000
00000000
,
01000000
00010000
10000000
01000000
00100000
00000000
00101000
00000000
,
00001000
00010000
00000010
00000100
00000001
00000000
00000011
00000000
,
00000001
00000100
00001000
00010000
01000000
00000000
11000000
00000000
,
10000000
00000000
00100000
00000000
01000000
00000000
00000000
00001000
00010000
00000000
00000000
00000000
00011000
00000000
00000000
00000000
,
00010000
00000000
00000010
00000000
00001000
00000000
00000000
00000001
00001000
00000000
00000000
00000000
00001001
00000000
00000000
00000000
,
00000001
00000000
00000010
00000000
00000100
00000000
00000000
00001000
00000010
00000000
00000000
00000000
00001010
00000000
00000000
00000000
,
00001000
00000000
00000100
00000000
00010000
00000000
00000000
00001000
00010000
00000000
00000000
00000000
00011000
00000000
00000000
00000000
,
00001000
00000000
01000000
00000000
00010000
00000000
00000000
10000000
00010000
00000000
00000000
00000000
10010000
00000000
00000000
00000000
,
10000000
00000000
01000000
00000000
00010000
00000000
00000000
00001000
00010000
00000000
00000000
00000000
00011000
00000000
00000000
00000000
,
00010000
00000000
00000010
00000000
00001000
00000000
00000000
00000001
00001000
00000000
00000000
00000000
00001001
00000000
00000000
00000000
,
00000001
00000000
00000010
00000000
00001000
00000000
00000000
00010000
00100000
00000000
00000000
00000000
10100000
00000000
00000000
00000000
,
10000000
00000000
00000000
00000000
00010000
00000000
00100000
00000000
00000000
00M00000
00000000
00000000
00001000
00000000
00000000
00000000
,
00010000
00000000
00000000
00000000
00000010
00000000
00000000
00000000
00000100
00000000
00000000
00000100
00000000
00000000
00000010
00000000
,
00001000
00000000
00000000
00000000
00000001
00000000
00001000
00000000
00000000
00000000
00000100
00000000
00000000
00000M00
00000000
00000000
,
00010000
00000000
00001000
00000000
00100000
00000000
00010000
10000000
,
10000000
00000000
00000000
00000000
00100000
00000000
01000000
00000000
00000000
0M000000
00000000
00000000
00010000
00000000
00000000
00000000
,
00100000
00000000
00000000
00000000
00001000
00000000
00000000
00000000
00010000
00000000
00000000
00000100
00000000
00000000
00001000
00000000
,
00000010
00000000
00000000
00000000
00000100
00000000
00000001
00000000
00000000
00000000
00000010
00000000
00000000
000000M0
00000000
00000000
,
00000100
00000000
00000000
00000000
00010000
00000000
00000000
00000000
00001000
00000000
00000000
01000000
00000000
00000000
00010000
00000000
,
00100000
00000000
00000000
00000000
01000000
00000000
10000000
00000000
00000000
M0000000
00000000
00000000
00010000
00000000
00000000
00000000
,
00100000
00000000
00000000
00000000
00001000
00000000
00000000
00000000
00010000
00000000
00000000
00010000
00000000
00000000
00000100
00000000
,
00001000
00000000
00000000
00000000
00000010
00000000
00001000
00000000
00000000
00000000
00000100
00000000
00000000
00000M00
00000000
00000000
,
00000010
00000000
00000001
00000000
00000100
00000000
00000010
00010000
,
00010000
00000000
00000000
00000000
00001000
00000000
01000000
00000000
00000000
00000000
00010000
00000000
00000000
000M0000
00000000
00000000
,
00100000
00000000
00000000
00000000
01000000
00000000
00000000
00000000
10000000
00000000
00000000
00010000
00000000
00000000
01000000
00000000
,
00100000
00000000
00000000
00000000
10000000
00000000
01000000
00000000
00000000
00000000
00100000
00000000
00000000
00M00000
00000000
00000000
,
00001000
00000000
00000000
00000000
00010000
00000000
00000000
00000000
00000100
00000000
00000000
00001000
00000000
00000000
00000010
00000000
,
00000100
00000001
00001000
00000000
00000010
00001000
00010000
00000000
,
00001000
00000000
00010000
00000000
00100000
00000000
00000000
00000000
01000000
00000000
00000000
10000000
00000000
00000000
00010000
00000000
,
00100000
00010000
00001000
00000000
00010000
00001000
00000010
00000000
,
00000100
00000000
00000001
00000000
00001000
00000000
00000010
00000000
00001000
00000000
00000000
00000100
00000000
00000000
00001000
00000000
,
00010000
00000000
00001000
00010000
01000000
00000000
00100000
10000000
,
00010000
00000000
00100000
00000000
01000000
00000000
00010000
00000000
00001000
00000000
00000000
00000100
00000000
00000000
00000010
00000000
,
00000011
00000000
00000000
00000000
;

//---------------dance-double - D. Bernardone & edited by Orangelove----------------
#NOTES:
     dance-double:
     D. Bernardone & edited by Orangelove:
     Challenge:
     10:
     0.598,0.745,0.563,0.085,0.613:
00000000
00000000
00000000
00000000
00000000
00000000
00000000
00000000
00000000
00000000
00000000
00000000
00000000
00000000
00000000
00000000
00000000
22000000
00000000
00000000
33000000
00000000
00000000
00000000
00000000
00000022
00000000
00000000
00000033
00000000
00000000
00000000
,
00012000
00010000
00100000
01000000
00000000
00000100
00000000
00010000
01000000
00100000
00010000
00100000
00000000
00000010
00000000
00010000
00023000
00001000
00000100
00000010
00000000
00100000
00000000
00001000
00000010
00000100
00001000
00000100
00000000
01000000
00000000
00001000
,
00032000
01000000
10000000
00010000
00000000
00000100
00000000
00010000
00100000
10000000
01000000
00010000
00000000
00000010
00000000
00010000
00023000
00000100
00000001
00001000
00000000
01000000
00000000
00001000
00000010
00000001
00000100
00001000
00000000
00100000
00000000
00031000
,
00011000
00000000
00000000
00000000
10000000
00000000
01000000
00000000
00000000
00000000
10010000
00000000
00000000
00000000
00100000
00000000
00001000
00000000
00010000
00000000
00000100
00000000
00000010
00000000
00000001
00000000
00000000
00000010
00000000
00000000
00000100
00000000
00001100
00000000
00000000
00000000
00000001
00000000
00000100
00000000
00000000
00000000
00001001
00000000
00000000
00000000
00000010
00000000
00010000
00000000
00001000
00000000
01000000
00000000
00100000
00000000
10000000
00000000
00000000
00100000
00000000
00000000
01000000
00000000
,
01010000
00000000
00000000
00000000
10000000
00000000
00100000
00000000
00000000
00000000
10010000
00000000
00000000
00000000
01000000
00000000
00001000
00000000
00010000
00000000
00000010
00000000
00000100
00000000
00000001
00000000
00000000
00000100
00000000
00000000
00000010
00000000
00001010
00000000
00000000
00000000
00000001
00000000
00000010
00000000
00000000
00000000
00001001
00000000
00000000
00000000
00000100
00000000
00010000
00000000
00001000
00000000
00100000
00000000
01000000
00000000
10000000
00000000
00000000
01000000
00000000
00000000
00100000
00000000
,
20010000
00000000
00000000
00000000
01000000
00000000
00010000
00000000
30000000
01000000
00000000
00001000
00010000
00000000
00010001
00000000
,
00000000
00000010
00000000
00000100
00001000
00000000
00100100
00000000
00000000
01000000
00000000
00010000
10000000
00000000
01001000
00000000
,
00000000
10000000
00000000
00010000
01000000
00000000
01000100
00000000
00000000
00001000
00000000
00000010
00000100
00000000
00010010
00000000
,
00000000
00000001
00000000
00000100
00000010
00000000
00100010
00000000
00000000
00011000
00000000
00000100
00010000
00000000
00000011
00000000
,
00000000
00001001
00000000
01000000
00100000
00000000
01100000
00000000
,
00000000
10010000
00000000
00000100
00000010
00000000
00000110
00000000
,
00000000
00000110
00000000
10000000
00010000
00000000
10010000
00000000
,
00000000
01100000
00000000
00000001
00001000
00000000
00001001
00000000
,
00000000
00000110
00000000
01000000
00100000
00000000
10010000
00000000
,
00000000
01100000
00000000
00000100
00000010
00000000
00001001
00000000
,
00000000
00001001
00000000
00001000
10000000
00000000
01100000
00000000
,
00000000
10010000
00000000
00010000
00000001
00000000
00001001
00000000
,
00000001
00000100
00000000
00000001
00001000
01000000
00100000
00010000
,
10000000
01000000
00000000
10000000
00010000
00000000
00010010
00000000
,
00001000
00000001
00000000
00000001
00001000
00100000
01000000
00010000
,
10000000
00100000
00000000
10000000
00010000
00000000
00011000
00000000
,
10000000
00100000
00000000
10000000
00010000
00000010
00000001
00001000
,
00000001
00000010
00000000
00000001
00001000
00000000
00101000
00000000
,
10000000
01000000
00000000
10000000
00010000
00000100
00000001
00001000
,
00000001
00000100
00000000
00000001
00001000
00000000
00011000
00000000
,
00000001
00000000
00000100
00000010
00001000
00000000
00000100
00000000
01000000
00000000
00000000
00000000
00011000
00000000
00000000
00000000
,
10000000
00000000
01000000
00100000
00010000
00000000
01000000
00000000
00000100
00000000
00010000
00000000
00001000
000M0000
0000M000
00000000
,
00000001
00000000
00000010
00000100
00001000
00000000
00000010
00000000
00100000
00000000
00000000
00000000
00011000
00000000
00000000
00000000
,
10000000
00000000
00000000
00000000
00000000
00000000
00100000
00000000
00000000
01000000
00000000
00000000
00010000
00000000
00000000
00000000
00000000
00000000
00100000
00000000
00000000
00000000
00000000
00000000
00000010
00000000
00000000
00000000
00000000
00000000
00010000
00000000
00000000
00000000
00000000
00000000
00001000
00000000
00000000
00000000
000M0000
00000000
0000M000
00000000
00000000
00000000
00000000
00000000
,
10000000
00000000
00100000
01000000
00001000
00000000
00100000
00000000
00000100
00000000
00000000
00000000
00011000
00000000
00000000
00000000
,
00000001
00000000
00000010
00000100
00010000
00000000
00000010
00000000
01000000
00000000
00001000
00000000
00010000
0000M000
000M0000
00000000
,
10000000
00000000
01000000
00100000
00001000
00000000
01000000
00000000
00000010
00000000
00000000
00000000
00011000
00000000
00000000
00000000
,
00000001
00000000
00000100
00000010
00010000
00000000
00000100
00000000
00100000
00000000
00001000
00000000
00010100
00000000
00000000
00000000
,
00000001
00000000
00000010
00000100
00001000
00000000
00000010
00010000
00001000
00000000
00001000
00000000
01001000
00000000
00000000
00000000
,
10000000
00000000
00100000
01000000
00010000
00000000
00100000
00000000
00001000
00010000
00000100
00000000
00001100
00000000
00000000
00000000
,
00000001
00000000
00000100
00000010
00001000
00000000
00000100
00010000
00001000
00000000
00001000
00000000
00101000
00000000
00000000
00000000
,
10000000
00000000
01000000
00100000
00010000
00000000
01000000
00000000
00100000
00010000
00001000
00000000
01001000
00000000
00000000
00000000
,
10000000
00000000
01000000
00100000
00001000
00000000
00010000
00000010
00001000
00000000
00001000
00000000
00001001
00000000
00000000
00000000
,
00000001
00000000
00000100
00000010
00010000
00000000
00001000
00000000
00100000
00010000
10000000
00000000
11000000
00000000
00000000
00000000
,
10000000
00000000
00100000
01000000
00001000
00000000
00010000
00000100
00001000
00000000
00001000
00000000
00001001
00000000
00000000
00000000
,
00000001
00000000
00000010
00000100
00010000
00000000
00001000
00000000
00000010
00001000
00010000
00000000
00010010
00000000
00000000
00000000
,
00000001
00000000
00000100
00000010
00001000
00000010
00010000
00001000
00100000
00010000
00100000
00000000
01100000
00000000
00000000
00000000
,
10000000
01000000
00100000
01000000
00010000
00000000
00001000
00010000
00000100
00010000
00000010
00000000
00001010
00000000
00000000
0000M0M0
,
00000001
00000000
00000010
00000100
00001000
00000100
00010000
00001000
01000000
00010000
01000000
00000000
01100000
00000000
00000000
00000000
,
10000000
00100000
01000000
00100000
00010000
00000000
00001000
00010000
00000010
00010000
00000100
00000000
00011000
00000000
00000000
000MM000
,
01000000
00000000
00100000
01000000
00010000
01000000
00001000
00010000
00000010
00001000
00000001
00000000
00000011
00000000
00000000
00000000
,
00000001
00000010
00000100
00000010
00001000
00000000
00010000
00001000
00100000
00001000
01000000
00000000
01010000
00000000
0M0M0000
00000000
,
10000000
00000000
01000000
00100000
00010000
00100000
00001000
00010000
00000100
00001000
00000001
00000000
00000101
00000000
00000000
00000000
,
00000001
00000100
00000010
00000100
00001000
00000000
00010000
00001000
00100000
00001000
01000000
00010000
10000000
01000000
00100000
00001000
,
00010000
00010010
00000000
00000000
01010000
00000000
00000110
00000000
,
00000000
00000000
00001001
00000000
00000000
00000000
00000100
00000000
00000010
00000000
00000000
00001000
00000000
00000000
00000100
00000000
,
00000000
00001001
00000000
00000000
00011000
00000000
10010000
00000000
,
00000000
00000000
01100000
00000000
00000000
00000000
10000000
00000000
00010000
00000000
00000000
00100000
00000000
00000000
10000000
00000000
,
00000000
01100000
00000000
00000000
00011000
00000000
00000110
00000000
,
00000000
00000000
00001001
00000000
00000000
00000000
00000001
00000000
00001000
00000000
00000000
00010000
00000000
00000000
10000000
00000000
,
22000000
33000000
00000000
00000000
;

//---------------dance-single - D. Bernardone----------------
#NOTES:
     dance-single:
     D. Bernardone:
     Hard:
     8:
     0.508,0.596,0.224,0.162,0.513:
0000
0000
0000
0000
,
1000
0001
0100
0002
0000
1003
0000
0100
0010
0001
0010
0200
0000
1300
0000
0001
0010
1000
0010
0200
0000
1300
0000
0001
0100
0010
0100
0002
0000
0013
0000
0100
,
1000
0010
0001
0020
0000
0130
0000
0001
1000
0100
0010
0200
0000
1300
0000
0001
0100
1000
0100
0020
0000
1030
0000
0001
0100
1000
0100
0002
0000
0013
0000
0100
,
1100
0000
0000
0000
1000
0000
0001
0000
0000
0000
0100
0000
0000
0000
0010
0000
1000
0000
0100
0000
0001
0000
0100
0000
1000
0000
0000
0001
0000
0000
0100
0000
0010
0000
0000
0000
1000
0000
0001
0000
0000
0000
0010
0000
0000
0000
0100
0000
0001
0000
0100
0000
1000
0000
0010
0000
0100
0000
0000
0001
0000
0000
0010
0000
,
0100
0000
0000
0000
1000
0000
0001
0000
0000
0000
0010
0000
0000
0000
0100
0000
1000
0000
0010
0000
0001
0000
0010
0000
0100
0000
0000
0001
0000
0000
1000
0000
0100
0000
0000
0000
0010
0000
0001
0000
0000
0000
0100
0000
0000
0000
0010
0000
1000
0000
0100
0000
0001
0000
1000
0000
0010
0000
0000
0001
0000
0000
0100
0000
,
0120
0000
0000
0000
1000
0000
0130
0000
0000
0002
0000
1000
0100
0000
0103
0000
,
0000
0020
0000
1000
0100
0000
0130
0000
0000
0011
0000
1000
0100
0000
0010
0000
,
0000
0002
0000
0010
1000
0000
1003
0000
0000
0200
0000
0010
1000
0000
1300
0000
,
0000
0101
0000
1000
0100
0000
0010
0000
0000
0110
0000
1100
1001
0000
1010
0000
,
0001
0100
0010
0100
1000
0000
1000
0000
,
0100
0010
1000
0100
0010
0000
0010
0000
,
0001
0010
1000
0010
0100
0000
0100
0000
,
1000
0010
0100
0010
1000
0000
1000
0100
,
0100
0000
0000
0010
0000
0000
0001
0000
0100
0010
0000
0000
1000
0000
0000
0000
,
0100
0000
0010
0000
0001
0000
0000
0100
0010
1000
0000
0000
0001
0000
0000
0000
,
0000
0100
0000
1000
0001
0000
0001
0000
,
0000
0110
0000
1000
0100
0000
1001
0000
,
0001
0000
0000
0010
0100
0000
0000
0100
1000
0000
1000
0000
1000
0000
0000
0000
,
0010
0000
0000
0100
0001
0000
0000
0001
0010
0000
0010
0000
0010
0000
0000
0000
,
0100
0000
1000
0001
1000
0000
0000
1000
0100
0000
0100
0000
0010
0000
0000
0000
,
0010
0000
0001
0000
0100
0000
0001
0000
0010
0000
0100
0000
1000
0000
0001
0100
,
0001
0000
0000
0010
0000
0000
0100
0000
1000
0001
0000
0000
0100
0000
0000
0000
,
0010
0000
0100
0000
0001
0000
0000
0010
0100
1000
0000
0000
1000
0000
0000
0000
,
0000
0001
0000
0100
1000
0000
0001
0000
,
0000
0110
0000
0001
0010
0000
1001
0000
,
1000
0000
0001
0000
0100
0000
0001
1000
0001
0000
0010
0000
0100
0000
0000
0000
,
1000
0000
0010
0000
0100
0000
0001
1000
0001
0000
0010
0000
0001
0000
0000
0000
,
1000
0000
0001
0100
0001
0000
1000
0100
1000
0000
0010
0000
0100
0000
0000
0000
,
0001
0000
1000
0010
1000
0000
0001
0010
0001
0000
1000
0000
0010
0000
0100
0001
,
1000
0000
0000
0100
0000
0000
0010
0000
0001
1000
0000
0000
0100
0000
0000
0000
,
0010
0000
0001
0000
0100
0000
0000
0010
1000
0001
0000
0000
0010
0000
0000
0000
,
0000
0100
0000
1000
0010
0000
0100
0000
,
0000
1010
0000
0001
1000
0000
0101
0000
,
1001
0000
0100
0110
0000
0000
0001
0000
,
0100
0000
1000
0000
0100
0000
0010
0000
1000
0000
0000
1000
0000
0000
0001
0000
,
0010
0000
0100
1100
0000
0011
0000
0001
,
0100
0000
0010
0000
1000
0000
0100
0000
0010
0000
0010
0000
0001
0000
1000
0010
,
0100
0000
0100
0001
0000
0000
0010
0000
0100
1000
0000
0000
0001
0000
0000
0000
,
0100
0000
0010
0000
1000
0000
0000
0001
0010
0100
0000
0000
1000
0000
0000
0000
,
0001
0000
0100
0000
0010
0000
1000
0000
0100
0000
0010
0001
0010
0000
0100
0000
,
1000
0101
0000
1000
0010
0000
2002
3003
,
1001
0000
0001
0011
0000
0000
0100
1000
,
0010
0000
0100
0000
0001
0000
0001
0000
1000
0000
0000
1000
0000
0000
0100
0000
,
0010
0000
0001
0101
0000
1010
0000
0000
,
1000
0000
1001
0000
0000
0000
0110
0000
0100
0000
0000
0000
1000
0000
0010
0100
,
0001
0000
0001
1000
0000
0000
0100
0000
0010
0001
0000
0000
1000
0000
0000
0000
,
0010
0000
1000
0000
0100
0000
0000
1000
0010
0100
0000
0000
0001
0000
0000
0000
,
0010
0000
0100
0000
0001
0000
0100
0010
0100
0000
1000
0000
0010
0000
0001
0000
,
0010
1001
0000
1000
0100
0000
0011
0000
,
2000
0000
0100
0001
,
0000
0000
0010
0000
0000
0000
0100
0000
3002
0000
0000
0010
0000
0000
0100
0000
,
0000
0010
0000
0000
1000
0000
1003
0000
,
0000
0000
0020
0000
0000
0000
0100
0000
1000
0000
0000
0001
0000
0000
0001
0000
,
0000
0100
0000
0000
1000
0000
1030
0000
,
0000
0000
0200
0000
0000
0000
1000
0000
0001
0000
0000
1000
0000
0000
0310
0000
,
2002
3003
0000
0000
;
