#TITLE:Chromatic Blitz;
#SUBTITLE:;
#ARTIST:Helix Eternal;
#TITLETRANSLIT:;
#SUBTITLETRANSLIT:;
#ARTISTTRANSLIT:;
#GENRE:Hardcore;
#CREDIT:Sync by HellRazoR;
#BANNER:Chromatic Blitz-bn.png;
#BACKGROUND:Chromatic Blitz-bg.png;
#LYRICSPATH:;
#CDTITLE:;
#MUSIC:Chromatic Blitz.ogg;
#OFFSET:-0.031;
#SAMPLESTART:31.259;
#SAMPLELENGTH:12.000;
#SELECTABLE:YES;
#DISPLAYBPM:190.000;
#BPMS:0.000=190.000;
#STOPS:;
#BGCHANGES:0.000=Chromatic Blitz-bg.png=1.000=0=0=1=====,
32.000=In The Groove Rebirth/318_JB_HD.mpg=1.000=0=0=1=====,
48.000=In The Groove Rebirth/309_JB_HD.mpg=1.000=0=0=1===SlideRight==,
64.000=In The Groove Rebirth/410_JB_HD.mpg=1.000=0=0=1=====,
80.000=In The Groove Rebirth/1129_JumpBack.mpg=1.000=0=0=1=====,
92.000=Chromatic Blitz-bg.png=1.000=0=0=1=====,
92.750=Chromatic Blitz-bg.png=1.000=0=0=1====0^0^1^1=,
93.500=Chromatic Blitz-bg.png=1.000=0=0=1====0^1^0^1=,
94.250=Chromatic Blitz-bg.png=1.000=0=0=1====1^0^0^1=,
95.000=Chromatic Blitz-bg.png=1.000=0=0=1=====,
96.000=In The Groove Rebirth/263_JB_HD.mpg=1.000=0=0=1=====,
112.000=In The Groove Rebirth/261_JB_HD.mpg=1.000=0=0=1=====,
128.000=In The Groove Rebirth/877_JumpBack.mpg=1.000=0=0=1=====,
144.000=In The Groove Rebirth/318_JB_HD.mpg=1.000=0=0=1=====,
160.000=Chromatic Blitz-bg.png=1.000=0=0=1=====,
164.000=Chromatic Blitz-bg.png=1.000=0=0=1====1^0^0^1=,
164.500=Chromatic Blitz-bg.png=1.000=0=0=1====0^1^0^1=,
165.000=Chromatic Blitz-bg.png=1.000=0=0=1====0^0^1^1=,
165.500=Chromatic Blitz-bg.png=1.000=0=0=1====1^0^0^1=,
166.000=Chromatic Blitz-bg.png=1.000=0=0=1====0^1^0^1=,
166.500=Chromatic Blitz-bg.png=1.000=0=0=1====0^0^1^1=,
167.000=Chromatic Blitz-bg.png=1.000=0=0=1=====,
168.000=In The Groove Rebirth/263_JB_HD.mpg=2.000=0=0=1=====,
184.000=In The Groove Rebirth/1129_JumpBack.mpg=2.000=0=0=1=====,
200.000=In The Groove Rebirth/877_JumpBack.mpg=2.000=0=0=1=====,
216.000=In The Groove Rebirth/261_JB_HD.mpg=2.000=0=0=1=====,
232.000=In The Groove Rebirth/309_JB_HD.mpg=1.000=0=0=1=SongBgWithMovieViz====,
248.000=In The Groove Rebirth/302_JB_HD.mpg=1.000=1=0=1=SongBgWithMovieViz==CrossFade==,
259.000=Chromatic Blitz-bg.png=1.000=0=0=1====0^0^1^1=,
260.000=Chromatic Blitz-bg.png=1.000=0=0=1====0^1^0^1=,
261.000=Chromatic Blitz-bg.png=1.000=0=0=1====1^0^0^1=,
262.000=Chromatic Blitz-bg.png=1.000=0=0=1=====,
264.000=In The Groove Rebirth/410_JB_HD.mpg=1.000=0=0=1=====,
280.000=In The Groove Rebirth/318_JB_HD.mpg=1.000=0=0=1=====,
296.000=In The Groove Rebirth/1129_JumpBack.mpg=1.000=0=0=1=====,
312.000=In The Groove Rebirth/261_JB_HD.mpg=1.000=0=0=1=====,
328.000=Chromatic Blitz-bg.png=1.000=0=0=1=====,
99999=-nosongbg-=1.000=0=0=0 // don't automatically add -songbackground-
;
#BGCHANGES2:32.000=white flash=1.000=0=0=1=====,
64.000=yellow flash=1.000=0=0=1=====,
96.000=white flash=1.000=0=0=1=====,
160.000=white flash=1.000=0=0=1=====,
168.000=white flash=1.000=0=0=1=====,
232.000=white flash=0.700=0=0=1=====,
264.000=yellow flash=1.000=0=0=1=====,
328.000=white flash=0.500=0=0=1=====,
;
#KEYSOUNDS:;

//---------------dance-single - M. Simmons----------------
#NOTES:
     dance-single:
     M. Simmons:
     Hard:
     11:
     0.783,0.113,0.153,0.270,0.503:
0000
0000
0000
0000
,
0000
0000
0000
0000
1001
0000
0000
0010
,
0100
0010
0100
0001
1000
0100
0000
0000
,
2000
0000
0000
3100
0002
0000
0000
0103
,
1000
0010
0100
0001
0000
0000
0100
0010
,
1000
0001
0000
0000
1001
0000
0000
0100
,
0010
1000
0001
0010
1000
0M00
0000
M000
,
00M0
0000
0000
0000
0M00
0000
0000
0000
00M0
M000
000M
0M00
000M
M0M0
0M00
000M
,
0010
0001
0010
0100
0000
0000
0100
1000
,
0100
0010
0000
0000
0200
0000
0000
1300
,
0001
0010
0001
1000
0010
0000
0000
0000
,
0110
0100
0001
1001
0000
0001
M001
0000
,
1000
0010
0100
0010
0000
0000
0100
0001
,
0010
1000
0000
0000
0020
0000
0000
0031
,
1000
0001
0100
0010
1000
0000
0000
M000
,
0001
0000
1000
0000
0100
0000
1000
0000
0001
0100
0001
1000
0010
0100
0010
1000
,
0001
0100
0001
0000
0000
1000
1000
0000
,
M002
0203
0320
0032
0023
2030
3200
0320
,
0032
0000
1003
0000
0010
0100
0010
0100
,
0004
0000
0000
0000
4003
0000
0000
000M
3400
0000
0000
M000
0340
0000
0000
0000
,
0130
1000
0001
0100
0000
0010
0100
0010
,
1000
0100
1000
0100
0010
0000
MM00
0000
0001
0100
0001
0100
0010
0000
0M0M
0000
,
1000
0100
0010
0100
1000
0001
0100
0010
,
0100
0001
1000
0100
0010
0100
1000
0001
0010
0100
1000
0001
0100
0010
0100
0001
,
1000
0000
0100
0000
0010
0000
0000
0M0M
0000
0000
0100
0000
1000
0000
0001
0000
,
0010
0000
0000
M0M0
0000
0000
0001
0000
1000
0000
0010
0000
0000
0000
0100
0000
,
0010
0100
0001
1000
0100
0010
0000
00MM
,
0100
0000
0000
1000
0000
0000
0100
0000
0000
0010
0000
0000
0001
0000
0010
0000
,
1000
0010
0001
1000
0000
MM00
0010
0100
,
0010
1000
0000
0000
0002
0000
0000
0103
,
0001
1000
0100
0010
1000
0000
MM00
0000
,
0010
0001
0010
0001
0010
0100
0010
0100
0010
0001
0010
0001
1000
0001
1000
0001
,
0100
0010
0100
0000
MM00
0001
0010
1000
,
0010
0000
0MM0
0000
0200
0000
0000
1300
,
0001
0100
0001
1000
0010
0000
M0M0
0000
,
0210
0000
0301
0110
1000
0000
1000
0110
,
0001
1000
0100
0010
0000
00MM
0100
1000
,
0001
0010
0000
0MM0
0002
0000
0000
0103
,
0001
1000
0010
0100
0010
0000
0000
00MM
,
0100
0001
2000
0000
0000
3100
0010
0001
,
2000
0000
0000
0000
,
3010
0100
0010
0100
0010
0100
0010
0100
,
0001
1000
0010
0000
0100
0010
1000
0000
0001
0100
0001
0000
1000
0100
0010
0000
,
0100
1000
0001
0000
0100
0001
1000
0000
0010
0100
0010
0000
1000
0001
0010
0000
,
0100
1000
0001
0000
0100
0010
0100
0000
0001
1000
0010
0000
0100
0010
1000
0000
,
0001
0010
0100
0000
0010
0001
1000
0000
0001
0100
0001
0000
1000
0010
0100
0000
,
0010
0100
0010
0000
1000
0001
1000
0000
0100
0010
0100
0000
1000
0001
1000
0000
,
0001
0100
0010
0000
0100
0010
0100
0000
0001
1000
0100
0000
0010
0100
1000
0000
,
0001
0100
0010
0000
1000
0001
0100
0000
0001
1000
0100
0000
0010
0100
1000
0000
,
0001
0100
0001
0000
1000
0100
0010
0000
0100
1000
0001
0000
0100
0001
0100
0000
,
0010
0100
0010
0000
1000
0001
1000
0000
0100
0010
0100
0000
1000
0001
0100
0000
,
0010
1000
0010
0000
0100
0001
0100
0000
0010
1000
0001
0000
0100
0001
1000
0000
,
0100
0010
0100
0000
0010
0001
0010
0000
0001
1000
0001
0000
1000
0010
1000
0000
,
0010
0100
0001
0000
0100
0010
1000
0000
0001
0100
0001
0000
1000
0100
0010
0000
,
0001
0100
0001
0000
1000
0010
0100
0000
0010
1000
0001
0000
0100
0001
1000
0000
,
0100
0010
0100
0000
0010
0001
0010
0000
0100
1000
0001
0000
0100
0010
0100
0000
,
0001
0100
0001
0000
1000
0010
0100
0000
0010
1000
0001
0000
0100
0001
1000
0000
,
0010
0100
0010
0000
1000
0001
0010
0000
0100
0010
0001
0000
1000
0001
0100
0000
,
1001
0000
0000
0000
0000
0000
0000
0000
0001
0000
0000
0000
0000
0000
0000
0000
0100
0000
0000
0000
0000
0000
0000
0000
0010
0000
0000
0000
0000
1000
0000
0000
,
0100
0000
0000
0000
0000
1000
0000
0000
0001
0000
0000
0000
0000
0000
MMMM
0000
0000
0000
0000
0000
1001
0000
0000
0000
0000
0000
0000
0000
0010
0000
0000
0000
,
0100
0000
0000
0000
0000
0000
0000
0000
0001
0000
0000
0000
0000
0000
0000
0000
1000
0000
0000
0000
0000
0000
0000
0000
0100
0000
0000
0000
0000
1000
0000
0000
,
0001
0100
0010
0100
0001
1000
0100
0010
,
0100
0000
0000
0000
0000
0000
0000
0000
1000
0000
0000
0000
0000
0000
0000
0000
0001
0000
0000
0000
0000
0000
0000
0000
0000
0000
0000
0000
0000
0100
0000
0000
,
0010
0000
0000
0000
0000
1000
0000
0000
0001
0000
0000
0000
0000
0000
MMMM
0000
0000
0000
0000
0000
0110
0000
0000
0000
0000
0000
0000
0000
0100
0000
0000
0000
,
0001
1000
0100
0110
,
1001
0000
0011
0000
2020
0000
0000
0030
,
3001
0100
0001
1000
0000
0000
0100
0010
,
0100
1000
0000
M0M0
0002
0000
0000
0103
,
0001
1000
0010
0100
0001
0000
M00M
0000
,
2000
0000
0000
3100
0002
0000
0000
0103
,
1000
0010
0100
0010
0000
0000
0100
0001
,
1000
0100
0000
0M0M
0020
0000
0000
0130
,
1000
0100
0010
0001
1000
0000
MM00
0000
,
0010
0000
0100
0001
0100
0000
0020
0000
0000
0000
0130
0001
0100
0000
0010
0000
,
0100
0010
1000
0001
0000
00MM
0100
0001
,
1000
0100
0000
0000
0020
0000
0000
0130
,
1000
0100
0010
0001
1000
0000
MM00
0000
,
0011
0000
0000
1010
0000
0000
0011
0000
,
1000
0100
1000
0001
0000
0000
0100
0010
,
0100
0001
0000
00MM
2000
0000
0000
3100
,
0010
1000
0010
0001
1000
0000
0000
0000
,
0010
0000
0100
0000
0010
0000
1000
0000
0001
0100
0001
1000
0100
0010
0001
2000
,
0M02
00M0
0000
0000
0000
0000
0000
0000
0000
0000
0000
0000
0000
0000
0000
0000
,
0000
0000
0000
0000
,
3003
0000
0000
0000
;

//---------------dance-single - M. Simmons----------------
#NOTES:
     dance-single:
     M. Simmons:
     Medium:
     8:
     0.530,0.000,0.144,0.207,0.121:
0000
0000
0000
0000
,
0000
0000
0000
0000
,
1100
0011
1100
0001
,
0100
0000
0010
0000
0100
0001
0100
0000
,
0010
1000
0010
0100
0000
0000
0010
1000
,
0001
0100
0000
0000
0001
1000
0100
0000
,
1000
0001
0100
0001
0010
0100
1000
0010
,
0100
0001
1000
0200
0020
0000
0000
0330
,
0100
1000
0001
0100
0000
0000
0010
0100
,
0010
1000
0000
0000
0001
1000
0001
0010
,
1000
0010
0001
0010
1000
0010
0001
0000
,
1000
0000
0000
0100
0110
0000
0000
0010
,
0100
1000
0001
0100
0000
0000
0010
1000
,
0001
0100
0000
0000
0001
1000
0100
0010
,
0001
0010
0100
1000
0100
0001
0100
0010
,
0002
0000
0000
0000
4000
0000
0000
0003
,
3001
0010
0001
0000
0000
1000
0100
0000
,
0020
0230
2300
3002
0023
0230
2300
3002
,
0023
0000
0100
0000
1030
0010
0001
0000
,
2000
3200
0302
0203
,
1300
0001
0100
0001
0000
0100
0010
0100
,
0010
0100
0010
0100
0010
0000
0000
0000
1000
0001
1000
0001
1000
0000
0000
0000
,
0100
0010
0100
1000
0001
0100
0001
0100
,
0010
0000
0000
0001
0000
0000
0010
0000
0000
1000
0000
0000
0100
0000
0010
0000
,
0100
0000
0000
0000
0000
1000
0001
0100
,
0001
0000
0000
0100
0010
1000
0100
0001
,
0100
0010
0001
1000
0001
0100
0010
0000
,
0200
0000
0300
0200
0000
0300
0200
0000
0300
0200
0000
0000
0310
0000
1000
0000
,
0001
0010
0100
0001
0100
0000
1000
0001
,
0100
0001
0000
0000
0100
0010
1000
0100
,
1000
0001
0100
0010
0100
0001
1000
0000
,
4004
0000
0000
0000
0000
0000
0000
3003
,
0110
0000
0000
0000
0000
0000
0010
1000
,
0100
0001
0000
0000
0100
1000
0001
0100
,
0010
1000
0001
0100
0001
1000
0100
0000
,
0110
0000
0001
0001
0001
0000
0110
0000
,
1001
0001
0100
0010
0000
0000
0100
0010
,
1000
0001
0000
0000
0100
0001
1000
0100
,
0010
0100
0001
0100
1000
0001
0100
0000
,
0000
0010
0010
0000
0000
1000
1000
0000
,
0002
0100
0000
0013
,
0100
1000
0001
0100
0010
0100
0001
1000
,
4004
0000
0000
0000
,
0000
0000
0000
0000
0000
0000
0000
0000
0000
0000
0000
0000
0003
0000
0000
000M
,
0040
0000
0000
0000
,
0000
0000
0000
0000
0000
0000
0000
0000
0000
0000
0000
0000
3000
0000
0000
M000
,
0400
0000
0000
0000
,
0000
0000
0000
0000
0000
0000
0000
0000
0000
0000
0000
0000
0030
0000
0000
00M0
,
0004
0000
0000
0000
,
0000
0000
0000
0000
0000
0000
0000
0000
0000
0000
0000
0000
0300
0000
0000
0M00
,
0040
0000
0000
0000
,
0000
0000
0000
0000
0000
0000
0000
0000
0000
0000
0000
0000
0003
0000
0000
000M
,
0400
0000
0000
0000
,
0000
0000
0000
0000
0000
0000
0000
0000
0000
0000
0000
0000
0030
0000
0000
00M0
,
0004
0000
0000
0000
,
0000
0000
0000
0000
0000
0000
0000
0000
0000
0000
0000
0000
0003
0000
0000
000M
,
4000
0000
0000
0000
,
0000
0000
0000
0000
,
3300
0000
0000
0000
0000
0000
MM00
0000
0000
0000
0000
0000
0000
0000
0000
0000
0000
0000
0000
0000
0000
0000
0000
0000
0001
0000
0000
0000
0000
1000
0000
0000
,
0010
0000
0000
0000
0000
0100
0000
0000
0010
0000
0000
0000
0000
0000
0000
0000
0000
0000
0000
0000
0000
0000
0000
0000
0000
0000
0000
0000
0000
0000
0000
0000
,
1000
0000
0000
0000
0000
0000
0000
0000
0100
0000
0000
0000
0000
0000
0000
0000
0010
0000
0000
0000
0000
0000
0000
0000
0100
0000
0000
0000
0000
1000
0000
0000
,
0001
0100
0010
0100
0001
1000
0100
0010
,
0100
0000
0000
0000
0000
0000
0000
0000
1000
0000
0000
0000
0000
0000
0000
0000
0001
0000
0000
0000
0000
0000
0000
0000
0100
0000
0000
0000
0000
0010
0000
0000
,
1000
0000
0000
0000
0000
0001
0000
0000
1000
0000
0000
0000
0000
0000
0000
0000
0000
0000
0000
0000
0000
0000
0000
0000
0000
0000
0000
0000
0000
0000
0000
0000
,
0100
0010
0100
1000
,
0001
0000
0000
0000
0000
1000
0000
0000
0001
0000
0000
0000
0000
0100
0000
0000
0001
0000
0000
0000
0000
0000
0000
0000
0110
0000
0000
0000
0000
0000
0000
0000
,
1001
0001
0100
0001
0000
0000
1000
0100
,
0001
0100
0000
0010
0001
1000
0001
0100
,
0010
0001
0010
1000
0010
0100
0000
0000
,
0110
0100
0101
0000
0000
0001
0001
0000
,
1000
0100
0010
0100
0000
0000
0010
0001
,
1000
0010
0000
0000
0100
0010
1000
0100
,
0010
0100
0001
0100
1000
0001
0000
0000
,
0100
0000
0000
0010
1000
0000
0001
0000
,
1000
0100
1000
0001
0000
0000
0100
0010
,
0100
0001
0000
0000
1000
0001
0010
1000
,
0010
0001
1000
0001
0100
0010
0100
0000
,
0011
0000
1000
1000
1000
0000
0011
0000
,
0100
0010
0001
1000
0000
0000
0010
0100
,
0010
1000
0000
0000
0001
0100
1000
0100
,
0001
1000
0100
0010
0100
1000
0001
0000
,
0200
0000
0000
0000
0000
0000
0010
0000
0310
1000
0010
0100
0010
1000
0010
0100
,
0020
0000
0000
0000
,
0000
0000
0000
0000
,
0030
0000
0000
0000
;

//---------------dance-double - M. Simmons----------------
#NOTES:
     dance-double:
     M. Simmons:
     Challenge:
     13:
     1.000,0.000,0.288,0.171,0.854:
00000000
00000000
00000000
00000000
,
00000000
00000000
00000000
00000000
,
00000000
00000000
00000000
00000000
,
00000000
00000000
00000000
00000000
,
00001100
00000100
00000010
00001000
00010000
00100000
02000000
00000000
,
00000000
03000000
00000000
00000000
00010000
00100000
01000000
00010000
,
00001000
00000100
00000010
00001000
00000001
00000010
00000100
00010000
,
00001000
01000000
10000000
04000000
00040000
00000000
00000000
03030000
,
00001000
00000000
00000100
00000000
00000010
00000000
00001000
00000100
00001000
00000100
00001000
00000000
00010100
00000000
00000100
00000000
,
00001000
00000000
00000001
00000000
00000100
00000000
00001000
00010000
00001000
01000000
00001000
00000000
10000000
00000000
00010000
00000000
,
01000000
00001000
00100000
00001000
01000000
00001000
00100000
00001000
,
10010000
00010000
00100000
01000000
00000000
00010000
00001000
00000000
,
00010000
00000000
00000100
00000000
00000001
00000000
00000100
00010000
00000010
00010000
00000010
00000000
00000100
00000000
00001000
00000000
,
00010000
00000000
00000100
00000000
00000010
00000000
00000001
00001000
00000001
00001000
00000001
00000000
00000100
00000000
00001000
00000000
,
00010000
01000000
00010000
00001000
00010000
00100000
00010000
00001000
,
00010000
00000000
00001000
00000000
01000000
00000000
00100000
00000000
10000000
00010000
01000000
00100000
10000000
01000000
00100000
00010000
,
00100000
00001000
00010000
00000100
00000001
00000100
00001010
00000100
,
00000002
00000100
00001000
00010000
00001000
00000100
00001000
00010000
,
00001003
00000000
00000110
00000000
00011000
00001000
01000000
10000000
,
02000000
03002000
00003200
00000302
,
00001003
00000100
00010000
01000000
10000000
00010000
01010000
10000000
,
01000000
00100000
00010000
01000000
00001000
00000000
00000000
00000000
00010000
00000100
00000010
00000001
00001000
00000000
00000000
00000000
,
00000010
00000100
00001000
00010000
00001000
00100000
01000000
10000000
,
10000000
01000000
00100000
00010000
00100000
00001000
00010000
00000100
00001000
00000010
00000100
00000010
00001000
00000001
00000100
00000001
,
00000010
00000000
00000100
00000000
00000100
00000000
00000000
00000000
00010000
00000000
00001000
00000000
00100000
00000000
00010000
10000000
,
00100000
00100000
01000000
00001000
00000100
00000010
00001000
00000100
,
00010000
00100000
00010000
00001000
00000100
00001000
00010000
00100000
,
00020000
00000000
00000000
00230000
00000000
00000000
20300000
00000000
00000000
32000000
00000000
00000000
03100000
00000000
00001000
00000000
,
00101000
00010000
00000010
00000100
00000001
00001000
00000100
00010000
,
00001000
01000000
10000000
01000000
00010000
10000000
01000000
00010000
,
00001000
00010000
01000000
10000000
01000000
00010000
00001000
00010000
,
01000000
10000000
00010000
01000000
00100000
01000000
00001000
00100000
00001000
00010000
00000100
00000010
00000001
00001000
00000010
00000100
,
00000001
00000100
00000010
00001000
00000100
00010000
00011000
00101000
,
00011000
00010000
01000000
10000000
00010000
01000000
00001000
00010000
,
00000100
00000010
00000100
00010000
00001000
00010000
00000100
00000010
,
00000200
00000000
00010300
00010000
00110000
00000000
01000000
01000000
,
10000000
00001000
00010000
00000100
00000010
00000001
00001000
00000010
,
00000100
00001000
00010000
00000000
00010000
00000000
00001000
00000000
00100000
01000000
00100000
00000000
00010000
00000000
00100000
00000000
,
00000100
00100000
00001000
00100000
00000100
00100000
00001000
00010000
,
00000100
00011000
00011000
00000000
00000000
00001100
00001100
00000010
,
00000202
00000000
00000000
00000303
,
00001000
00000010
00000001
00000010
00001000
00000001
00000100
00000001
,
00001000
00000001
00000010
00000001
00001000
00000010
00000100
00000010
00001000
00000001
00000010
00000100
00000010
00000001
00001000
00000001
,
00000100
00000001
00001000
00000100
00000010
00000100
00001000
00000001
00000100
00000001
00000100
00000010
00000100
00000001
00001000
00000100
,
00010000
00001000
00010000
00000100
00001000
00000100
00010000
00001000
00010000
00000010
00001000
00000010
00000100
00000010
00001000
00000010
,
00000100
00000010
00001000
00000100
00010000
00001000
00010000
00000100
00010000
00001000
00010000
00000010
00010000
00001000
00010000
00001000
,
01000000
00001000
00010000
00001000
00100000
00001000
00010000
00001000
01000000
00010000
01000000
00100000
01000000
00010000
00100000
00001000
,
00010000
00001000
00100000
00010000
00100000
00001000
00010000
00001000
01000000
00010000
01000000
00100000
01000000
00100000
01000000
00010000
,
00100000
00010000
10000000
00100000
10000000
00010000
01000000
00100000
01000000
00010000
10000000
01000000
00100000
01000000
10000000
00010000
,
01000000
00010000
10000000
01000000
00100000
01000000
10000000
00010000
01000000
00010000
01000000
00100000
10000000
00010000
01000000
00010000
,
10000000
01000000
00100000
00010000
00100000
00001000
00100000
00001000
00010000
00000100
00001000
00000100
00010000
00001000
00100000
00010000
,
00100000
00001000
00010000
00001000
00010000
00000100
00001000
00000100
00010000
00001000
01000000
00010000
00100000
00001000
00010000
00000100
,
00010000
00000100
00000010
00000100
00000010
00000100
00001000
00000100
00010000
00001000
00010000
00000010
00001000
00000010
00010000
00001000
,
00010000
00000100
00000010
00000100
00000010
00000100
00000010
00000001
00000010
00000100
00001000
00000001
00000100
00000001
00001000
00000100
,
00000010
00000001
00001000
00000100
00001000
00000001
00000100
00000010
00000100
00000010
00000100
00000001
00001000
00000100
00000010
00000100
,
00000010
00000001
00000010
00000100
00001000
00000001
00000100
00000010
00001000
00000010
00000100
00000001
00001000
00000100
00000010
00000100
,
00010000
00000100
00000010
00000100
00001000
00000100
00001000
00000100
00010000
00001000
00010000
00000010
00010000
00001000
00010000
00000100
,
00000010
00000100
00001000
00000100
00010000
00001000
00010000
00000100
00000010
00000100
00001000
00000100
00010000
00000100
00010000
00000100
,
00001000
00000000
00000000
00000000
00000000
00000000
00000000
00000000
00000100
00000000
00000000
00000000
00000000
00000000
00000000
00000000
00100000
00000000
00000000
00000000
00000000
00000000
00000000
00000000
01000000
00000000
00000000
00000000
00000000
00100000
00000000
00000000
,
00110000
00000000
00000000
00000000
00000000
00100000
00000000
00000000
00101000
00000000
00000000
00000000
00000000
00000000
00000000
00000000
00000000
00000000
00000000
00000000
00000100
00000000
00000000
00000000
00000000
00000000
00000000
00000000
00000100
00000000
00000000
00000000
,
00010000
00000000
00000000
00000000
00000000
00000000
00000000
00000000
00001000
00000000
00000000
00000000
00000000
00000000
00000000
00000000
00110000
00000000
00000000
00000000
00000000
00000000
00000000
00000000
01000000
00000000
00000000
00000000
00000000
01000000
00000000
00000000
,
10000000
00010000
01000000
00001000
00010000
00000100
00000010
00000001
,
00002000
00000020
00000030
00003010
00001020
00000000
00000000
00000000
,
00010030
00001000
00100000
00000000
01000000
20000000
00000000
30010000
,
01010000
00000000
00001000
00010000
00011000
00000000
00010100
00000000
,
00001010
00011000
00110000
00001100
,
00000010
00000000
00001000
00000000
00000001
00000000
00000100
00000010
00000100
00000010
00010000
00000000
00001000
00000000
00100000
00000000
,
00010000
00000000
10000000
00000000
01000000
00000000
00100000
01000000
00100000
00010000
00100000
00000000
00001000
00000000
00010000
00000000
,
00000100
00100000
00001000
00010000
00000100
00100000
00001000
00010000
,
00000100
00000000
00000000
00000100
00000010
00000000
00000001
00000000
00000000
00000100
00000010
00000000
00001000
00000000
00000100
00000000
,
00001000
00000000
00000010
00000000
00010000
00000000
01000000
10000000
00010000
10000000
00010000
00000000
01000000
00000000
00001000
00000000
,
00010000
00000000
00000010
00000000
00000100
00000000
00000010
00000100
00000010
00000100
00000010
00000000
00001000
00000000
00000100
00000000
,
00010000
00001000
10000000
01000000
10000000
00001000
00010000
00000001
,
00001000
00000000
00000001
00000010
00000001
00000000
00002000
00000000
00000000
00000000
00003001
00000010
00000001
00000000
00001000
00000000
,
00000010
00000000
00010000
00000000
00001000
00000000
01000000
00000000
00100000
00000000
10000000
01000000
10000000
00010000
01000000
00000000
,
00001000
00010000
00000100
00010000
00001000
01000000
00100000
00010000
,
00100000
10000000
00100000
00001000
00100000
10000000
00100000
00001000
,
00100000
00000000
01100000
01000000
01001000
00000000
00011000
00000000
,
00010100
00000000
00001000
00000000
00000001
00000000
00000100
00000001
00000100
00000010
00001000
00000000
00000100
00000000
00000010
00000000
,
00001000
00000000
00010000
00000000
00001000
00000000
01000000
00100000
10000000
00010000
10000000
00000000
01000000
00000000
10000000
00000000
,
00010000
00100000
00000100
00100000
00010000
00100000
00000100
00100000
,
00010000
00000000
10000000
00000000
01000000
00000000
00000000
00000000
00100000
00001000
00100000
00010000
00100000
00001000
00010000
00000100
,
00002000
00000000
00000000
00000000
,
00000000
00000000
00000000
00000000
,
00003000
00000000
00000000
00000000
;

//---------------dance-single - M. Simmons----------------
#NOTES:
     dance-single:
     M. Simmons:
     Beginner:
     1:
     0.105,0.000,0.045,0.000,0.000:
0000
0000
0000
0000
,
0000
0000
0000
0000
,
0000
0000
0000
0000
,
0000
0000
0000
0000
,
1000
0000
0000
0001
,
0000
0000
0100
0000
,
0010
0000
0000
0000
,
0000
0000
0000
0000
,
1000
0000
0000
0001
,
0000
0000
0100
0000
,
0001
0000
0000
0000
,
0000
0000
0000
0000
,
0100
0000
0000
0010
,
0000
0000
0100
0000
,
0001
0000
0000
0000
,
0000
0000
1001
0000
,
0100
0000
0000
0010
,
0010
0000
0000
0000
,
0100
0000
0000
0000
,
0001
0000
0000
0000
,
1000
0000
0000
0100
,
0100
0000
0000
0000
,
1000
0000
0000
0000
,
0001
0000
0000
0000
,
1000
0000
0000
0010
,
0000
0000
0100
0000
,
0010
0000
0000
0000
,
0000
0000
0000
0000
,
0100
0000
0000
0001
,
0000
0000
1000
0000
,
1000
0000
0000
0000
,
0100
0000
0000
0000
,
0100
0000
0000
1000
,
0000
0000
0001
0000
,
1000
0000
0000
0000
,
0000
0000
0000
0000
,
0010
0000
0000
0100
,
0000
0000
0010
0000
,
1000
0000
0000
0000
,
0000
0000
0000
0000
,
1001
0000
0000
0000
,
0110
0000
0000
0000
,
1000
0000
0000
0000
,
0000
0000
0000
0000
,
0100
0000
0000
0000
,
0000
0000
0000
0000
,
0010
0000
0000
0000
,
0000
0000
0000
0000
,
0001
0000
0000
0000
,
0000
0000
0000
0000
,
1000
0000
0000
0000
,
0000
0000
0000
0000
,
0001
0000
0000
0000
,
0000
0000
0000
0000
,
0100
0000
0000
0000
,
0000
0000
0000
0000
,
0010
0000
0000
0000
,
0000
0000
0000
0000
,
0110
0000
0000
0000
,
0000
0000
0000
0000
,
0001
0000
0000
0000
,
0000
0000
0000
0000
,
1000
0000
0000
0000
,
0100
0000
0000
0000
,
0010
0000
0010
0000
,
0100
0100
0100
0000
,
1000
0000
0000
0001
,
0000
0000
0100
0000
,
0010
0000
0000
0000
,
0000
0000
0000
0000
,
0100
0000
0000
0010
,
0000
0000
1000
0000
,
0001
0000
0000
0000
,
0000
0000
0000
0000
,
0100
0000
0000
0001
,
0000
0000
1000
0000
,
0100
0000
0000
0000
,
0000
0000
0000
0000
,
0010
0000
0000
0100
,
0000
0000
1000
0000
,
0010
0000
0000
0000
,
0000
0000
0001
0000
,
1001
0000
0000
0000
;

//---------------dance-double - M. Simmons----------------
#NOTES:
     dance-double:
     M. Simmons:
     Easy:
     4:
     0.402,0.000,0.108,0.270,0.000: // measure 1
00000000
00000000
00000000
00000000
,  // measure 2
00000000
00000000
00000000
00000000
,  // measure 3
00000000
00000000
00000000
00000000
,  // measure 4
00000000
00000000
00000000
00000000
,  // measure 5
00010000
00001000
00000000
00100000
,  // measure 6
00010000
00000000
10010000
00000000
,  // measure 7
01000000
00001000
01000000
00001000
,  // measure 8
00010000
00000000
00000100
00000000
00020200
00000000
00000000
00030300
,  // measure 9
00001000
00000010
00001000
00000001
,  // measure 10
00000100
00000001
00001000
00000100
,  // measure 11
00000010
00000001
00000010
00000001
,  // measure 12
00001000
00000000
00000000
00000010
00000010
00000000
00000010
00000000
,  // measure 13
00001000
00000100
00010000
00001000
,  // measure 14
01000000
00010000
10000000
01000000
,  // measure 15
10000000
00010000
01000000
00001000
,  // measure 16
00010000
00000010
00000220
00000000
,  // measure 17
00000330
00000000
00000000
00000001
,  // measure 18
00000100
00000010
00000100
00000010
,  // measure 19
00001000
00000100
00010100
00000000
,  // measure 20
00002000
00023000
00032000
00023000
,  // measure 21
00031000
01000000
00100000
01000000
,  // measure 22
00020000
00030000
20000000
30000000
,  // measure 23
01000000
00100000
00001000
00010000
,  // measure 24
00002200
00000000
00000000
00000000
,  // measure 25
00003300
00000000
00000000
00000001
,  // measure 26
00000100
00000001
00001000
00000100
,  // measure 27
00010000
00001000
00100000
00001000
,  // measure 28
00200000
00000000
00000000
00000000
,  // measure 29
01300000
10000000
00010000
01000000
,  // measure 30
00001000
00010000
00000010
00010000
,  // measure 31
00000100
00010000
00000010
00000100
,  // measure 32
00000002
00002003
00003020
00000230
,  // measure 33
00000301
00000000
00000000
00001000
,  // measure 34
00000100
00010000
00001000
00100000
,  // measure 35
00001000
01000000
00010000
10000000
,  // measure 36
01000000
00000000
00000000
00100000
00100000
00000000
00100000
00000000
,  // measure 37
01000000
10000000
00010000
00100000
,  // measure 38
00001000
00010000
00001000
01000000
,  // measure 39
00010000
10000000
00100000
01000000
,  // measure 40
00100000
10000000
00000000
00010000
,  // measure 41
00200000
00001000
00000000
00001000
,  // measure 42
00301000
00010000
00001000
00010000
,  // measure 43
00000200
00001000
00000010
00001000
,  // measure 44
00000010
00000001
00000010
00000001
,  // measure 45
00000320
00000001
00000100
00000001
,  // measure 46
00000100
00001000
00000100
00001000
,  // measure 47
00000230
00001000
00010000
00001000
,  // measure 48
00010000
00000010
00010000
00000010
,  // measure 49
00020300
00001000
00000100
00001000
,  // measure 50
00000100
00001000
00100000
00001000
,  // measure 51
00230000
10000000
01000000
10000000
,  // measure 52
01000000
00010000
01000000
00010000
,  // measure 53
02300000
00010000
00100000
00010000
,  // measure 54
00100000
10000000
00100000
10000000
,  // measure 55
03200000
01000000
00010000
01000000
,  // measure 56
10000000
01000000
00010000
01000000
,  // measure 57
20300000
00010000
00100000
00010000
,  // measure 58
00100000
01000000
00100000
31000000
,  // measure 59
11000000
10000000
00010000
00000000
,  // measure 60
00100000
00001000
00000000
00000000
,  // measure 61
00011000
00010000
00000100
00000000
,  // measure 62
00001000
00000010
00000000
00000000
,  // measure 63
00000101
00000010
00001000
00000000
,  // measure 64
00000100
00010000
00000000
00000000
,  // measure 65
00000110
00000010
00010000
00000000
,  // measure 66
00001000
00100000
00000000
00000000
,  // measure 67
01000000
10000000
00010000
01000000
,  // measure 68
00001000
00010000
00000100
00001000
,  // measure 69
00000001
00000010
00000001
00001000
,  // measure 70
00000010
00000000
00000000
00000100
,  // measure 71
00000010
00010000
00000100
00010000
,  // measure 72
00001000
01000000
00100000
00010000
,  // measure 73
00100000
10000000
00010000
01000000
,  // measure 74
00002000
00013000
00000000
00020000
,  // measure 75
00030100
00001000
00000001
00000100
,  // measure 76
00000010
00000001
00000010
00001000
,  // measure 77
00000100
00010000
00001000
01000000
,  // measure 78
00100000
10010000
00000000
01100000
,  // measure 79
01000000
00001000
00010000
00000100
,  // measure 80
00000010
00001000
00000010
00000001
,  // measure 81
00001000
00000001
00000100
00000010
,  // measure 82
00010000
00001000
00022000
00000000
,  // measure 83
00033000
00000000
00000000
00000000
;

//---------------dance-single - M. Simmons----------------
#NOTES:
     dance-single:
     M. Simmons:
     Easy:
     6:
     0.384,0.000,0.081,0.072,0.022: // measure 1
0000
0000
0000
0000
,  // measure 2
0000
0000
0000
0000
,  // measure 3
0000
0000
0000
0000
,  // measure 4
0001
0000
1000
0100
0000
0010
0001
0000
,  // measure 5
2000
0001
3100
0020
,  // measure 6
0100
0000
1030
0000
0200
0000
0000
0001
,  // measure 7
0301
1000
0100
1000
,  // measure 8
0001
0010
0100
1000
0004
0000
0000
0000
,  // measure 9
1003
0010
1000
0000
0001
0000
0100
0010
,  // measure 10
0100
0010
1000
0100
,  // measure 11
0010
0001
0010
0001
0010
0000
0100
0000
,  // measure 12
0110
1001
0000
1100
,  // measure 13
0001
0100
0010
0000
0100
0000
0010
1000
,  // measure 14
0001
0100
0010
0100
,  // measure 15
0010
0100
0010
0100
0010
0000
1000
0000
,  // measure 16
0001
0101
2004
0000
,  // measure 17
3003
0000
0000
0000
0000
0010
0100
0000
,  // measure 18
0001
1000
0001
1000
0001
1000
0001
1000
,  // measure 19
0001
0000
0100
0000
0001
1000
0100
0000
,  // measure 20
0020
1000
0001
1030
,  // measure 21
0010
0001
0010
0000
0100
0000
1000
0000
,  // measure 22
0001
0100
0001
0000
1000
0100
1000
0000
,  // measure 23
0001
0100
0010
0000
0100
0000
0001
0000
,  // measure 24
1000
0000
0000
0100
0000
0000
0010
0000
0000
0001
0000
0000
0010
0000
0100
0000
,  // measure 25
1000
0001
0100
0000
0010
0000
0100
0001
,  // measure 26
1000
0001
0100
0010
,  // measure 27
0100
0001
0100
0001
0100
0000
0000
0000
,  // measure 28
0010
0000
0000
0100
0000
0000
0001
0000
0000
1000
0000
0000
0010
0000
0100
0000
,  // measure 29
0001
1000
0100
0000
0010
0000
0100
1000
,  // measure 30
0001
0010
0001
1000
,  // measure 31
0010
1000
0010
1000
0010
0000
0000
0000
,  // measure 32
0420
0000
0000
0000
,  // measure 33
0330
0000
0000
0000
0000
0000
0001
1000
,  // measure 34
0001
0100
0010
0100
,  // measure 35
0001
1000
0001
1000
0001
0000
0000
0000
,  // measure 36
0100
0000
0001
0001
1000
0000
0000
0000
,  // measure 37
0100
0010
0100
0000
1000
0000
0001
0100
,  // measure 38
0001
1000
0010
0100
,  // measure 39
0001
0010
0001
0010
0001
0000
0000
0000
,  // measure 40
0000
1000
1000
0000
0000
0010
0010
0100
,  // measure 41
0200
0000
0000
0000
,  // measure 42
0310
1000
0010
1000
0010
1000
0010
1000
,  // measure 43
0004
4000
0000
0000
0000
0000
0000
0000
0000
0000
0000
0000
0000
0000
0000
0000
,  // measure 44
0000
0000
0000
0000
,  // measure 45
0000
0000
0000
0000
,  // measure 46
0000
0000
0000
0000
,  // measure 47
0000
0000
0000
0000
,  // measure 48
0000
0000
0000
0000
,  // measure 49
0000
0000
0000
0000
,  // measure 50
0000
0000
0000
0000
,  // measure 51
0000
0000
0000
0000
,  // measure 52
0000
0000
0000
0000
,  // measure 53
0000
0000
0000
0000
,  // measure 54
0000
0000
0000
0000
,  // measure 55
0000
0000
0000
0000
,  // measure 56
0000
0000
0000
0000
,  // measure 57
0000
0000
0000
0000
,  // measure 58
0000
0000
0000
0000
,  // measure 59
3003
0000
0000
0000
,  // measure 60
0010
0010
0000
0000
,  // measure 61
0100
0001
1000
0001
,  // measure 62
0100
0100
0000
0000
,  // measure 63
0010
1000
0001
0100
,  // measure 64
0001
0001
0000
0000
,  // measure 65
1000
0100
0010
1000
,  // measure 66
0010
0010
0000
0000
,  // measure 67
0100
1000
0100
0000
1000
0000
0001
0100
,  // measure 68
0001
1000
0010
0100
,  // measure 69
0001
1000
0001
1000
0001
0000
0000
0000
,  // measure 70
0100
0000
0010
0110
0000
0100
0100
0000
,  // measure 71
0001
1000
0100
0000
0010
0000
0100
1000
,  // measure 72
0001
0100
0010
1000
,  // measure 73
0100
1000
0100
1000
0100
0000
0000
0000
,  // measure 74
0010
0011
0000
1000
,  // measure 75
0001
0100
0001
0000
1000
0000
0100
0010
,  // measure 76
0100
1000
0001
0100
,  // measure 77
0010
1000
0010
1000
0010
0000
0000
0000
,  // measure 78
1000
0000
0100
0010
0000
0001
0010
0000
,  // measure 79
0001
1000
0010
0000
0100
0000
0010
1000
,  // measure 80
0001
0100
0001
1000
,  // measure 81
0100
0010
0100
0010
0100
0000
1000
0000
,  // measure 82
0001
1000
0010
0000
2004
0000
0000
0000
,  // measure 83
0003
0000
0000
0000
,  // measure 84
3000
0000
0000
0000
;

//---------------dance-double - M. Simmons----------------
#NOTES:
     dance-double:
     M. Simmons:
     Hard:
     11:
     0.774,0.000,0.324,0.045,0.256:
00000000
00000000
00000000
00000000
,
00000000
00000000
00000000
00000000
,
00000000
00000000
00000000
00000000
,
00000100
00001000
00000010
00000100
00000000
00000010
00001000
00000001
,
00001000
00000100
00010000
00001000
00000000
00000000
01000000
00100000
,
10000000
00010000
00000000
00000000
01000000
00000000
00000000
00100000
,
01000000
00010000
00100000
00001000
00000100
00000010
00000001
00000010
,
00001000
00000100
00001000
00000001
00000400
00000000
00000000
00000000
,
00000310
00001000
00000100
00010000
00000000
00000000
00001000
00100000
,
01000000
10000000
00000000
00010000
01000000
00100000
00010000
00001000
,
00010000
00000100
00010000
00001000
01000000
00100000
10000000
00000000
,
11000000
01000000
00010000
00001000
00000000
00010000
00000100
00000010
,
00001000
00000010
00000001
00001000
00000000
00000000
00000010
00000001
,
00000010
00001000
00000000
00000000
00000100
00000000
00000000
00010000
,
00100000
00010000
00100000
00010000
00001000
00000100
00001000
00000100
,
00000001
00001000
00000100
00000040
00000004
00000000
00000000
00000033
,
00000100
00000001
00001000
00000100
00000000
00010000
00001000
00000000
,
00001000
00000100
00000001
00000010
00001000
00010000
00100000
10000000
,
00200000
00000000
01300000
00000000
00010000
00100000
00010000
00100000
,
00004000
00043000
00030400
00000340
,
00000130
00010000
00001000
01000000
00000000
00100000
01000000
00010000
,
10000000
00010000
10000000
00010000
10000000
00000000
00000000
00000000
00001000
00100000
00001000
00100000
00001000
00000000
00000000
00000000
,
00010000
00000100
00000010
00001000
00010000
00000010
00000100
00000010
,
00010000
00000000
00000000
00001000
00000000
00000000
00000100
00000000
00000000
00000001
00000000
00000000
00001000
00000000
00000100
00000000
,
00010000
01000000
10000000
00010000
00000000
00000000
01000000
00100000
,
00010000
00100000
00000000
10000000
01000000
00100000
00001000
00010000
,
00000100
00000010
00000001
00001000
00000010
00000001
00000000
00000000
,
00000010
00000000
00000000
00001000
00000000
00000000
00000100
00000000
00000000
00010000
00000000
00000000
01000000
00000000
10000000
00000000
,
00010000
00100000
10000000
00100000
00000000
00000000
00001000
00010000
,
00000100
00010000
00000000
00000000
00000010
00000100
00000010
00000001
,
00000010
00001000
00000100
00000010
00001000
00010000
00100000
01000000
,
00010000
00100000
00010000
00000000
00100000
00001000
00100000
00000000
00001000
00010000
00001000
00000000
00010000
00000100
00010000
00000000
,
00000100
00001000
00000010
00000100
00000000
00000000
00000010
00001000
,
00000001
00000010
00000000
00000000
00001000
00010000
00100000
01000000
,
00001000
00010000
00000100
00000010
00001000
00010000
00100000
01000000
,
00001000
00000000
00010000
00010000
00011000
00000000
00001000
00100000
,
00001000
01000000
00010000
01000000
00000000
00000000
00100000
10000000
,
01000000
00010000
00000000
00000000
00001000
00000100
00000001
00000100
,
00000010
00001000
00000100
00010000
01000000
00100000
01000000
10000000
,
00010000
01000000
01000000
00000000
00000000
00001000
00001000
00010000
,
00000100
00000000
00000000
00000000
00001000
00000000
00000000
00000010
00000100
00000000
00000001
00000000
00001000
00000000
00000000
00000000
,
00000100
00001000
00000010
00010000
00001000
00100000
00001000
00010000
,
00001000
00000000
00100000
00000000
00010000
10000000
00010000
01000000
00100000
00000000
01000000
00000000
00110000
00000000
11000000
00000000
,
10000000
00000000
00010000
00000000
00100000
00001000
00010000
00000100
00001000
00000000
00000010
00000000
00000110
00000000
00001010
00000000
,
00000100
00000000
00000010
00000000
00001000
00000100
00010000
00001000
00100000
00000000
00010000
00000000
00110000
00000000
10010000
00000000
,
01000000
00000000
00010000
00000000
00100000
01000000
00100000
00010000
00100000
00000000
00001000
00000000
00011000
00000000
00010100
00000000
,
00001000
00000000
00000010
00000000
00000100
00000001
00000100
00000010
00000100
00000000
00000010
00000000
00001010
00000000
00001100
00000000
,
00010000
00000000
00001000
00000000
00100000
00010000
10000000
00100000
01000000
00000000
00100000
00000000
01100000
00000000
01010000
00000000
,
00100000
00000000
00001000
00000000
00010000
00000100
00001000
00000001
00000100
00000000
00000010
00000000
00001010
00000000
00000101
00000000
,
00000001
00000000
00001000
00000000
00000100
00000010
00000100
00010000
00001000
00000000
00100000
00000000
00110000
00000000
10100000
00000000
,
01000000
00000000
00001000
00000000
00100000
00010000
00100000
01000000
10000000
00000000
00010000
00000000
00110000
00000000
00101000
00000000
,
00010000
00000000
00000100
00000000
00000010
00000100
00001000
00000001
00000100
00000000
00000010
00000000
00001001
00000000
00000110
00000000
,
00001000
00000000
00000100
00000000
00010000
00001000
00100000
01000000
10000000
00000000
00010000
00000000
01010000
00000000
00110000
00000000
,
00100000
00000000
00001000
00000000
00010000
00000100
00001000
00000100
00010000
00000000
00001000
00000000
00101000
00000000
01010000
00000000
,
00010000
00000000
01000000
00000000
00100000
10000000
00010000
00100000
00001000
00000000
00010000
00000000
00010100
00000000
00001100
00000000
,
00000010
00000000
00000100
00000000
00000010
00000001
00000010
00000001
00001000
00000000
00000010
00000000
00000110
00000000
00000101
00000000
,
00000001
00000000
00001000
00000000
00000100
00010000
00001000
00010000
00000010
00000000
00000100
00000000
00001010
00000000
00000101
00000000
,
00000010
00000000
00001000
00000000
00000100
00010000
00001000
00100000
00010000
00000000
10000000
00000000
10100000
00000000
01010000
00000000
,
20020000
00000000
00000000
00000000
,
30030000
00000000
00000000
00000000
,
00010000
00000000
00000000
00000000
00000000
00000000
00000000
00000000
00100000
00000000
00000000
00000000
00000000
00000000
00000000
00000000
00001000
00000000
00000000
00000000
00000000
00000000
00000000
00000000
00010000
00000000
00000000
00000000
00000000
00001000
00000000
00000000
,
00010000
00000100
00001000
00000100
00010000
00000100
00001000
00000100
,
00010000
00000000
00000000
00000000
00000000
00000000
00000000
00000000
00001000
00000000
00000000
00000000
00000000
00000000
00000000
00000000
01000000
00000000
00000000
00000000
00000000
00000000
00000000
00000000
00000000
00000000
00000000
00000000
00000000
00100000
00000000
00000000
,
10000000
00000000
00000000
00000000
00000000
00010000
00000000
00000000
01000000
00000000
00000000
00000000
00000000
00000000
00000000
00000000
00000000
00000000
00000000
00000000
00011000
00000000
00000000
00000000
00000000
00000000
00000000
00000000
00000000
00000100
00000000
00000000
,
00001000
00000000
00000000
00000000
00000000
00000000
00000000
00000000
00000010
00000000
00000000
00000000
00000000
00000000
00000000
00000000
00000010
00000000
00000000
00000000
00000000
00000000
00000000
00000000
00000000
00000000
00000000
00000000
00000000
00000100
00000000
00000000
,
00000001
00000000
00000000
00000000
00000000
00001000
00000000
00000000
00000100
00000000
00000000
00000000
00000000
00010000
00000000
00000000
00001000
00000000
00000000
00000000
00000000
00100000
00000000
00000000
00010000
00000000
00000000
00000000
00000000
00000000
00000000
00000000
,
10000000
00010000
00100000
00001000
00000000
00000000
01000000
00100000
,
00010000
00100000
00000000
00000000
10000000
01000000
10000000
00010000
,
00100000
00001000
00010000
00000010
00000100
00000001
00001000
00000100
,
00000010
00000100
00000100
00000000
00000000
00001000
00000001
00000100
,
00000001
00001000
00000100
00010000
00000000
00000000
00001000
00100000
,
01000000
10000000
00000000
00000000
00010000
01000000
00001000
00100000
,
01000000
10000000
00010000
00100000
00001000
00010000
00000010
00000100
,
00000010
00000100
00000100
00000000
00000000
00000010
00000010
00010000
,
00000100
00001000
00000100
00010000
00000000
00000000
00001000
01000000
,
00100000
01000000
00000000
00000000
00010000
10000000
00010000
01000000
,
00001000
00010000
00000010
00000100
00000010
00001000
00000100
00010000
,
00001000
00000000
10000000
10000000
00000000
00100000
00100000
00000000
,
01000000
00010000
10000000
01000000
00000000
00000000
00010000
00001000
,
00000100
00000010
00000000
00000000
00000100
00000001
00001000
00000100
,
00000010
00001000
00010000
00001000
01000000
00100000
01000000
00010000
,
10000000
00000000
01000000
00000000
00100000
00000000
00001000
00000000
00010000
00001000
00010000
00001000
00010000
00001000
00010000
00002000
,
00020000
00000000
00000000
00000000
,
00033000
00000000
00000000
00000000
;

//---------------dance-double - M. Simmons----------------
#NOTES:
     dance-double:
     M. Simmons:
     Medium:
     7:
     0.381,0.000,0.099,0.099,0.018:
00000000
00000000
00000000
00000000
,
00000000
00000000
00000000
00000000
,
00000000
00000000
00000000
00000000
,
00000000
00000000
00000000
00000000
,
00001000
00010000
00001000
00000000
00000000
00000000
00100000
00010000
,
00100000
00000000
01000000
00000000
,
10000000
00010000
10000000
00010000
10000000
00000000
00000000
00000000
,
00000000
00000000
00000000
00000000
20020000
00000000
00000000
30030000
,
01000000
00001000
01000000
00000000
00000000
00000000
00001000
00010000
,
00000100
00000000
00000100
00000000
,
00000010
00000001
00000010
00000001
00001000
00000000
00000000
00000000
,
00000010
00001000
00000100
00010000
,
00001000
00010000
00001000
00000000
00000000
00000000
00100000
00010000
,
10000000
00000000
01000000
00000000
,
00010000
00001000
00010000
00000100
00000010
00000000
00000000
00000000
,
00000001
00000000
00001000
00000000
00000220
00000000
00000000
00000330
,
00000010
00000100
00000010
00000000
00000000
00001000
00000100
00000000
,
00010000
00001000
00100000
00001000
00010000
00001000
00100000
00001000
,
00010000
00000000
00002000
00000000
00010000
00010000
00103000
00100000
,
00002000
00023000
00030200
00002300
,
00003010
00000100
00000010
00000000
00000000
00000100
00000100
00000000
,
00000001
00001000
00000100
00000000
00001000
00000010
00010000
00000000
,
00001000
00010000
00000000
00001000
00010000
00001000
00100000
00010000
,
00100000
00000000
00000000
01000000
00000000
00000000
00100000
00000000
00000000
01000000
00000000
00000000
00100000
00000000
01000000
00000000
,
00100000
00010000
00100000
00000000
00000000
00000000
00001000
00010000
,
00000100
00000000
00000000
00000100
00000010
00000000
00000000
00000000
,
00000001
00001000
00000010
00001000
00000100
00010000
00000000
00000000
,
00001000
00000000
00000000
00010000
00000000
00000000
00001000
00000000
00000000
00010000
00000000
00000000
00001000
00000000
00010000
00000000
,
00001000
00010000
00100000
00000000
00000000
00000000
01000000
00010000
,
10000000
00000000
00000000
00000000
01000000
00100000
00000000
00000000
,
00010000
00100000
00001000
00010000
00000100
00001000
00000000
00000000
,
00000040
00000000
00000000
00000000
,
00000130
00000001
00001000
00000000
00000000
00000000
00000100
00001000
,
00000001
00000000
00000000
00000000
00000100
00000010
00000000
00000000
,
00001000
00000100
00010000
00000010
00000100
00001000
00000000
00000000
,
00010000
00000000
00001000
00010000
00001000
00000000
00000000
00010000
,
00001000
00100000
00010000
00000000
00000000
00000000
10000000
00100000
,
01000000
00000000
00000000
00000000
00001000
00010000
00000000
00000000
,
00000100
00000010
00000001
00000010
00001000
00000010
00000000
00000000
,
00000001
00001000
00000010
00000100
00000000
00000010
00010000
00001000
,
00010000
00011000
00000000
00001000
,
00010000
00001000
00100000
00010000
00100000
00001000
00010000
00000040
,
00400000
00000000
00000000
00000000
,
00000000
00000000
00000000
00300030
,
04000400
00000000
00000000
00000000
,
00000000
00000000
00000000
03000300
,
40004000
00000000
00000000
00000000
,
00000000
00000000
00000000
30003000
,
00400040
00000000
00000000
00000000
,
00000000
00000000
00000000
00300030
,
00040004
00000000
00000000
00000000
,
00000000
00000000
00000000
00030003
,
04000400
00000000
00000000
00000000
,
00000000
00000000
00000000
03000300
,
00404000
00000000
00000000
00000000
,
00000000
00000000
00000000
00303000
,
00040400
00000000
00000000
00000000
,
00000000
00000000
00000000
00000000
,
00030300
00000000
00000000
00000000
,
00001000
00010000
00000000
00000100
,
00001000
00000001
00000100
00000010
,
00000100
00000010
00000100
00000010
00000100
00000010
00000100
00000010
,
00000100
00000001
00001000
00000100
,
00010000
00001000
00000000
00000000
,
00100000
00010000
10000000
00100000
,
01000000
00010000
00000000
00000000
,
00100000
00010000
00100000
00000000
00000000
00000000
00001000
00010000
,
00001000
00000000
00010000
00000000
,
00000100
00000010
00000100
00000010
00000100
00000000
00000000
00000000
,
00001000
00001000
00000000
00000100
,
00000100
00001000
00000100
00000000
00000000
00000000
00010000
00001000
,
00100000
00000000
00010000
00000000
,
10000000
00100000
10000000
00100000
10000000
00000000
00000000
00000000
,
00010000
00010000
00000000
00100000
,
00010000
00100000
00001000
00000000
00000000
00000000
00010000
00001000
,
00010000
00000000
00000100
00000000
,
00001000
00000010
00001000
00000010
00001000
00000000
00000000
00000000
,
00000010
00000000
00000100
00000000
00000000
00000001
00000000
00000000
,
00001000
00000100
00010000
00000000
00000000
00000000
00001000
00100000
,
00010000
00000000
10000000
00000000
,
01000000
00100000
01000000
00100000
01000000
00000000
00000000
00000000
,
00100000
00000000
00001000
00000000
00010000
00001000
00010000
00000000
,
00022000
00000000
00000000
00000000
,
00033000
00000000
00000000
00000000
;

//---------------dance-single - D. Bernardone----------------
#NOTES:
     dance-single:
     D. Bernardone:
     Challenge:
     14:
     1.000,0.000,1.000,0.297,1.000:
0000
0000
0000
0000
,
0000
0000
0000
0000
,
0000
0000
0000
0000
,
0000
0000
0000
0000
,
0001
0000
1000
0000
0010
0000
1000
0100
1000
0100
1000
0000
0010
0000
0010
0000
,
0110
0001
0010
0100
1000
1000
1010
0001
,
1000
0001
1000
0001
1000
0001
1000
0001
0100
0001
0100
0001
0100
0001
0100
0001
,
1000
0100
1000
0010
1000
0001
1000
0100
0010
0001
0100
0010
1000
0100
0010
0001
,
0010
0000
0001
0000
0101
0000
0100
0010
1000
0000
0001
0000
0010
0000
0010
0000
,
0110
0000
0100
0000
0010
0000
0001
1000
0001
0100
0001
1000
0100
0000
0010
0000
,
0110
0001
1100
0010
0101
1000
1001
0100
,
0001
0010
0100
1000
0001
0010
0100
1000
0001
0010
0100
0010
0001
1000
0001
0000
,
1000
0000
1000
0000
0011
0000
0010
0100
1000
0100
0010
0001
1000
0000
0010
0000
,
0101
0000
0010
0000
0100
0000
0001
0100
0001
0010
0001
1000
0001
0000
0010
0000
,
1001
0000
0100
0000
0011
0000
1000
0000
0001
0100
0001
1000
0001
0010
0001
1000
,
0001
0100
0010
1000
0100
0010
0001
0010
0100
1000
0010
0100
0001
0010
0100
1000
,
1001
0110
1001
0001
1000
0011
1100
0100
,
1000
0000
0001
0000
0100
0010
0100
0010
0100
0010
0100
0010
0100
0010
0100
0010
,
0100
0001
0011
0010
1001
0110
1001
0001
,
1000
0100
1000
0100
1000
0001
1000
0001
1000
0010
1000
0010
1000
0100
0010
0001
,
1000
0110
0110
0010
1010
0101
1010
1000
,
0001
0010
0100
1000
0010
0000
0100
0000
0010
1000
0100
0010
0001
0000
0100
0000
,
0110
0000
1001
0000
0110
0000
0101
1001
,
1010
0M0M
0000
0110
M00M
0000
0101
M0M0
0000
0011
MM00
0000
0110
0000
M00M
0100
,
1000
0001
0110
1000
0100
0100
1001
1001
,
0001
0000
0010
0000
0110
0000
0100
1000
0001
0000
0011
0000
0001
0000
1100
0000
,
0110
0000
1000
0000
0001
0000
1000
0001
0010
0000
0011
0000
1001
0000
0010
0000
,
1001
0000
0000
0001
0100
0000
1010
0000
0000
1001
0000
0000
1001
0000
0001
0000
,
1100
1000
0110
0001
0010
0010
1001
1001
,
0100
0000
1000
0000
0001
1000
0010
0000
0100
0000
0001
0000
1000
0000
1010
0000
,
1001
0000
0001
0000
0100
0010
0100
0010
0100
0000
0001
0000
1000
0100
1000
0100
,
1000
0010
1000
0010
0100
0001
0100
0001
0010
0001
0010
0100
1000
0100
1000
0001
,
0100
0000
0010
0000
0110
0000
1000
0000
0010
0000
0010
0000
0101
0000
0001
0010
,
0100
0000
0110
0000
1001
0000
0000
1001
0000
0000
0001
1000
0100
0000
0010
0000
,
0011
0000
0001
0000
0110
0000
1000
0001
1000
0001
1000
0000
0010
1000
0100
0000
,
0010
0001
1000
0000
0010
0000
0101
0000
0101
0000
0001
1000
0010
0000
0100
0000
,
0001
0000
0101
0000
0101
0000
0001
1000
0010
0000
0100
0000
0001
0000
0010
0000
,
0011
0000
0000
00MM
1100
0000
0000
0M00
1010
0000
0000
00M0
0101
0000
0000
0M00
,
1001
0000
0010
0000
1001
0000
0010
0000
0001
1000
0100
0000
0110
0000
0010
0000
,
0001
1000
0100
0000
1001
0000
0010
0001
1000
0001
0100
0000
0110
0000
0100
0000
,
2020
0000
0000
3030
,
2001
3100
1002
0013
2100
3001
0102
1003
,
0100
0010
0001
1000
0010
0100
0001
1000
0100
0010
0001
0100
0001
1000
0100
0010
,
0001
1000
0010
0100
0001
0010
0100
0010
0001
1000
0010
0100
0001
0010
0100
1000
,
0001
0100
0010
1000
0001
0010
0100
0010
0001
1000
0010
0100
0001
1000
0100
0010
,
0001
1000
0010
0100
0001
1000
0100
0010
0001
0100
0010
1000
0100
1000
0010
0100
,
0001
1000
0100
0010
0001
0100
0001
1000
0100
0010
0001
1000
0010
1000
0100
0010
,
0001
1000
0010
0100
0001
1000
0100
0010
0100
1000
0001
0010
0100
1000
0100
0010
,
0001
1000
0010
0100
0001
1000
0100
0010
0001
0100
0010
1000
0100
1000
0001
0100
,
0010
1000
0001
0010
0100
0010
0001
1000
0010
0100
0001
0010
0001
1000
0100
0010
,
0001
1000
0010
1000
0100
0010
0100
1000
0001
0010
0001
0100
0001
0010
0100
1000
,
0001
1000
0100
1000
0010
0100
0001
1000
0100
0010
0001
0100
0010
0100
0001
1000
,
0010
0100
0001
0010
0001
1000
0100
1000
0001
0010
0100
1000
0001
0100
0010
1000
,
0100
1000
0001
0100
0001
0010
0100
1000
0001
0100
0010
1000
0001
0100
0001
0010
,
0100
0010
0001
1000
0010
1000
0100
1000
0010
0100
0001
0010
0100
1000
0001
0100
,
0010
1000
0010
0100
0001
1000
0100
0010
0001
0010
0100
1000
0001
0100
0010
1000
,
0100
1000
0001
0100
0010
1000
0100
1000
0001
0010
0100
1000
0100
0010
0001
0100
,
0010
1000
0010
0100
0001
0010
0100
1000
0010
0100
0001
1000
0100
0010
0001
1000
,
0200
0000
0000
0000
0000
0000
0300
0000
1001
0000
0000
0000
0000
0000
0000
0000
0110
0000
0000
0000
0000
0000
0000
0000
1001
0000
0000
0000
0000
1000
0000
0000
,
0100
0000
0000
0000
0000
0001
0000
0000
0100
0000
0000
0000
0000
0000
0000
0000
1001
0000
0000
0000
0000
0001
0000
0000
0010
0000
0000
0000
0000
1000
0000
0000
,
0010
0000
0000
0000
0000
0000
0000
0000
1001
0000
0000
0000
0000
0000
0000
0000
0011
0000
0000
0000
0000
0000
0000
0000
1100
0000
0000
0000
0000
0100
0000
0000
,
0020
0031
0200
1300
0002
0013
0200
0301
,
4000
0040
0000
0000
0000
0000
0000
3030
0002
0000
0000
0000
0000
0000
0000
0000
,
2003
0000
3200
0320
0032
0023
0000
0000
,
0230
2300
0000
3002
0023
0030
0220
0330
,
0220
0330
2002
3003
0202
0303
2000
0000
,
3001
0000
0100
0000
0110
0000
0010
1000
0010
1000
0010
0000
0110
0000
0001
0000
,
1100
0000
0010
0000
0001
0000
0100
0010
0100
0010
0100
0000
0001
0000
1000
0000
,
1001
0100
0110
0001
1001
0010
0110
1000
,
0001
0100
0001
1000
0010
1000
0001
0010
0001
1000
0100
1000
0001
0010
0100
1000
,
0001
0000
0001
0000
1001
0000
1000
0100
1000
0100
1000
0000
1010
0000
1010
0000
,
0001
1000
1001
0100
1010
1010
0001
1000
,
1100
0001
0101
1000
1010
0001
0011
1000
,
0001
1000
0001
1000
0100
1000
0100
0010
0001
0010
0001
0100
0001
0100
0010
1000
,
0001
0001
0101
0100
0100
0010
1010
1010
,
0100
0000
0001
0000
1001
0000
1000
0010
1000
0010
1000
0000
1001
0000
0001
0000
,
0100
0010
0110
1000
0100
0010
0001
0001
,
1000
0100
0010
0100
1000
0001
0010
0100
0010
0001
1000
0010
0100
0010
1000
0001
,
0100
0000
0100
0000
0110
0000
0010
1000
0010
1000
0010
0000
0110
0000
1000
0000
,
0001
0100
0110
0010
1000
1000
0001
0100
,
0020
0000
1030
0000
1100
0000
0010
0000
0001
1000
0100
1000
0100
0010
0001
0010
,
0001
1000
0010
1000
0001
0010
0001
1000
0100
0010
0001
0100
0010
1000
0100
0010
,
2002
0000
0000
0000
,
0000
0000
0000
0000
,
3003
0000
0000
0000
;
