#TITLE:Cherry Blossom Whirlwind Revisited;
#SUBTITLE:;
#ARTIST:Beatdrop vs. LMK;
#TITLETRANSLIT:;
#SUBTITLETRANSLIT:;
#ARTISTTRANSLIT:;
#GENRE:House;
#CREDIT:Sync by HellRazoR;
#BANNER:Cherry Blossom Whirlwind Revisited-bn.png;
#BACKGROUND:Cherry Blossom Whirlwind Revisited-bg.png;
#LYRICSPATH:;
#CDTITLE:;
#MUSIC:Cherry Blossom Whirlwind Revisited.ogg;
#OFFSET:-0.033;
#SAMPLESTART:10.927;
#SAMPLELENGTH:12.000;
#SELECTABLE:YES;
#DISPLAYBPM:176.000:100.000;
#BPMS:0=176,113=160,114=152.4,115=143.2,116=135,117=127.2,118=116.4,119=107,120=100,126=112,126.5=128,127=144,127.5=160,128=176,274=151.1,275=136.9,276=135.2,277=123.5,278=115,279=108,280=100,286=112,286.5=128,287=144,287.5=160,288=176;
#STOPS:;
#BGCHANGES:0.000=Cherry Blossom Whirlwind Revisited-bg.PNG=1.000=0=0=1=====,
16.000=In The Groove Rebirth/888_JumpBack.mpg=1.000=1=0=1===CrossFade==,
24.000=In The Groove Rebirth/1128_JumpBack.mpg=1.000=0=0=1=====,
31.000=Cherry Blossom Whirlwind Revisited-bg.PNG=1.000=0=0=1=====,
32.000=In The Groove Rebirth/1144_JumpBack.mpg=1.000=0=0=1=====,
48.000=In The Groove Rebirth/1125_JumpBack.mpg=1.000=0=0=1=====,
64.000=In The Groove Rebirth/902_JumpBack.mpg=1.000=0=0=1=SongBgWithMovieViz==SlideUp==,
80.000=In The Groove Rebirth/419_JB_HD.mpg=1.000=1=0=1=SongBgWithMovieViz==CrossFade==,
96.000=In The Groove Rebirth/406_JB_HD.mpg=1.000=1=0=1===CrossFade==,
112.000=In The Groove Rebirth/502_JB_HD.mpg=1.000=0=0=1=====,
114.500=In The Groove Rebirth/502_JB_HD.mpg=0.900=0=0=1=====,
115.000=In The Groove Rebirth/502_JB_HD.mpg=0.800=0=0=1=====,
115.500=In The Groove Rebirth/502_JB_HD.mpg=0.700=0=0=1=====,
116.500=In The Groove Rebirth/502_JB_HD.mpg=0.600=0=0=1=====,
117.000=In The Groove Rebirth/502_JB_HD.mpg=0.500=0=0=1=====,
118.500=In The Groove Rebirth/502_JB_HD.mpg=0.400=0=0=1=====,
119.000=In The Groove Rebirth/502_JB_HD.mpg=0.300=0=0=1=====,
119.500=In The Groove Rebirth/502_JB_HD.mpg=0.200=0=0=1=====,
120.000=In The Groove Rebirth/888_JumpBack.mpg=0.300=0=0=1=====,
126.500=In The Groove Rebirth/888_JumpBack.mpg=0.600=0=0=1=====,
127.000=In The Groove Rebirth/888_JumpBack.mpg=0.800=0=0=1=====,
127.500=In The Groove Rebirth/888_JumpBack.mpg=1.000=0=0=1=====,
128.000=In The Groove Rebirth/901_JumpBack.mpg=1.000=0=0=1=====,
144.000=In The Groove Rebirth/1128_JumpBack.mpg=1.000=0=0=1=====,
160.000=In The Groove Rebirth/406_JB_HD.mpg=1.000=0=0=1=====,
176.000=In The Groove Rebirth/902_JumpBack.mpg=1.000=0=0=1=====,
192.000=In The Groove Rebirth/1144_JumpBack.mpg=1.000=0=0=1=====,
208.000=In The Groove Rebirth/419_JB_HD.mpg=1.000=0=0=1===SlideDown==,
224.000=In The Groove Rebirth/1125_JumpBack.mpg=1.000=0=0=1=====,
240.000=In The Groove Rebirth/502_JB_HD.mpg=1.000=0=0=1=====,
256.000=In The Groove Rebirth/901_JumpBack.mpg=1.000=0=0=1=====,
272.000=In The Groove Rebirth/888_JumpBack.mpg=1.000=0=0=1=====,
276.000=In The Groove Rebirth/888_JumpBack.mpg=0.800=0=0=1=====,
276.500=In The Groove Rebirth/888_JumpBack.mpg=0.700=0=0=1=====,
277.000=In The Groove Rebirth/888_JumpBack.mpg=0.600=0=0=1=====,
278.000=In The Groove Rebirth/888_JumpBack.mpg=0.500=0=0=1=====,
278.500=In The Groove Rebirth/888_JumpBack.mpg=0.400=0=0=1=====,
279.000=In The Groove Rebirth/888_JumpBack.mpg=0.300=0=0=1=====,
279.500=In The Groove Rebirth/888_JumpBack.mpg=0.200=0=0=1=====,
280.000=In The Groove Rebirth/1128_JumpBack.mpg=0.300=0=0=1=====,
286.000=In The Groove Rebirth/1128_JumpBack.mpg=0.600=0=0=1=====,
286.500=In The Groove Rebirth/1128_JumpBack.mpg=0.700=0=0=1=====,
287.000=In The Groove Rebirth/1128_JumpBack.mpg=0.800=0=0=1=====,
287.500=In The Groove Rebirth/1128_JumpBack.mpg=0.900=0=0=1=====,
288.000=Cherry Blossom Whirlwind Revisited-bg.PNG=1.000=0=0=1=====,
99999=-nosongbg-=1.000=0=0=0 // don't automatically add -songbackground-
;
#BGCHANGES2:32.000=white flash=1.000=0=0=1=====,
128.000=white flash=1.000=0=0=1=====,
192.000=white flash=1.000=0=0=1=====,
288.000=white flash=1.000=0=0=1=====,
;
#KEYSOUNDS:;

//---------------dance-single - M. Simmons----------------
#NOTES:
     dance-single:
     M. Simmons:
     Easy:
     4:
     0.361,0.333,0.093,0.000,0.000:
0000
0000
0000
0000
,
0000
0000
0000
0000
,
0000
0000
0000
0000
,
0000
0000
0000
0000
,
0001
0000
1001
0000
0000
0000
1000
1000
,
0100
0000
0110
0000
0000
0000
0010
0010
,
0100
0000
0000
1000
0000
0001
0000
0100
,
0000
0010
0000
0100
0000
0001
0000
0000
,
1000
0100
1000
0001
,
0100
0010
0100
0001
,
1000
0100
0010
0001
,
0010
0100
1000
0001
,
0100
0010
0100
0001
,
1000
0001
0100
0010
,
1000
0001
0010
0100
,
1000
0100
0010
0001
,
1000
0001
0100
0010
,
0100
0001
1000
0100
,
1000
0100
0010
0001
,
0010
0100
1000
0001
,
0100
0010
0100
0001
,
1000
0001
0100
0010
,
0100
0010
1000
0001
,
0100
0001
1000
0100
,
0010
0001
0010
0100
,
0010
0001
1000
0001
,
0100
0010
0100
0001
,
1000
0100
1000
0001
,
1000
0001
0100
0010
,
1000
0100
0010
0001
,
1000
0010
0100
0001
,
1000
0100
0010
0001
,
0100
0010
0100
0010
,
0100
0001
1000
0001
,
0100
0001
1000
0100
,
0010
0001
0010
0100
,
0010
0001
1000
0001
,
0100
0010
0100
0001
,
1000
0100
0010
0100
,
1000
0001
0100
0001
,
1000
1000
0010
0010
,
0100
0100
0010
0010
,
1000
1000
0001
0001
,
0100
0100
0001
0001
,
1000
0100
0010
0001
,
0010
0001
0010
0001
,
1000
0100
1000
0100
,
0010
0100
0010
0100
,
1000
0000
0000
1001
0000
0000
0110
0000
,
0001
0000
0000
0110
0000
0000
1001
0000
,
0100
0000
0000
1001
0000
0000
1001
0000
,
0010
0110
0110
0000
,
1000
0000
0000
0100
0000
0000
0010
0000
,
0000
0001
0000
1000
0000
0010
0000
0100
,
0000
0001
0000
1000
,
0000
0000
0100
0000
0000
0010
0000
0000
,
0001
1000
0001
0100
,
0010
1000
0001
0100
,
0001
1000
0100
0010
,
0001
0010
0100
1000
,
0001
0100
0010
0100
,
0001
1000
0001
0100
,
0010
0100
0001
1000
,
0100
0010
0001
0010
,
0100
1000
0001
0100
,
0001
1000
0100
0010
,
0100
1000
0001
0100
,
0001
0100
0001
0010
,
0100
0010
0100
1000
,
0001
0100
0010
0100
,
0001
1000
0100
0010
,
0001
1000
0001
0100
,
0010
0000
0000
0000
;

//---------------dance-single - M. Simmons----------------
#NOTES:
     dance-single:
     M. Simmons:
     Challenge:
     11:
     0.915,0.999,0.398,0.019,0.671:
0000
0000
0000
0000
,
0000
0000
0000
0000
,
0000
0000
0000
0000
,
0000
0000
0000
0000
,
1000
0000
0000
0001
0100
0000
0010
0000
1010
0000
0000
0001
0010
0000
0100
0000
,
0011
0000
0000
1000
0100
0000
1000
0000
1100
0000
0000
0100
0010
0000
0001
0000
,
1000
0010
0100
0010
0000
0100
0001
1000
0000
0100
0010
0001
0000
1000
0001
0100
,
0000
0010
1000
0001
0000
0100
0010
0100
0000
0001
1000
0100
0020
0000
0000
0000
,
0130
0000
0000
1000
0001
0000
0100
0000
0010
0100
0001
1000
0001
0000
0001
0000
,
1000
0000
0000
0100
0010
0000
0100
0000
1000
0001
1000
0100
1000
0000
1000
0000
,
0010
0000
0000
0010
0100
0000
0001
0000
1000
0100
1000
0010
1000
0000
1000
0000
,
0010
0000
0000
0010
1000
0000
0010
0000
0100
0001
0010
0100
0010
0000
0010
0000
,
0001
0000
0000
0001
1000
0000
0100
0000
0001
0100
1000
0001
0100
0000
0100
0000
,
0100
0000
0000
0010
0100
0000
0010
0000
0001
0010
1000
0001
0010
0000
0010
0000
,
0010
0000
0000
0001
1000
0000
0100
0000
0010
1000
0010
0000
0001
0000
1000
0000
,
0010
0000
0000
0010
0100
0000
0001
0000
1000
0100
0001
0000
0100
0000
1000
0000
,
0010
1100
0011
0100
0010
1001
0011
1001
,
0010
0110
1010
0100
0001
1001
1010
1001
,
0100
0110
0011
1000
0100
1100
0011
1001
,
0100
1001
0110
0100
0001
1100
0011
1010
,
1000
0001
0010
0001
0100
0010
1000
0001
1000
0100
0010
0001
0100
0000
0001
0000
,
0100
0010
1000
0001
1000
0100
0010
0100
1000
0010
1000
0001
0100
0000
0001
0000
,
1000
0100
1000
0010
0100
0001
0010
0001
0100
0010
1000
0100
1000
0000
0001
0000
,
0010
0001
1000
0100
0010
0001
0010
0100
1000
0001
0100
0001
1000
0100
1000
0010
,
1000
0000
0010
0000
0100
0000
0001
0000
0100
0000
0010
0000
0010
0000
0100
0010
,
0100
0000
0010
0000
1000
0000
0001
0000
0100
0000
0001
0000
1000
0000
0100
0010
,
1000
0000
0010
0000
0001
0000
1000
0000
0001
0000
0100
0000
0010
0000
0001
0010
,
1000
0000
0001
0000
0100
0000
0001
0000
1000
0000
0100
0000
0010
0000
1000
0010
,
0001
1000
0001
0100
0010
1010
0101
0011
,
0100
1001
1010
0100
0001
1010
0101
1010
,
0100
0001
1000
0100
0001
0010
1000
0001
,
0100
0001
0010
1000
0100
0001
1000
0001
,
0100
0000
0000
0010
1000
0000
0001
0000
0100
0001
1000
0000
0100
0000
0100
0000
,
0010
0000
0000
0100
1000
0000
0001
0000
0100
0010
1000
0000
0001
0000
0010
0000
,
1000
0000
0000
0010
0001
0000
1000
0000
0001
0100
0010
0000
0100
0000
0001
0000
,
1000
0000
0000
0100
1000
0000
0001
0000
0100
0010
1000
0000
0001
0000
0010
0000
,
0001
0000
0000
1000
0100
0000
0001
0000
0100
1000
0001
0000
0100
0000
0001
0000
,
0100
0000
0000
0010
1000
0000
0001
0000
0100
0010
1000
0000
0001
0000
0010
0000
,
1000
0000
0000
0010
0001
0000
1000
0000
0001
0100
0001
0000
0010
0000
0100
0000
,
1000
0000
0000
0001
0010
0000
1000
0000
0010
0001
1000
0000
0100
0000
0010
0000
,
0001
0000
0000
1000
0001
0000
0100
0001
0100
0000
0010
0000
1000
0100
1000
0000
,
0001
0000
0000
0100
0010
0000
1000
0010
0100
0000
0001
0000
0100
0001
1000
0000
,
0100
0000
0000
0010
0001
0000
1000
0100
1000
0000
0001
0000
0100
0010
1000
0000
,
0001
0000
0000
0100
0010
0000
1000
0001
0100
0000
0001
0000
0010
1000
0010
0001
,
1000
0000
0000
0001
0100
0000
0010
0001
0010
0000
1000
0000
0001
0010
0100
0000
,
1000
0000
0000
0010
1000
0000
0001
1000
0010
0000
0100
0000
0010
0001
0010
0000
,
1000
0000
0000
0001
1000
0000
0100
0010
1000
0000
0010
0000
0001
1000
0001
0000
,
0100
0000
0000
0001
0010
0000
0100
0001
0100
0000
1000
0100
1000
0000
1000
0100
,
1000
0200
1300
0001
0100
0000
0110
0001
,
0010
1000
0010
0001
0100
0000
0110
1000
,
0100
0001
0100
1000
0001
0000
0110
1000
,
0100
0000
0001
0000
1001
0000
0010
0000
1001
0000
0000
0000
0001
0010
0001
0010
,
0001
0010
1000
0010
0100
0000
0110
0010
,
0001
0000
1001
0000
0100
0000
1001
0000
0010
0000
1100
0000
0010
0001
0010
0000
,
0001
0010
1000
0001
0100
1000
0010
1000
,
0100
0001
1000
0010
0001
1000
0010
0001
,
0010
0000
0100
0010
1000
0000
0001
0000
0100
0000
0010
0100
0010
0000
1000
0001
,
0100
0000
0001
1000
0010
0000
1000
0000
0001
0000
0100
0001
1000
0000
0100
0000
,
1100
0000
0010
0001
1000
0000
0010
0000
0100
0000
0010
1000
0001
0000
0100
0001
,
1000
0000
0100
0010
0001
0000
1000
0000
0100
0000
0010
1000
0010
0000
0001
0000
,
1100
0000
0001
1000
0010
0000
0100
0000
0010
0000
0001
0010
1000
0000
0001
0100
,
1000
0000
0100
0001
1000
0000
0100
0000
0001
0000
0100
1000
0001
0000
1000
0000
,
0010
0001
1000
0100
0001
1000
0100
0001
,
1000
0010
0001
1000
0010
0001
1000
0100
,
0001
0100
0010
1000
0100
0000
0010
0000
0100
0000
0010
0000
0001
1000
0100
0010
,
0001
0000
0100
0000
0010
0000
0000
0100
0001
0000
0001
0000
0100
0000
0010
0000
,
1000
0001
0100
0001
0010
0000
1000
0000
0010
0000
0001
0000
1000
0100
1000
0001
,
0100
0000
0010
0000
0100
0000
0000
0001
0010
0000
1000
0000
0010
0000
0001
0000
,
1000
0001
0100
0010
1000
0000
0001
0000
0100
0000
0010
0000
1000
0100
1000
0001
,
0100
0000
0010
0000
0100
0000
0000
0001
1000
0000
0100
0000
0010
0000
1000
0000
,
0001
0010
1000
0100
0001
0010
1000
0001
,
0010
1000
0001
0100
1000
0010
0100
0010
,
1010
0000
0000
0000
;

//---------------dance-single - M. Simmons----------------
#NOTES:
     dance-single:
     M. Simmons:
     Medium:
     6:
     0.443,0.500,0.231,0.148,0.032:
0000
0000
0000
0000
,
0000
0000
0000
0000
,
0000
0000
0000
0000
,
0000
0000
0000
0000
,
1000
0000
0001
0010
0001
0000
0000
0000
,
1000
0000
0001
0010
0001
0000
0000
0000
,
0000
2000
0000
0000
0000
3020
0000
0000
0000
0230
0000
0000
0000
0302
0000
0000
,
0000
2003
0000
0000
0000
3200
0000
0000
0000
0310
0000
0000
1001
0000
0000
0000
,
0010
0000
0100
0001
0100
0000
0010
1000
,
0001
1001
1001
0000
,
0001
0000
1000
0100
0010
0000
0100
1000
,
0001
0110
0110
0000
,
1000
0100
0010
0000
0100
0010
0001
0000
,
0010
0001
1000
0000
1001
0000
0000
0000
,
0001
0100
0010
0000
0100
0010
1000
0000
,
0010
1000
0001
0000
1001
0000
0000
0000
,
0200
0000
0301
0000
0000
0100
0010
0000
,
2000
0000
3100
0000
0000
0010
0001
0000
,
2000
0000
3001
0000
0000
0100
0001
0000
,
0200
0000
0310
0000
0000
1000
0010
0000
,
0100
0001
1000
0100
,
0010
0001
0010
0001
,
1000
0100
1000
0001
,
0100
0010
1000
0001
,
0200
0000
0301
0000
0000
1000
0100
1000
,
0002
0000
0013
0000
0000
0100
0010
0001
,
0020
0000
0130
0000
0000
1000
0001
1000
,
0002
0000
0103
0000
0000
0010
1000
0010
,
0100
0001
0100
0010
,
1000
0001
0100
0010
,
1000
0100
0001
0010
,
1000
0100
0001
0010
,
1000
0000
0001
0100
0010
0000
0100
0001
,
1000
0110
0110
0000
,
0100
0000
1000
0001
0010
0000
0001
1000
,
0001
0100
0001
0000
1001
0000
0000
0000
,
0010
0000
0100
0010
1000
0000
0010
0100
,
0001
0110
0110
0000
,
1000
0000
0100
0010
0001
0000
0100
0010
,
1000
0001
0010
0001
1000
0000
0000
0000
,
0010
0100
0010
1000
,
0001
0000
0100
0001
0100
0000
0000
0000
,
0010
1000
0001
0100
,
0001
1000
0100
1000
0001
0000
0000
0000
,
0100
0010
1000
0010
,
0100
0000
0010
0100
0010
0000
0000
0000
,
0100
0001
1000
0100
,
0010
0001
1000
0000
0001
0100
0001
0000
,
1000
0000
0000
1100
0000
0000
0011
0000
,
0001
0000
0000
0101
0000
0000
1010
0000
,
0100
0000
0000
0110
0000
0000
1001
0000
,
0010
0100
0010
0000
1001
0000
0000
0000
,
0100
0000
0000
0011
0000
0000
1010
0000
,
0000
1010
0000
1010
0000
0011
0000
0000
,
0200
1000
0001
0010
,
0001
1000
0010
1000
,
0310
0001
0010
0000
0001
0000
1000
0000
,
0100
1000
0001
0100
,
0010
0100
0010
0000
1000
0000
0001
0000
,
0100
0001
1000
0100
,
0010
0100
0010
0000
0001
0000
1000
0000
,
0001
0100
0010
0100
,
0020
0100
1000
0001
,
1000
0001
0100
1000
,
0130
0010
0100
0000
0001
0000
1000
0000
,
0100
0010
0001
0010
,
0100
1000
0100
0000
1000
0000
0001
0000
,
0100
0010
0100
0001
,
1000
0001
1000
0000
0100
0000
0010
0000
,
0001
1000
0010
1000
,
0100
0001
0010
1000
,
0100
0001
0010
1000
,
1001
0000
0000
0000
;

//---------------dance-double - M. Simmons----------------
#NOTES:
     dance-double:
     M. Simmons:
     Hard:
     9:
     0.662,0.766,0.305,0.453,0.130:
00000000
00000000
00000000
00000000
,
00000000
00000000
00000000
00000000
,
00000000
00000000
00000000
00000000
,
00000000
00000000
00000000
00000000
,
00000100
00000000
00000000
00001000
00000100
00000000
00010000
00000000
00001000
00000000
00000000
00000000
00000000
00000000
00000000
00000000
,
01000000
00000000
00000000
00010000
01000000
00000000
00001000
00000000
00010000
00000000
00000000
00000000
00000000
00000000
00000000
00000000
,
00000000
00000100
00001000
00000100
00000000
00000100
00010000
00000100
00000000
00010000
00001000
00010000
00000000
00001000
00100000
00001000
,
00000000
10000000
00010000
10000000
00000000
10000000
01000000
10000000
00000000
00010000
10000000
00010000
20000000
00000000
00000000
00000000
,
30010000
00100000
00001000
01000000
00010000
00000000
00110000
00000000
,
00000100
00001000
00000010
00000001
00000010
00000000
00001010
00000000
,
00000010
00010000
00001000
10000000
00010000
00000000
01100000
00000000
,
01000000
00001000
00010000
00000100
00000010
00000000
00001100
00000000
,
00000002
00000203
00000320
00000032
,
00000023
00002030
00003200
00020300
,
00032000
00203000
02300000
03200000
,
00320000
20030000
32000000
03020000
,
00031000
00010000
00010000
00000000
00000100
00001000
00001000
00001000
,
00000100
00000010
00000010
00000000
00000010
00000001
00000001
00000001
,
00000100
00000010
00000010
00000000
00001000
00000100
00000100
00000100
,
00010000
00001000
00001000
00000000
01000000
10000000
10000000
10000000
,
01000000
00000000
00010000
00000000
00010000
00000000
00000000
00000000
00100000
00000000
00001000
00000000
00000000
00001000
00010000
00000000
,
00010000
00000000
00100000
00000000
00100000
00000000
00000000
00000000
01000000
00000000
00001000
00000000
00000000
00001000
00010000
00000000
,
00010000
00000000
01000000
00000000
01000000
00000000
00000000
00000000
00100000
00000000
00001000
00000000
00000000
00001000
00010000
00000000
,
00000100
00000000
00000100
00000000
00000100
00000000
00000000
00000000
00000010
00000000
00000001
00000000
00000000
00000001
00001000
00000000
,
00000010
00000000
00000100
00000000
00000010
00000000
00000000
00000000
00000100
00000000
00000001
00000000
00000000
00001000
00000001
00000000
,
00000010
00000000
00000100
00000000
00010000
00000000
00000000
00000000
00001000
00000000
00100000
00000000
00000000
00001000
01000000
00000000
,
00010000
00000000
10000000
00000000
01000000
00000000
00000000
00000000
00100000
00000000
00010000
00000000
00000000
10000000
01000000
00000000
,
00010000
00000000
00001000
00000000
00010000
00000000
00000000
00000000
00001000
00000000
01000000
00000000
00000000
00010000
00100000
00000000
,
01000000
10000000
10000000
00000000
00010000
01000000
00010000
00100000
,
00001000
00010000
00000100
00000000
00000000
00001000
00000010
00000100
,
00000010
00001000
00000001
00000000
00000000
00000010
00000100
00010000
,
00001000
00000100
00001000
00000000
00000000
00010000
01000000
10000000
,
00010000
01000000
00010000
00100000
00001000
00000000
00110000
00000000
,
00001000
00010000
00000100
00001000
00000001
00000000
00000101
00000000
,
00000010
00000100
00000001
00010000
00001000
00000000
00011000
00000000
,
00001000
10000000
00010000
01000000
00100000
00000000
10010000
00000000
,
20000000
32000000
03020000
00032000
,
00003200
00000302
00002003
00003200
,
00000320
00002030
00023000
00230000
,
02300000
03020000
20030000
32000000
,
03100000
00010000
00100000
01000000
10000000
00000000
10001000
00000000
,
00001000
00010000
00000010
00000100
00000010
00000000
00010001
00000000
,
00000100
00010000
00001000
00100000
00001000
00000000
01000100
00000000
,
00001000
00010000
00000100
00010000
00001000
00000000
00100010
00000000
,
00002000
02003000
23000000
32000000
,
03002000
00003200
00000302
00000203
,
00000320
00002030
00003200
00020300
,
00030200
00020300
00032000
00023000
,
00031000
01000000
00010000
10010000
00000000
00000000
00010000
00000000
,
01000000
00000000
00000000
01100000
00000000
00000000
01100000
00000000
,
01000000
00001000
00010000
00010100
00000000
00000000
00000100
00000000
,
00000000
00000000
00000000
00000000
00000110
00000000
00000000
00000000
00000110
00000000
00000000
00000000
00000000
00000100
00000010
00000100
,
00000010
00001000
00010000
00011000
00000000
00000000
00100000
00000000
,
00000000
00000000
01001000
00000000
00000000
00000000
00110000
00000000
00000000
00000000
01001000
00000000
00000000
00010000
00100000
00010000
,
00100000
01000000
00100000
01000000
00010000
00001000
00000100
00000010
,
00000100
00001000
00010000
01000000
00100000
01000000
00010000
00001000
,
00000100
00000001
00001000
00001100
00000000
00010000
00001000
00000000
,
00100000
00010000
10000000
10010000
00000000
00010000
00100000
00000000
,
00001000
00010000
00000100
00010100
00000000
00001000
00100000
00000000
,
01000000
10000000
00010000
01010000
00000000
00001000
00010000
00000000
,
00000100
00001000
00000010
00000110
00000000
00001000
00000001
00000000
,
00000100
00000010
00000100
00000101
00000000
00000010
00010000
00000000
,
00010000
01000000
00100000
01000000
00010000
00001000
00000100
00000010
,
00000100
00001000
00010000
01000000
00100000
01000000
00010000
00001000
,
00000100
00000010
00001000
00001100
00000000
00001000
00001000
00001000
,
00001000
00000001
00000100
00000101
00000000
00000001
00000001
00000001
,
00000001
00001000
00000100
00010100
00000000
00010000
00010000
00010000
,
00010000
00001000
01000000
01001000
00000000
00001000
00001000
00001000
,
00001000
01000000
00100000
01000000
00010000
10000000
01000000
10000000
,
00010000
00100000
00001000
00010000
00000100
00010000
00001000
01000000
,
00100000
01000000
00100000
00010000
00001000
00000010
00000100
00000010
,
00001000
00010000
00100000
01000000
00100000
00010000
00001000
00000010
,
00000110
00000000
00000000
00000000
;

//---------------dance-double - M. Simmons----------------
#NOTES:
     dance-double:
     M. Simmons:
     Medium:
     7:
     0.481,0.533,0.333,0.157,0.032:
00000000
00000000
00000000
00000000
,
00000000
00000000
00000000
00000000
,
00000000
00000000
00000000
00000000
,
00000000
00000000
00000000
00000000
,
00010000
00000000
00001000
01000000
00010000
00000000
10000000
00000000
,
00100000
00000000
00010000
00001000
00000010
00000000
00000100
00000000
,
00000000
00001000
00000000
00000000
00000000
00001000
00000000
00000000
00000000
00000100
00000000
00000000
00000000
00010000
00000000
00000000
,
00000000
01000000
00000000
00000000
00000000
01000000
00000000
00000000
00000000
20000000
00000000
00000000
30100000
00000000
00000000
00000000
,
01010000
00110000
00101000
00011000
,
00010100
00001010
00000101
00001001
,
00001100
00011000
01010000
10010000
,
10100000
01010000
01100000
10010000
,
01000000
00010000
10000000
00000000
01000000
00010000
00001000
00000000
,
00010000
00000100
00000010
00000000
00001000
00010000
00100000
00000000
,
01000000
00100000
10000000
00000000
00010000
00100000
01000000
00000000
,
00100000
00001000
00010000
00000000
00000100
00001000
00000010
00000000
,
00000000
00000100
00000100
00000000
00000000
00000001
00000001
00000001
,
00000000
00000100
00000100
00000000
00000000
00000010
00000010
00000010
,
00000000
00010000
00010000
00000000
00000000
00001000
00001000
00001000
,
00000000
01000000
01000000
00000000
00000000
00100000
00100000
00100000
,
00000000
10000000
10000000
00000000
00000000
02000000
00000000
03100000
,
00010000
10000000
10000000
00000000
00000000
00020000
00000000
00130000
,
00001000
00010000
00010000
00000000
00000000
00000200
00000000
00001300
,
00000010
00000100
00000100
00000000
00000000
00000002
00000000
00001003
,
00000010
00010000
00010000
01000000
10000000
00020000
00000000
01030000
,
00100000
01000000
01000000
00010000
00100000
00002000
00000000
00013000
,
00000100
00001000
00001000
00000010
00000100
00000002
00000000
00001003
,
00000100
00000010
00000010
00001000
00010000
00200000
00000000
01300000
,
00010000
01000000
00100000
10000000
,
00010000
00100000
00001000
00001000
,
00001000
00000100
00001000
00010000
,
01000000
00010000
01000000
01000000
,
00100000
00010000
00100000
00000000
00001000
00010000
00000100
00000000
,
00001000
00000010
00000100
00000000
00000101
00000000
00001010
00000000
,
00000100
00000010
00010000
00000000
00001000
00100000
00010000
00000000
,
01000000
00100000
01000000
00000000
01010000
00000000
10100000
00000000
,
01000000
01000000
00001000
00001000
,
00010000
00010000
00000100
00000100
,
00000010
00000010
00000001
00000001
,
00001000
00001000
00000010
00000010
,
00010000
00001000
00100000
00000000
00010000
01000000
00100000
00000000
,
01000000
00001000
00010000
00000000
00011000
00000000
00011000
00000000
,
00000100
00001000
00000010
00000000
00000100
00000001
00001000
00000000
,
00000100
00010000
00001000
00000000
00011000
00000000
00101000
00000000
,
01000000
01000000
10000000
10000000
,
00010000
00010000
01000000
01000000
,
00001000
00001000
00000100
00000100
,
00000010
00000010
00001000
00001000
,
00022000
00000000
00000000
00100000
00033000
00000000
00011000
00000000
,
00000000
00000000
00000000
00002200
00000000
00000000
00000010
00003300
,
00000000
00000000
00000000
00002002
00000000
00000000
00000010
00003003
,
00000000
00001100
00011000
00000000
,
00000000
00000000
00000000
20020000
00000000
00000000
01000000
30030000
,
00000000
01100000
00000000
01100000
00000000
01100000
00000000
01100000
,
01000000
00010000
00100000
00001000
,
00010000
00000100
00001000
00000001
,
00000100
00000010
00001000
00000000
00000001
00000000
00000100
00000000
,
00000010
00010000
00001000
01000000
,
00100000
10000000
00010000
00000000
01000000
00000000
00010000
00000000
,
00100000
00001000
00010000
00000100
,
00000010
00000001
00001000
00000000
00000010
00000000
00000100
00000000
,
00000010
00010000
00001000
00100000
,
00010000
00010000
01000000
01000000
,
00001000
00001000
00010000
00010000
,
00000100
00000010
00000001
00000000
00001000
00000000
00000010
00000000
,
00000100
00000010
00010000
00001000
,
00100000
00010000
10000000
00000000
00010000
00000000
01000000
00000000
,
00100000
01000000
00010000
10000000
,
01000000
00100000
00010000
00000000
00100000
00000000
00001000
00000000
,
00010000
00001000
00010000
00000100
,
00000010
00000010
00000001
00000001
,
00001000
00001000
00000100
00000100
,
00011000
00000000
00000000
00000000
;

//---------------dance-double - M. Simmons----------------
#NOTES:
     dance-double:
     M. Simmons:
     Easy:
     3:
     0.330,0.300,0.009,0.000,0.000:
00000000
00000000
00000000
00000000
,
00000000
00000000
00000000
00000000
,
00000000
00000000
00000000
00000000
,
00000000
00000000
00000000
00000000
,
10000000
00000000
00010000
00000000
,
00100000
00000000
00001000
00000000
,
00000000
00000000
00000000
00000000
,
00000000
00000000
00000000
00000000
,
00001000
00010000
00000100
00000010
,
00000001
00001000
00000010
00000100
,
00000010
00001000
00000100
00010000
,
00001000
00100000
00010000
10000000
,
00100000
01000000
00100000
10000000
,
00010000
00100000
00001000
00010000
,
00000100
00001000
00000010
00000100
,
00000010
00001000
00000001
00000010
,
00000001
00001000
00000000
00001000
,
00000010
00000100
00000000
00000100
,
00000010
00010000
00000000
00010000
,
00001000
00100000
00000000
00100000
,
00010000
10000000
01000000
10000000
,
00010000
01000000
00100000
01000000
,
00010000
00100000
00010000
10000000
,
00100000
01000000
00100000
10000000
,
00010000
00100000
00001000
00010000
,
00000100
00000010
00000001
00001000
,
00000010
00000100
00000010
00001000
,
00000001
00000100
00000001
00001000
,
00000100
00000010
00000100
00010000
,
00001000
00100000
00010000
01000000
,
00010000
10000000
01000000
10000000
,
00010000
00000000
01000000
00000000
00100000
01000000
00100000
00000000
,
01000000
00010000
00100000
00001000
,
00010000
00000100
00001000
00000010
,
00000100
00000010
00001000
00000001
,
00000100
00000001
00001000
00000100
,
00000010
00000010
00000100
00001000
,
00000001
00000001
00000100
00000010
,
00010000
00010000
00001000
00100000
,
00010000
00010000
10000000
01000000
,
10000000
00010000
01000000
00100000
,
01000000
00010000
00100000
00001000
,
00010000
00000100
00001000
00000010
,
00000100
00000010
00001000
00000001
,
00000100
00000100
00000010
00010000
,
00001000
00001000
00100000
00010000
,
01000000
01000000
00100000
01000000
,
00010000
00010000
10000000
01000000
,
00100000
00000000
00000000
00010000
00000000
00000000
00010000
00000000
,
00000000
00000000
00000000
00100000
00000000
00000000
00100000
00000000
,
00000000
00000000
00000000
00001000
00000000
00000000
00001000
00000000
,
00000000
00010000
00010000
00000000
,
00000000
00000000
00000000
00000100
00000000
00000000
00000100
00000000
,
00000000
00000010
00000000
00000010
00000000
00000010
00000000
00000000
,
00000001
00000100
00000010
00001000
,
00000100
00010000
00001000
00100000
,
00010000
00010000
10000000
01000000
,
10000000
00010000
01000000
00100000
,
01000000
01000000
00001000
00010000
,
00000100
00001000
00000010
00000100
,
00000001
00000001
00001000
00000100
,
00000010
00000100
00001000
00001000
,
00000001
00000100
00000010
00010000
,
00001000
00100000
00010000
01000000
,
00100000
00100000
10000000
00010000
,
01000000
01000000
00001000
00010000
,
00000100
00000100
00001000
00000001
,
00000100
00000100
00000010
00001000
,
00000001
00000100
00000010
00010000
,
00001000
00100000
00010000
01000000
,
00100000
01000000
00001000
00010000
,
00000100
00000000
00001000
00000000
00000010
00000100
00000010
00000000
,
00000110
00000000
00000000
00000000
;

//---------------dance-double - M. Simmons----------------
#NOTES:
     dance-double:
     M. Simmons:
     Challenge:
     10:
     0.769,0.766,0.185,0.046,0.435:
00000000
00000000
00000000
00000000
,
00000000
00000000
00000000
00000000
,
00000000
00000000
00000000
00000000
,
00000000
00000000
00000000
00000000
,
00000010
00000000
00000100
00000000
00000001
00000000
00001000
00000000
00000100
00010000
00001000
00000000
00100000
00000000
01000000
00000000
,
10000000
00000000
00010000
00000000
01000000
00000000
00001000
00000000
00100000
10000000
00100000
00000000
00010000
00000000
01000000
00000000
,
00000000
00001000
00010000
00000100
00000000
00001000
00000100
00010000
00000000
00001000
00010000
00000100
00000000
00001000
00000100
00010000
,
00000000
00000010
00000100
00000001
00000000
00001000
00000100
00000010
00000000
00000001
00001000
00000100
00000020
00000000
00000000
00000000
,
00000031
00000100
00001000
00010000
01000000
00010000
00001000
01000000
,
00001000
00010000
00000010
00000100
00000001
00000010
00001000
00010000
,
00000010
00000100
00001000
00010000
01000000
10000000
00010000
01000000
,
00100000
00010000
00001000
01000000
00010000
10000000
01000000
00100000
,
00001000
00010000
00000010
00000100
00000001
00001000
00000100
00000010
,
00001000
00010000
00100000
00010000
00100000
01000000
00001000
00010000
,
00000100
00001000
00000010
00001000
00000001
00000100
00001000
00010000
,
01000000
10000000
00100000
00010000
00001000
00010000
00000100
00000010
,
00000100
00000000
00001100
00000000
00011000
00000000
00000000
00000000
00000000
00000000
10000000
00000000
11000000
00000000
01100000
M0000000
,
01000000
00000000
0M100000
00000000
00100000
00000000
00000000
00000000
00000000
00000000
00000001
00000000
00000101
00000000
00000110
0000000M
,
000001M0
00000000
00000001
00000000
00000001
00000000
00000000
00000000
00000000
00000000
10000000
00000000
11000000
00000000
01100000
M0000000
,
00M10000
00000000
10000000
00000000
10000000
00000000
00000000
00000000
00000000
00000000
00000001
00000000
00000110
0000000M
00001100
00000000
,
0000M010
00000000
00000100
00000000
00000010
00000000
00000000
00000000
00000000
00000000
20000000
00000000
00000000
00000000
31000000
00010000
,
00001000
00000000
01000000
00000000
01000000
00000000
00000000
00000000
00000000
00000000
00000002
00000000
00000000
00000000
00000103
00001000
,
00010000
00000000
00000100
00000000
00000100
00000000
00000000
00000000
00000000
00000000
20000000
00000000
00000000
00000000
30100000
00010000
,
00001000
00000000
10000000
00000000
10000000
00000000
00000000
00000000
00000000
00000000
00000002
00000000
00000000
00000000
00000103
00000010
,
00000001
00000010
00001000
00000100
00001000
00000010
00000000
00001100
,
00010000
01000000
10000000
00100000
01000000
00010000
00000000
00010100
,
00000001
00000100
00001000
00010000
00000100
00000010
00000000
00001001
,
00001000
00000100
00010000
00001000
00010000
01000000
00000000
00011000
,
00000100
00001000
00000010
00000100
00000001
00001000
00000100
00000100
,
00000100
00010000
00001000
01000000
00100000
10000000
00010000
00010000
,
00010000
10000000
01000000
00010000
00001000
00000100
00000001
00000001
,
00000001
00001000
00000100
00010000
00001000
01000000
00100000
00100000
,
00100000
10000000
00010000
00000000
01000000
00000000
00001000
00000000
00100000
00000000
10000000
00000000
00100000
00010000
10000000
00000000
,
00100000
01000000
00010000
00000000
01000000
00000000
00001000
00000000
00010000
00000000
00000100
00000000
00000001
00000100
00001000
00000000
,
00000100
00010000
00001000
00000000
00100000
00000000
00010000
00000000
10000000
00000000
00010000
00000000
01000000
00001000
00010000
00000000
,
00000010
00000100
00000001
00000000
00001000
00000000
00000100
00000000
00000010
00000000
00001000
00000000
00010000
00100000
01000000
00000000
,
00001000
00010000
00000000
00000000
00000100
00000010
00000000
00000000
00000001
00001000
00000000
00000000
00000010
00000100
00000000
00000000
,
00001000
00010000
00000000
00000000
00010000
00100000
00000000
00000000
10000000
00100000
00000000
00000000
10000000
00010000
00000000
00000000
,
01000000
00001000
00000000
00000000
00100000
01000000
00000000
00000000
00100000
00001000
00000000
00000000
00010000
00000100
00000000
00000000
,
00000010
00000001
00000000
00000000
00001000
00000100
00000000
00000000
00010000
00001000
00000000
00000000
00100000
00010000
00000000
00000000
,
10000000
01000000
00100000
00000000
00010000
00000000
01000000
00000000
00001000
00000000
00010000
00000000
00000010
00000100
00000001
00000000
,
00001000
00000100
00000010
00000000
00001000
00000000
00010000
00000000
00000100
00000000
00001000
00000000
00000001
00000100
00000010
00000000
,
00000001
00000010
00001000
00000000
00000100
00000000
00010000
00000000
01000000
00000000
00010000
00000000
00001000
00010000
00000100
00000000
,
00001000
00000001
00000100
00000000
00000010
00000000
00001000
00000000
00000100
00000000
00010000
00000000
00000001
00000100
00000010
00000000
,
00001000
00000100
00000000
00000000
00010000
00001000
00000000
00000000
01000000
00100000
00000000
00000000
00010000
00100000
00000000
00000000
,
10000000
01000000
00000000
00000000
00010000
00001000
00000000
00000000
00000100
00000001
00000000
00000000
00001000
00000100
00000000
00000000
,
00000001
00000100
00000000
00000000
00010000
00001000
00000000
00000000
01000000
10000000
00000000
00000000
01000000
00010000
00000000
00000000
,
00100000
00001000
00000000
00000000
00010000
00000001
00000000
00000000
00000100
00000010
00000000
00000000
00001000
00000100
00000000
00000000
,
00010000
00001000
01000000
00400000
00000000
00000000
01300000
00001000
,
00010000
00000100
00010000
00000040
00000000
00000000
00000130
00000001
,
00000100
00001000
00010000
00400000
00000000
00000000
10300000
01000000
,
00100000
00000000
00010000
00000000
10010000
00000000
00000000
00000000
00010100
00000000
00000000
00000000
00000000
00000010
00000100
00000001
,
00000100
00000010
00001000
00000040
00000000
00000000
00010030
00001000
,
01000000
00000000
01100000
00000000
00000000
00000000
01010000
00000000
00000000
00000000
00110000
00000000
00000000
00100000
00001000
00010000
,
00001000
00000100
00000001
00000010
00001000
00010000
00100000
10000000
,
01000000
00010000
00001000
00000100
00000001
00000010
00001000
00010000
,
00100000
10000000
00010000
00000000
01000000
00000000
00001000
00000000
00010000
00000000
00000100
00000000
00000010
00000001
00001000
00000000
,
00000010
00000100
00001000
00000000
00010000
00000000
01000000
00000000
00100000
00000000
00001000
00000000
00010000
00000100
00001000
00000000
,
00000010
00000001
00000010
00000000
00001000
00000000
00000100
00000000
00000010
00000000
00001000
00000000
00010000
00100000
10000000
00000000
,
01000000
00010000
01000000
00000000
00100000
00000000
00010000
00000000
01000000
00000000
00001000
00000000
00000100
00000010
00000100
00000000
,
00000001
00001000
00000001
00000000
00010000
00000000
00001000
00000000
00010000
00000000
00001000
00000000
01000000
00100000
10000000
00000000
,
00010000
01000000
00010000
00000000
10000000
00000000
01000000
00000000
00100000
00000000
10000000
00000000
00100000
00010000
10000000
00000000
,
00010000
10000000
01000000
00010000
00001000
00000100
00000001
00000010
,
00001000
00010000
00100000
10000000
01000000
00010000
00001000
00000100
,
00000001
00000100
00001000
00000000
00010000
00000000
01000000
00000000
00100000
00000000
00010000
00000000
10000000
00000000
00100000
00000000
,
01000000
00010000
10000000
00000000
01000000
00000000
00010000
00000000
00001000
00000000
00000010
00000000
00000100
00000000
00001000
00000000
,
00000010
00001000
00000010
00000000
00000100
00000000
00001000
00000000
00010000
00000000
01000000
00000000
00100000
00000000
00010000
00000000
,
00100000
00001000
00010000
00000000
01000000
00000000
10000000
00000000
01000000
00000000
00010000
00000000
00001000
00000000
00100000
00000000
,
00010000
01000000
00010000
00000000
01000000
00000000
00100000
00000000
10000000
00000000
01000000
00000000
00100000
00000000
00001000
00000000
,
00010000
00000100
00001000
00000000
00000010
00000000
00000100
00000000
00000001
00000000
00001000
00000000
00000100
00000000
00000010
00000000
,
00001000
00001000
00010000
00010000
00100000
00100000
01000000
01000000
,
00001000
00000100
00000001
00010000
01000000
10000000
00001000
00000100
,
00011000
00000000
00000000
00000000
;

//---------------dance-single - D. Bernardone----------------
#NOTES:
     dance-single:
     D. Bernardone:
     Hard:
     9:
     0.653,0.666,0.250,0.157,0.097:
0000
0000
0000
0000
,
0000
0000
0000
0000
,
0000
0000
0000
0000
,
0000
0000
0000
0000
0000
0000
0000
0000
0000
0000
0000
0000
0000
0000
0000
0001
,
1000
0000
0000
1000
0001
0000
0000
0001
0100
0000
0000
0100
0010
0000
0000
0010
,
1000
0000
0000
1000
0010
0000
0000
0010
0100
0000
0000
0100
0001
0000
0000
0001
,
1000
0100
0000
0101
0000
1100
0000
0001
,
0000
1010
0000
0011
0000
0010
1001
0000
,
0001
0100
1000
0100
0001
0100
1000
0000
,
0001
0010
1000
0010
0001
0010
1000
0000
,
1000
0100
0001
0100
1000
0100
0001
0000
,
1000
0010
0001
0010
1000
0010
0001
0000
,
0100
0001
0010
0001
0100
0001
0010
0000
,
0100
1000
0010
1000
0100
1000
0010
0000
,
0010
0001
0100
0001
0010
0001
0100
0000
,
0010
1000
0100
1000
0010
1000
0100
0000
,
0010
0001
0001
0000
0000
0100
1000
0100
,
0000
0010
0010
0000
0000
1000
0100
0010
,
0000
0001
0001
0000
0000
0010
1000
0010
,
0000
0100
0100
0000
0000
1000
0010
0001
,
0010
1000
0010
0000
1000
0000
0100
0000
,
0001
0010
0001
0000
0100
0000
1000
0000
,
0010
0001
0010
0000
0100
0000
0001
0000
,
0010
1000
0010
0000
0100
0000
1000
0000
,
0001
0100
0010
0001
0100
0000
0100
0000
,
1000
0100
0010
1000
0100
0000
0100
0000
,
0010
0001
0100
0010
0001
0000
0001
0000
,
0100
1000
0010
0100
1000
0000
1000
0000
,
0010
0001
0100
0010
1000
1000
0100
0100
,
1000
0010
0001
0100
0001
0010
1000
0100
,
0001
0010
0001
0100
1000
0010
0001
0100
,
0001
0010
1000
0100
0001
0010
0001
0100
,
1000
0010
0100
1000
0100
0010
1000
0000
,
0100
0001
0100
0010
0100
1000
0001
0000
,
1000
0100
0010
1000
0010
0100
1000
0000
,
0001
0100
0010
0001
0010
0100
0001
0000
,
0001
0010
0100
1000
0100
0010
0001
0000
,
0001
0100
0010
1000
0010
0100
0001
0000
,
1000
0100
0010
0100
1000
0010
0100
0000
,
0001
0010
0100
0010
0001
0100
0010
0000
,
1000
0000
0100
1000
0100
0000
1000
0000
0001
0000
0100
0000
1000
0000
0000
0000
,
0001
0000
0010
0001
0010
0000
0100
0000
0001
0000
0100
0000
0010
0000
0000
0000
,
0001
0000
0100
0001
0100
0000
1000
0000
0100
0000
0010
0000
1000
0000
0000
0000
,
0100
0000
0010
0100
0010
0000
1000
0000
0010
0000
0001
0000
0100
0000
0000
0000
,
0010
1000
0010
0001
0010
1000
0010
0000
,
0100
0001
0100
1000
0100
0001
0100
0000
,
0010
0001
0010
1000
0100
0001
0100
0000
,
0010
1000
0010
0001
0100
1000
0100
0000
,
0220
0000
0330
0110
0000
0000
0110
0000
,
1000
0001
0000
0202
0000
0303
0101
0101
,
1000
0100
1000
2200
0000
3300
1100
0000
,
1000
0000
0101
0010
0100
0000
0100
0001
,
0010
1000
0010
1010
0000
0000
1010
0000
,
0000
0101
0000
0011
0000
0101
1000
0100
,
0010
0001
0100
0100
1000
0010
0010
0001
,
0100
0100
1000
0010
0010
0001
0100
0100
,
1000
0001
0100
0000
1100
0000
0101
0000
,
0001
0010
1000
0000
1100
0000
0101
0000
,
0001
0100
0010
0000
2000
0000
3200
0000
,
0301
0100
0010
0000
1010
0000
0110
0000
,
0001
0100
0010
0000
2000
0000
3002
0000
,
0013
0100
1000
0100
0010
0000
0001
0000
,
1000
0100
0100
0001
0010
0010
1000
0100
,
0100
0001
0010
0010
1000
0100
0100
0001
,
0020
0000
0000
0000
0230
0000
0000
0000
1300
0001
1000
0000
0001
1000
0001
0000
,
0200
0000
0000
0000
0320
0000
0000
0000
1030
0100
1000
0000
0100
1000
0100
0000
,
0010
0000
0001
0000
1100
0000
0000
0000
0001
0100
0001
0000
1000
0100
1000
0000
,
0002
0000
0000
0000
0203
0000
0000
0000
0301
0010
0001
0000
1000
0100
1000
0000
,
0010
0100
1001
0000
0002
0000
1003
0000
,
0001
0010
0100
1000
0100
0010
0001
0001
,
0001
0100
1000
0010
1000
0100
0001
0010
,
1000
0100
1000
0010
0001
0100
1000
0010
,
0001
0000
0000
0000
;

//---------------dance-single - M. Simmons----------------
#NOTES:
     dance-single:
     M. Simmons:
     Beginner:
     1:
     0.095,0.133,0.074,0.000,0.000:
0000
0000
0000
0000
,
0000
0000
0000
0000
,
0000
0000
0000
0000
,
0000
0000
0000
0000
,
0000
0000
0000
0000
,
0000
0000
0000
0000
,
0000
0000
0000
0000
,
0000
0000
0000
0000
,
1000
0000
0000
0000
,
0100
0000
0000
0000
,
0010
0000
0000
0000
,
0100
0000
0000
0000
,
1000
0000
0000
0000
,
1000
0000
0000
0000
,
0001
0000
0000
0000
,
0001
0000
0000
0000
,
0100
0000
0000
0000
,
0100
0000
0000
0000
,
0010
0000
0000
0000
,
0010
0000
0000
0000
,
1001
0000
0000
0000
,
1001
0000
0000
0000
,
1001
0000
0000
0000
,
1001
0000
0000
0000
,
0001
0000
0000
0000
,
0010
0000
0000
0000
,
0100
0000
0000
0000
,
1000
0000
0000
0000
,
0001
0000
0000
0000
,
0100
0000
0000
0000
,
0010
0000
0000
0000
,
1000
0000
0000
0000
,
0001
0000
0000
0000
,
0010
0000
0000
0000
,
0100
0000
0000
0000
,
0010
0000
0000
0000
,
0001
0000
0000
0000
,
1000
0000
0000
0000
,
0010
0000
0000
0000
,
0100
0000
0000
0000
,
0001
0000
0000
0000
,
0100
0000
0000
0000
,
0010
0000
0000
0000
,
1000
0000
0000
0000
,
0100
0000
0000
0000
,
0010
0000
0000
0000
,
0001
0000
0000
0000
,
1000
0000
0000
0000
,
1001
0000
0000
0000
,
0010
0000
0000
0000
,
1001
0000
0000
0000
,
0010
0000
0000
0000
,
0110
0000
0000
0000
,
1000
0000
0000
0000
,
0010
0000
0000
0000
,
1000
0000
0000
0000
,
0001
0000
0000
0000
,
0100
0000
0000
0000
,
0001
0000
0000
0000
,
1000
0000
0000
0000
,
0100
0000
0000
0000
,
0010
0000
0000
0000
,
0001
0000
0000
0000
,
0000
0000
0000
0000
,
0010
0000
0000
0000
,
0100
0000
0000
0000
,
1000
0000
0000
0000
,
0001
0000
0000
0000
,
0100
0000
0000
0000
,
0010
0000
0000
0000
,
1000
0000
0000
0000
,
0001
0000
0000
0000
,
1001
0000
0000
0000
;
