#TITLE:Charly;
#SUBTITLE:(Halloween Dub);
#ARTIST:Sanxion7;
#TITLETRANSLIT:;
#SUBTITLETRANSLIT:;
#ARTISTTRANSLIT:;
#GENRE:Techno;
#CREDIT:Sync by HellRazoR;
#BANNER:Charly-bn.png;
#BACKGROUND:Charly-bg.png;
#LYRICSPATH:;
#CDTITLE:;
#MUSIC:Charly.ogg;
#OFFSET:-0.0412;
#SAMPLESTART:36.830;
#SAMPLELENGTH:12.000;
#SELECTABLE:YES;
#DISPLAYBPM:130.000;
#BPMS:0.000=130.000;
#STOPS:95.75=.0095,127.75=.0075,159.75=.012;
#BGCHANGES:0.000=Charly-bg.png=1.000=0=0=1=====,
16.000=In The Groove Rebirth/1344_JumpBack.mpg=1.000=0=0=1=====,
32.000=In The Groove Rebirth/1352_JumpBack.mpg=1.000=0=0=1=====,
48.000=In The Groove Rebirth/1345_JumpBack.mpg=1.000=0=0=1=====,
60.000=Charly-bg.png=1.000=0=0=1=====,
64.000=In The Groove Rebirth/1144_JumpBack.mpg=1.000=0=0=1=====,
80.000=In The Groove Rebirth/1128_JumpBack.mpg=1.000=0=0=1===SlideLeft==,
96.000=In The Groove Rebirth/307_JB_HD.mpg=1.000=0=0=1=====,
112.000=In The Groove Rebirth/1342_JumpBack.mpg=1.000=0=0=1===SlideRight==,
128.000=In The Groove Rebirth/1364_JumpBack.mpg=1.000=0=0=1=====,
144.000=In The Groove Rebirth/1352_JumpBack.mpg=1.000=0=0=1===FadeUp==,
156.000=Charly-bg.png=1.000=0=0=1=====,
159.000=Charly-bg.png=1.000=0=0=1=StretchNormalRed====,
159.250=Charly-bg.png=1.000=0=0=1=StretchNormalGreen====,
159.500=Charly-bg.png=1.000=0=0=1=StretchNormalBlue====,
159.750=Charly-bg.png=1.000=0=0=1=StretchNormalGreen====,
160.000=In The Groove Rebirth/1144_JumpBack.mpg=1.000=0=0=1=====,
176.000=In The Groove Rebirth/1344_JumpBack.mpg=1.000=0=0=1=====,
188.000=Charly-bg.png=1.000=0=0=1=====,
196.000=In The Groove Rebirth/1345_JumpBack.mpg=1.000=0=0=1=====,
197.000=In The Groove Rebirth/1352_JumpBack.mpg=1.000=0=0=1=====,
198.000=In The Groove Rebirth/307_JB_HD.mpg=1.000=0=0=1=====,
199.000=In The Groove Rebirth/1364_JumpBack.mpg=1.000=0=0=1=====,
200.000=Charly-bg.png=1.000=0=0=1=====,
99999=-nosongbg-=1.000=0=0=0 // don't automatically add -songbackground-
;
#BGCHANGES2:16.000=flash=1.000=0=0=1====0^1^0^1=,
32.000=flash=1.000=0=0=1====0^0^1^1=,
48.000=flash=1.000=0=0=1====1^0^1^1=,
60.000=white flash=1.000=0=0=1=====,
64.000=white flash=1.000=0=0=1=====,
96.000=flash=1.000=0=0=1====0.5^0.5^0.5^1=,
124.000=yellow flash=1.000=0=0=1=====,
128.000=white flash=1.000=0=0=1=====,
156.000=white flash=1.000=0=0=1=====,
160.000=flash=1.000=0=0=1====1^1^0^1=,
176.000=flash=1.000=0=0=1====1^0^1^1=,
188.000=white flash=1.000=0=0=1=====,
192.000=white flash=1.000=0=0=1=====,
196.000=flash=2.000=0=0=1====0^1^1^1=,
197.000=flash=2.000=0=0=1====1^0^0^1=,
198.000=flash=2.000=0=0=1====1^1^0^1=,
199.000=flash=2.000=0=0=1====0^1^0^1=,
200.000=white flash=1.000=0=0=1=====,
;
#KEYSOUNDS:;

//---------------dance-single - J. Griep----------------
#NOTES:
     dance-single:
     J. Griep:
     Easy:
     2:
     0.196,0.000,0.114,0.218,0.000:
0000
0000
0000
0000
,
0000
0000
0000
0000
,
1000
0000
0001
0000
,
1000
0001
0100
0000
,
0001
0000
0100
0000
,
0010
0000
1000
0000
,
0001
0000
1000
0000
,
0100
0000
1000
0001
,
0200
0000
0000
0300
0020
0000
0000
0030
,
0200
0000
0000
0300
0020
0000
0000
0030
,
2000
0000
0000
3000
0200
0000
0000
0300
,
0020
0000
0000
0030
0001
0000
0100
0000
,
0020
0000
0000
0030
,
2000
0000
0000
3000
,
0002
0000
0000
0003
,
0010
0000
0100
1000
,
0001
0001
0000
0000
,
1000
1000
0000
0000
,
0001
0001
0000
0000
,
1000
1000
0000
1001
,
0010
0010
0000
0000
,
0100
0100
0000
0000
,
0010
0010
0000
0000
,
0100
0100
0000
1001
,
1000
0000
0010
0000
,
0100
0000
0001
0000
,
1000
0000
0100
0000
,
0001
0000
0010
0001
,
0110
0000
0000
0000
,
0110
0000
0000
0000
,
1000
0000
0010
0000
,
0100
0000
0010
0000
,
2002
0000
0000
3003
,
1001
0000
0000
0000
,
0220
0000
0000
0330
,
0110
0000
1000
0001
,
0200
0000
0000
0300
0020
0000
0000
0030
,
0200
0000
0000
0300
0020
0000
0000
0030
,
2000
0000
0000
3000
0020
0000
0000
0030
,
0200
0000
0000
0300
0001
0000
0001
0000
,
0001
1000
0000
0000
,
1000
1000
0000
0000
,
0001
0001
0000
0000
,
1000
1000
0000
1001
,
0010
0010
0000
0000
,
0100
0100
0000
0000
,
0010
0010
0000
0000
,
0100
0100
0000
0000
,
1001
0000
0000
0000
,
0010
0010
0100
0100
,
0110
0000
0000
0000
;

//---------------dance-single - J. Griep----------------
#NOTES:
     dance-single:
     J. Griep:
     Medium:
     5:
     0.389,0.000,0.458,0.021,0.000: // measure 1
0000
0000
0000
0000
,  // measure 2
0000
0000
0000
0000
,  // measure 3
0000
0000
0000
0000
,  // measure 4
0000
0000
0000
0000
,  // measure 5
1001
0010
1100
1000
,  // measure 6
0101
0000
0001
0000
1000
0100
0010
0000
,  // measure 7
1100
0010
0101
1000
,  // measure 8
0100
0000
0001
0000
0010
0100
0010
0000
,  // measure 9
1100
0001
0101
1000
,  // measure 10
0110
0000
1000
0000
0001
1000
0100
0000
,  // measure 11
0101
1000
1100
0001
,  // measure 12
0000
0010
0100
0010
0100
0000
1001
0000
,  // measure 13
0101
0000
0010
0000
1000
0001
1000
0000
,  // measure 14
1100
0000
0010
0000
0001
1000
0001
0000
,  // measure 15
0110
0000
1000
0000
0001
0100
0001
0000
,  // measure 16
0000
0001
1000
0001
1000
0000
0110
0000
,  // measure 17
0100
0010
0000
1000
0010
0000
0100
0000
,  // measure 18
0001
0010
0000
0100
1000
0000
0110
0000
,  // measure 19
1000
0001
0000
0100
0010
0000
1000
0000
,  // measure 20
0001
0010
0000
0001
0000
1000
0000
0001
,  // measure 21
0100
0100
0000
0100
0001
0000
0001
0000
,  // measure 22
0010
0010
0000
0100
1000
0000
1000
0000
,  // measure 23
0001
0001
0000
1000
0010
0000
0010
0000
,  // measure 24
0100
0001
0000
0100
0000
0010
0000
1000
,  // measure 25
0001
0000
0010
0000
0100
0010
0100
0000
,  // measure 26
0110
0011
1100
1001
,  // measure 27
0001
0000
1000
0000
0001
1000
0001
0000
,  // measure 28
0110
0000
1000
0000
0101
0000
0010
0100
,  // measure 29
0010
0000
0100
0000
0010
1000
0001
0000
,  // measure 30
1100
0011
0110
1001
,  // measure 31
0001
0000
0100
0000
0010
1000
0001
0000
,  // measure 32
1100
0000
0001
0000
0101
0000
1000
1000
,  // measure 33
0001
1000
0001
0000
1001
0000
0000
0000
,  // measure 34
1000
0010
1000
0000
1010
0000
0000
0000
,  // measure 35
0001
0010
0001
0000
0011
0000
0000
0000
,  // measure 36
0010
0100
1000
0000
1000
0100
0010
0000
,  // measure 37
1001
0000
0010
0000
0100
0010
0100
0000
,  // measure 38
1100
0001
0100
0000
,  // measure 39
0101
0000
1000
0000
0010
0100
0001
0000
,  // measure 40
1001
0000
0110
0000
1001
0000
0010
0100
,  // measure 41
0010
0100
0000
0001
0100
0000
0010
0000
,  // measure 42
1000
0100
0000
0010
0001
0000
0110
0000
,  // measure 43
0001
1000
0000
0010
0100
0000
0001
0000
,  // measure 44
1000
0100
0000
0010
0000
0001
0000
1000
,  // measure 45
0010
0010
0000
0010
1000
0000
1000
0000
,  // measure 46
0100
0100
0000
0010
0001
0000
0001
0000
,  // measure 47
1000
1000
0000
0001
0100
0000
0100
0000
,  // measure 48
0010
1000
0000
0010
0000
0100
0000
0001
,  // measure 49
1001
0000
0000
0000
,  // measure 50
0011
1100
1010
0101
,  // measure 51
2002
0000
0000
3003
;

//---------------dance-single - D. Kincel----------------
#NOTES:
     dance-single:
     D. Kincel:
     Hard:
     9:
     0.621,0.000,0.073,0.582,0.426:
0000
0000
0000
0000
,
0000
0000
0000
0000
,
0000
2000
3002
0203
0320
0030
20M0
3000
,
0101
0000
0000
0000
0000
0000
1010
0000
0000
0000
0000
0000
0002
0003
0002
0003
,
1000
0000
0001
0000
0100
0000
0010
1000
0000
0010
1000
0000
0001
0000
0000
0000
,
0001
0000
1000
0000
0100
0000
0010
0100
0000
0010
0100
0000
1000
0000
0000
0100
,
1000
0000
0010
0000
0100
0000
0010
1000
0000
0001
1000
0000
0010
0000
0000
1000
,
0001
0000
0010
0000
0100
0000
1000
0100
0000
0010
0001
0000
1000
0001
1000
0001
,
1000
0000
0001
0000
0100
0000
0010
0000
0000
0000
1000
0000
0002
0000
0000
0003
,
0010
0000
0000
0100
1000
0000
0001
0000
0000
0000
0100
0000
0020
0000
0000
0030
,
1000
0000
0001
0000
0010
0000
0100
0000
0000
0000
0010
0000
0002
0000
0000
0003
,
0100
0000
0100
0000
0010
0000
1000
0000
0001
0000
0000
0020
0100
1030
0100
1000
,
01M0
0000
0000
0000
0000
0000
0010
0000
0001
0000
0000
0000
1000
0000
0000
0000
0010
0000
1000
0000
0010
0000
0000
0000
0200
0000
0000
0000
0000
0300
0000
0000
,
0M01
0000
0000
0000
0000
0000
1000
0000
0100
0000
0000
0000
0010
0000
0000
0000
0001
0000
0100
0000
0001
0000
0000
0000
2000
0000
0000
0000
0000
3000
0000
0000
,
M010
0000
0000
0100
0001
0000
0010
0000
0100
1000
0100
0000
0010
0000
00M0
0000
,
0001
0000
2000
0000
3020
0000
0230
0000
0301
0000
0000
0001
0000
0000
0001
0100
,
0010
0000
0010
0000
0000
0000
1000
0000
0001
0000
0000
0010
0000
0000
0100
0000
,
1000
0000
1000
0000
0000
0000
0001
0000
0100
0000
0000
0010
0000
1000
0001
1000
,
0001
0000
0100
0000
0000
0000
0001
0000
0010
0000
0000
0100
0000
1000
0001
0000
,
0100
0000
0010
0000
0000
0000
1000
0000
0010
0000
1000
0000
0000
0000
0001
0010
,
0M01
0000
1000
0000
0100
0000
0010
0000
0100
0000
0000
001M
0000
0000
0100
0000
,
10M0
0000
0010
0000
0100
0000
0001
0000
0100
0000
0000
0M10
0000
1000
0001
1000
,
0M01
0000
0010
0000
0100
0000
1000
0000
0001
0000
0000
0M10
0000
0001
1000
0000
,
0010
0000
0100
0000
0000
0000
0001
0000
0100
0000
0001
0000
0000
0000
1000
00M1
,
1000
0002
0023
0230
2300
3000
M002
0003
,
1000
0010
1000
0100
0020
0030
02M0
0300
,
0M00
2000
3002
0203
0320
0030
20M0
3000
,
0001
0000
0000
000M
0010
0000
0000
00M0
0001
0000
0010
0000
0001
0000
1000
010M
,
1000
0020
0230
0302
0023
0030
02M0
0300
,
1000
0000
0001
0100
0010
0000
0100
0000
0002
0000
0003
0000
200M
0000
3001
0000
,
0000
0002
2003
3020
0230
0300
0M20
0030
,
2002
3003
2200
3300
0001
1000
0100
1000
,
1001
0000
0010
1000
0100
0001
0010
0000
,
0001
0100
0000
0010
1000
0000
0100
0000
0001
0000
0000
0000
0000
0000
0000
0000
,
1100
0000
0001
0100
1000
0010
0001
0000
,
1000
0001
0000
0100
0010
0000
1000
0000
0100
0000
0000
0000
0010
0001
0010
0001
,
0010
0200
2300
3020
0230
0300
0M02
0003
,
1000
0100
0000
0010
0100
0000
1000
0000
0001
0000
0000
0000
0000
0000
0000
0000
,
0100
0010
0000
1000
0010
0000
0100
0000
0001
0000
0010
0000
0100
0000
0000
0000
,
1000
0001
0000
0100
0001
0000
1000
0001
0000
0010
0001
0000
1000
0100
1000
0100
,
1000
0000
0001
0000
0000
0000
0100
0000
0010
0000
0000
0010
0000
0000
0010
1000
,
0001
0000
0010
0000
0000
0000
0100
0000
1000
0000
0000
1000
0000
0001
1000
0001
,
0100
0000
0010
0000
0000
0000
1000
0000
0001
0000
0000
0010
0000
0100
1000
0000
,
0010
0000
0010
0000
0000
0000
0100
0000
0001
0000
0010
0000
0100
1000
0100
1000
,
01M0
0000
1000
0000
0010
0000
0100
0000
0001
0100
00M0
0001
0100
0000
0010
0000
,
100M
0000
0100
0000
0010
0000
0001
0000
1000
00M1
0000
1000
0000
0001
1000
0100
,
001M
0000
0000
0000
0100
0000
0000
0000
1000
0000
0000
0000
0010
0000
0000
0000
0100
0000
0000
00M0
0000
0000
0001
0000
0000
0000
1000
0000
0010
0000
0000
0000
,
M100
0000
0001
0000
0M00
0000
1000
0000
001M
0000
0100
0000
0000
0000
0001
1000
,
00M2
0000
0000
0000
0000
0000
0000
0000
0000
0000
0000
0000
0003
0000
1000
0100
,
2000
3000
0001
0100
0002
0003
1000
0010
2000
3000
0001
0010
0002
0003
0010
0100
,
2002
0000
0000
0000
,
3003
0000
0000
0000
;

//---------------dance-double - J. Gowen----------------
#NOTES:
     dance-double:
     J. Gowen:
     Easy:
     2:
     0.181,0.000,0.052,0.000,0.000: // measure 1
00000000
00000000
00000000
00000000
,  // measure 2
00000000
00000000
00000000
00000000
,  // measure 3
00000000
00000000
00000000
00000000
,  // measure 4
00000000
00000000
00000000
00000000
,  // measure 5
00000000
00100000
00010000
10000000
,  // measure 6
00000000
00000000
00000000
01000000
,  // measure 7
00000000
00100000
00001000
00010000
,  // measure 8
00000000
00000000
00000100
00001000
,  // measure 9
00000001
00000000
00000100
00000000
,  // measure 10
00001000
00000000
00010000
00000000
,  // measure 11
00000010
00000000
00001000
00000000
,  // measure 12
00000000
00000100
00010000
00001000
,  // measure 13
00000000
00100000
00000000
00010000
,  // measure 14
00000000
01000000
00000000
00100000
,  // measure 15
00000000
10000000
00000000
01000000
,  // measure 16
00000000
00100000
00001000
00010000
,  // measure 17
00000100
00000000
00000100
00001000
,  // measure 18
00000001
00000000
00000010
00000100
,  // measure 19
00010000
00000000
00001000
00100000
,  // measure 20
00010000
00000000
10000000
00000000
,  // measure 21
01000000
00000000
00100000
00010000
,  // measure 22
01000000
00000000
00010000
00100000
,  // measure 23
00001000
00000000
00010000
00000100
,  // measure 24
00001000
00000000
00000001
00000000
,  // measure 25
00000000
00001000
00000010
00010000
,  // measure 26
00000000
00000100
00000000
00010000
,  // measure 27
00000000
00001000
00001000
00010000
,  // measure 28
00000000
00010000
00010000
00000000
,  // measure 29
00000000
00001000
00010000
00001000
,  // measure 30
00000000
00001000
00000000
00100000
,  // measure 31
00000000
00010000
01000000
00100000
,  // measure 32
00000000
00010000
00001000
00000000
,  // measure 33
00010000
00000000
00000100
00001000
,  // measure 34
00000000
00000100
00000010
00000000
,  // measure 35
00000100
00000000
00000010
00000001
,  // measure 36
00000000
00000100
00000010
00000000
,  // measure 37
00001000
00000000
00000100
00010000
,  // measure 38
00000000
00001000
01000000
00000000
,  // measure 39
00010000
00000000
00100000
00001000
,  // measure 40
00000000
00010000
00000010
00000000
,  // measure 41
00001000
00000000
00000001
00000100
,  // measure 42
00000010
00000000
00000010
00001000
,  // measure 43
00000100
00000000
00010000
00001000
,  // measure 44
01000000
00000000
00100000
00000000
,  // measure 45
10000000
00000000
01000000
00100000
,  // measure 46
00010000
00000000
10000000
01000000
,  // measure 47
00100000
00000000
00100000
00001000
,  // measure 48
00010000
00000000
00000100
00000000
,  // measure 49
00001000
00000000
00000000
00000000
,  // measure 50
00011000
00011000
00011000
00011000
,  // measure 51
00011000
00000000
00000000
00000000
;

//---------------dance-double - J. Gowen----------------
#NOTES:
     dance-double:
     J. Gowen:
     Medium:
     4:
     0.303,0.000,0.187,0.031,0.000: // measure 1
00000000
00000000
00000000
00000000
,  // measure 2
00000000
00000000
00000000
00000000
,  // measure 3
00000000
00000000
00000000
00000000
,  // measure 4
00000000
00000000
00000000
00000000
,  // measure 5
00000000
00100000
00010000
10000000
,  // measure 6
01000000
00000000
00000000
00100000
00000000
00000000
00001000
00010000
,  // measure 7
00000000
00000100
00001000
00000001
,  // measure 8
00000010
00000000
00000000
00000100
00000000
00000000
00010000
00000000
,  // measure 9
00001000
00000000
00000000
00100000
00000000
00010000
10000000
00000000
,  // measure 10
01000000
00000000
00000000
00100000
00000000
00001000
00010000
00000000
,  // measure 11
00000100
00000000
00000000
00000010
00000000
00000001
00001000
00000000
,  // measure 12
00000000
00000010
00000100
00000001
,  // measure 13
00000010
00000000
00000000
00000100
00000000
00010000
00001000
00000000
,  // measure 14
01000000
00000000
00000000
00010000
00000000
10000000
00100000
00000000
,  // measure 15
01000000
00000000
00000000
00010000
00000000
00100000
00001000
00000000
,  // measure 16
00000000
01000000
00010000
10000000
,  // measure 17
00100000
01000000
00000000
00001000
00010000
00000000
00011000
00000000
,  // measure 18
00000010
00001000
00000000
00000001
00000100
00000000
00000101
00000000
,  // measure 19
00001000
00000100
00000000
00000010
00000001
00000000
00000011
00000000
,  // measure 20
00001000
00000020
00000000
00000000
00001000
00000000
00010030
00000000
,  // measure 21
00001000
01000000
00000000
00010000
00100000
00000000
00110000
00000000
,  // measure 22
01000000
10000000
00000000
00010000
01000000
00000000
01010000
00000000
,  // measure 23
00001000
00100000
00000000
00010000
10000000
00000000
10010000
00000000
,  // measure 24
01000000
00002000
00000000
00000000
00100000
00000000
00013000
00000000
,  // measure 25
00000000
00000100
00001000
00000000
00000010
00000000
00000100
00000000
,  // measure 26
00001000
00010000
00100000
10000000
,  // measure 27
00000000
01000000
00100000
00000000
00001000
00000000
00010000
00000000
,  // measure 28
00000100
00000000
00000010
00000000
00000001
00001000
00000001
00000000
,  // measure 29
00000000
00000100
00000010
00000000
00001000
00000000
00000100
00000000
,  // measure 30
00000010
00001000
00010000
01000000
,  // measure 31
00000000
10000000
00010000
00000000
00100000
00000000
00001000
00000000
,  // measure 32
00010000
00000000
00000010
00000000
00001000
00000001
00001000
00000000
,  // measure 33
00000000
00000100
00000010
00000001
,  // measure 34
00000000
00000100
00001000
00000000
,  // measure 35
00000000
00010000
01000000
10000000
,  // measure 36
00000000
00000000
00010000
00000000
01000000
00100000
01000000
00000000
,  // measure 37
00000000
00001000
00010000
00000100
,  // measure 38
00000000
00010000
00001000
00000000
,  // measure 39
00000000
00010000
00100000
00010000
,  // measure 40
00000000
00000000
00001000
00000000
00010000
00000100
00010000
00000000
,  // measure 41
00001000
01000000
00000000
00010000
00100000
00000000
00110000
00000000
,  // measure 42
00001000
00010000
00000000
00000010
00001000
00000000
00001010
00000000
,  // measure 43
00010000
00000100
00000000
00001000
00000001
00000000
00001001
00000000
,  // measure 44
00000100
00000020
00000000
00000000
00010000
00000000
00001030
00000000
,  // measure 45
00000001
00000100
00000000
00000010
00010000
00000000
00010010
00000000
,  // measure 46
00100000
00010000
00000000
01000000
00001000
00000000
01001000
00000000
,  // measure 47
10000000
00010000
00000000
00100000
00001000
00000000
00101000
00000000
,  // measure 48
00010000
00000100
00000000
00000000
00001000
00000000
00000001
00000000
,  // measure 49
00000011
00000000
00000000
00000000
,  // measure 50
00001100
00010100
00011000
00101000
,  // measure 51
00110000
00000000
00000000
00000000
;

//---------------dance-double - R. Uchima----------------
#NOTES:
     dance-double:
     R. Uchima:
     Challenge:
     9:
     0.677,0.000,0.614,0.541,0.380:
00000000
00000000
00000000
00000000
,
00000000
00000000
00000000
00000000
,
00000000
00100000
00001000
00010000
00000100
00000000
00012000
00000000
,
00000010
00000000
00000000
00000100
00000000
00000000
00023000
00030200
,
00010300
00000000
00010000
00000000
00000010
00000000
00001000
00000100
00000000
00000100
00010000
00000000
00001000
00000000
01000000
00000000
,
00010000
00000000
10000000
00000000
00010000
00000000
00100000
00001000
00000000
00001000
00010000
00000000
00000200
00000000
00000320
00000000
,
00000031
00000000
00001000
00000000
00000100
00000000
00010000
00001000
00000000
00001000
01000000
00000000
00100000
00000000
01000000
00000000
,
00100000
00000000
10000000
00000000
01000000
00000000
00010000
00000000
00001000
00000000
00100000
00000000
00001000
00010000
00001000
00010000
,
00000100
00000000
00010000
00000200
00000000
00000000
00000001
00000000
00000010
00000000
00001000
00000000
01000300
00000000
00000000
00000000
,
01000M00
00000000
00010000
02000000
00000000
00000000
10000000
00000000
00100000
00000000
00010000
00000000
03000100
00000000
00000000
00000000
,
0M010000
00000000
00010000
00002000
00000000
00000000
00000010
00000000
00100000
00000000
01000000
00000000
00013000
00000000
00000000
00000000
,
0000M000
00000000
00020000
00000000
00000200
00030000
00000020
00000300
00002000
00000030
00000000
00023000
00000000
00000000
00030010
00000000
,
00000010
00000000
00001000
00000020
00000000
00000000
00000001
00000000
00000100
00000000
00001000
00000000
00100030
00000000
00000000
00000000
,
001000M0
00000000
00010000
00200000
00000000
00000000
10000000
00000000
01000000
00000000
00010000
00000000
00300010
00000000
00000000
00000000
,
00M01000
00000000
00001000
00020000
00000000
00000000
01000000
00000000
00000100
00000000
00000010
00000000
00031000
00000000
00000000
00000000
,
000M0000
00000000
00002000
00000000
00200000
00003000
02000000
00300000
00020000
00000000
03000000
00002000
00000000
00030000
01003000
00000000
,
00001000
00000000
01001000
00000000
00000000
00000000
00010000
00000000
00010100
00000000
00000000
00001010
00000000
00001000
00000100
00000000
,
00000100
00000000
00000110
00000000
00000000
00000000
00000010
00000000
00000011
00000000
00000000
00001010
00000000
00001000
00000100
00010000
,
00001000
00000000
01001000
00000000
00000000
00000000
01000000
00000000
01010000
00000000
00000000
10010000
00000000
00010000
00100000
00000000
,
00100000
00000000
00101000
00000000
00000000
00000000
00001000
00000000
00011000
00000000
00001100
00000000
00000000
00000000
00000100
00000010
,
00000001
00000000
00001001
00000000
00000000
00000000
00001000
00000000
00001010
00000000
00000000
00010010
00000000
00010000
00001000
00000000
,
00100000
00000000
00101000
00000000
00000000
00000000
00001000
00000000
01001000
00000000
00000000
10010000
00000000
00010000
00100000
00001000
,
00010000
00000000
00010010
00000000
00000000
00000000
00000010
00000000
00001010
00000000
00000000
00001001
00000000
00000001
00000100
00000000
,
00000100
00000000
00000110
00000000
00000000
00000000
00000010
00000000
00001010
00000000
00011000
00000000
00000000
00000000
00001000
00100000
,
00010000
01000000
00001000
00100000
00001000
00000000
01010000
00000000
,
20000000
00000000
02000000
30000000
00002000
03000000
02000000
00003000
20000000
00000000
00000000
03000000
00200000
30000000
02000000
00000000
,
03300000
01000000
00001000
00010000
00001000
00000000
00011000
00000000
,
00020020
00000000
00030030
00000000
02002000
00000000
03003000
00000000
00020000
00000000
00000200
00030000
00002000
00000300
00000020
00000000
,
00003030
00000010
00010000
00000100
00010000
00000000
00000011
00000000
,
00000002
00000000
00000020
00000003
00020000
00000030
00000020
00030000
00000002
00000000
00000000
00000030
00000200
00000003
00000020
00000000
,
00000330
00000010
00010000
00001000
00010000
00000000
00011000
00000000
,
00202000
00000000
00303000
00000000
00020200
00000000
00030300
00000000
00002000
00000000
00200000
00003000
00020000
00300000
02000000
03030000
,
00010000
01000000
00000000
01000000
10000000
00000000
01000000
00000000
00010000
00000000
00000100
00000000
00000010
00000000
00000000
00000000
,
00000010
00001000
00000000
00001000
00000100
00000000
00000001
00000000
00000100
00000000
00000000
00000000
00001001
00000000
00000000
00000000
,
00001000
00000010
00000000
00000010
00000001
00000000
00000010
00000000
00001000
00000000
00100000
00000000
01000000
00000000
00000000
00000000
,
01000000
00010000
00000000
00010000
00100000
00000000
10000000
00000000
00100000
00000000
00000000
00000000
00010000
10000000
00010000
10000000
,
00010000
00100000
00000000
00100000
00000100
00000000
00010000
00000000
00000100
00000000
00000010
00000000
00001000
00000000
00000000
00000000
,
00000010
00001000
00000000
00001000
00010000
00000000
00001000
00000000
00000100
00000000
00000000
00000000
00001010
00000000
00000000
00000000
,
00001000
00000100
00000000
00000100
00100000
00000000
00001000
00000000
00100000
00000000
01000000
00000000
00010000
00000000
00000000
00000000
,
01000000
00010000
00000000
00010000
00001000
00000000
00010000
00000000
00100000
00000000
00000000
00000000
01000000
00010000
01000000
00010000
,
01000000
00000000
01001000
00000000
00000000
00000000
00001000
00000000
00101000
00000000
00000000
00010010
00000000
00000010
00001000
00000000
,
00001000
00000000
00001001
00000000
00000000
00000000
00000001
00000000
00000101
00000000
00000000
00001010
00000000
00000010
00010000
00001000
,
00100000
00000000
00110000
00000000
00000000
00000000
00010000
00000000
10010000
00000000
00000000
10100000
00000000
00100000
01000000
00000000
,
01000000
00000000
01010000
00000000
00000000
00000000
00001000
00000000
00011000
00000000
00100010
00000000
00000000
00000000
00000010
00001000
,
00000010
00000000
00010010
00000000
00000000
00000000
00010000
00000000
00010100
00000000
00000000
01001000
00000000
01000000
00010000
00000000
,
00010000
00000000
10010000
00000000
00000000
00000000
10000000
00000000
10100000
00000000
00000000
01010000
00000000
01000000
00001000
00010000
,
00000100
00000000
00001100
00000000
00000000
00000000
00001000
00000000
00001001
00000000
00000000
00000101
00000000
00000100
00000010
00000000
,
00000010
00000000
00001010
00000000
00000000
00000000
00010000
00000000
00011000
00000000
01000100
00000000
00000000
00000000
01000000
00010000
,
01000000
00000000
00000000
00000000
00000000
00000000
0M0M0000
00000000
00000000
00000000
00000000
00000000
00000000
00000000
10000000
01000000
,
00010000
00000000
00001000
00000010
00000001
00000000
00000001
00000100
00001000
00000000
00010000
00100000
10000000
00000000
10000000
01000000
,
00020000
00000000
00000000
00000000
,
00030000
00000000
00000000
00000000
;

//---------------dance-double - D. D'Amato & editted by D. Bernardone----------------
#NOTES:
     dance-double:
     D. D'Amato & editted by D. Bernardone:
     Hard:
     8:
     0.505,0.000,0.218,0.104,0.255:
00000000
00000000
00000000
00000000
,
00000000
00000000
00000000
00000000
,
00000000
00000000
00000000
00000000
,
00000000
00000000
00000000
00000000
,
00011000
00000000
00010000
00000000
00000100
00000000
00000000
00001000
00000000
00000000
00000001
00000000
00000101
00000000
00000000
00000000
,
00001100
00000000
00001000
00000000
00000100
00000000
00000000
00010000
00000000
00000000
00001000
00000000
00011000
00000000
00010000
00000000
,
00001000
01000000
00100000
10000000
00100000
00000000
01100000
00000000
,
01000000
00010000
01000000
00100000
10000000
00010000
10000000
00010000
,
00200000
00000000
00000000
00010000
00010000
00310000
00100000
00000000
,
00102000
00000000
00000000
00010000
00010000
00013000
00001000
00000000
,
00021000
00000000
00000000
00000010
00000010
00030010
00010000
00000000
,
00001000
00000000
00010000
00000000
00000100
00000000
00001000
00000000
00000010
00000000
00000000
00000110
00000000
00000000
00000100
00000000
,
00000020
00000000
00000000
00001000
00001000
00001030
00000010
00000000
,
00020010
00000000
00000000
00001000
00001000
00031000
00010000
00000000
,
00012000
00000000
00000000
00100000
00100000
00103000
00001000
00000000
,
00010000
00000000
00001000
00000000
01000000
00000000
00010000
00000000
00100000
00000000
00000000
01100000
00000000
00000000
01000000
00000000
,
10000000
00000000
01000000
00000000
00000000
00000000
00010000
00000000
00001000
00000000
00000000
00100000
00000000
00010000
01000000
00000000
,
10000000
00000000
01000000
00000000
00000000
00000000
00010000
00000000
00100000
00000000
00000000
01000000
00000000
00010000
00001000
00000000
,
00000100
00000000
00001000
00000000
00000000
00000000
00010000
00000000
00001000
00000000
00000000
00010000
00000000
00000010
00001000
00000000
,
00000100
00000000
00001000
00000000
00000000
00000000
00001000
00000000
00000010
00000000
00001000
00000000
00000000
00000010
00000100
00000000
,
00000001
00000000
00000100
00000000
00000000
00000000
00001000
00000000
00010000
00000000
00000000
00000010
00000000
00001000
00000100
00000000
,
00000001
00000000
00000100
00000000
00000000
00000000
00001000
00000000
00000010
00000000
00000000
00000100
00000000
00001000
00010000
00000000
,
01000000
00000000
00010000
00000000
00000000
00000000
00001000
00000000
00010000
00000000
00000000
00001000
00000000
00100000
00010000
00000000
,
01000000
00000000
00010000
00000000
00000000
00000000
00010000
00000000
00100000
00000000
00010000
00000000
00000000
00100000
01000000
00000000
,
10000000
01000000
00100000
00010000
01000000
00000000
10100000
00000000
,
00010000
00100000
00001000
00100000
00010000
00000000
11000000
00000000
,
00010000
01000000
00100000
10000000
01000000
00000000
00110000
00000000
,
00102000
00000000
00013000
00000010
00000100
00000010
00000100
00000100
,
00000001
00000100
00000010
00001000
00000100
00000000
00000011
00000000
,
00001000
00000010
00010000
00000010
00001000
00000000
00000101
00000000
,
00001000
00000100
00000010
00000001
00000100
00000000
00001010
00000000
,
00020010
00000000
00031000
00100000
01000000
00100000
01000000
01000000
,
10000000
00000000
00000000
10000000
01000000
00000000
00100000
00000000
01000000
00000000
10000000
00000000
00010000
00000000
00000000
00000000
,
01000000
00000000
00000000
01000000
00010000
00000000
00100000
00000000
00001000
00000000
00000000
00000000
00011000
00000000
00000000
00000000
,
00010000
00000000
00000000
00010000
00000010
00000000
00001000
00000000
00000001
00000000
00000100
00000000
00000010
00000000
00000000
00000000
,
00001000
00000000
00000000
00001000
00000010
00000000
00000100
00000000
00000020
00000000
00000000
00000000
00000130
00000000
00000100
00000000
,
00000001
00001000
00000000
00000001
00001000
00000000
00000010
00000000
00000100
00000000
00000001
00000000
00001000
00000000
00000000
00000000
,
00000100
00010000
00000000
00000100
00001000
00000000
00000010
00000000
00010000
00000000
00000000
00000000
00011000
00000000
00000000
00000000
,
00001000
00100000
00000000
00001000
00100000
00000000
00010000
00000000
10000000
00000000
01000000
00000000
00100000
00000000
00000000
00000000
,
00010000
01000000
00000000
00010000
00100000
00000000
01000000
00000000
00200000
00000000
00000000
00000000
01300000
00000000
01000000
00000000
,
10000000
00000000
00100000
00000000
00000000
00000000
00010000
00000000
00001000
00000000
00000000
01000000
00000000
00010000
00100000
00000000
,
10000000
00000000
00100000
00000000
00000000
00000000
00010000
00000000
01000000
00000000
00000000
00100000
00000000
00010000
00001000
00000000
,
00000010
00000000
00001000
00000000
00000000
00000000
00010000
00000000
00001000
00000000
00000000
00010000
00000000
00000100
00001000
00000000
,
00000010
00000000
00001000
00000000
00000001
00000000
00000100
00000000
00000010
00000000
00001000
00000000
00000000
00000100
00000010
00000000
,
00000001
00000000
00000010
00000000
00000000
00000000
00001000
00000000
00010000
00000000
00000000
00000100
00000000
00001000
00000010
00000000
,
00000001
00000000
00000010
00000000
00000000
00000000
00001000
00000000
00000100
00000000
00000000
00000010
00000000
00001000
00010000
00000000
,
00100000
00000000
00010000
00000000
00000000
00000000
00001000
00000000
00010000
00000000
00000000
00001000
00000000
01000000
00010000
00000000
,
00100000
00000000
00010000
00000000
10000000
00000000
01000000
00000000
00100000
00000000
00010000
00000000
00000000
00000000
10000000
00100000
,
01000000
00000000
00000000
00000000
00000000
00000000
00000000
00000000
00000000
00000000
00000000
00000000
00000000
00000000
00100000
10000000
,
00100000
00000000
01000000
00001000
01000000
00000000
00001000
00010000
00001000
00000000
00010000
00000100
00010000
00000000
00000010
00001000
,
00000001
00000000
00000000
00000000
;

//---------------dance-single - R. Woods----------------
#NOTES:
     dance-single:
     R. Woods:
     Beginner:
     1:
     0.116,0.000,0.052,0.000,0.000:
0000
0000
0000
0000
,
0000
0000
0000
0000
,
0000
0000
0000
0000
,
0000
0000
0000
0000
,
0100
0000
0100
0000
,
0000
0000
0000
0000
,
0010
0000
0010
0000
,
0000
0000
0000
0000
,
0001
0000
0001
0000
,
1000
0000
1000
0000
,
0001
0000
0001
0000
,
0010
0000
0000
0000
,
1000
0000
1000
0000
,
0001
0000
0001
0000
,
1000
0000
1000
0000
,
0100
0000
0000
0000
,
1001
0000
0000
0000
,
0100
0000
0000
0000
,
1000
0000
0000
0000
,
0010
0010
0010
0000
,
1000
0000
0000
0000
,
0100
0000
0000
0000
,
0001
0000
0000
0000
,
0110
0000
0000
0000
,
1000
0000
1000
0000
,
1000
0000
0000
0000
,
0001
0000
0001
0000
,
0001
0000
0000
0000
,
0100
0000
0100
0000
,
0100
0000
0000
0000
,
0010
0000
0010
0000
,
0010
0000
0000
0000
,
1001
0000
0000
0000
,
1000
0000
0001
0000
,
1000
0000
0000
0000
,
1000
0000
0100
0000
,
0001
0000
0000
0000
,
0001
0000
1000
0000
,
0001
0000
0000
0000
,
0001
0000
0100
0000
,
1000
0000
0000
1000
,
1000
0000
0000
0001
,
0001
0000
0000
0100
,
0100
0000
0000
0010
,
0010
0000
0000
1000
,
1000
0000
0000
0100
,
0100
0000
0000
0010
,
0010
0000
0000
0000
,
1001
0000
0000
0000
,
1000
1000
1000
1000
,
1001
0000
0000
0000
;

//---------------dance-single - R. Uchima & S. Venkat----------------
#NOTES:
     dance-single:
     R. Uchima & S. Venkat:
     Challenge:
     10:
     0.798,0.000,0.749,0.312,0.770:
0000
0000
0000
0000
,
0000
0000
0000
0000
,
0000
0000
2000
0000
0200
3000
0002
0300
0200
0003
0000
0300
0220
0000
0000
0000
,
1000
000M
0000
0000
0000
0000
0001
M000
0000
0000
0330
0000
0002
0000
0103
0000
,
0010
1000
0001
0000
1001
0000
0001
0010
0001
1000
0010
0000
0110
0000
0100
0000
,
0001
1000
0100
0000
1100
0000
0100
0010
0000
0100
0010
0000
0200
0000
1300
0000
,
0001
0010
0001
0000
0011
0000
0010
0100
0001
0100
1000
0000
0010
0000
0100
0000
,
0010
0100
0001
0000
0101
0000
0001
0010
0100
1000
0010
0000
1000
0010
1000
0010
,
0100
0000
0010
0100
0000
0100
0010
0000
1000
0000
0010
0000
0110
0000
0000
0M00
,
0001
0000
0100
0001
0000
0100
0001
0000
0010
0000
0100
0000
1100
0000
0000
0M00
,
1000
0000
0010
1000
0000
0010
0100
0000
0010
0000
1000
0000
1001
0000
0000
M00M
,
0000
0000
2000
0000
0002
3000
0200
0003
2000
0000
0300
0100
3010
1000
0100
0010
,
0001
0000
0100
0010
0000
0010
1000
0000
0001
0000
0100
0000
1010
0000
0000
M000
,
0010
0000
0100
0001
0000
0001
0010
0000
0100
0000
1000
0000
0011
0000
0000
00M0
,
0001
0000
0100
0001
0000
0001
1000
0000
0010
0000
1000
0000
0101
0000
0000
0M0M
,
0000
0000
0002
0000
2000
0003
0200
3000
0020
0000
0300
1030
0010
0001
1000
0001
,
0100
0000
0110
0000
0000
0000
0010
0000
1010
0000
0000
1100
0000
0100
0010
0001
,
0010
0000
0000
0000
0000
0000
0011
0000
0000
0000
0000
0000
0000
0000
0000
0000
0000
0000
0010
0000
0000
0000
0000
0000
0110
0000
0000
0000
0000
0000
0000
0000
0000
0100
0000
0000
1000
0000
0000
0010
0000
0000
0100
0000
0010
0000
0100
0000
,
0001
0000
0110
0000
0000
0000
1000
0000
1100
0000
0000
0110
0000
0010
0001
0100
,
0001
0000
0000
0000
0000
0000
0101
0000
0000
0000
0000
0000
0000
0000
0000
0000
0000
0000
0001
0000
0000
0000
0000
0000
1001
0000
0000
0000
0000
0000
1010
0000
0000
0000
0000
0000
0010
0000
0000
0100
0000
0000
0010
0000
1000
0000
0100
0000
,
0010
0000
0011
0000
0000
0000
0001
0000
0101
0000
0000
1010
0000
1000
0100
1000
,
0001
0000
0000
0000
0000
0000
1001
0000
0000
0000
0000
0000
0000
0000
0000
0000
0000
0000
0100
0000
0000
0000
0000
0000
0110
0000
0000
0000
0000
0000
0000
0000
0000
0001
0000
0000
0010
0000
0000
0001
0000
0000
0100
0000
0001
0000
0100
0000
,
0010
0000
1010
0000
0000
0000
0100
0000
0101
0000
0000
1001
0000
0001
0010
0000
,
0001
0000
0000
0000
0101
0000
0000
0000
0000
0000
0000
0000
0001
0000
0000
0000
1001
0000
0000
0000
1100
0000
0000
0000
0000
0000
0000
0000
1000
0010
1000
0010
,
1000
0000
0010
0000
1010
0000
1000
0010
0100
0001
0010
0000
0011
0000
0001
1000
,
0010
0000
1000
0000
1100
0000
0100
0010
0001
0100
0001
0000
1001
0000
1000
0100
,
0010
0000
0100
0000
1100
0000
1000
0001
0100
0010
0100
0000
0101
0000
0001
1000
,
0010
0000
1000
0000
1010
0000
0010
0100
0001
0010
0100
0000
0010
0100
1000
0010
,
0100
0000
0001
0000
0101
0000
0100
1000
0100
0010
1000
0000
1010
0000
1000
0001
,
0010
0000
0100
0000
1100
0000
0100
0001
0100
0010
0001
0000
0011
0000
0010
0001
,
0100
0000
0010
0000
0110
0000
0100
1000
0100
0001
0010
0000
0110
0000
0100
0010
,
0001
0000
1000
0000
1001
0000
0001
0010
1000
0010
0001
0000
0010
0001
0100
0001
,
1000
0100
0000
0010
0001
0000
0100
0000
0020
0000
2030
0000
3100
0000
0000
0M00
,
0010
0001
0000
1000
0100
0000
0020
0000
0130
0000
0000
0M00
1001
0000
0000
0000
,
0010
0100
0000
0001
1000
0000
0010
0000
2000
0000
3020
0000
0031
0000
0000
000M
,
0010
1000
0000
0001
0100
0000
0010
0000
2000
0000
3200
0000
0310
0100
0001
0100
,
1000
0010
0000
0100
0001
0000
1000
0000
0002
0000
0203
0000
0310
0000
0000
00M0
,
0100
0001
0000
1000
0010
0000
0200
0000
1300
0000
0000
M000
0101
0000
0000
0000
,
0001
0010
0000
0100
1000
0000
0010
0000
0200
0000
0302
0000
1003
0000
0000
M000
,
0010
0100
0000
0001
1000
0000
0001
0000
0100
0000
0001
0000
0010
0001
1000
0100
,
0010
0000
1001
0000
0000
0000
0001
0000
0110
0000
0000
1010
0000
1000
0010
0100
,
0001
0000
0000
0000
0000
0000
1001
0000
0000
0000
0000
0000
0000
0000
0000
0000
0000
0000
1000
0000
0000
0000
0000
0000
0101
0000
0000
0000
0000
0000
0000
0000
0000
0001
0000
0000
1000
0000
0000
0100
0000
0000
0010
0000
0001
0000
0010
0000
,
0100
0000
0011
0000
0000
0000
0001
0000
0110
0000
0000
1001
0000
0001
0010
0001
,
1000
0000
0000
0000
0000
0000
1010
0000
0000
0000
0000
0000
0000
0000
0000
0000
0000
0000
1000
0000
0000
0000
0000
0000
0101
0000
0000
0000
0000
0000
1010
0000
0000
0000
0000
0000
1000
0000
0000
0001
0000
0000
1000
0000
0100
0000
0010
0000
,
0001
0000
1001
0000
0000
0000
0001
0000
0110
0000
0000
1010
0000
1000
0001
0010
,
0100
0000
0000
0000
0000
0000
1100
0000
0000
0000
0000
0000
0000
0000
0000
0000
0000
0000
1000
0000
0000
0000
0000
0000
0011
0000
0000
0000
0000
0000
0000
0000
0000
0010
0000
0000
0001
0000
0000
0100
0000
0000
0010
0000
1000
0000
0010
0000
,
0100
0000
1001
0000
0000
0000
0001
0000
1010
0000
0000
0110
0000
0100
0001
1000
,
0100
0000
0000
0000
1100
0000
0000
0000
0000
0000
0000
0000
1000
0000
0000
0000
1001
0000
0000
0000
1010
0000
0000
0000
0000
0000
0000
0000
1000
0001
1000
0001
,
2000
0000
0000
0000
0000
0000
0000
0000
0000
0000
0000
0000
0000
3000
0001
0010
,
1000
0000
0010
0001
0100
0000
1000
0100
0001
0000
0010
0100
0001
0000
0100
0001
,
2000
0000
0000
0000
,
3000
0000
0000
0000
;
