#TITLE:Burning Me Up;
#SUBTITLE:;
#ARTIST:Nu-Prophet;
#TITLETRANSLIT:;
#SUBTITLETRANSLIT:;
#ARTISTTRANSLIT:;
#GENRE:Ethnic;
#CREDIT:Sync by HellRazoR;
#BANNER:Burning Me Up-bn.png;
#BACKGROUND:Burning Me Up-bg.png;
#LYRICSPATH:;
#CDTITLE:;
#MUSIC:Burning Me Up.ogg;
#OFFSET:-0.0115;
#SAMPLESTART:42.254;
#SAMPLELENGTH:12.000;
#SELECTABLE:YES;
#DISPLAYBPM:142.000;
#BPMS:0.000=142.000;
#STOPS:;
#BGCHANGES:0.000=Burning Me Up-bg.png=1.000=0=0=1=====,
16.000=In The Groove Rebirth/249_JB_HD.mpg=1.000=1=0=1=SongBgWithMovieViz==CrossFade==,
32.000=In The Groove Rebirth/257_JB_HD.mpg=1.000=0=0=1=====,
48.000=In The Groove Rebirth/258_JB_HD.mpg=1.000=0=0=1=====,
64.000=In The Groove Rebirth/1144_JumpBack.mpg=1.000=0=0=1=====,
80.000=In The Groove Rebirth/309_JB_HD.mpg=1.000=0=0=1=====,
92.000=Burning Me Up-bg.png=1.000=1=0=1===CrossFade==,
96.000=In The Groove Rebirth/314_JB_HD.mpg=1.000=0=0=1=====,
112.000=In The Groove Rebirth/401_JB_HD.mpg=1.000=0=0=1=====,
128.000=In The Groove Rebirth/258_JB_HD.mpg=1.000=1=0=1===CrossFade==,
144.000=In The Groove Rebirth/257_JB_HD.mpg=1.000=0=0=1=====,
160.000=In The Groove Rebirth/263_JB_HD.mpg=1.000=0=0=1=====,
176.000=In The Groove Rebirth/1135_JumpBack.mpg=1.000=0=0=1=====,
189.500=Burning Me Up-bg.png=1.000=1=0=1===CrossFade==,
192.000=In The Groove Rebirth/249_JB_HD.mpg=1.000=0=0=1=====,
200.000=In The Groove Rebirth/314_JB_HD.mpg=1.000=0=0=1=====,
208.000=In The Groove Rebirth/401_JB_HD.mpg=1.000=0=0=1=====,
216.000=In The Groove Rebirth/1144_JumpBack.mpg=1.000=0=0=1=====,
224.000=Burning Me Up-bg.png=1.000=0=0=1=====,
99999=-nosongbg-=1.000=0=0=0 // don't automatically add -songbackground-
;
#KEYSOUNDS:;

//---------------dance-single - Apoc edited by S. Venkat----------------
#NOTES:
     dance-single:
     Apoc edited by S. Venkat:
     Challenge:
     9:
     0.740,0.029,0.123,0.934,0.549:
0000
0000
0000
0000
,
0000
0000
0000
0000
0000
0000
0000
0000
0000
0000
0000
0000
0000
0000
0000
0010
,
0001
0000
0000
0001
0100
0000
0000
0100
0010
0000
0000
0010
1000
0000
0000
1000
,
0100
0000
0000
0100
1000
0000
0000
1000
0010
0000
0000
0010
0100
0000
0000
0100
,
0001
0000
0000
0010
0100
0000
0000
1000
0010
0000
0000
0100
0001
0000
0000
0010
,
0100
0000
0000
0010
0001
0000
0000
0100
0010
0000
0000
1000
0010
0000
0000
0100
,
0010
0000
0000
1000
0100
0000
0000
0010
0001
0000
0000
0010
1000
0000
0000
0010
,
0100
0010
0001
0000
0100
0010
1000
0000
0010
0100
0001
0000
0010
0100
0000
1000
,
0200
1000
1000
1000
,
2300
0010
0010
0010
,
3020
0100
0100
0100
,
0230
0001
0001
0001
,
0302
0013
0100
1000
0100
1000
0010
0100
,
0002
0103
0010
1000
0100
0010
0100
1000
,
0002
0013
0001
0010
0100
0010
0100
1000
,
0200
1300
0010
0100
0001
0010
1000
0010
,
0200
1300
0100
1000
0010
0001
0010
1000
,
0200
0310
0100
0010
0001
0010
0100
0010
,
2000
3010
0100
1000
0010
1000
0100
0010
,
0200
0310
0001
0100
1000
0100
0010
1000
,
0020
0031
0010
1000
0100
0010
0100
2000
,
3002
1003
0100
1000
0010
0100
0001
0020
,
0230
1300
0100
1000
0010
0100
0001
0020
,
0031
0010
0100
0000
0010
0100
1000
0000
0001
0100
0010
0000
0100
0010
1000
0001
,
1000
0000
0000
0100
0010
0000
0000
0010
1000
0000
0000
1000
0010
0000
0000
0010
,
0001
0000
0000
0001
0100
0000
0000
0100
0010
0000
0000
0010
1000
0000
0000
1000
,
0100
0000
0000
0100
0010
0000
0000
0010
0001
0000
0000
0001
0100
0000
0000
0100
,
1000
0000
0000
1000
0001
0000
0000
0001
1000
0000
0000
1000
0100
0000
0000
0100
,
1000
0000
0000
0100
0001
0000
0000
1000
0100
0000
0000
0010
0001
0000
0000
0100
,
0010
0000
0000
1000
0010
0000
0000
0100
0001
0000
0000
0010
0100
0000
0000
0010
,
0001
0000
0000
0100
0010
0000
0000
1000
0010
0000
0000
1000
0100
0000
0000
0010
,
0001
1000
0001
1000
0001
1000
0001
0010
0100
1000
0001
1000
0010
0100
0001
1000
,
0100
0000
0000
0100
0010
0000
0000
0010
0002
0000
0200
0003
2000
0300
0200
3000
,
0000
0320
0000
0032
0000
2003
0000
0000
,
3200
0000
0002
0300
0000
0000
2003
0000
0000
3000
2200
0000
3300
0000
2000
0000
,
0020
3000
0000
0000
0230
0000
0002
0300
0000
0003
0000
0001
0100
0000
0000
0010
,
1000
0000
0200
0000
0020
0300
0200
0030
2000
0300
0020
3000
0200
0030
0020
0300
,
0002
0030
0020
0003
2000
0030
0200
3000
0000
0000
0000
0000
2300
0000
0020
3000
,
0200
0030
0000
0000
0302
0000
0020
0003
0200
0030
0000
0000
0320
0000
0200
0030
,
0000
0000
2300
0000
0000
3000
0000
1000
0100
0000
0000
0100
0010
0000
0000
0010
,
0001
0000
0020
0000
0200
0030
0020
0300
0002
0030
0020
0003
0200
0030
0020
0300
,
2000
0030
0000
0000
3002
0000
0200
0003
0000
0000
2300
0000
0020
3000
0200
0030
,
0002
0300
0003
0100
0010
0000
0000
1000
0100
0000
0000
0100
0020
0000
0000
0000
,
0000
0000
0230
0000
0002
0300
0200
0003
0310
0000
0000
0010
0001
0000
0000
0001
,
0010
0000
0000
0010
0200
0000
0020
0300
0000
0000
0000
0000
0032
0000
0200
0003
,
0000
0000
0320
0000
0002
0030
0020
0003
2000
0030
0000
0000
3200
0000
0000
0000
,
0300
0000
2000
0000
0020
3000
0200
0030
0002
0300
0000
0000
0023
0000
0200
0030
,
2000
0300
3200
0000
0020
0300
0230
0000
0000
0000
0000
0000
0300
0000
0000
0000
,
1010
0000
0000
0000
0010
0000
0000
0100
0000
0100
0010
0000
1000
0100
0000
0000
,
1100
0000
0000
0000
0011
0000
0000
0001
0000
0001
0010
0000
0100
1000
0000
1000
,
0100
0000
0000
0000
1010
0000
0000
0010
0000
0010
1000
0000
1000
0100
0000
0000
,
1100
0000
0000
0000
0011
0000
0001
0010
0000
0010
0100
0000
0010
0100
0000
0100
,
1000
0000
0000
0000
1100
0000
0000
1000
0000
0010
0100
0000
0010
0100
0000
0000
,
0101
0000
0000
0000
0001
0000
0000
0001
0000
0010
0100
0000
1000
0100
0000
0000
,
1100
0000
0000
0000
1010
0000
0000
1000
0000
0010
0100
0000
0001
0010
0100
0000
,
1100
0000
0000
0000
1000
0000
0100
1000
0000
1000
0100
0000
0010
0100
0000
1000
,
0001
0000
0000
0000
;

//---------------dance-single - Apoc----------------
#NOTES:
     dance-single:
     Apoc:
     Hard:
     8:
     0.531,0.029,0.041,0.082,0.364:
0000
0000
0000
0000
,
0000
0000
0000
0000
0000
0000
0000
0000
0000
0000
0000
0000
0000
0000
0000
0100
,
1000
0000
0000
1000
0010
0000
0000
0010
0100
0000
0000
0100
0001
0000
0000
0001
,
0100
0000
0000
0100
0010
0000
0000
0010
1000
0000
0000
1000
0100
0000
0000
0100
,
1000
0000
0000
1000
0100
0000
0000
0100
0010
0000
0000
0010
0001
0000
0000
0001
,
0100
0000
0000
0100
0010
0000
0000
0010
1000
0000
0000
1000
0100
0000
0000
0100
,
1000
0000
0000
1000
0010
0000
0000
0010
0100
0000
0000
0100
0001
0000
0000
0001
,
0010
0000
0000
0010
0100
0000
0000
0100
1000
0000
0000
1000
0100
0000
0000
0100
,
1000
1000
0100
0010
,
0001
0010
0100
0010
,
0001
0100
0010
0100
,
0001
1000
0100
0010
,
0100
1000
0100
0010
,
0001
0100
0010
0001
,
0010
0100
0010
0100
,
0001
0000
0000
0000
0010
0000
0000
0000
0010
0100
0000
0000
0010
0001
0000
0000
,
0010
0000
0000
0000
0001
0010
0000
0000
0010
0000
0100
0000
0010
0100
0000
0000
,
1000
0000
0000
0000
0100
0010
0000
0000
0100
0000
0010
0000
0100
1000
0000
0000
,
0010
0000
0000
0000
1000
0100
0000
0000
0010
0000
0100
0000
1000
0001
0000
0000
,
0100
0000
0000
0000
0010
1000
0000
0000
0100
0000
0010
0000
0001
0010
0000
0000
,
0000
0000
0002
0023
0000
0030
0200
2300
,
0000
3010
0100
0001
0020
0030
0002
0000
,
0003
0010
0100
0010
0001
1000
0100
1000
,
0010
0100
0020
0200
0000
0330
0000
0000
,
0010
0000
0000
0010
0100
0000
0000
0100
0010
0000
0000
0010
0100
0000
0000
0100
,
0001
0000
0000
0001
1000
0000
0000
1000
0001
0000
0000
0001
1000
0000
0000
1000
,
0100
0000
0000
0100
0010
0000
0000
0010
0001
0000
0000
0001
0100
0000
0000
0100
,
0010
0000
0000
0010
1000
0000
0000
1000
0100
0000
0000
0100
1000
0000
0000
1000
,
0010
0000
0000
0010
0100
0000
0000
0100
0001
0000
0000
0001
1000
0000
0000
1000
,
0100
0000
0000
0100
0010
0000
0000
0010
0001
0000
0000
0001
0100
0000
0000
0100
,
0010
0000
0000
0010
0100
0000
0000
0100
0001
0000
0000
0001
1000
0000
0000
1000
,
0100
0000
1000
0000
0100
0000
1000
0000
0010
0000
0100
0000
0001
0000
0010
0100
,
1000
0000
0000
0000
1000
0100
0010
0100
,
0000
1000
0000
0100
0000
0010
0000
0000
,
0010
0100
0000
1000
0000
0100
0000
0010
,
0001
0000
0100
0010
0000
0100
0000
0110
,
0000
1000
0100
1000
0010
0100
0001
0100
,
0010
0010
1000
0100
0000
0000
0001
0100
,
0010
0010
0100
1000
0100
0010
0100
0001
,
0000
0101
0000
0000
0000
0000
0000
0000
,
0000
1000
0100
1000
0100
0010
0100
0010
,
0001
0000
0010
0001
0000
0001
1000
0100
,
0010
0010
0101
1010
,
0010
1000
0100
0010
0001
0000
0000
0000
,
0000
0000
0001
0001
0000
0000
1000
1000
,
0000
0000
0010
0000
0100
0000
0010
0000
1000
0000
0000
0000
0100
0010
0100
0000
,
0000
1000
0100
1000
0010
0010
0000
0100
,
0010
0001
0010
0100
0000
0000
0000
0000
,
1000
0100
1000
0010
0100
0001
0100
0010
,
1000
0000
0100
0000
0010
0000
0001
0000
0010
0000
0100
0000
1000
0100
1000
0000
,
0010
0100
0001
0100
0010
0001
0010
0100
,
0010
0000
1000
0000
0100
0000
1000
0000
0010
0000
0100
0000
0001
0010
0100
0000
,
1000
0100
1000
0100
0010
0001
0010
0001
,
0100
0000
0001
0000
0100
0000
0010
0000
1000
0000
0010
0000
0100
0010
0100
0000
,
0010
0000
1000
0000
0010
0000
1000
0000
0001
0000
0100
0000
0001
0100
0001
0000
,
0010
0000
0100
0000
1000
0000
0100
0000
0010
0001
0010
0000
0100
1000
0100
0000
,
1000
0000
0000
0000
;

//---------------dance-double - ORENJI----------------
#NOTES:
     dance-double:
     M. Simmons/Oren G.:
     Challenge:
     9:
     0.635,0.603,0.493,0.267,0.816,359.000,48.000,26.000,14.000,1.000,0.000,0.635,0.603,0.493,0.267,0.816,359.000,48.000,26.000,14.000,1.000,0.000: // measure 1
00000000
00000000
00000000
00000000
,  // measure 2
00000000
00000000
00000000
00000000
,  // measure 3
00000000
00000000
00000000
00000000
,  // measure 4
00000000
00000000
00000000
00000000
,  // measure 5
00011000
00000000
00000000
00010000
00100000
00000000
00000000
00100000
01000000
00000000
00000000
01000000
00010000
00000000
00000000
00010000
,  // measure 6
10000000
00000000
00000000
10000000
01000000
00000000
00000000
01000000
00010000
00000000
00000000
00010000
00001000
00000000
00000000
00001000
,  // measure 7
00100000
00000000
00000000
00100000
00000100
00000000
00000000
00000100
00001000
00000000
00000000
00001000
00000010
00000000
00000000
00000100
,  // measure 8
00000010
00000100
00000000
00001000
00010000
00001000
00000000
00100000
00010000
00100000
00000000
01000000
10000000
01000000
00000000
00100000
,  // measure 9
00001000
00012000
20003000
32000000
,  // measure 10
03020000
00030020
00000230
00000302
,  // measure 11
00000023
00002030
02003000
03200000
,  // measure 12
20300000
30020000
00032000
00003002
,  // measure 13
00001103
00000110
00011000
00001010
,  // measure 14
00101000
00010100
01010000
11000000
,  // measure 15
00110000
01001000
00010010
00001001
,  // measure 16
00000011
00000000
00000000
00000000
00000100
00010000
00000000
00000000
00001000
00100000
00000000
00000000
00010000
10000000
00000000
00000000
,  // measure 17
01100000
00000000
00000000
00000000
00010000
00001000
00000000
00000000
00001010
00000000
00000000
00010000
00001000
00010000
00000000
00000000
,  // measure 18
00110000
00000000
00000000
00000000
01000000
00001000
00000000
00000000
10010000
00000000
00000000
01000000
00001000
01000000
00000000
00000000
,  // measure 19
00011000
00000000
00000000
00000000
00000010
00001000
00000000
00000000
00010100
00000000
00000000
00001000
00000010
00001000
00000000
00000000
,  // measure 20
00000011
00000000
00000000
00000000
00001000
00000100
00000000
00000000
00011000
00000000
00000000
00000100
00001000
00000100
00000000
00000000
,  // measure 21
00000020
00000032
00020003
00030200
,  // measure 22
00200300
00000000
00000000
00000000
00302000
00000000
00000000
00000000
20003000
00000000
00000000
00000000
30200000
00000000
00000000
00300000
,  // measure 23
01100000
00000000
00000000
00001000
00010000
00000000
00000000
00000000
00000110
00000000
00000000
00010000
00001000
00000000
00000000
00100000
,  // measure 24
00010000
00100000
00000000
00001000
01000000
00001000
00000000
10000000
00010000
10000000
00000000
01000000
00100000
01000000
00000000
00000000
,  // measure 25
00101000
00000000
00000000
00001000
01000000
00000000
00000000
01000000
00010000
00000000
00000000
00010000
00000100
00000000
00000000
00000100
,  // measure 26
00000010
00000000
00000000
00000010
00100000
00000000
00000000
00100000
00010000
00000000
00000000
00010000
00000010
00000000
00000000
00000010
,  // measure 27
00000100
00000000
00000000
00000100
00001000
00000000
00000000
00001000
00000010
00000000
00000000
00000010
01000000
00000000
00000000
01000000
,  // measure 28
00010000
00000000
00000000
00010000
10000000
00000000
00000000
10000000
00100000
00000000
00000000
00100000
00001000
00000000
00000000
00001000
,  // measure 29
00000010
00000000
00000000
00010000
00000100
00000000
00000000
00001000
00000001
00000000
00000000
00000100
00001000
00000000
00000000
00010000
,  // measure 30
00000010
00000000
00000000
00001000
00000100
00000000
00000000
00000010
00001000
00000000
00000000
00010000
00100000
00000000
00000000
10000000
,  // measure 31
01000000
00000000
00000000
01000000
00001000
00000000
00000000
01000000
00100000
00000000
00000000
00100000
00000010
00000000
00000000
00010000
,  // measure 32
00000100
00010000
00000000
00000010
00001000
00000010
00000000
00000100
00001000
00000100
00000000
00000001
00001000
00000001
00000000
00000000
,  // measure 33
00001100
00000000
00000000
00000000
0010MM00
00000000
00000000
00010000
10000000
00000000
00000000
00000000
M00M1000
00000000
00000000
00010000
,  // measure 34
00000010
00000000
00000000
00000000
001M00M0
00000000
00000000
00000100
00001000
00000000
00000000
00000000
0000MM01
00000000
00000000
00010000
,  // measure 35
00001000
00000000
00000000
00000000
010MM000
00000000
00000000
00000010
00001000
00000000
00000000
00000000
0000M1M0
00000000
00000000
01000000
,  // measure 36
00010000
00000000
00000000
00000000
0M1M0000
00000000
00000000
00000010
00001000
00000000
00000000
00001000
00000100
00000000
00000000
00000100
,  // measure 37
01000000
00000000
00000000
00000000
00101000
00000000
00000000
00010000
00000010
00000000
00000000
00001000
01000000
00000000
00000000
00010000
,  // measure 38
00000100
00000000
00000000
00000000
00010001
00000000
00000000
00100000
00000010
00000000
00000000
00001000
10000000
00000000
00000000
01000000
,  // measure 39
00000100
00000000
00000000
00000000
00011000
00000000
00000000
10000000
00010000
00000000
00000000
00001000
00100000
00000000
00000000
00010000
,  // measure 40
00000001
00000000
00000000
00000000
00001010
00000000
00000000
00010000
00000100
00000000
00000000
00000001
00001000
00000000
00000000
00000010
,  // measure 41
00010000
00000000
00000000
00010000
00001000
00000000
00000000
00100000
00010000
00000000
00000000
01000000
00100000
00000000
00000000
01000000
,  // measure 42
00001000
00000000
00000000
10000000
01000000
00000000
00000000
00010000
00001000
00000000
00000000
00000100
00000010
00000000
00000000
00001000
,  // measure 43
00000001
00000000
00000000
00000010
00001000
00000000
00000000
00010000
00000010
00000000
00000000
00001000
00000100
00000000
00000000
00000010
,  // measure 44
00000001
00000201
00000010
00000301
,  // measure 45
00000010
00000000
00000000
00000010
00000100
00000000
00000000
00000100
00100000
00000000
00000000
00100000
00010000
00000000
00000000
00010000
,  // measure 46
01000000
00000000
00000000
01000000
00000010
00000000
00000000
00000010
00010000
00000000
00000000
00010000
00001000
00000000
00000000
00001000
,  // measure 47
10000000
00000000
00000000
10000000
00100000
00000000
00000000
00100000
01000000
00000000
00000000
01000000
00000100
00000000
00000000
00010000
,  // measure 48
00001000
00010000
00000000
00000010
00001000
00000010
00000000
01000000
00001000
01000000
00000000
00010000
00100000
00010000
00000000
10000000
,  // measure 49
00100000
00000000
00000000
00000000
01010000
00000000
00000000
00100000
00000000
00010000
00000000
00000000
00001000
00010000
00000000
00000000
,  // measure 50
00010100
00000000
00000000
00000000
00001010
00000000
00000000
00000100
00000000
00000001
00000000
00000000
00001000
00000100
00000000
00000000
,  // measure 51
00010100
00000000
00000000
00000000
01001000
00000000
00000000
00010000
00000000
10000000
00000000
00000000
01000000
00100000
00000000
00000000
,  // measure 52
01100000
00000000
00000000
00000000
01010000
00000000
00000000
00001000
00000000
00010000
00000000
00000010
00001000
00000000
00000000
00000000
,  // measure 53
00000011
00000000
00000000
00000000
00001010
00000000
00000000
00000100
00000000
00001000
00000000
00000000
00010000
00001000
00000000
00000000
,  // measure 54
01010000
00000000
00000000
00000000
10010000
00000000
00000000
01000000
00000000
00001000
00000000
00000000
00010000
01000000
00000000
00000000
,  // measure 55
00110000
00000000
00000000
00000000
00101000
00000000
00000000
00010000
00000000
00000010
00000000
00000000
00000100
00000001
00000000
00000000
,  // measure 56
00001100
00000000
00000000
00000000
00010100
00000000
00000000
00001000
00100000
00010000
00000000
10000000
00000000
01000000
00000000
20020000
,  // measure 57
30030000
00000000
00000000
00000000
;

//---------------dance-double - M. Simmons----------------
#NOTES:
     dance-double:
     M. Simmons:
     Hard:
     7:
     0.476,0.000,0.246,0.246,0.292:
00000000
00000000
00000000
00000000
,
00000000
00000000
00000000
00000000
,
00000000
00000000
00000000
00000000
,
00000000
00011000
00000000
00010100
00000000
00011000
00000000
01001000
,
00000000
00000000
00110000
00000000
00000000
00000000
00000000
02010000
00000000
00000000
13000000
00000000
00000000
00000000
00000000
00210000
,
00000000
00000000
01300000
00000000
00000000
00000000
00000000
00021000
00000000
00000000
00030010
00000000
00000000
00000000
00000000
00000210
,
00000000
00000000
00001300
00000000
00000000
00000000
00000000
00000201
00000000
00000000
00000310
00000000
00000000
00000000
00000000
00001200
,
00000000
00001000
00000000
00000010
00000000
00000001
00000000
00000310
,
00001000
01000000
00010000
10000000
,
01000000
00010000
00001000
00000100
,
00000001
00001000
00000001
00000100
,
00000010
00000100
00000001
00001000
,
00000200
00001000
00000310
00000000
,
00000200
00001000
00010300
00000000
,
00000200
00000001
00000310
00000000
,
00000200
00000000
00000000
00000000
00000001
00000000
00000000
00000000
00001300
00000000
00000000
00001000
00000100
00000000
00000000
00000100
,
00020000
00001000
00030100
00000000
,
00020000
00001000
00130000
00000000
,
00020000
00001000
01030000
00000000
,
00021000
00000000
10030000
00000000
,
10000000
01000000
10000000
00010000
,
01000000
00010000
00100000
01000000
,
00010000
00001000
00000100
00000010
,
00004000
00000004
00000000
00000000
00000000
00000000
00000000
00000000
00000000
00000000
00000000
00000000
00000000
00000000
00003003
00000000
,
00000010
00000000
00000000
00000000
00010000
00000000
00000000
00001000
00010000
00000000
00000000
00010000
00001000
00000000
00000000
00000000
,
00100000
00000000
00000000
00000000
01000000
00000000
00000000
10000000
01000000
00000000
00000000
01000000
10000000
00000000
00000000
00000000
,
10000000
00000000
00000000
00000000
01000000
00000000
00000000
00010000
01000000
00000000
00000000
01000000
00010000
00000000
00000000
00000000
,
00001000
00000000
00000000
00000000
00000100
00000000
00000000
00000010
00000100
00000000
00000000
00000100
00000010
00000000
00000000
00000000
,
00001000
00000000
00000000
00000000
00000100
00000000
00000000
00000100
00010000
00000000
00000000
00010000
00000100
00000000
00000000
00000000
,
00010000
00000000
00000000
00000000
00001000
00000000
00000000
01000000
00010000
00000000
00000000
00010000
10000000
00000000
00000000
00000000
,
01000000
00000000
00000000
00000000
00100000
00000000
00000000
00010000
00100000
00000000
00000000
00100000
00001000
00000000
00000000
00000000
,
00001000
00000000
00011000
00000000
00000000
00010000
00010000
00000000
,
00000000
00000000
00000000
00000000
00001000
01000000
00100000
00010000
,
00000000
00000000
00200000
00000000
00000000
00000000
20300000
00000000
00000000
00000000
30020000
00000000
00000000
00000000
00030000
00010000
,
00100000
00000000
00001000
00000000
00010000
00000000
00011000
00000000
00000000
00010000
00000100
00000000
00000000
00000000
00000100
00000000
,
00000020
00000000
00000000
00000000
00000031
00000000
00002000
00000000
00000000
00000000
00003000
00000010
00000100
00000000
00000000
00000100
,
00000001
00001000
00000100
00010000
00001000
01000000
00100000
00010000
,
00100000
10000000
01000000
00020000
00001000
00000000
00031000
00000100
,
00000010
00000000
00000000
00000010
00001000
00000000
00000000
00000001
00000100
00000000
00000000
00000000
00000100
00000000
00000001
00000000
,
00000000
00000000
00001001
00000000
00000000
00000000
00000000
00000001
00000010
00000000
00000000
00000010
00001000
00000000
00000000
00001000
,
00010000
00010000
00001000
01000000
00100000
00020000
00000000
00130000
,
10000000
00000000
00000000
00010000
10000000
00000000
00010000
00000000
00000000
00000000
00100000
00000000
01000000
00000000
00010000
00000000
,
00001000
00000000
00000000
00001000
00010000
00000000
00000000
00010000
00001000
00000000
00000000
00000000
00011000
00000000
00000000
00000000
,
00000000
00000000
00000000
00000000
00210000
00000000
00000000
00000000
01300000
00000000
00000000
01000000
10000000
00000000
00000000
10000000
,
01000000
00000000
00000000
00000000
10000000
00000000
01000000
00000000
00000000
00000000
00000000
00010000
00001000
00000000
00000100
00000000
,
00000000
00000100
00000010
00001000
00000001
00000000
00001001
00000000
,
00000000
00000000
00000010
00000000
00000100
00000000
00000010
00000000
00010000
00000000
00001000
00000000
00000000
00001000
00100000
00000000
,
04000000
00400000
00000000
00000000
00000000
00000000
00000000
00000000
00000000
00000000
00000000
00000000
03300000
00000000
00000000
00000000
,
01000000
00000000
10000000
00000000
00010000
00000000
00000000
01000000
00000000
00000000
01000000
00000000
01010000
00000000
00000000
00000000
,
01000000
00000000
00001000
00000000
00010000
00000000
00000000
00000100
00000000
00000000
00000010
00000000
00000110
00000000
00000000
00000100
,
00000010
00000000
00000001
00000000
00001000
00000000
00000000
00000100
00000000
00000000
00001000
00000000
00001010
00000000
00000000
00000000
,
00010000
00000000
00001000
00000000
01000000
00000000
00010000
10000000
00000000
10000000
00010000
00000000
00100000
00010000
00000000
00000000
,
00100000
00000000
00001000
00000000
00010000
00000000
00000000
00000100
00000000
00000000
00000010
00000000
00000110
00000000
00000000
00000000
,
00000100
00000000
00010000
00000000
00001000
00000000
00000000
00010000
00000000
00000000
00001000
00000000
00101000
00000000
00000000
00000000
,
02000000
00000000
23000000
00000000
30010000
00000000
00000000
01000000
00000000
01000000
00010000
00000000
01000000
00010000
01000000
00010000
,
01000000
00000000
00100000
00000000
10000000
00000000
01000000
00100000
00000000
00100000
00001000
00000000
00001000
00010000
00000000
00010000
,
00011000
00000000
00000000
00000000
;

//---------------dance-double - M. Simmons----------------
#NOTES:
     dance-double:
     M. Simmons:
     Medium:
     5:
     0.325,0.000,0.123,0.051,0.041: // measure 1
00000000
00000000
00000000
00000000
,  // measure 2
00000000
00000000
00000000
00000000
,  // measure 3
00000000
00000000
00000000
00000000
,  // measure 4
00000000
00000000
00000000
00000000
,  // measure 5
00002000
00000000
00000000
00000000
,  // measure 6
00000000
00010000
01000000
00100000
,  // measure 7
01000000
00010000
01000000
00010000
,  // measure 8
00400000
00000000
00000000
00003000
,  // measure 9
00301000
00010000
00001000
00100000
,  // measure 10
00010000
01000000
00100000
10000000
,  // measure 11
01000000
00100000
01000000
10000000
,  // measure 12
00010000
01000000
00001000
00010000
,  // measure 13
00000100
00000010
00000001
00001000
,  // measure 14
00000001
00000100
00000010
00000100
,  // measure 15
00000001
00001000
00000100
00000010
,  // measure 16
00000001
00000000
00000000
00000000
00000010
00000000
00000000
00000100
00001000
00000000
00000000
00000100
00001000
00000000
00000000
00000000
,  // measure 17
00000100
00010000
00001000
00100000
,  // measure 18
00010000
01000000
00100000
01000000
,  // measure 19
00010000
10000000
01000000
00100000
,  // measure 20
00210000
00000000
00301000
00000000
,  // measure 21
00001000
00010000
00000100
00001000
,  // measure 22
00000010
00000100
00000001
00000100
,  // measure 23
00000001
00001000
00000100
00000010
,  // measure 24
00000022
00000000
00000000
00000033
,  // measure 25
00000001
00001000
00000100
00001000
,  // measure 26
00000100
00010000
00001000
00100000
,  // measure 27
00010000
01000000
00010000
10000000
,  // measure 28
00010000
00100000
00001000
01000000
,  // measure 29
00001000
00010000
00000100
00000010
,  // measure 30
00000001
00001000
00000100
00000010
,  // measure 31
00001000
00010000
00000100
00010000
,  // measure 32
00044000
00000000
00000000
00033000
,  // measure 33
00001000
01000000
00100000
01000000
,  // measure 34
00010000
10000000
01000000
00100000
,  // measure 35
00001000
00010000
00000010
00000100
,  // measure 36
00000010
00000000
00000000
00000000
00001000
00000000
00000000
00000000
00000001
00000000
00000000
00000100
00000010
00000000
00000000
00000100
,  // measure 37
00000010
00010000
00001000
00100000
,  // measure 38
00010000
01000000
00010000
10000000
,  // measure 39
01000000
10000000
00010000
01000000
,  // measure 40
00001000
00000000
00000000
00000000
00010000
00000000
00000000
00000000
00000010
00000000
00000000
00000100
00000010
00000000
00000000
00000100
,  // measure 41
00000010
00001000
00000001
00000100
,  // measure 42
00000001
00001000
00000100
00010000
,  // measure 43
00001000
01000000
00010000
10000000
,  // measure 44
01200000
00000000
00310000
00000000
,  // measure 45
01000000
00001000
00010000
00000100
,  // measure 46
00010000
00001000
00100000
00010000
,  // measure 47
10000000
01000000
00100000
00010000
,  // measure 48
00100000
00010000
00100000
00010000
00100000
00010000
00100000
00010000
,  // measure 49
00100000
00000000
00011000
00000000
00000000
00001000
00001000
00000000
,  // measure 50
00010000
00000000
00010100
00000000
00000000
00000100
00000100
00000000
,  // measure 51
00000010
00000000
00001001
00000000
00000000
00000001
00000001
00000000
,  // measure 52
00001000
00000000
00001100
00000000
00000000
00001000
00001000
00000100
,  // measure 53
00000100
00000000
00010100
00000000
00000000
00001000
00001000
00000000
,  // measure 54
00001000
00000000
01001000
00000000
00000000
01000000
01000000
00000000
,  // measure 55
00100000
00000000
10100000
00000000
00000000
10000000
10000000
00000000
,  // measure 56
10000000
00000000
00000000
01000000
00000000
00000000
00100000
00000000
00000000
00010000
00000000
00000000
00100000
00000000
00010000
00000000
,  // measure 57
00101000
00000000
00000000
00000000
;

//---------------dance-double - M. Simmons----------------
#NOTES:
     dance-double:
     M. Simmons:
     Easy:
     2:
     0.201,0.000,0.072,0.051,0.000: // measure 1
00000000
00000000
00000000
00000000
,  // measure 2
00000000
00000000
00000000
00000000
,  // measure 3
00000000
00000000
00000000
00000000
,  // measure 4
00000000
00000000
00000000
00000000
,  // measure 5
00022000
00000000
00000000
00000000
,  // measure 6
00000000
00000000
00000000
00000000
,  // measure 7
00000000
00000000
00000000
00000000
,  // measure 8
00000000
00000000
00033000
00000000
,  // measure 9
00001000
00000000
00010000
00000000
,  // measure 10
00000100
00000000
00000010
00000000
,  // measure 11
00000001
00000000
00001000
00000000
,  // measure 12
00000001
00000000
00000100
00000000
,  // measure 13
00000010
00000000
00010000
00000000
,  // measure 14
00001000
00000000
01000000
00000000
,  // measure 15
00010000
00000000
10000000
00000000
,  // measure 16
01000000
00000000
00100000
00000000
,  // measure 17
01000000
01000000
00000000
10000000
,  // measure 18
00010000
00010000
00000000
01000000
,  // measure 19
00001000
00001000
00000000
00010000
,  // measure 20
00010100
00000000
00001100
00000000
,  // measure 21
00000100
00000100
00000000
00000010
,  // measure 22
00000001
00000001
00000000
00001000
,  // measure 23
00000100
00000100
00000000
00010000
,  // measure 24
00022000
00000000
00000000
00033000
,  // measure 25
00001000
01000000
00000000
01000000
,  // measure 26
00010000
10000000
00000000
10000000
,  // measure 27
01000000
10000000
00000000
00010000
,  // measure 28
00100000
01000000
00000000
00100000
,  // measure 29
00001000
00010000
00000000
00000010
,  // measure 30
00000100
00000001
00000000
00000100
,  // measure 31
00000010
00000100
00000000
00000001
,  // measure 32
00000100
00001000
00000100
00000010
,  // measure 33
00001000
00000000
00001000
00000000
,  // measure 34
00000010
00000000
00010000
00000000
,  // measure 35
00001000
00000000
01000000
00000000
,  // measure 36
00010000
00000000
01000000
00000000
,  // measure 37
00100000
00000000
10000000
00000000
,  // measure 38
01000000
00000000
00100000
00000000
,  // measure 39
00001000
00000000
00010000
00000000
,  // measure 40
00000010
00000000
00000200
00000000
,  // measure 41
00000310
00000000
00001000
00000000
,  // measure 42
00000001
00000000
00000100
00000000
,  // measure 43
00000010
00000000
00010000
00000000
,  // measure 44
00011000
00000000
00110000
00000000
,  // measure 45
10000000
10000000
00000000
00100000
,  // measure 46
01000000
01000000
00000000
00010000
,  // measure 47
00100000
00100000
00000000
00100000
,  // measure 48
00001000
00001000
00001000
00001000
,  // measure 49
00010000
00000000
00000010
00000000
00000000
00000100
00000000
00000000
,  // measure 50
00000010
00000000
00001000
00000000
00000000
00000001
00000000
00000000
,  // measure 51
00001000
00000000
00000100
00000000
00000000
00010000
00000000
00000000
,  // measure 52
00001000
00000000
01000000
00000000
00000000
00010000
00000000
00000000
,  // measure 53
01000000
00000000
00100000
00000000
00000000
10000000
00000000
00000000
,  // measure 54
00010000
00000000
01000000
00000000
00000000
00010000
00000000
00000000
,  // measure 55
00100000
00000000
00001000
00000000
00000000
00010000
00000000
00000000
,  // measure 56
00000100
00000000
00000010
00000000
00000000
00000001
00000000
00000000
,  // measure 57
00000110
00000000
00000000
00000000
;

//---------------dance-single - D. Bernardone----------------
#NOTES:
     dance-single:
     D. Bernardone:
     Beginner:
     1:
     0.084,0.000,0.010,0.000,0.000:
0000
0000
0000
0000
,
0000
0000
0000
0000
,
0000
0000
0000
0000
,
0000
0000
0000
0000
,
1000
0000
0000
0000
,
0000
0000
0000
0000
,
0000
0000
0001
0000
,
0100
0000
0010
0000
,
0010
0000
0000
0000
,
1000
0000
0000
0000
,
0010
0000
0000
0000
,
1000
0000
0000
0000
,
0001
0000
0000
0000
,
0100
0000
0000
0000
,
0010
0000
0000
0000
,
1000
0000
0000
0000
,
0100
0000
0000
0000
,
0010
0000
0000
0000
,
0100
0000
0000
0000
,
1000
0000
0000
0000
,
0001
0000
0000
0000
,
0100
0000
0000
0000
,
0010
0000
0000
0000
,
1000
0000
0001
0000
,
0100
0000
0000
0000
,
0100
0000
0000
0000
,
0010
0000
0000
0000
,
0010
0000
0000
0000
,
1000
0000
0000
0000
,
1000
0000
0000
0000
,
0001
0000
0000
0000
,
0001
0000
0010
0000
,
0100
0000
0000
0000
,
1000
0000
0000
0000
,
0100
0000
0000
0000
,
1000
0000
0000
0000
,
0100
0000
0000
0000
,
0010
0000
0000
0000
,
0001
0000
0000
0000
,
1000
0000
0000
0000
,
0010
0000
0000
0000
,
0100
0000
0000
0000
,
0010
0000
0000
0000
,
1000
0000
0000
0000
,
0001
0000
0000
0000
,
0010
0000
0000
0000
,
0100
0000
0000
0000
,
1000
0000
0001
0000
,
0010
0000
0000
0000
,
0010
0000
0000
0000
,
0010
0000
0000
0000
,
0010
0000
0000
0000
,
0100
0000
0000
0000
,
0100
0000
0000
0000
,
0100
0000
0000
0000
,
0100
0000
0000
0000
,
1001
0000
0000
0000
;

//---------------dance-single - D. Bernardone----------------
#NOTES:
     dance-single:
     D. Bernardone:
     Easy:
     4:
     0.303,0.000,0.051,0.646,0.000:
0000
0000
0000
0000
,
0000
0000
0000
0000
,
0000
0000
0000
0000
,
0000
0000
0000
0000
,
2000
0000
0000
0000
,
0000
0000
0000
0000
,
0000
0000
0000
0000
,
3001
0010
0100
1000
,
0002
0000
0000
0000
,
0203
0000
0000
0000
,
2300
0000
0000
0000
,
3020
0000
0000
0000
,
0032
0000
1000
0000
,
0023
0000
0100
0000
,
2030
0000
0001
0000
,
3200
0000
0010
0000
,
0302
0000
1000
0000
,
2003
0000
0001
0001
,
3200
0000
1000
1000
,
0320
0000
0100
0100
,
0032
0000
1000
1000
,
0023
0000
0001
0001
,
0230
0000
0010
0010
,
2300
0001
0010
0100
,
3002
0000
0000
0003
0020
0000
0000
0030
0200
0000
0000
0300
2000
0000
0000
3000
,
0002
0000
0000
0003
2000
0000
0000
3000
0020
0000
0000
0030
0200
0000
0000
0300
,
0002
0000
0000
0003
2000
0000
0000
3000
0002
0000
0000
0003
0200
0000
0000
0300
,
0020
0000
0000
0030
2000
0000
0000
3000
0002
0000
0000
0003
2000
0000
0000
3000
,
0200
0000
0000
0300
0020
0000
0000
0030
0002
0000
0000
0003
2000
0000
0000
3000
,
0020
0000
0000
0030
0200
0000
0000
0300
0002
0000
0000
0003
0020
0000
0000
0030
,
0200
0000
0000
0300
2000
0000
0000
3000
0002
0000
0000
0003
2000
0000
0000
3000
,
1001
1001
0110
0110
,
2000
0000
0010
0000
,
3200
0000
0001
0000
,
2300
0000
0001
0000
,
3020
0000
0001
0000
,
2030
0000
0010
0000
,
3200
0000
1000
0000
,
0320
0000
1000
0000
,
0230
0000
0001
0000
,
2300
0010
0001
0000
,
3200
0010
1000
0000
,
2300
0010
0001
0000
,
3020
1000
0100
0000
,
2030
0100
0001
0000
,
3002
1000
0100
0000
,
0023
0001
0100
0000
,
0032
0100
1000
0010
,
0103
0000
1000
0010
,
0001
0000
1000
0100
,
0001
0000
0001
0010
,
1000
0000
0001
0100
,
1000
0000
0010
1000
,
0100
0000
0010
0001
,
0100
0000
0100
1000
,
0010
0000
0100
0001
,
0220
0330
0000
0000
;

//---------------dance-single - D. Bernardone----------------
#NOTES:
     dance-single:
     D. Bernardone:
     Medium:
     6:
     0.427,0.000,0.010,0.051,0.139:
0000
0000
0000
0000
,
0000
0000
0000
0000
,
0000
0000
0000
0000
,
0000
0000
0000
0000
,
0002
0000
0000
0000
,
1000
0000
0000
1000
0000
0000
0000
0000
1000
0000
0000
1000
0000
0000
0000
0000
,
1000
0000
0000
1000
0000
0000
0000
0000
1000
0000
0000
1000
0000
0000
0000
0000
,
1003
0100
1000
0100
0010
0001
0010
0001
,
0100
0010
1000
0010
,
0100
0001
0010
0001
,
0100
0001
1000
0001
,
0020
0100
0001
0100
,
0130
1000
0001
0000
0100
0000
0001
0000
,
0010
0100
1000
0000
0100
0000
1000
0000
,
0010
0100
0001
0000
0100
0000
0001
0000
,
0010
0001
1000
0000
0001
0000
1000
0000
,
0010
1000
0001
0000
1000
0000
0001
0000
,
0100
0010
1000
0000
0010
0000
1000
0000
,
0100
0010
0001
0000
0010
0000
0001
0000
,
1000
0010
0100
0000
0010
0000
0100
0000
,
0001
1000
0010
0000
1000
0000
0010
0000
,
0100
0001
0010
0000
0001
0000
0010
0000
,
0100
1000
0010
0000
1000
0000
0010
0000
,
0100
0001
0100
0001
1000
0010
1000
0010
,
0100
0000
0000
0000
0001
0000
0000
0000
0100
0000
0000
0100
0001
0000
0000
0001
,
1000
0000
0000
0000
0010
0000
0000
0000
1000
0000
0000
1000
0010
0000
0000
0010
,
0100
0000
0000
0000
0001
0000
0000
0000
1000
0000
0000
1000
0001
0000
0000
0001
,
0010
0000
0000
0000
0100
0000
0000
0000
0010
0000
0000
0010
0001
0000
0000
0001
,
0100
0000
0000
0000
0010
0000
0000
0000
0100
0000
0000
0100
0010
0000
0000
0010
,
1000
0000
0000
0000
1000
0000
0000
0000
0001
0000
0000
0001
0100
0000
0000
0100
,
0010
0000
0000
0000
1000
0000
0000
0000
0010
0000
0000
0010
0100
0000
0000
0100
,
0001
0010
0001
0010
0100
1000
0100
1000
,
0020
0000
0001
0100
,
1030
0100
1000
0000
0100
1000
0100
0000
,
0010
0001
0010
0000
0001
0010
0001
0000
,
0100
0010
0100
0000
0010
0100
0010
0000
,
1000
0010
1000
0000
0010
1000
0010
0000
,
0100
0001
0100
0000
0001
0100
0001
0000
,
1000
0001
1000
0000
0001
1000
0001
0000
,
0100
0000
0010
0000
1000
0000
0000
0000
0100
0000
0010
0000
0001
0000
1000
0001
,
1000
0000
0010
0100
0010
0000
1000
0100
,
1000
0000
0001
0010
0001
0000
1000
0010
,
1000
0000
0001
0100
0001
0000
0010
0100
,
0010
0000
0001
1000
0001
0000
0100
0010
,
0100
0000
0001
0010
0100
0000
0010
0100
,
1000
0000
0100
1000
0001
0000
1000
0010
,
0100
0000
0010
0100
0001
0000
0100
0001
,
1000
0010
1000
0010
0100
0001
0100
0001
,
0010
0000
0000
0000
0100
0000
0000
0100
0000
0000
0100
0000
0100
0000
0000
0000
,
1000
0000
0000
0000
0001
0000
0000
0001
0000
0000
0001
0000
0001
0000
0000
0000
,
0100
0000
0000
0000
0010
0000
0000
0010
0000
0000
0010
0000
0010
0000
0000
0000
,
0100
0000
0000
0000
0001
0000
0000
0001
0000
0000
0001
0000
0001
0000
0000
0000
,
0010
0000
0000
0000
0100
0000
0000
0100
0000
0000
0100
0000
0100
0000
0000
0000
,
1000
0000
0000
0000
0010
0000
0000
0010
0000
0000
0010
0000
0010
0000
0000
0000
,
0100
0000
0000
0000
1000
0000
0000
1000
0000
0000
1000
0000
1000
0000
0000
0000
,
0100
0000
0000
0000
0001
0000
0000
0001
0000
0000
0001
0000
0001
0000
1000
0000
,
2002
0000
0000
0000
,
3003
0000
0000
0000
;
