#TITLE:Beautiful Morning;
#SUBTITLE:;
#ARTIST:Ace of Base;
#TITLETRANSLIT:;
#SUBTITLETRANSLIT:;
#ARTISTTRANSLIT:;
#GENRE:;
#CREDIT:Sync by HellRazoR;
#BANNER:Beautiful Morning-bn.png;
#BACKGROUND:Beautiful Morning-bg.png;
#LYRICSPATH:;
#CDTITLE:;
#MUSIC:Beautiful Morning.ogg;
#OFFSET:-0.594;
#SAMPLESTART:77.300;
#SAMPLELENGTH:12.000;
#SELECTABLE:YES;
#DISPLAYBPM:98.000;
#BPMS:0.000=98.000;
#STOPS:128.000=0.006
;
#BGCHANGES:0.000=Beautiful Morning-bg.png=1.000=0=0=1=====,
8.000=Beautiful Morning.mpg=1.000=1=0=1===CrossFade==,
188.000=Beautiful Morning-bg.png=1.000=0=0=1=====,
99999=-nosongbg-=1.000=0=0=0 // don't automatically add -songbackground-
;
#BGCHANGES2:188.000=flash=1.000=0=0=1=====,
;
#KEYSOUNDS:;

//---------------dance-single - M. Simmons----------------
#NOTES:
     dance-single:
     M. Simmons:
     Beginner:
     1:
     0.068,0.000,0.067,0.000,0.000:
0000
0000
0000
0000
,
0000
0000
0000
0000
,
0000
0000
0000
0000
,
0000
0000
0000
0000
,
1000
0000
0000
0000
,
0100
0000
0000
0000
,
0010
0000
0000
0000
,
0100
0000
0000
0000
,
1000
0000
1000
0000
,
0001
0000
0000
0000
,
0001
0000
0001
0000
,
0010
0000
0000
0000
,
0100
0000
0100
0000
,
1000
0000
0000
0000
,
1000
0000
0010
0000
,
0010
0000
0010
0000
,
1001
0000
0000
0000
,
0001
0000
0000
0000
,
0010
0000
0000
0000
,
0100
0000
0000
0000
,
0010
0000
0000
0000
,
0001
0000
0000
0000
,
1000
0000
0000
0000
,
0100
0000
0000
0000
,
1001
0000
0000
0000
,
0001
0000
0000
0000
,
1001
0000
0000
0000
,
1000
0000
0000
0000
,
0110
0000
0000
0000
,
0100
0000
0000
0000
,
0110
0000
0000
0000
,
0010
0000
0000
0000
,
1001
0000
0000
0000
,
0001
0000
0000
0000
,
0010
0000
0000
0000
,
0100
0000
0000
0000
,
0010
0000
0000
0000
,
0001
0000
0000
0000
,
1000
0000
0000
0000
,
0010
0000
0000
0000
,
0110
0000
0000
0000
,
0001
0000
0000
0000
,
0100
0000
0000
0000
,
0010
0000
0000
0000
,
1000
0000
0000
0000
,
0100
0000
0000
0000
,
0010
0000
0000
0000
,
0110
0000
0000
0000
;

//---------------dance-single - M. Simmons----------------
#NOTES:
     dance-single:
     M. Simmons:
     Challenge:
     9:
     0.566,0.000,0.393,0.385,0.493:
0000
0000
0000
0000
,
0000
0000
0000
0000
,
0000
0000
0000
0000
,
0000
0000
0000
0000
0000
0000
0000
0000
0000
0000
0000
0000
1000
0100
1000
0100
,
1000
0100
0110
0010
0001
0100
1010
0002
,
0000
0203
0000
0310
0010
0100
0010
1000
,
1001
0000
0100
0010
0100
0000
0010
0000
1001
0000
0001
0000
0110
0000
0020
0000
,
0000
0000
0100
0000
0130
0000
0001
0000
0001
0000
0000
1000
0001
0000
0000
0000
,
1000
0000
0000
0000
1200
0000
0000
0320
0000
0000
0000
0000
0031
0000
0100
0000
,
0101
0000
0000
0000
0010
0000
0000
1000
0000
0100
0000
0010
0100
0000
1000
0000
,
1001
0000
0001
0000
0100
0000
0010
1000
0000
0010
0100
0000
0001
0000
0010
0000
,
0210
0000
0000
0310
0001
0000
0010
0000
0012
0000
0000
1003
0001
0000
1000
0000
,
1001
0000
0000
0000
0001
0000
0000
0011
0000
0000
0010
0100
0010
0000
0100
0000
,
2000
0000
0000
0000
3020
0000
0000
0230
0000
0002
0300
0000
1003
0000
0100
0000
,
0110
0000
0010
0000
0011
0000
0001
1000
0000
0001
0100
0000
0010
0000
1000
0000
,
2010
0000
0010
0000
3010
0000
0100
0010
0100
0000
0001
1000
0000
M00M
0000
0000
,
1001
0000
0001
0010
0100
1000
0010
0200
0000
0310
0000
0010
0100
0000
0010
1000
,
0001
0000
0010
0000
0100
0000
0010
0001
0010
0100
0000
0000
0110
0000
0100
1000
,
0000
1000
0001
1000
0001
0000
0100
0010
1000
0020
0000
0000
0230
0000
0301
0010
,
0000
0100
0010
0000
0010
0100
1000
0002
0000
1003
0001
2000
0000
3001
1000
0001
,
0000
0100
0010
1000
0100
0010
0001
0010
0000
0110
0000
0100
1000
0000
1000
0010
,
0100
0000
0010
0000
1010
0000
0000
0001
0010
0001
0000
0000
1000
0010
0000
0000
,
2010
0000
0000
0000
3100
0000
0000
0100
0010
0001
0000
0000
1001
0000
0100
0010
,
0000
0100
0001
0100
0002
0000
2000
0000
0000
0000
0003
0000
3010
0000
0000
0000
,
0101
1000
0100
1001
0001
0100
0020
0000
,
0130
0000
0001
0010
0000
0100
0000
0010
0000
0001
1000
0000
0001
0000
0101
0000
,
0010
1000
0100
1001
0100
0010
1000
0000
,
0100
0000
0010
0001
0000
0010
0000
0001
0000
0010
0001
0010
0001
0000
1000
0000
,
1001
0010
0100
1001
0001
0010
0100
0000
,
1000
0100
0000
1000
0000
0010
0000
1000
0000
0100
1000
0000
0100
0000
0110
0000
,
0020
0000
0002
0030
0200
0003
2000
0300
0020
3000
0002
0030
1003
0000
1001
0000
,
0010
0000
1000
0100
1000
0000
0001
1000
0001
0000
0010
0000
0100
0000
0110
0000
,
0000
0000
1001
0000
0110
0000
0010
1000
0010
0000
0100
0000
0001
0000
0020
0000
,
0000
0000
0230
0000
0000
0000
1300
0000
1010
0000
0100
0001
0010
0001
0010
0001
,
0000
0000
0000
1000
0100
1000
0100
1000
0000
0010
0100
0000
0010
0100
0000
0000
,
1001
0000
0001
0000
0010
0000
0001
1000
0001
0000
0100
0000
0010
0000
2010
0000
,
0000
0000
3100
0000
1100
0000
0010
0001
0020
0000
0230
0000
2300
0000
3020
0000
,
0000
0000
0230
0000
0010
0000
0001
0000
0310
0000
1000
0100
1000
0100
1000
0100
,
0000
0000
0000
0010
0001
0010
0001
0010
0000
0100
1000
0000
1010
0000
0100
0000
,
1010
0000
0010
0100
0010
0000
1002
0000
0000
0000
0013
0100
0010
0000
0100
0000
,
1100
0000
1000
0100
0010
0001
0100
0010
0000
0120
0000
0000
0130
0000
2010
0000
,
0000
0000
3002
0000
0000
0000
0013
0000
0100
0000
0010
0001
1000
0001
1000
0001
,
0000
0000
0000
0100
0010
0100
0010
0100
0000
0010
1000
0000
0001
0100
0000
0000
,
1001
0000
0001
0010
0100
0000
0110
0000
0010
0001
1000
0000
0001
1000
0001
0100
,
0001
0000
1000
0000
1100
0000
0100
0010
0002
0000
0203
0000
0320
0000
2030
0000
,
3100
0000
1000
0000
1001
0000
0001
0100
1000
0000
0100
0001
1000
0001
0010
0001
,
0000
0000
0000
1000
0100
1000
0010
1000
0000
0100
0001
0000
0100
0000
0010
0000
,
2002
0000
0003
0020
0000
0000
0000
0000
,
3030
0000
0000
0000
;

//---------------dance-double - M. Simmons----------------
#NOTES:
     dance-double:
     M. Simmons:
     Challenge:
     9:
     0.551,0.000,0.410,0.368,0.464:
00000000
00000000
00000000
00000000
,
00000000
00000000
00000000
00000000
,
00000000
00000000
00000000
00000000
,
00000000
00000000
00000000
00000000
00000000
00000000
00000000
00000000
00000000
00000000
00000000
00000000
00100000
00001000
00010000
00000100
,
00001000
00000100
00000110
00000100
00010000
00012000
00100000
00023000
,
00000000
00000000
00230000
00000000
00000000
00000000
01300000
00010000
01000000
00000000
00100000
10000000
00010000
00000000
01000000
00000000
,
10010000
00010000
01100000
00100000
00002000
00010000
00100000
00023000
,
00001000
00000000
00000100
00000000
00031000
00000000
00010000
00000000
00101000
00000000
00000000
00001000
00010000
00000000
00000100
00000000
,
00010100
00000000
00000000
00000100
00000010
00000000
00000000
00000101
00000000
00000010
00000100
00000000
00000001
00000000
00001000
00000000
,
00000100
00000000
00000000
00000000
00011000
00000000
00000000
01100000
00000000
11000000
00000000
10000000
00100000
00000000
01000000
00000000
,
01010000
00000000
00010000
00000000
00110000
00000000
00100000
01000000
00000000
00100000
00001000
00000000
00010000
00000000
00000100
00000000
,
00020000
00001000
00100000
00001000
02000000
03030000
01010000
00000000
,
00010000
00000000
00001000
00000000
00000100
00000000
00000010
00001000
00000000
00000100
00000010
00000000
00001001
00000000
00000001
00000000
,
00002000
00000000
00000000
00000000
00023000
00000000
00000000
20000000
00030000
01000000
30000000
00000000
11000000
00000000
00100000
00000000
,
00101000
00000000
00001000
00000000
00010000
00000000
00000100
00010000
00000000
00001000
00000010
00000000
00000100
00000000
00001000
00000000
,
00000011
00000000
00000100
00000000
00001000
00000000
00000010
00000100
00000001
00000000
00000010
00000100
00000000
00000000
00000000
00000000
,
00011000
00000000
00001000
00010000
00000010
00001000
00000010
00100000
00000000
01010000
00000000
00000000
10010000
00000000
10000000
01000000
,
00100000
00000000
01000000
00000000
00010000
00000000
00001000
00000100
00000010
00000002
00000000
00000000
00000013
00000000
00001000
00000100
,
00000000
00010000
00001000
00000000
00010100
00000000
00011000
00000000
00001000
02000000
00000000
03000000
20000000
00000000
31000000
00001000
,
00000000
00100000
01000000
00000000
00100000
00001000
00010000
00001000
00000000
01000000
00100000
01000000
00000000
00000100
00000010
00000100
,
00000000
01000000
00100000
01000000
00000100
00010000
00001000
00010000
00000000
00100010
00000000
00000000
00011000
00000000
00010000
00000002
,
00000010
00000000
00000100
00000000
00000013
00000000
00000000
00000100
00010000
00001000
00000000
00000000
00100000
01000000
00000000
00000000
,
01001000
00000000
00000000
00000000
00010100
00000000
00000000
00001000
00010000
00000100
00000000
00000000
00010010
00000000
00000010
00000100
,
00000000
00000010
00001000
00000000
00000001
00000000
00020000
00000000
00000000
00000000
00130000
00000000
00200000
00000000
00000000
00000000
,
01300000
00001000
10000000
11000000
00000000
01000000
01000000
00100000
,
00001000
00000000
00010000
00000100
00000000
00000010
00000000
00000001
00000000
00000100
00001000
00000000
00010000
00000000
02000000
00000000
,
00100000
00100000
13000000
00002000
00000000
00010000
00013000
00000000
,
00010100
00000000
00000010
00000100
00000000
00001001
00000000
00000011
00000000
00000100
00000010
00000100
00000010
00000000
00000001
00000000
,
00002001
00000010
00010000
00003200
00000000
00010000
00010300
00001000
,
01000000
00010000
00000000
00100000
00000000
01000000
00000000
00010000
00000000
00001000
00010000
00000000
00000100
00000000
00000010
00000000
,
00000002
00000023
00000230
00002300
00023000
00230000
02300000
23000000
,
31000000
00000000
01000000
00000000
00100000
00000000
00010000
01000000
00100000
00000000
01000000
00000000
00001000
00000000
02002000
00000000
,
00003000
00000000
00100000
00000000
03000000
00000000
00001000
00010000
00000010
00000000
00000100
00000000
00000010
00000000
00000021
00000000
,
00000030
00000000
00002100
00000000
00003100
00000000
00010000
00000000
00001000
00000000
01000000
10000000
01000000
00010000
01000000
10000000
,
00000000
00000000
00000000
01000000
00001000
00100000
00001000
01000000
00000000
00001000
00010000
00000100
00010000
00001000
00000000
00000000
,
02000200
00000000
03000000
00010000
00000000
00000300
00000000
00000000
,
00101000
00000000
00010000
00000000
00000100
00000000
00000010
00000001
00001000
00000000
00000010
00000000
00000100
00000000
00002020
00000000
,
00003000
00000000
00010000
00000000
00000030
00000000
00000100
00010000
00000100
00000000
00010000
00100000
01000000
00010000
01000000
00100000
,
00000000
00000000
00000000
01000000
00001000
00010000
00000100
00000010
00000000
00000001
00001000
00000000
00000110
00000000
00000000
00000000
,
00000220
00000000
00000000
00000000
00000300
00000000
00001000
00000000
00000000
00000030
00000000
00000000
00000010
00001000
00000010
00001000
,
00000010
00000000
00001000
00000100
00010000
00001000
01000000
00100000
00000000
01100000
00000000
01000000
00001000
00000000
00011000
00000000
,
00000100
00000000
00000010
00000000
00000001
00000000
00001000
00000000
00001010
00000000
00010000
00001000
00100000
00001000
00010000
00001000
,
00000000
00000000
00000000
10000000
01000000
00100000
00010000
00100000
00000000
01000000
00100000
01000000
00100000
00000000
00010000
00000000
,
00110000
00100000
00001000
00202000
00003000
00010000
00010000
00310000
,
00000000
00000000
00101000
00000000
00001000
00000000
00010000
00000100
00000010
00000000
00000001
00000000
00001001
00000000
00000220
00000000
,
00000030
00000000
00000001
00000000
00000300
00000000
00000010
00001000
00000010
00000000
00010000
00001000
00010000
00000010
00000100
00000001
,
00000000
00000000
00000000
00000010
00000100
00010000
00001000
01000000
00000000
00100000
10000000
00100000
10000000
00000000
00010000
00000000
,
20020000
00000000
00000000
00000000
,
30030000
00000000
00000000
00000000
;

//---------------dance-double - M. Simmons----------------
#NOTES:
     dance-double:
     M. Simmons:
     Hard:
     7:
     0.395,0.000,0.301,0.301,0.201:
00000000
00000000
00000000
00000000
,
00000000
00000000
00000000
00000000
,
00000000
00000000
00000000
00000000
,
00000000
00000000
00000000
00000000
,
10000000
00010000
00100000
01000000
00100000
00001000
00010000
00000020
,
00000000
00000230
00000000
00000300
00000010
00000000
00001010
00000000
,
00010100
00000000
00001000
00100000
00002000
00000000
00000000
00023000
,
00000000
00000000
00031000
00000000
01001000
00000000
00100000
10000000
,
00100000
01000000
00010000
10000000
,
11000000
00000000
00000000
00000000
00100000
00000000
00000000
00010000
00000000
00010000
00000000
00000000
01000000
00000000
00001000
00000000
,
02000000
00000000
03002000
00000000
00013000
00000100
00010000
00001000
,
00010000
00000000
00000000
00010000
00000100
00000000
00000100
00000010
,
00000010
00000000
00000000
00000000
00000001
00000000
00000000
00001000
00000000
00000000
00000000
00000000
00000100
00000000
00000100
00000000
,
00020000
00000000
00000000
00000000
00032000
00000000
00000000
01003000
00000000
01000000
00000000
00000000
00100000
00000000
10000000
00000000
,
00010000
00000000
01100000
00000000
11000000
00000000
10000000
01000000
,
00100000
00000000
00000000
00000000
01010000
00000000
00000000
00000000
01010000
00000000
01000000
00002000
00000000
00000000
00000000
00000000
,
00013000
00000000
00000000
00000000
00000100
00000000
00010000
00001000
00000000
00010000
00000000
00000000
00001000
00000000
00000100
00000000
,
00000010
00000000
00000000
00000000
00001001
00000000
00000000
00000001
00000010
00000000
00000000
00000000
00000110
00000000
00000000
00000000
,
00001100
00000000
00000100
00000000
00000010
00000000
00000001
00000000
00001000
00000100
00000000
00000000
00001000
00000000
00000010
00001000
,
00000000
00000000
00000100
00000000
00010000
00000000
00001000
00020000
00000000
00000000
00000000
00032000
00000000
00000000
00000000
00000000
,
01003000
00000000
00100000
10000000
00100000
00000000
01000000
00000000
00010000
00000000
01000000
00000000
00100000
00000000
10000000
00000000
,
11000000
00000000
00000000
00000000
01100000
00000000
00000000
00010000
00100000
00000000
00000000
00000000
10010000
00000000
00000000
00000000
,
01001000
00000000
00000000
00000000
00002000
00000000
00000000
00000000
00013000
00000000
00010000
00000000
00000100
00000000
00000010
00000100
,
00000000
00000000
00000010
00000010
00000000
00000000
00000002
00000000
,
00001003
00000100
00001000
00001100
00000000
00000000
00011000
00000000
,
00001000
00000000
01000000
00001000
00000000
00000000
00000000
00200000
00000000
00000000
00000000
00000000
01300000
00000000
12000000
00000000
,
00000000
03000000
00000000
10010000
00000000
01000000
01000000
00000000
,
00001000
00000000
00010000
00001000
00000000
01000000
00000000
00001000
00000000
00000000
00000000
00000000
00010100
00000000
00000100
00000000
,
00000020
00000000
00000000
00000230
00000000
00000000
00010300
00000000
,
00010000
00001000
00000000
00010000
00000000
00001000
00000000
00010000
00000000
00000000
00001000
00000000
01000000
00000000
00100000
00000000
,
10000000
01000000
00100000
00001000
00010000
00000100
00000010
00000002
,
00000000
00000000
00000000
00000000
00001003
00000000
00000100
00001000
00000100
00000000
00000010
00000000
00000010
00000000
00000000
00000000
,
00010100
00000000
00001000
00000000
00010100
00000000
00001000
00010000
00001000
00000000
01000000
00000000
01000000
00000000
00200000
00000000
,
00000000
00000000
02300000
00000000
00000000
00000000
03100000
00000000
10100000
00000000
00000000
00000000
00210000
00000000
00000000
00301000
,
00000000
00000000
00000000
00000000
00020100
00000000
00000000
00030010
00000000
00000000
00000100
00000000
00000100
00000000
00000000
00000000
,
00001001
00000000
00000000
00000110
00000100
00000100
00000010
00000100
,
00010010
00000000
00010000
00000000
00010010
00000000
00001000
00000010
00001000
00000000
00000100
00000000
00010000
00000000
00002000
00000000
,
00000000
00000000
00203000
00000000
00000000
00000000
01300000
00000000
01000000
00000000
00000000
00000000
21000000
00000000
00000000
30100000
,
00000000
00000000
00000000
00000000
02100000
00000000
00000000
03010000
00000000
00000000
00100000
00000000
00100000
00000000
00000000
00000000
,
00021000
00000000
00000000
00200000
00000000
00000000
00330000
00000000
,
00010100
00000000
00001000
00000100
00001000
00000000
00000010
00000100
00000000
00000001
00001000
00000000
00000100
00000000
00002001
00000000
,
00000000
00000000
00000200
00000000
00000000
00000000
00003300
00000000
00000001
00000000
00000100
00000010
00001000
00000000
00001000
00000100
,
00000000
00000000
00000000
00010000
00001000
00000000
00001000
01000000
00000000
00000000
00010000
10000000
01000000
00000000
00100000
00000000
,
00020000
00000000
00100000
01030000
00000000
10000000
02000000
00000000
00000000
00000000
03000000
00000000
10000000
00010000
10000000
00000000
,
10010000
00000000
00100000
00000000
00001000
00000000
00010000
00000100
00010000
00000000
00001000
00000000
00010000
00000000
00000020
00000000
,
00000000
00000000
00000230
00000000
00000000
00000000
00000301
00000000
00000001
00000000
00001000
00000100
00001000
00000000
00001000
00000010
,
00000000
00000000
00000000
00000010
00010000
00000000
00010000
00001000
00000000
00000000
00100000
00000000
01000000
00000000
00000000
00000000
,
20020000
00000000
00000000
00000000
,
30030000
00000000
00000000
00000000
;

//---------------dance-double - M. Simmons----------------
#NOTES:
     dance-double:
     M. Simmons:
     Medium:
     5:
     0.300,0.000,0.192,0.209,0.092: // measure 1
00000000
00000000
00000000
00000000
,  // measure 2
00000000
00000000
00000000
00000000
,  // measure 3
00000000
00000000
00000000
00000000
,  // measure 4
00000000
00000000
00000000
00000000
,  // measure 5
00001000
00010000
00000100
00000010
,  // measure 6
00000001
00000000
00001000
00000000
00000010
00001000
00000010
00001000
,  // measure 7
00000010
00000100
00000010
00010000
,  // measure 8
00001000
00000000
00100000
00010000
00100000
00000000
00110000
00000000
,  // measure 9
20010000
00000000
00000000
00000000
00000000
00000000
00000000
31000000
00000000
00000000
00000000
00000000
00100000
00000000
00010000
00000000
,  // measure 10
00100000
00000000
00001000
00000000
00010000
00000000
00000100
00000010
,  // measure 11
00000100
00000000
00000010
00000000
00000001
00000000
00001000
00000010
,  // measure 12
00001000
00001010
00010010
00000000
,  // measure 13
00011000
00000000
00000000
00000000
00011000
00000000
00000000
00001000
00000000
00000000
00000000
00000000
00010000
00000000
00001000
00000000
,  // measure 14
00010000
00000000
00001000
00000000
01000000
00000000
00100000
10000000
,  // measure 15
00100000
01000000
00100000
10000000
,  // measure 16
01000000
00100000
02200000
03300000
,  // measure 17
10010000
00010000
00100000
00001000
,  // measure 18
00010000
00000100
00000010
00000001
,  // measure 19
00001000
00000010
00000100
00000010
,  // measure 20
00010000
00000000
00000000
00000000
00001000
00010000
00001000
00010000
00000000
00001000
00010000
00001000
00000000
00010000
00001000
00010000
,  // measure 21
00000000
00001000
01000000
00100000
,  // measure 22
10000000
00000000
00000000
00000000
01000000
00000000
00000000
00000000
00100000
00010000
00000000
00000000
00010000
00100000
00000000
00000000
,  // measure 23
00200000
02300000
13000000
00010000
,  // measure 24
01000000
00000000
00001000
00020000
00000000
00000000
00031000
00000000
,  // measure 25
00011000
00000000
00000000
00020000
00000000
00000000
00030100
00000000
,  // measure 26
00000010
00000000
00000001
00000000
00001000
00000000
00001000
00000200
,  // measure 27
00000000
00000000
00000000
00020300
00000000
00000000
00031000
00000000
,  // measure 28
01000000
00100000
01000000
00000000
00110000
00000000
01000000
00010000
,  // measure 29
02000000
00000000
00000000
03002000
00000000
00000000
00013000
00000000
,  // measure 30
00010000
00000100
00000000
00010000
00000000
00000100
00000000
00010000
00000000
00000000
00000100
00000000
00000100
00000000
00000100
00000000
,  // measure 31
00000100
00000010
00000100
00000010
00000001
00000010
00000001
00000020
,  // measure 32
00000002
00000033
00001001
00000110
,  // measure 33
00010010
00000010
00010000
00000000
00001000
00100000
00001000
02000000
,  // measure 34
00000000
00000000
03200000
00000000
00000000
00000000
00000000
00000000
10300000
00000000
00000000
00000000
01000000
00000000
00000000
01000000
,  // measure 35
00000000
00000000
00000000
00000000
00100000
00000000
00000000
00100000
00000000
00000000
00000000
00000000
00001000
00000000
00000000
00000000
,  // measure 36
01000000
00001000
01000000
00000000
00001000
00000000
00010000
00000000
,  // measure 37
00011000
00000000
00010000
00000000
00000100
00000010
00000001
00002000
,  // measure 38
00000000
00000000
00003200
00000000
00000000
00000000
00001300
00000000
00001000
00000000
00000000
00000000
00000100
00000000
00000000
00000100
,  // measure 39
00000000
00000000
00000000
00000000
00010000
00000000
00000000
00010000
00000000
00000000
00000000
00000000
00011000
00000000
00000000
00000000
,  // measure 40
00201000
00000000
00000000
02300000
00000000
00000000
13000000
00000000
,  // measure 41
10010000
00000000
00010000
00000000
01000000
00010000
01000000
00002000
,  // measure 42
00000000
00000000
00023000
00000000
00000000
00000000
00030100
00000000
00000100
00000000
00000000
00000000
00000010
00000000
00000000
00000010
,  // measure 43
00000000
00000000
00000000
00000000
00000001
00000000
00000000
00000001
00000000
00000000
00001000
00000000
00001000
00000000
00000000
00000000
,  // measure 44
00001001
00000110
00010010
00010100
,  // measure 45
00011000
00001000
00010000
00000000
00001000
01000000
00001000
02000000
,  // measure 46
00000000
00000000
03200000
00000000
00000000
00000000
10300000
00000000
10000000
00000000
00000000
00000000
00010000
00000000
00000000
00010000
,  // measure 47
00000000
00000000
00000000
00000000
01000000
00000000
00000000
01000000
00000000
00000000
00000000
00000000
00010000
00000000
00010000
00000000
,  // measure 48
20020000
00000000
00000000
00000000
,  // measure 49
30030000
00000000
00000000
00000000
;

//---------------dance-double - M. Simmons----------------
#NOTES:
     dance-double:
     M. Simmons:
     Easy:
     2:
     0.215,0.000,0.142,0.284,0.000: // measure 1
00000000
00000000
00000000
00000000
,  // measure 2
00000000
00000000
00000000
00000000
,  // measure 3
00000000
00000000
00000000
00000000
,  // measure 4
00000000
00000000
00000000
00000000
,  // measure 5
00000100
00010000
00001000
00100000
,  // measure 6
00002000
00000000
00023000
00000000
,  // measure 7
00031000
01000000
00100000
10000000
,  // measure 8
00010000
00010000
00020000
00000000
,  // measure 9
00130000
00000000
01000000
00000000
,  // measure 10
00100000
00000000
00001000
00000000
,  // measure 11
00010000
00000000
00000100
00000000
,  // measure 12
00010100
00000000
00000000
00000000
,  // measure 13
00000010
00000000
00000100
00000000
,  // measure 14
00000001
00000000
00001000
00000000
,  // measure 15
00000100
00000000
00010000
00000000
,  // measure 16
00011000
00000000
00002000
00000000
,  // measure 17
01003000
00100000
10000000
00100000
,  // measure 18
01000000
00010000
00100000
01000000
,  // measure 19
00100000
00001000
00010000
00000100
,  // measure 20
00000010
00000001
00002002
00000000
,  // measure 21
00003003
00000010
00001000
00000100
,  // measure 22
00010000
00001000
00010000
00000100
,  // measure 23
00000010
00000100
00010000
00001000
,  // measure 24
01000000
00100000
10000000
20020000
,  // measure 25
00000000
00000000
30030000
00010000
,  // measure 26
00100000
00001000
00010000
00020200
,  // measure 27
00000000
00000000
00030300
00000000
,  // measure 28
00000100
00000010
00000001
00001000
,  // measure 29
00002020
00000000
00003030
00000010
,  // measure 30
00010000
00001000
01000000
00100000
,  // measure 31
10000000
00010000
00100000
01000000
,  // measure 32
00100000
00001000
00022000
00000000
,  // measure 33
00033000
00000100
00000010
00000001
,  // measure 34
00001000
00000100
00001000
00020020
,  // measure 35
00030030
00022000
00033000
00001000
,  // measure 36
00100000
00010000
00100000
00001000
,  // measure 37
01000000
00100000
10000000
01000000
,  // measure 38
00100000
00001000
00010000
00020200
,  // measure 39
00030300
00002020
00003030
00000010
,  // measure 40
00000220
00000000
00000000
00000330
,  // measure 41
00000010
00010000
00001000
01000000
,  // measure 42
00100000
10000000
01000000
02200000
,  // measure 43
03300000
20020000
30030000
00010000
,  // measure 44
01000000
00001000
00010000
00000100
,  // measure 45
00000010
00000001
00001000
00000010
,  // measure 46
00010000
00000100
00010000
00022000
,  // measure 47
00033000
00202000
00303000
00010000
,  // measure 48
20020000
00000000
00000000
00000000
,  // measure 49
30030000
00000000
00000000
00000000
;

//---------------dance-single - M. Simmons----------------
#NOTES:
     dance-single:
     M. Simmons:
     Hard:
     7:
     0.408,0.000,0.217,0.368,0.196:
0000
0000
0000
0000
,
0000
0000
0000
0000
,
0000
0000
0000
0000
,
0000
0000
0000
0000
,
1000
0100
0010
0001
1000
0100
1000
0020
,
0000
0230
0000
0310
0010
0100
0100
0001
,
1001
0001
0010
0100
1000
0010
0100
0120
,
0000
1000
1000
0100
0130
0000
1001
0000
,
0002
0000
0000
0000
0023
0000
0000
0230
0000
0000
0300
0000
1000
0000
0100
0000
,
2000
0000
0000
0000
3020
0000
0000
0130
0000
0100
0000
0000
0001
0000
0100
0000
,
0010
1000
0001
0010
0100
0010
0001
1000
,
1001
0000
0010
0010
0010
0000
0110
0000
,
0200
0000
0000
0000
0302
0000
0000
2003
0000
0000
3000
0000
0100
0000
0100
0000
,
1100
0000
0000
0000
0110
0000
0000
0010
0000
0010
0000
0000
0001
0000
0010
0000
,
0001
1000
0100
1000
0010
0100
0001
1000
,
1100
1001
0220
0330
,
0010
0000
1000
0010
1000
0010
1000
0020
0000
0130
0000
0000
0010
0000
0100
0000
,
0001
1000
1001
0000
0001
0001
0001
0000
,
0010
0000
0100
0000
0010
0000
0001
1000
0001
1000
0000
0000
0001
0000
0100
0001
,
0000
0000
0000
0000
0000
0010
0100
0010
0000
0100
0010
0100
0000
0010
0100
0010
,
0000
0000
0100
0000
1000
0000
0010
0000
0100
0000
0010
0000
1000
0000
0100
2000
,
0000
0000
0000
0000
3002
0000
0000
0103
0001
0100
0000
0000
0001
0100
0000
0000
,
1001
0000
0020
0000
0130
0001
1000
0100
,
0010
0001
0010
0220
0330
0000
2000
0000
,
3002
0000
0000
0103
0100
0010
1000
0000
,
0001
0000
1000
0001
0000
1000
0000
0002
0000
0000
0000
0000
1003
0000
0100
0000
,
0010
0100
0010
0210
0000
0010
0310
0000
,
0001
0000
0100
0001
0000
0100
0000
0002
0000
0000
0000
0000
0103
0000
0100
0000
,
0020
0000
0000
2030
0000
0100
3100
0000
,
1000
0010
0000
1000
0000
0010
0000
2000
0000
0000
3100
0000
0010
0000
0001
0000
,
0010
0100
1000
0100
0010
0001
0010
0100
,
2000
0000
0000
0000
0000
0000
3001
1000
0001
0000
0010
0000
0100
0000
0020
0000
,
0000
0000
0230
0000
0000
0000
1300
0100
1000
0000
0001
0000
0100
0000
0020
0000
,
0000
0000
2030
0000
0000
0000
3000
0000
0010
0000
0000
0000
1010
0000
0000
0010
,
0000
0000
0000
0000
0110
0000
0000
0100
0000
0000
0001
0000
0001
0000
0000
0000
,
1000
0100
0010
0001
0000
0010
0010
0100
,
1000
0000
0010
0000
0100
0000
0001
0100
0001
0000
1000
0000
0100
0000
0020
0000
,
0000
0000
0032
0000
0000
0000
1003
0000
1000
0000
0000
0000
1010
0000
0000
0010
,
0000
0000
0000
0000
0110
0000
0000
0100
0000
0000
0000
0000
0001
0000
0001
0000
,
2000
0000
0000
3200
0000
0000
1300
1000
,
1010
0000
0010
1000
0010
0000
0100
0000
0001
0000
1000
0000
0100
0000
0020
0000
,
0000
0000
0230
0000
0000
0000
1300
0000
0010
0000
0100
0000
1001
0000
0000
0010
,
0000
0000
0000
0000
1001
0000
0000
0100
0000
0000
0001
0000
0001
0010
0000
0000
,
0120
0000
0130
2000
0000
3010
0010
0000
,
1010
0000
0000
0000
0010
0000
1000
0001
1000
0000
0001
0000
0010
0000
0200
0000
,
0000
0000
2300
0000
0000
0000
3100
0000
0010
0000
0000
0000
1100
0000
0000
0001
,
0000
0000
0000
0000
0101
0000
0000
1000
0000
0000
0000
0000
0010
0000
0000
0000
,
0220
0000
0000
1000
0000
0000
0000
0000
,
0330
0000
0000
0000
;

//---------------dance-single - M. Simmons----------------
#NOTES:
     dance-single:
     M. Simmons:
     Medium:
     5:
     0.308,0.000,0.309,0.201,0.079:
0000
0000
0000
0000
,
0000
0000
0000
0000
,
0000
0000
0000
0000
,
0000
0000
0000
0000
,
0000
0000
0001
0010
0100
0010
0001
2000
,
0000
3200
0000
0000
0000
1300
1000
0000
,
1001
0000
0010
0100
0020
0000
0000
2030
,
0000
3100
1100
1001
,
0001
0100
0010
0100
,
0001
0000
0000
0000
1000
0000
0000
0100
0000
0100
0000
0000
0010
0000
0010
0000
,
0010
0001
1000
0100
,
2001
0100
3010
0000
,
1001
0001
0100
0010
,
1000
0000
0000
0000
0100
0000
0000
0010
0000
0010
0000
0000
0001
0000
0001
0000
,
0001
0000
1001
0000
1010
1000
0010
1000
,
0020
0100
0031
0000
,
1001
0000
0000
0001
0010
0000
0100
0000
1000
0000
0010
0000
0100
0000
0010
0000
,
1000
0000
0001
0000
0100
0001
0100
0001
,
0100
0000
0010
0000
1000
0100
1000
0100
,
1000
0000
0000
0000
0000
0001
0010
0001
0000
0010
0001
0010
0000
0001
0010
0001
,
0000
1000
0100
0010
,
0001
0100
0010
1010
,
0101
1001
0001
0010
,
0100
0000
2000
0002
3003
0000
0120
0000
,
2030
0000
0000
3200
0000
0000
0310
0010
,
0001
1000
0100
1000
,
0020
0000
0000
0230
0000
0000
0310
0010
,
1000
0100
1100
0000
,
0002
0000
0000
0023
0000
0000
0100
0130
,
1000
0100
0010
0000
0001
0100
0010
0000
,
1010
0101
0011
1100
,
1001
0000
0110
0000
2200
0000
0000
3300
,
1001
0001
1000
0000
0100
0000
0010
0000
,
0001
0000
0010
0000
0001
0000
0000
0000
1000
0000
0000
0000
1010
0000
0000
1000
,
0000
0000
0000
0000
0101
0000
0000
0001
0000
0000
0000
0000
1000
0000
0000
0000
,
1200
0000
0000
0320
0000
0000
0031
0000
,
1001
0000
0001
0100
0001
0000
1000
0100
,
1000
0000
0000
0000
0010
0000
0000
0000
0100
0000
0000
0000
0110
0000
0000
1000
,
0000
0000
0000
0000
1001
0000
0000
0010
0000
0000
0000
0000
0000
0000
0000
0000
,
2200
0000
0000
0010
0000
3300
1100
0000
,
1001
0000
0001
0010
0001
0000
1000
0000
,
0010
0000
0000
0000
1000
0000
0010
0000
1000
0000
0000
0000
0011
0000
0000
0100
,
0000
0000
0000
0000
1010
0000
0000
0100
0000
0000
0000
0000
0010
0000
1000
0000
,
0010
1000
0010
0200
0000
0301
0001
0000
,
1001
0000
1100
0000
0010
0001
0010
0000
,
0100
0000
0000
0000
0010
0000
0000
0000
0100
0000
0000
0000
1100
0000
0000
0001
,
0000
0000
0000
0000
0101
0000
0000
1000
0000
0000
0000
0000
0000
0000
0000
0000
,
2002
0000
0000
0000
,
3003
0000
0000
0000
;

//---------------dance-single - M. Simmons----------------
#NOTES:
     dance-single:
     M. Simmons:
     Easy:
     2:
     0.225,0.000,0.142,0.268,0.000:
0000
0000
0000
0000
,
0000
0000
0000
0000
,
0000
0000
0000
0000
,
0000
0000
0000
0000
,
1000
0000
0100
0000
,
0010
0000
0001
0000
,
1000
0000
0010
0000
,
1000
0000
0100
0000
,
0110
0010
0001
0010
,
0100
1000
0001
0100
,
0010
1000
0010
0100
,
0002
0000
0003
0000
,
1000
0100
0010
0100
,
1000
0001
0100
0010
,
1000
0010
0100
0001
,
2000
0000
3000
0000
,
0110
0010
0001
1000
,
0010
0100
0010
1000
,
0001
0010
0001
1000
,
0010
1000
0100
0010
,
0001
1000
0100
1000
,
0010
0100
0001
0010
,
0100
0010
0001
1000
,
0001
0200
0000
0320
,
0130
0000
0000
1001
0000
0000
0000
0000
,
0001
0010
0100
1000
,
0002
0000
0003
0110
0000
0000
0000
0000
,
0010
0100
0010
0100
,
0002
0003
0000
1001
0000
0000
0000
0000
,
1000
0100
1000
0100
,
0020
0032
2003
3200
,
2300
3020
0230
0000
,
0310
1000
0001
0100
,
0001
1000
0100
0220
,
0330
2002
3003
0001
,
2000
0000
0000
3100
0000
0000
0000
0000
,
0110
0010
0001
1000
,
0100
1000
0010
0220
,
0330
2002
3003
0000
,
0001
0100
0010
1000
,
1001
0001
0010
0100
,
0010
0001
0100
0220
,
0330
2002
3003
0010
,
1000
0010
1000
0001
,
0110
0001
1000
0100
,
0010
0001
0100
0220
,
0330
2002
3003
0000
,
2002
0000
0000
0000
,
3003
0000
0000
0000
;
