#TITLE:Banana Bay;
#SUBTITLE:;
#ARTIST:Crispy;
#TITLETRANSLIT:;
#SUBTITLETRANSLIT:;
#ARTISTTRANSLIT:;
#GENRE:Bubblegum Dance;
#CREDIT:Sync by HellRazoR;
#BANNER:Banana Bay-bn.png;
#BACKGROUND:Banana Bay-bg.png;
#LYRICSPATH:;
#CDTITLE:;
#MUSIC:Banana Bay.ogg;
#OFFSET:-0.933;
#SAMPLESTART:58.750;
#SAMPLELENGTH:12.000;
#SELECTABLE:YES;
#DISPLAYBPM:140.000;
#BPMS:0.000=140.000;
#STOPS:;
#BGCHANGES:0.000=Banana Bay-bg.png=1.000=0=0=1=====,
16.000=In The Groove Rebirth/508_JB_HD.mpg=1.000=0=0=1===FadeRight==,
31.000=In The Groove Rebirth/508_JB_HD.mpg=1.000=1=0=1=SongBgWithMovieViz==CrossFade==,
39.000=In The Groove Rebirth/1164_JumpBack.mpg=1.000=0=0=1=====,
55.000=In The Groove Rebirth/1148_JumpBack.mpg=1.000=0=0=1=====,
71.000=In The Groove Rebirth/1125_JumpBack.mpg=1.000=0=0=1===FadeUp==,
87.000=In The Groove Rebirth/511_JB_HD.mpg=1.000=0=0=1===FadeUp==,
103.000=In The Groove Rebirth/821_JumpBack.mpg=1.000=1=0=1===CrossFade==,
119.000=In The Groove Rebirth/1150_JumpBack.mpg=1.000=0=0=1=====,
135.000=In The Groove Rebirth/821_JumpBack.mpg=1.000=0=0=1=====,
151.000=In The Groove Rebirth/510_JB_HD.mpg=1.000=0=0=1===FadeLeft==,
167.000=In The Groove Rebirth/1139_JumpBack.mpg=1.000=0=0=1===FadeRight==,
183.000=In The Groove Rebirth/1125_JumpBack.mpg=1.000=1=0=1=SongBgWithMovieViz==CrossFade==,
199.000=In The Groove Rebirth/1150_JumpBack.mpg=1.000=0=0=1=====,
212.000=Banana Bay-bg.png=1.000=1=0=1===CrossFade==,
215.000=In The Groove Rebirth/1148_JumpBack.mpg=1.000=0=0=1===FadeUp==,
231.000=In The Groove Rebirth/1164_JumpBack.mpg=1.000=0=0=1===SlideRight==,
247.000=In The Groove Rebirth/505_JB_HD.mpg=1.000=0=0=1=====,
263.000=In The Groove Rebirth/514_JB_HD.mpg=1.000=0=0=1===SlideDown==,
279.000=Banana Bay-bg.png=1.000=0=0=1=====,
99999=-nosongbg-=1.000=0=0=0 // don't automatically add -songbackground-
;
#BGCHANGES2:31.000=white flash=1.000=0=0=1=====,
135.000=yellow flash=1.000=0=0=1=====,
191.000=white flash=1.000=0=0=1=====,
247.000=white flash=1.000=0=0=1=====,
279.000=white flash=1.000=0=0=1=====,
;
#KEYSOUNDS:;

//---------------dance-single - D. Bernardone----------------
#NOTES:
     dance-single:
     D. Bernardone:
     Challenge:
     9:
     0.644,0.000,0.566,0.056,0.641:
0000
0000
0000
0000
,
0000
0000
0000
0000
,
0000
0000
0000
0000
,
0000
0000
0000
0000
,
0101
0000
0101
0000
,
0101
0000
0000
0000
0000
0000
0000
0000
0101
0000
0000
0000
0001
0010
0001
0000
,
0000
0000
0000
1000
0000
0000
0100
0000
0010
0000
0010
0000
0001
1000
0000
0000
,
0000
0000
0010
0100
0000
0000
0001
0000
1000
0000
0001
0000
2002
0000
3003
0000
,
M0MM
0000
MMM0
0000
,
0MMM
0000
0000
0000
0000
0000
0000
0000
MMMM
0000
0000
0000
0001
0000
0000
0100
,
0000
0001
1000
0000
1010
0000
M010
0000
1010
0000
10M0
0000
0001
0000
0000
0010
,
0000
0100
1000
0001
1000
0000
0000
0100
0000
0010
0001
0000
0100
0000
0000
0010
,
0000
1000
0001
0000
0101
0000
010M
0000
0101
0000
0M01
0000
1000
0000
0000
0010
,
0000
1000
0100
0010
0001
0000
0000
0100
0000
0000
0101
0000
1000
0000
0000
0100
,
0000
1000
0100
0000
0011
0000
00M1
0000
0011
0000
001M
0000
0100
0000
0000
1000
,
0000
0010
1000
0001
0010
0000
0000
0100
0000
1000
0010
0000
0110
0000
0000
0100
,
0000
0001
0010
0000
1100
0000
M100
0000
1100
0000
1M00
0000
0010
0000
0000
0010
,
0000
0100
0010
1000
0100
0000
0000
0010
0000
0000
0110
0000
0001
0000
0000
0001
,
0000
0000
0100
0000
0010
1000
0010
0000
1000
0000
1000
0000
0100
0000
0000
0100
,
0000
0000
1000
0000
0001
0100
0001
0000
0100
0000
0100
0000
0010
0000
0000
0010
,
0000
0000
1000
0000
0100
0010
0100
0000
0010
0000
0010
0000
0001
0000
0000
0100
,
0000
0000
0001
0000
0010
0100
0010
0000
0100
1000
0010
0000
0110
0000
0000
0001
,
0000
0000
1000
0000
0100
0000
0011
0000
0011
0000
0011
0000
0001
0000
0000
0100
,
0000
0000
0001
0000
0010
0100
0010
0000
0100
0000
0100
0000
1000
0000
0000
1000
,
0000
0000
0001
0000
0100
0010
1000
0000
1100
0000
1100
0000
1000
0001
0000
0000
,
0100
0001
0100
0001
0100
0000
0010
0100
0010
0100
0010
0000
1001
0000
0000
1001
,
0000
0000
1010
0000
0000
1100
0000
0000
0110
000M
0110
0000
0001
0M00
0000
0000
,
M1MM
M000
0000
0000
1MMM
0M00
0000
M00M
M1MM
0000
0000
0000
1MM1
0000
0000
1001
,
0000
0000
0101
0000
0000
0000
0011
0000
0110
M000
0110
0000
1000
00M0
0000
0000
,
MM1M
000M
0000
0000
MMM1
00M0
0000
M00M
MM10
0000
0000
0000
1MM1
0000
0000
0011
,
0000
0000
1100
0000
0000
0000
0110
0000
1100
000M
1100
0000
0001
0M00
0000
0000
,
M1MM
M000
0000
0000
1MMM
0M00
0000
M00M
M1MM
0000
0000
0000
1MM1
0000
0000
1100
,
0000
0000
0110
0000
0000
0000
1001
0000
1010
0000
1010
0000
0001
M000
0010
0000
,
1000
000M
0010
0000
0001
M000
0100
0000
1000
0100
0001
0010
0001
0000
1000
0000
,
0000
0000
0010
0100
0000
0000
0001
0000
0010
0000
0100
0000
1000
0001
1000
0000
,
0000
0000
0100
1000
0000
0000
0100
0000
0010
0000
0001
0000
0100
0001
0100
0000
,
0000
0000
0010
0100
0000
0000
0001
0000
0100
0000
0010
0000
1000
0010
1000
0000
,
0000
0000
0100
0010
0000
0000
0100
0000
0010
0100
1000
0000
0001
0100
0000
0000
,
0000
0000
0010
1000
0000
0000
0100
0000
0100
0000
0100
0000
0010
0001
0010
0000
,
0000
0000
0001
0000
0000
0000
1000
0000
1000
0000
1000
0000
0001
1000
0001
0000
,
0000
0000
0000
0100
0000
0000
0100
0000
0010
0000
0010
0000
1000
0000
0100
0000
,
1000
0000
0010
0000
1000
0001
1000
0001
1000
0001
1000
0001
1001
0000
0000
1000
,
0000
0100
1000
0001
1000
0000
0010
0000
0110
0000
0001
0000
1000
0000
0000
0100
,
0000
1000
0001
0100
0001
0000
0010
0100
0000
0100
1000
0000
1001
0000
0000
0001
,
0000
0100
0001
0100
0001
0000
1000
0000
1100
0000
0001
0000
0100
0000
0000
0010
,
0000
1000
0100
0010
0001
0000
0000
0101
0000
0000
1010
0000
0001
0000
0000
0000
,
0001
0000
0001
0100
1000
0000
1000
0000
,
0200
0000
0010
0000
0301
1000
0102
0000
,
0100
0000
1003
0010
0001
0000
0020
0000
,
0100
0000
0000
0000
1030
0000
0001
0000
0010
0000
0010
0000
1100
0000
0000
1000
,
0000
0000
1000
0000
0100
0010
0001
0000
0011
0000
0011
0000
0001
0000
0000
0001
,
0000
0000
0100
0000
0010
1000
0001
0000
0101
0000
0101
0000
0010
0000
0000
0000
,
0100
0000
0010
0000
0100
0000
0001
1000
,
0001
0000
1000
0000
0100
0010
0100
0010
0100
0010
0100
0010
1001
0000
0001
0000
,
0100
0000
0000
0010
0000
0000
0010
0000
1000
0000
1000
0000
0001
0100
0001
0000
,
0000
0000
0010
0100
0000
0000
0010
0000
0001
0100
0001
0000
1000
0100
1000
0000
,
0000
0000
1000
0010
0000
0000
0100
0000
0100
0000
0100
0000
0001
1000
0000
0000
,
0000
0000
0100
0010
0000
0000
0100
0000
1000
0010
1000
0000
0001
0100
0000
0000
,
0000
0000
0001
1000
0000
0000
0100
0000
0100
0000
0100
0000
0010
0001
1000
0000
,
0000
0000
0010
0000
0000
0000
0100
0000
0001
0000
0001
0000
0010
0100
0000
0000
,
0000
0000
1000
0010
0000
0000
1000
0000
0001
0000
0001
0000
0010
0100
1000
0000
,
0000
0000
0010
0100
0000
0000
0100
0000
0001
1000
0001
0000
0110
0000
0000
10M0
,
0000
0100
1000
0100
0010
0000
0001
0000
0100
0000
0010
0000
1001
0000
0000
M010
,
0000
0100
0001
1000
0010
0000
0100
0001
0000
0010
0001
0000
1100
0000
0000
M010
,
0000
0100
0001
1000
0001
0000
0010
0000
0100
0000
1000
0000
1010
0000
0000
01M0
,
0000
0001
1000
0100
1000
0000
0000
0010
0000
0000
1010
0000
0101
0000
0000
001M
,
0000
1000
0100
1000
0010
0000
0100
0000
0001
0000
1000
0000
1001
0000
0000
001M
,
0000
0100
0001
1000
0100
0000
0010
0001
0000
0100
0001
0000
0011
0000
0000
01M0
,
0000
1000
0001
0100
0010
0000
1000
0000
0100
0000
1000
0000
1010
0000
0000
M001
,
0000
0010
0100
1000
0001
0000
0000
0011
0000
0000
0101
0000
2002
0000
0000
0000
,
3003
MM0M
0000
0000
0000
0000
0000
0000
;

//---------------dance-single - D. Bernardone----------------
#NOTES:
     dance-single:
     D. Bernardone:
     Beginner:
     1:
     0.113,0.000,0.112,0.000,0.000:
0000
0000
0000
0000
,
0000
0000
0000
0000
,
0000
0000
0000
0000
,
0000
0000
0000
0000
,
1000
0000
1000
0000
,
1000
0000
1000
0000
,
1000
0000
1000
0000
,
1000
0000
1000
1001
,
0000
0000
0000
0000
,
0000
0000
0000
0001
,
0000
0000
0000
0100
,
0000
0000
0000
0010
,
0000
0000
0000
1000
,
0000
0000
0000
0100
,
0000
0000
0000
1000
,
0000
0000
0000
0001
,
0000
0000
0000
0100
,
0000
0000
0000
0110
,
0000
0000
0000
0010
,
0000
0000
0000
0010
,
0000
0000
0000
1000
,
0000
0000
0000
1000
,
0000
0000
0000
0001
,
0000
0000
0000
0001
,
0000
0000
0000
0100
,
0000
0000
0000
0100
,
0000
0000
0000
0110
,
0000
0000
0000
1000
,
0000
0000
0000
1001
,
0000
0000
0000
0010
,
0000
0000
0000
0110
,
0000
0000
0000
0001
,
0000
0000
0000
1001
,
0000
0000
0000
1000
,
0000
0000
0000
0100
,
0000
0100
0000
0010
,
0000
0010
0000
0000
,
1001
0000
0000
0001
,
0000
0000
0000
1000
,
0000
1000
0000
0100
,
0000
0100
0000
0000
,
0110
0000
0000
0001
,
0000
0000
0000
1000
,
0000
0000
0000
0010
,
0000
0000
0000
0100
,
0000
0000
0000
0001
,
0000
0000
0000
0000
,
0000
0000
0000
1001
,
0000
0000
0000
0000
,
0000
0000
0000
0110
,
0001
0000
0001
0000
,
0001
0000
0001
0000
,
0001
0000
0001
0000
,
0001
0000
0001
1000
,
0000
1000
0000
0100
,
0000
0010
0000
0001
,
0000
1000
0000
0000
,
1001
0000
0000
0001
,
0000
0001
0000
0100
,
0000
0010
0000
1000
,
0000
0001
0000
0000
,
0110
0000
0000
1000
,
0000
0000
0000
0100
,
0000
0000
0000
0010
,
0000
0000
0000
0001
,
0000
1000
0000
0110
,
0000
0000
0000
0001
,
0000
0000
0000
0100
,
0000
0000
0000
0010
,
0000
1000
0000
1001
;

//---------------dance-double - D. Bernardone----------------
#NOTES:
     dance-double:
     D. Bernardone:
     Easy:
     3:
     0.228,0.000,0.088,0.016,0.000: // measure 1
00000000
00000000
00000000
00000000
,  // measure 2
00000000
00000000
00000000
00000000
,  // measure 3
00000000
00000000
00000000
00000000
,  // measure 4
00000000
00000000
00000000
00000000
,  // measure 5
10000000
00000000
00010000
00000000
,  // measure 6
00100000
00000000
00001000
00000000
,  // measure 7
00010000
00000000
00000010
00000000
,  // measure 8
00001000
00000000
00000001
00001001
,  // measure 9
00000100
00000000
00010000
00000000
,  // measure 10
00001000
00000000
01000000
00010000
,  // measure 11
10000000
10000000
00000000
01000000
,  // measure 12
00100000
00010000
00000000
01000000
,  // measure 13
00001000
00001000
00000000
00010000
,  // measure 14
00000100
00001000
00000001
00001001
,  // measure 15
00000100
00000100
00000000
00000010
,  // measure 16
00010000
00001000
00000000
00100000
,  // measure 17
00010000
00010000
00000000
01000000
,  // measure 18
00100000
10000000
00010000
10010000
,  // measure 19
10000000
00000000
01000000
00000000
,  // measure 20
00010000
00000000
00001000
00000000
,  // measure 21
00000100
00000000
00000001
00000000
,  // measure 22
00000010
00000000
00001000
00000000
,  // measure 23
00010000
00000000
00100000
00000000
,  // measure 24
10000000
00000000
00010000
00000000
,  // measure 25
00001000
00000000
00000001
00000000
,  // measure 26
00000010
00000000
00000010
00000100
,  // measure 27
00000000
00010100
00000000
00010000
,  // measure 28
00001000
01000000
00001000
00000000
,  // measure 29
00100000
00000000
00101000
00000000
,  // measure 30
00100000
00010000
01000000
00100000
,  // measure 31
00000000
10100000
00000000
10000000
,  // measure 32
00010000
10000000
00100000
00000000
,  // measure 33
01000000
00000000
01010000
00010000
,  // measure 34
00100000
00001000
00010000
00000100
,  // measure 35
00000000
00000100
00000000
00000010
,  // measure 36
00000000
00000010
00000000
00000001
,  // measure 37
00000100
00001000
00000000
00000000
,  // measure 38
00010000
01000000
10000000
00010000
,  // measure 39
00000000
00010000
00000000
01000000
,  // measure 40
00000000
01000000
00000000
00001000
,  // measure 41
00010000
00100000
00000000
00000000
,  // measure 42
00010000
00100000
10000000
00100000
,  // measure 43
01000000
00001000
00010000
00001000
,  // measure 44
00100000
01000000
10000000
00010000
,  // measure 45
01000000
00001000
00010000
00000100
,  // measure 46
00000010
00000001
00001000
00001001
,  // measure 47
00000000
00000000
00000000
00000000
,  // measure 48
00000010
00000000
00000000
00011000
,  // measure 49
00000000
00000000
00000000
00000000
,  // measure 50
00100000
00000000
00000000
10010000
,  // measure 51
01000000
00000000
01000000
00000000
,  // measure 52
01000000
00000000
01000000
00100000
,  // measure 53
00100000
00100000
00100000
10000000
,  // measure 54
00010000
01000000
00001000
00010000
,  // measure 55
00000000
00000100
00000000
00001000
,  // measure 56
00001000
00001000
00000000
00000010
,  // measure 57
00000100
00000001
00000000
00000000
,  // measure 58
00000010
00001000
00010000
00001000
,  // measure 59
00000000
01000000
00000000
00010000
,  // measure 60
00010000
00010000
00000000
00100000
,  // measure 61
01000000
10000000
00000000
00000000
,  // measure 62
00100000
00010000
00001000
00010000
,  // measure 63
00000100
00000010
00000001
00000100
,  // measure 64
00001000
00010000
00001000
00000010
,  // measure 65
00000100
00010000
00001000
01000000
,  // measure 66
00010000
00100000
10000000
00100000
,  // measure 67
01000000
00010000
00001000
00010000
,  // measure 68
00000010
00000100
00001000
00010000
,  // measure 69
00100000
10000000
00010000
00100000
,  // measure 70
00001000
00010000
00001000
02002000
,  // measure 71
03003000
00000000
00000000
00000000
;

//---------------dance-single - D. Bernardone----------------
#NOTES:
     dance-single:
     D. Bernardone:
     Easy:
     3:
     0.258,0.000,0.088,0.064,0.000:
0000
0000
0000
0000
,
0000
0000
0000
0000
,
0000
0000
0000
0000
,
0000
0000
0000
0000
,
1000
0000
0001
0000
,
1000
0000
0001
0000
,
1000
0000
0001
0000
,
1000
0000
0001
2002
,
0000
0000
0000
0000
,
0000
0000
3003
1000
,
0100
1000
1000
0001
,
0010
0100
1000
0001
,
0100
0001
0001
0010
,
0100
1000
0010
0110
,
0100
0001
0001
1000
,
0100
0010
0001
1000
,
0010
1000
1000
0001
,
0010
0100
1000
1001
,
0001
0000
0010
0000
,
0001
0000
1000
0000
,
0100
0000
1000
0000
,
0001
0000
0100
0000
,
0001
0000
1000
0000
,
0010
0000
1000
0000
,
0100
0000
0010
0000
,
0100
0000
1000
1001
,
0001
0001
0000
0100
,
0100
0100
0100
0010
,
0010
1000
0001
0000
,
0010
0010
0010
0100
,
1000
0001
0000
0100
,
0100
0100
0100
0010
,
1000
0001
0001
0010
,
0010
0010
0010
0100
,
0000
0100
0000
1000
,
0000
0001
0000
0100
,
0010
0010
0000
1000
,
0100
1000
0100
0010
,
0000
0010
0000
0001
,
0000
0100
0000
0010
,
1000
1000
0000
0001
,
0100
0001
0100
0020
,
1000
1030
0100
2000
,
0001
3001
0010
0200
,
1000
1300
0010
0200
,
0001
0301
1000
0100
,
0100
0100
0100
0000
,
0010
0010
0000
0001
,
0001
0001
0001
0000
,
1000
1000
0000
0010
,
0010
0010
0010
0100
,
0001
1000
0001
0010
,
0010
0010
0010
0100
,
1000
0001
1000
0010
,
0000
0010
0000
0100
,
0000
0001
0000
1000
,
0100
0100
0000
0010
,
0001
0010
0001
1000
,
0000
1000
0000
0010
,
0000
0100
0000
0001
,
1000
1000
0000
0010
,
1000
0010
1000
1001
,
0001
0100
1000
0100
,
0001
0100
1000
0100
,
0010
1000
0010
0100
,
0010
0110
1001
0110
,
0100
0001
0100
1000
,
0100
0001
0100
0010
,
0001
0010
0100
0010
,
0001
1001
0110
2002
,
3003
0000
0000
0000
;

//---------------dance-single - D. Bernardone----------------
#NOTES:
     dance-single:
     D. Bernardone:
     Medium:
     5:
     0.329,0.000,0.231,0.048,0.020: // measure 1
0000
0000
0000
0000
,  // measure 2
0000
0000
0000
0000
,  // measure 3
0000
0000
0000
0000
,  // measure 4
0000
0000
0000
0000
,  // measure 5
1000
0000
0100
0000
,  // measure 6
0010
0000
0001
0000
,  // measure 7
1000
0000
0100
0000
,  // measure 8
0010
0000
0001
0102
,  // measure 9
1003
0000
0010
0000
,  // measure 10
0100
0000
0001
1000
,  // measure 11
0100
0000
0010
0001
1000
0000
0010
0000
,  // measure 12
0100
0010
0010
0010
,  // measure 13
1000
0000
0100
0010
0001
0000
0100
0000
,  // measure 14
0001
0000
0000
0000
0010
0000
0000
0010
0000
0000
0010
0000
0100
0000
0000
0000
,  // measure 15
1000
0000
0001
0100
0010
0000
0100
0000
,  // measure 16
0001
1000
1000
1000
,  // measure 17
0100
0000
0010
0001
1000
0000
0010
0000
,  // measure 18
0100
0000
0000
0000
0001
0000
0000
0001
0000
0000
0001
0000
1000
0000
0000
0000
,  // measure 19
0100
0010
0010
0001
,  // measure 20
0100
0100
0010
1000
,  // measure 21
1000
0100
1000
1000
,  // measure 22
0001
0010
0010
0100
,  // measure 23
0010
0010
0001
1000
,  // measure 24
1000
0100
1000
1000
,  // measure 25
0001
0100
0100
0001
,  // measure 26
0010
0010
0100
0010
,  // measure 27
0001
0002
0003
1000
,  // measure 28
0100
1000
0100
0010
,  // measure 29
0100
0010
0001
1000
,  // measure 30
0001
1000
0001
0010
,  // measure 31
0100
2000
3000
0010
,  // measure 32
1000
0010
1000
0100
,  // measure 33
0010
0001
0100
0110
,  // measure 34
1010
0000
0101
0000
1010
0000
1000
0100
,  // measure 35
1000
0101
0000
0001
,  // measure 36
0100
0001
1000
1100
,  // measure 37
0101
0000
1100
0000
0000
0000
0000
0001
,  // measure 38
1000
0001
0100
0000
0010
0000
1000
0010
,  // measure 39
1000
0011
0000
0001
,  // measure 40
0010
0001
1000
1010
,  // measure 41
0011
0000
1010
0000
0000
0000
0000
1000
,  // measure 42
0001
1000
0010
0000
0100
0000
0001
0000
,  // measure 43
1000
0000
0100
1000
0100
1000
0001
0000
,  // measure 44
0100
0010
0110
0010
,  // measure 45
1000
0000
0001
0010
0001
0010
0100
0000
,  // measure 46
1000
0000
0000
0000
1001
0000
0000
0110
0000
0000
2002
0000
3003
0000
0000
0000
,  // measure 47
0000
0000
0000
0000
,  // measure 48
0000
0000
0000
0000
0000
0100
0010
0000
,  // measure 49
0000
0000
0000
0000
,  // measure 50
0000
0000
0000
0000
0000
0001
1000
0000
,  // measure 51
0010
0000
0100
0000
,  // measure 52
0001
0000
1000
0000
,  // measure 53
0100
0000
0010
0000
,  // measure 54
0001
0000
1000
0000
0001
0000
0100
0010
,  // measure 55
1000
1100
0000
0100
,  // measure 56
0010
0001
0100
0110
,  // measure 57
1010
0000
1100
0000
0000
0000
0000
0001
,  // measure 58
1000
0001
0010
0000
0100
0000
1000
0010
,  // measure 59
0100
0101
0000
1000
,  // measure 60
0001
1000
0100
0110
,  // measure 61
0011
0000
0101
0000
0000
0000
0000
1000
,  // measure 62
0001
1000
0010
0000
0100
0000
0001
0000
,  // measure 63
1000
0000
0100
0010
0001
0010
0100
0000
,  // measure 64
1000
1001
0010
1001
,  // measure 65
0001
0000
0100
0010
1000
0010
0100
0000
,  // measure 66
0001
0000
0000
0000
1000
0000
0000
1000
0000
0000
1000
0000
0100
0000
0000
0000
,  // measure 67
0010
0000
0001
0100
0010
0100
0001
0000
,  // measure 68
1000
1100
0010
1100
,  // measure 69
0001
0000
1000
0100
0010
0100
1000
0000
,  // measure 70
0001
0000
0000
0000
0010
0000
0000
0010
0000
0000
0010
0000
0200
0000
0000
0000
,  // measure 71
0300
0000
0000
0000
;

//---------------dance-single - D. Bernardone----------------
#NOTES:
     dance-single:
     D. Bernardone:
     Hard:
     7:
     0.509,0.000,0.327,0.263,0.139:
0000
0000
0000
0000
,
0000
0000
0000
0000
,
0000
0000
0000
0000
,
0000
0000
0000
0000
,
1001
0000
1001
0000
,
1001
0000
1001
0000
,
0110
0000
0110
0000
,
0110
0000
0110
2002
,
0MM0
0000
0MM0
0000
,
0MM0
0000
0000
0000
0000
0000
0000
0000
3MM3
0000
0000
0000
0001
0000
0000
0001
,
1000
0000
0000
0000
1000
0000
0010
0000
1000
0000
0000
0000
0100
0000
0000
0010
,
0001
0000
1000
0000
0001
0000
0000
0000
0100
0000
0000
0000
1010
0000
0000
1000
,
0100
0000
0000
0000
0100
0000
0010
0000
0100
0000
0000
0000
1000
0000
0000
0010
,
0100
0000
0001
0000
0010
0000
0000
0010
0000
0000
0100
0000
1100
0000
0000
1000
,
0001
0000
0000
0000
0100
0000
0100
0000
0001
0000
0000
0000
0010
0000
0000
1000
,
0010
0000
0100
0000
1000
0000
0000
0000
0001
0000
0010
0000
0011
0000
0000
1000
,
0001
0000
0000
0000
0010
0000
1000
0000
0010
0000
0000
0000
0100
0000
0000
1000
,
0000
0000
0010
0000
0100
0000
0000
0001
0000
0000
0010
0000
0110
0000
0000
0000
,
1000
0100
0010
0000
0001
0100
0010
1000
,
0010
0000
1000
0001
0100
0010
1000
0000
,
0001
0100
0010
1000
0001
0001
1000
0100
,
1000
0000
0000
0000
1000
0000
0001
0000
0010
0100
0010
0000
0001
0000
0000
0000
,
1000
0001
0002
1000
0100
1003
0010
0000
,
0100
0000
0010
0000
1000
0001
1000
0000
0100
0010
0100
0000
0010
0000
0000
0000
,
0001
0010
0200
1000
0010
1300
0001
0200
,
0000
1000
0000
0310
1000
1000
0200
0000
,
0310
0000
0001
0000
0200
0000
0000
0000
0300
0000
0000
0000
0020
0000
0000
1030
,
0100
0001
0100
1000
0100
0000
0010
0001
,
0100
1000
0100
0001
0020
0000
0030
0100
,
0100
1000
0010
0001
0020
0000
0030
1000
,
0100
0000
0010
0000
0002
0000
0000
0000
0003
0000
0000
0000
2000
0000
0000
3010
,
0100
0001
0010
1000
0010
0000
0001
0001
,
0100
0100
1000
0100
0002
0010
0010
0010
,
0013
0100
1000
0001
0100
0000
0010
1000
,
0100
1000
0001
0000
0200
0310
0000
2000
,
0000
0000
3100
0010
0000
0000
0002
0000
0103
0000
0000
0000
0020
0000
1030
0000
,
0100
0010
0200
0000
0300
0000
0000
1000
,
1001
0001
0101
0100
0120
0000
2030
3100
,
0010
0001
0010
0000
0000
0002
0000
0103
,
0000
1000
0100
0010
1000
0000
0200
0301
,
1000
0010
0002
0000
0003
0000
0000
0100
,
0110
0000
0010
0000
1010
0000
1000
0000
1002
0000
0000
0000
0013
0000
0000
0100
,
1000
0001
0001
0010
1000
0000
0010
0000
,
0110
0000
0000
1000
0001
0000
0000
0001
0100
0000
0010
0000
2000
0000
0000
0000
,
3100
0100
1000
0001
0100
0001
0020
0000
,
0130
0000
1000
0000
0010
0000
0000
0110
0000
0000
0100
0000
2002
0000
3003
0000
,
0000
0000
0000
0000
,
0000
0000
0000
0000
0000
1000
0101
0000
,
0000
0000
0000
0000
,
0000
0000
0000
0000
0000
0001
1010
0000
,
1000
0000
0100
0000
,
0010
0000
0001
0101
,
1010
0000
0101
0000
1010
1000
1000
0100
,
0001
0100
1000
0100
0010
0001
0200
0000
,
1300
0000
0100
0001
0010
0000
0100
1000
,
0001
0000
0100
1000
0100
0001
0010
0000
,
0100
0000
1000
0000
0101
0000
0000
1000
,
0001
0001
0011
0100
0210
0000
1300
0001
,
0100
0000
0010
1000
0100
0000
1000
0001
,
0100
0000
1000
0100
0001
0010
0100
0000
,
1000
0000
0001
0000
1100
0000
0000
0001
,
1000
0000
1000
0000
1100
0000
0010
0000
0120
0000
0000
0000
0031
0000
0100
0001
,
0000
0100
0001
0000
1000
0000
0010
0000
0100
0000
0000
0000
0001
0000
0000
0010
,
0100
0000
1000
0000
1001
0000
0000
0010
0100
0000
0100
0000
0101
0000
0000
0000
,
0001
0000
1000
0000
0100
0000
0010
0000
0001
0000
0001
0000
0100
0000
0010
1000
,
0001
0000
1000
0001
1000
0000
0100
0010
0000
0001
1000
0000
1001
0000
0000
1000
,
0010
0000
0100
0000
0001
0000
1000
0000
0100
0000
0000
0000
0011
0000
0000
1000
,
0010
0000
0100
0000
0101
0000
0000
1000
0100
0000
0100
0000
0110
0000
0000
0000
,
1000
0000
0010
0000
0100
0000
0001
0000
1000
0000
1000
0000
0010
0000
0100
0001
,
0100
0000
0010
1000
0001
0000
0100
0010
0000
1000
0001
0000
0202
0000
0000
0000
,
0303
0000
0000
0000
;

//---------------dance-double - D. Bernardone----------------
#NOTES:
     dance-double:
     D. Bernardone:
     Medium:
     6:
     0.352,0.000,0.167,0.135,0.004: // measure 1
00000000
00000000
00000000
00000000
,  // measure 2
00000000
00000000
00000000
00000000
,  // measure 3
00000000
00000000
00000000
00000000
,  // measure 4
00000000
00000000
00000000
00000000
,  // measure 5
00000001
00000000
00000100
00000000
,  // measure 6
00001000
00000000
00010000
00000000
,  // measure 7
01000000
00000000
10000000
00000000
,  // measure 8
00100000
00000000
00010000
00011000
,  // measure 9
00000010
00000000
00000001
00000000
,  // measure 10
00001000
00000000
00010000
01000000
,  // measure 11
01000000
00000000
00100000
00001000
00010000
00001000
00010000
00000000
,  // measure 12
00000100
00002000
00003020
00000130
,  // measure 13
00000001
00000000
00001000
00000100
00001000
00000100
00010000
00000000
,  // measure 14
00001000
01001000
01010000
00110000
,  // measure 15
00010000
00000000
10000000
01000000
10000000
01000000
00100000
00000000
,  // measure 16
00001000
00020000
00030200
00001300
,  // measure 17
00000010
00000000
00000100
00000001
00000100
00000001
00001000
00000000
,  // measure 18
00000100
00001100
00010100
00011000
,  // measure 19
00001000
00100000
00010000
01000000
,  // measure 20
10000000
01000000
00100000
00100000
,  // measure 21
10000000
01000000
00010000
00001000
,  // measure 22
00010000
00000000
00100000
00000000
10000000
01000000
10000000
00000000
,  // measure 23
00010000
00100000
00001000
00010000
,  // measure 24
00000100
00000010
00000001
00000001
,  // measure 25
00000100
00000000
00001000
00000000
00000100
00000010
00010000
00000000
,  // measure 26
00001000
00100000
01000000
10010000
,  // measure 27
00010000
00010000
00000000
00100000
,  // measure 28
00001000
00000100
00000010
00001000
,  // measure 29
00000001
00001000
00001000
00000000
,  // measure 30
00000010
00010000
01000000
00100000
,  // measure 31
00010000
01000000
00000000
00010000
,  // measure 32
00100000
00001000
00000010
00000001
,  // measure 33
00001000
00000010
00001000
00000100
,  // measure 34
00010000
01000000
00100000
00010000
,  // measure 35
10010000
01010000
00000000
01000000
,  // measure 36
00001000
00000000
00010000
00000000
00000100
00000000
00000010
00000001
,  // measure 37
00000100
00000001
00001000
00000000
00000000
00000000
00000000
00000100
,  // measure 38
00010000
00001000
01000000
00010000
01000000
00000000
00100000
00000000
,  // measure 39
10100000
01100000
00000000
00010000
,  // measure 40
00100000
00000000
00001000
00000000
00010000
00000000
00000100
00001000
,  // measure 41
00000010
00001000
00000001
00000000
00000000
00000000
00000000
00001000
,  // measure 42
00000010
00010000
00001000
00100000
00010000
00000000
01000000
00000000
,  // measure 43
00100000
00000000
10000000
01000000
10000000
01000000
00100000
00000000
,  // measure 44
00010000
02000000
03002000
00013000
,  // measure 45
00000100
00000000
00000010
00000100
00000010
00000100
00001000
00000000
,  // measure 46
00000001
00000200
00000320
00000130
,  // measure 47
00000000
00000000
00000000
00000000
,  // measure 48
00000001
00001000
00000000
00010100
,  // measure 49
00000000
00000000
00000000
00000000
,  // measure 50
00010000
00001000
00000000
01001000
,  // measure 51
10000000
00000000
01000000
00000000
,  // measure 52
00010000
00000000
00001000
00000000
,  // measure 53
00000010
00000000
00000001
00000100
,  // measure 54
00000010
00000000
00001000
00000100
00010000
00000010
00010000
00000000
,  // measure 55
00001000
00100000
01000000
00010000
,  // measure 56
00001000
00000000
00000100
00000000
00000010
00000000
00001000
00000100
,  // measure 57
00001000
00000010
00010000
00000000
00000000
00000000
00000000
00001000
,  // measure 58
00010000
00001000
00010000
00001000
01000000
00000000
00010000
00000000
,  // measure 59
00100000
01000000
00010000
00001000
,  // measure 60
00000010
00000000
00001000
00000000
00010000
00000000
00001000
00100000
,  // measure 61
00010000
00100000
01000000
00000000
00000000
00000000
00000000
10000000
,  // measure 62
00010000
01000000
00010000
01000000
00100000
00000000
10000000
00000000
,  // measure 63
11000000
00000000
00010000
01000000
00001000
00010000
00001000
00000000
,  // measure 64
00010010
00002000
00003002
00000013
,  // measure 65
00000110
00000000
00000100
00010000
00001000
00010000
00001000
00000000
,  // measure 66
01000000
00000000
00020000
00030000
02020000
03030000
10000000
00000000
,  // measure 67
11000000
00000000
00100000
00001000
00010000
00001000
01000000
00000000
,  // measure 68
00010000
00200000
00302000
00013000
,  // measure 69
00101000
00000000
00001000
00010000
00000100
00001000
00000010
00000000
,  // measure 70
00000100
00000000
00000000
00000000
00000001
00000000
00000000
00000010
00000000
00000000
00000100
00000000
00002002
00000000
00000000
00000000
,  // measure 71
00003003
00000000
00000000
00000000
;

//---------------dance-double - D. Bernardone----------------
#NOTES:
     dance-double:
     D. Bernardone:
     Hard:
     7:
     0.414,0.000,0.088,0.048,0.143:
00000000
00000000
00000000
00000000
,
00000000
00000000
00000000
00000000
,
00000000
00000000
00000000
00000000
,
00000000
00000000
00000000
00000000
,
10000000
00000000
00001000
00000000
,
00010000
00000000
00000001
00000000
,
00000010
00000000
00000100
00000000
,
00100000
00000000
01000000
20010000
,
00100000
00000000
01000000
00000000
,
00010000
00000000
00000000
00000000
00000000
00000000
00000000
00000000
30001000
00000000
00000000
00000000
00010000
00000000
00000000
00000100
,
00000000
00000000
00000010
00000000
00000001
00000000
00000100
00000000
00000001
00000000
00000000
00000000
00000010
00000000
00000000
00001000
,
00000000
00000000
00010000
00000000
00100000
00000000
00000000
00000000
01000000
00000000
00000000
00000000
00001000
00000000
00000000
00010000
,
00000000
00000000
00000100
00000000
00000010
00000000
00000001
00000000
00000100
00000000
00000000
00000000
00000010
00000000
00000000
00010000
,
00000000
00000000
00001000
00000000
01000000
00000000
00000000
00010000
00000000
00000000
00100000
00000000
01000000
00000000
00000000
00010000
,
00000000
00000000
01000000
00000000
10000000
00000000
00100000
00000000
01000000
00000000
00000000
00000000
00001000
00000000
00000000
00010000
,
00000000
00000000
00000100
00000000
00001000
00000000
00000010
00000000
00000200
00000000
00000000
00000000
00000301
00000000
00000000
00000010
,
00000000
00001000
00010000
00001000
01000000
00000000
00100000
00010000
,
00001000
00000100
00000010
00010000
00001000
00100000
00010000
00000000
,
10000000
00000000
01000000
00010000
01000000
00000000
00100000
00000000
,
00001000
00000000
00010000
00000010
00000100
00000000
00000001
00000000
,
00000010
00000000
00000001
00000100
00001000
00000000
00010000
00000000
,
00001000
00000000
00100000
01000000
00010000
00000000
00001000
00000000
,
01000000
00000000
00010000
00100000
01000000
10000000
00010000
00000000
,
01000000
00000000
00100000
00010000
00001000
00010000
00000100
00000000
,
00010000
00000000
00001000
00100000
01000000
00010000
00001000
00000000
,
00000100
00000000
00000000
00000000
00000001
00000000
00000001
00000000
00000001
00000000
00000010
00000100
00001000
00000000
00000000
00000000
,
00000010
00000010
00010000
00000000
00000000
00000000
00000100
00000000
,
01000000
00000000
00000100
00000000
01000000
00000000
00010000
00100000
,
00010000
00100000
01000000
10000000
00010000
00000000
00000000
00000000
,
00100000
00000000
00000010
00000000
00100000
00000000
00000000
00001000
,
00010000
00000100
00001000
00000000
00000000
00000000
00000001
00000000
,
00010000
00000000
00000001
00000000
00010000
00000000
00001000
00010000
,
00001000
00010000
00100000
10000000
01000000
00100000
00001000
00000000
,
00001000
00000000
00000100
00000010
00001000
00000000
00000001
00000000
,
00000001
00000000
00000001
00000000
00000010
00000100
00001000
00000000
,
00000010
00010000
00001000
00000000
01001000
00000000
01000000
00010000
,
00100000
01000000
10000000
00010000
00010000
00100000
00000000
00100000
,
00000000
00001000
00010000
00000100
00000010
00000001
00001000
00000000
,
00001000
00000000
00001000
00000000
00000100
00010000
00001000
00000000
,
00100000
00010000
01000000
00000000
01100000
00000000
10000000
01000000
,
00010000
00001000
00000100
00000010
00000010
00010000
00000000
00010000
,
00000000
00000000
00001000
00000000
00100000
00000000
00010000
00000000
01000000
00000000
00100000
10000000
00010000
00000000
00010000
00100000
,
00000000
00000000
01000000
00000000
00010000
00000000
00001000
00000000
00010000
00000000
00000000
00000000
00000100
00000000
00000000
00001000
,
00000000
00000000
00000010
00000000
00000100
00000000
00000000
00000001
00000000
00000000
00000010
00000000
00001000
00000000
00001000
00010000
,
00000000
00000000
00001000
00000000
01000000
00000000
00010000
00000000
00100000
00000000
00000000
00000000
01000000
00000000
00000000
10100000
,
00000000
00000000
00100000
00000000
01000000
00000000
00000000
01001000
00000000
00000000
00010000
00000000
00022000
00000000
00033000
00000000
,
00000000
MM000000
00000000
000MM000
00000000
0MM00000
00000000
000MM000
,
00000000
00000000
00MM0000
00000000
00000000
00000000
00000001
00000010
00000000
00000000
00000000
00000000
00011000
00000000
000000MM
00000000
,
00000000
000MM000
00000000
00000MM0
00000000
000MM000
00000000
0000MM00
,
00000000
00000000
000MM000
00000000
00000000
00000000
10000000
00100000
00000000
00000000
00000000
00000000
00011000
00000000
00000000
00000000
,
00000001
00000000
00000100
00000000
,
00011000
00000000
10000000
00M00000
,
01000000
000000M0
00011000
00010000
,
00000100
00000000
00000000
00000000
00001000
00000000
00000010
00000000
00000100
00000000
00000001
00000010
00000100
00000000
00001000
00000000
,
00000000
00000010
00000000
00010000
00000000
00001000
00100000
00010000
,
00000000
01000000
00000000
00100000
00000000
10000000
01000000
00010000
,
00000000
00001000
00000000
00010000
00000000
00000010
00000100
00000001
,
00000010
00000100
00010000
00001000
01000000
01000000
00010000
10000000
,
00000000
00100000
00000000
00010000
00000000
00001000
00010000
00000010
,
00000000
00000100
00000000
00000001
00000000
00001000
00000100
00000010
,
00000000
00001000
00000000
00010000
00000000
00100000
01000000
00010000
,
10000000
00000000
00000000
00000000
01000000
00000000
00000000
00000000
00100000
00010000
00100000
00000000
00001000
00000000
00000000
00010000
,
00000000
00000000
00000100
00000000
00000010
00000000
00000001
00000000
00000100
00000000
00000100
00000000
00000010
00000000
00000000
00001000
,
00000000
00000000
00000100
00000000
00010000
00000000
00000000
00001000
00000000
00000000
00100000
00000000
00010000
00000000
00000000
10000000
,
00000000
00000000
00100000
00000000
01000000
00000000
00001000
00000000
00010000
00000000
00010000
00000000
00000100
00000000
00001000
00000001
,
00000000
00001000
00000001
00000000
00000010
00000000
00000100
00001000
00000000
00000100
00001000
00000000
00000010
00000000
00000000
00010000
,
00000000
00000000
00001000
00000000
00100000
00000000
01000000
00000000
00010000
00000000
00010000
00000000
00001000
00000000
00000000
01000000
,
00000000
00000000
00100000
00000000
10000000
00000000
00000000
00010000
00000000
00000000
01000000
00000000
00001000
00000000
00000000
00010000
,
00000000
00000000
00000100
00000000
00000010
00000000
00000001
00000000
00000100
00000000
00000100
00000000
00000010
00000000
00010000
00001000
,
00000000
00010000
00001000
00000000
01000000
00000000
00010000
00100000
00000000
00010000
00100000
00000000
20020000
00000000
00000000
00000000
,
30030000
00000000
00000000
00000000
;

//---------------dance-double - D. Bernardone----------------
#NOTES:
     dance-double:
     D. Bernardone:
     Challenge:
     9:
     0.564,0.000,0.231,0.032,0.402:
00000000
00000000
00000000
00000000
,
00000000
00000000
00000000
00000000
,
00000000
00000000
00000000
00000000
,
00000000
00000000
00000000
00000000
,
10010000
00000000
01001000
00000000
,
00010010
00000000
00001001
00000000
,
00000110
00000000
00010100
00000000
,
01100000
00000000
00101000
00022000
,
00000010
00000000
01000000
00000000
,
00000100
00000000
00000000
00000000
00000000
00000000
00000000
00000000
00133000
00000000
00000000
00000000
00001000
00000000
01000000
00100000
,
00000000
10000000
01000000
00000000
00010000
00000000
00001000
00000000
00000100
00000000
00000010
00000000
00010000
00000000
00001000
00100000
,
00000000
00010000
01000000
00010000
01000000
00000000
00000000
10100000
00000000
10000000
01000000
00000000
00010000
00000000
00001000
00000100
,
00000000
00001000
00010000
00000000
01000000
00000000
00010000
00000000
00001000
00000000
00000010
00000000
00000100
00000000
00010000
00001000
,
00000000
01000000
00010000
10000000
00010000
00000000
00000000
10010000
00000000
00000000
00100100
00000000
00001000
00000000
00000000
00000010
,
00000000
00000100
00000001
00000000
00000010
00000000
00001000
00000000
00010000
00000000
00001000
00000000
01000000
00000000
00000000
00010000
,
00000000
00100000
01000000
00100000
01000000
00000000
00000000
11000000
00000000
10000000
00100000
00000000
00010000
00000000
00000000
00001000
,
00000000
00000100
00000010
00001000
00000010
00000000
00000100
00000000
00000001
00000000
00001000
00000000
00000010
00000000
00000000
00010000
,
00000000
00001000
00100000
00010000
00100000
00000000
00000000
10010000
00000000
00000000
01000010
00000000
00001000
00000000
00010000
00000000
,
00000100
00000000
00000010
00000000
00000001
00000000
00001000
00000000
00000010
00001000
00000010
00000000
00010000
00000000
00001000
00000000
,
01000000
00000000
10000000
00000000
01000000
00000000
00100000
00000000
10000000
00010000
10000000
00000000
01000000
00000000
00010000
00000000
,
00001000
00000000
00000100
00000000
00000010
00000000
00001000
00000000
00000100
00000010
00000100
00000000
00010000
00000000
00001000
00000000
,
01000000
00100000
01000000
00100000
01000000
00000000
00010000
00000000
00100000
00001000
00100000
00000000
01000000
00000000
00010000
00000000
,
00001000
00000000
00000010
00000000
00001000
00000000
00010000
00000000
00001000
01000000
00001000
00000000
00100000
00000000
01000000
00000000
,
10000000
00100000
10000000
00000000
01000000
00000000
00100000
00010000
00100000
00010000
00100000
00000000
00001000
00000000
00010000
00000010
,
00010000
00000000
00000100
00000000
00001000
00000000
00000001
00000100
00000001
00000000
00000010
00000000
00000100
00010000
00001000
00000000
,
00010000
00001000
00010000
00001000
00010000
00000000
00001000
00010000
00001000
00010000
00001000
00000000
00011000
00000000
00000000
01000000
,
00000000
00000000
00010000
00000000
00000000
00000000
10000000
00000000
00100000
00000000
10000000
00000000
01000000
00000000
00000000
01000000
,
00010000
00000000
00000000
00010000
00001000
00000000
00000000
00001000
00000100
00000000
00000000
00000000
00000010
00000000
00010000
00000000
,
00001000
00000100
00000010
00010000
00001000
00000000
00000000
00000100
,
00000010
00000000
00100000
00000000
00010000
00000000
01000000
00000000
00000100
00000000
00000000
00000000
00001000
00000000
00000000
00000010
,
00000000
00000000
00000100
00000000
00000000
00000010
00000000
00000000
00001000
00000000
00000001
00000000
00000100
00000000
00000000
00000100
,
00001000
00000000
00000000
00001000
00010000
00000000
00000000
00010000
01000000
00000000
00000000
00000000
00100000
00000000
00001000
00000000
,
00010000
01000000
00100000
00001000
00010000
01000000
00100000
00000010
,
00000100
00000010
00100000
01000000
00100000
00000000
00001000
01000000
,
10000000
10000000
01000000
00000000
00001000
00010000
00000000
00000100
,
00000010
00000001
00000100
00001000
00010000
00000000
00100000
01000000
,
00001000
00000010
00000100
00000000
00000000
00000000
00000000
00010000
,
00001000
00000100
00000010
00010000
00001000
00000000
00010000
00000100
,
00000001
00000001
00000100
00000000
00010000
00001000
00000000
01000000
,
00100000
10000000
01000000
00010000
00001000
00000000
00000100
00000010
,
00001000
00000100
00000010
00000000
00000000
00000000
00000000
00001000
,
01000000
00000000
10000000
00000000
00001000
00000000
00100000
00000000
10000000
00000000
00000000
00000000
00010000
00000000
00000000
00100000
,
00000000
01000000
00010000
01000000
00010000
00000000
00001000
00000000
00000100
00000000
00000010
00000000
00000001
00000000
00000000
00001000
,
00000000
00000001
00000010
00000001
00000010
00000000
00000000
00001000
00000000
00000000
00000100
00000000
00010000
00000000
00000000
01000000
,
00000000
00100000
00001000
00100000
00001000
00000000
00010000
00000000
00000010
00000000
00000001
00000000
00001000
00000000
00000000
00000001
,
00000000
00000010
00010000
00000010
00010000
00000000
00000000
00011000
00000000
00000000
10001000
00000000
02000000
00000000
03100000
00000000
,
00000000
00010000
00000000
00000100
00000000
00000010
00000000
00010000
,
00000000
00000000
00100000
00000000
00000000
00000000
10000000
01000000
00000000
00000000
10000000
00000000
11000000
00000000
00010000
00000000
,
00000000
01000000
00000000
00000010
00000000
00000100
00000000
00010000
,
00000000
00000000
00100000
00000000
00000000
00000000
01000000
10000000
00000000
00000000
01000000
00000000
11000000
00000000
00000000
00000000
,
00110000
00000000
00001100
00000000
,
00001010
00000000
01010000
10100000
,
10000000
00000000
00001000
00000000
00010000
00000000
00000001
00000100
,
00000010
00000000
00010000
00000000
00001000
00000000
00000100
00000000
00001000
00010000
00001000
00010000
00001000
00000000
00100000
00000000
,
10000000
10000000
00100000
00000000
00001000
01000000
00000000
00000100
,
00010000
00000010
00000100
00000001
00001000
00000100
00000010
00001000
,
00010000
00100000
01000000
00000000
00000000
00000000
00000000
00001000
,
00010000
00100000
01000000
00001000
00010000
00000000
00010000
00000010
,
00000001
00000001
00000010
00000000
00010000
00000010
00000000
00100000
,
00001000
01000000
00010000
00100000
01000000
00010000
00001000
00000100
,
00000010
00010000
00001000
00000000
00000000
00000000
00000000
00010000
,
00000100
00000000
00000001
00000000
00010000
00000000
00000010
00000000
00000001
00000000
00000000
00000000
00000100
00000000
00000000
00000010
,
00000000
00001000
00000100
00010000
00001000
00000000
01000000
00000000
00100000
00000000
00010000
00000000
00001000
00000000
00000000
00100000
,
00000000
01000000
10000000
00010000
00100000
00000000
00001000
00010000
00000000
00000100
00000010
00000000
00000001
00000000
00000000
00000100
,
00000000
00000010
00001000
00000100
00010000
00000000
00001000
00000000
01000000
00000000
00010000
00000000
00100000
00000000
00000000
01000000
,
00000000
10000000
00010000
00100000
01000000
00000000
00000000
00110000
00000000
00000000
00100010
00000000
00001000
00000000
00000000
00010000
,
00000000
00000100
00001000
00000010
00000100
00000000
00000001
00000000
00000010
00000000
00000100
00000000
00010000
00000000
00000000
00001000
,
00000000
01000000
00010000
10000000
00010000
00000000
00100000
01000000
00000000
00010000
00001000
00000000
00010000
00000000
00000000
00000010
,
00000000
00000100
00000001
00001000
00000010
00000000
00000100
00000000
00001000
00000000
00010000
00000000
00100000
00000000
00000000
01000000
,
00000000
00010000
00100000
00001000
00010000
00000000
00000000
00010100
00000000
00000000
01000100
00000000
00020000
00000000
00000000
00000000
,
00030000
00000000
00000000
00000000
;
