#TITLE:Baby Seal;
#SUBTITLE:;
#ARTIST:Kid Whatever;
#TITLETRANSLIT:;
#SUBTITLETRANSLIT:;
#ARTISTTRANSLIT:;
#GENRE:Electro;
#CREDIT:Sync by HellRazoR;
#BANNER:Baby Seal-bn.png;
#BACKGROUND:Baby Seal-bg.png;
#LYRICSPATH:;
#CDTITLE:;
#MUSIC:Baby Seal.ogg;
#OFFSET:-0.025;
#SAMPLESTART:38.140;
#SAMPLELENGTH:12.000;
#SELECTABLE:YES;
#DISPLAYBPM:164;
#BPMS:0=163.75,95=163.29,128=163.73,188=164,211=82,212=164,220=163.23,260=163.73;
#STOPS:64=2.547,95=0.386,197.5=0.732,203.5=0.366;
#BGCHANGES:0.000=Baby Seal-bg.png=1.000=0=0=1=====,
16.000=In The Groove Rebirth/210_JB_HD.mpg=1.000=1=0=1===CrossFade==,
31.000=Baby Seal-bg.png=1.000=0=0=1=====,
31.500=Baby Seal-bg.png=1.000=0=0=1====0^1^0^1=,
32.000=In The Groove Rebirth/243_JB_HD.mpg=1.000=0=0=1=====,
48.000=In The Groove Rebirth/520_JB_HD.mpg=1.000=0=0=1=====,
64.000=Baby Seal-bg.png=1.000=1=0=1===CrossFade==,
64.083=baby seal-bg.jpg=1.000=0=0=1=====,
64.167=Baby Seal-bg.png=1.000=0=0=1=====,
65.000=In The Groove Rebirth/1130_JumpBack.mpg=1.000=0=0=1=====,
81.000=In The Groove Rebirth/519_JB_HD.mpg=1.000=0=0=1=====,
95.000=Baby Seal-bg.png=1.000=0=0=1====0^0^1^1=,
96.000=In The Groove Rebirth/309_JB_HD.mpg=1.000=0=0=1=====,
112.000=In The Groove Rebirth/205_JB_HD.mpg=1.000=0=0=1=====,
128.000=In The Groove Rebirth/215_JB_HD.mpg=1.000=0=0=1=====,
144.000=In The Groove Rebirth/1130_JumpBack.mpg=1.000=0=0=1=====,
160.000=In The Groove Rebirth/170_JB_HD.mpg=1.000=0=0=1=SongBgWithMovieViz====,
176.000=In The Groove Rebirth/309_JB_HD.mpg=1.000=0=0=1=SongBgWithMovieViz====,
188.000=Baby Seal-bg.png=1.000=0=0=1====1^0^0^1=,
189.000=Baby Seal-bg.png=1.000=0=0=1====0^1^0^1=,
190.000=Baby Seal-bg.png=1.000=0=0=1====0^0^1^1=,
191.000=Baby Seal-bg.png=1.000=0=0=1=====,
192.000=In The Groove Rebirth/243_JB_HD.mpg=1.000=0=0=1=====,
197.500=In The Groove Rebirth/243_JB_HD.mpg=0.100=0=0=1=====,
197.563=baby seal-bg.jpg=1.000=0=0=1=====,
197.688=In The Groove Rebirth/243_JB_HD.mpg=0.100=0=0=1=====,
198.000=In The Groove Rebirth/205_JB_HD.mpg=1.000=0=0=1=====,
203.500=In The Groove Rebirth/205_JB_HD.mpg=0.100=0=0=1=====,
203.583=In The Groove Rebirth/205_JB_HD.mpg=2.000=0=0=1=====,
205.000=In The Groove Rebirth/215_JB_HD.mpg=1.600=0=0=1=====,
211.000=Baby Seal-bg.png=1.000=1=0=1===CrossFade==,
212.000=In The Groove Rebirth/210_JB_HD.mpg=1.000=0=0=1=====,
220.000=In The Groove Rebirth/519_JB_HD.mpg=1.000=0=0=1=====,
226.333=Baby Seal-bg.png=1.000=0=0=1=====,
228.000=In The Groove Rebirth/243_JB_HD.mpg=1.000=0=0=1=====,
244.000=In The Groove Rebirth/205_JB_HD.mpg=1.000=0=0=1=====,
258.000=Baby Seal-bg.png=1.000=0=0=1====0^0^1^1=,
259.000=Baby Seal-bg.png=1.000=0=0=1====0^1^0^1=,
260.000=In The Groove Rebirth/309_JB_HD.mpg=1.000=0=0=1=====,
276.000=In The Groove Rebirth/215_JB_HD.mpg=1.000=0=0=1=====,
290.000=In The Groove Rebirth/215_JB_HD.mpg=1.000=1=0=1=SongBgWithMovieViz==CrossFade==,
292.000=Baby Seal-bg.png=1.000=0=0=1=====,
292.083=baby seal-bg.jpg=1.000=0=0=1=====,
292.167=Baby Seal-bg.png=1.000=0=0=1=====,
99999=-nosongbg-=1.000=0=0=0 // don't automatically add -songbackground-
;
#BGCHANGES2:32.000=white flash=1.000=0=0=1=====,
96.000=white flash=1.000=0=0=1=====,
192.000=white flash=1.000=0=0=1=====,
217.000=white flash=2.000=0=0=1=====,
;
#KEYSOUNDS:;

//---------------dance-single - M. Simmons----------------
#NOTES:
     dance-single:
     M. Simmons:
     Challenge:
     9:
     0.787,0.000,0.161,0.339,0.799:
0000
0000
0000
0000
,
0000
0000
0000
0000
,
0000
0000
0000
0000
,
0000
0000
0000
0000
,
1000
0000
0001
0000
0010
0000
0001
1000
0000
0001
0000
0100
0001
0000
1000
0000
,
0010
0100
0010
0000
1000
0001
0000
0100
0000
0001
0000
1000
0100
0000
0010
0000
,
0001
0000
1000
0000
0001
0000
0100
0001
0000
0100
0000
0010
1000
0000
0010
0000
,
0100
0010
0100
0010
0100
0010
0000
0100
0000
0001
0000
0000
1001
0000
0011
0000
,
1000
0000
0001
0000
0100
0000
0001
0100
0000
0010
0000
1000
0001
0000
0010
0000
,
0100
1000
0100
0000
1000
0001
0000
0100
0000
0001
0000
1000
0100
0000
0010
0000
,
0001
0000
0010
0000
0100
0000
1000
0001
0000
0100
0000
0001
1000
0000
0010
0000
,
1000
0001
1000
0001
1000
0001
0000
0010
0000
0100
0000
1000
0100
0000
0010
0000
,
0100
0000
1000
0000
0001
0000
0100
0001
0000
1000
0000
0010
0100
0000
0010
0000
,
1000
0001
1000
0000
0010
0100
0000
0010
0000
1000
0000
0001
0010
0000
0100
0000
,
0010
0000
0001
0000
1000
0000
0100
1000
0000
0001
0000
0100
0001
0000
1000
0000
,
0010
1000
0001
0000
0010
0000
0100
0000
1000
0100
0010
0000
2002
0000
0000
0000
,
0000
3003
0000
0000
0000
0000
0000
0000
0000
0000
0000
0000
0000
0000
0000
0000
0000
0000
0000
0000
0000
0000
0000
0000
0000
0000
0000
0000
0000
0000
0000
0000
0000
0000
0000
0000
0000
0000
0000
0000
0000
0000
0000
0000
0000
0000
0000
0000
0001
0000
0000
0000
0000
0000
0000
0000
0000
0000
0000
0000
0000
0000
0000
0000
0000
0000
0000
0000
0000
0000
0000
0000
0100
0000
0000
0000
0000
0000
0000
0000
0000
0000
0000
0000
0000
0000
0000
0000
0000
0000
0000
0000
0000
0000
0000
0000
0001
0000
0000
0000
0000
0000
0000
0000
0000
0000
0000
0000
0000
0000
0000
0000
0000
0000
0000
0000
0000
0000
0000
0000
1000
0000
0000
0000
0000
0000
0000
0000
0000
0000
0000
0000
0100
0000
0000
0000
0000
0000
0000
0000
0000
0000
0000
0000
0000
0000
0000
0000
0000
0000
0000
0000
0000
0000
0000
0000
0010
0000
0000
0000
0000
0000
0000
0000
0000
0000
0000
0000
0000
0000
0000
0000
0000
0000
0000
0000
0000
0000
0000
0000
0100
0000
0000
0000
0000
0000
0000
0000
0000
0000
0000
0000
,
1000
0000
0001
0000
0100
0010
0100
0000
0010
1000
0000
0001
0000
0100
0001
0000
,
1000
0000
0001
0000
0010
0000
0100
0000
0010
0000
0100
1000
0000
0001
0000
1000
,
0001
0000
0100
0000
0001
0010
0001
0010
0001
0010
0000
0100
0000
1000
0001
0000
,
0100
0000
0001
0000
1000
0000
0010
0000
0100
0000
0010
1000
0000
0010
0000
0100
,
0010
0000
0100
0000
0010
0100
0010
0000
1000
0001
0000
0010
0000
0100
0010
0000
,
0001
0000
1000
0000
0001
0000
0100
0000
0001
0000
1000
0100
0000
0010
0000
0100
,
1000
0000
0001
0000
1000
0000
0001
0000
0010
0000
0100
1000
0001
0000
0000
0000
,
1000
0010
0000
0100
0000
0001
1000
0000
2002
0000
0000
0000
0000
0000
3003
0000
,
0001
0100
0000
0010
0000
1000
0001
0000
0100
0000
0001
0000
0200
0000
0000
0000
,
0310
1000
0000
0100
0000
0010
0001
0000
2002
0000
0000
0000
0000
0000
3003
0000
,
0001
0100
0001
0100
0001
0000
0100
0001
1000
0000
0000
0000
1001
0000
0000
0000
,
0001
0010
0000
0100
0000
0010
0001
0000
2002
0000
0000
0000
0000
0000
3003
0000
,
1000
0100
0000
0010
0000
0001
1000
0000
0010
0000
0100
0000
0020
0000
0000
0000
,
1030
0010
0000
0100
0000
0010
1000
0000
2002
0000
0000
0000
0000
0000
3003
0000
,
0001
1000
0001
1000
0001
0000
1000
0001
0010
0000
0000
0000
0110
0000
0000
0000
,
0100
1000
0100
0001
0100
0010
0001
0100
,
0001
0010
0100
0001
0200
0320
0032
0003
,
1000
0010
0100
0001
0100
0010
1000
0001
,
0010
0100
0010
0100
0010
0000
0100
0010
0001
0000
0000
0000
1001
0000
0000
0000
,
0001
0010
0100
0001
0100
0010
1000
0010
,
0001
0100
0001
0010
0200
2300
3002
0003
,
1000
0100
1000
0001
0100
0001
0010
0100
,
1000
0001
1000
0001
1000
0000
0001
0100
0020
0000
0000
0000
1030
0000
0000
0000
,
0001
0000
1000
0000
0001
0000
1000
0100
0000
1000
0000
0001
1000
0000
0001
0000
,
1000
0010
1000
0000
0001
1000
0000
0100
0000
1000
0000
0100
1000
0000
0001
0000
,
1000
0000
0010
0000
0100
0000
0010
0100
0000
0010
0000
0100
0001
0000
0100
0000
,
0010
0100
0010
0100
0010
0100
0000
0001
0000
0010
0000
0100
0010
0000
0001
0000
,
1000
0000
0010
0000
1000
0000
0001
1000
0000
0001
0000
1000
0001
0000
1000
0000
,
0001
0010
0001
0000
0001
1000
0000
0001
0000
1000
0000
0001
0100
0000
0001
0000
,
1000
0000
0001
0000
1000
0000
0001
0100
0000
0010
0000
1000
0010
0000
1000
0000
,
0020
0230
0320
0230
,
0310
1000
0001
0100
0000
0001
1000
0100
,
1000
0000
0010
0010
0100
0000
0001
1000
,
0000
0100
1000
0100
0100
0000
0010
0001
,
0020
0000
0130
0000
1000
0001
0000
0100
,
0001
1000
0100
0000
0010
0002
0020
0003
,
0130
0000
1000
0001
0000
0100
0001
0100
,
0010
0000
0000
0000
0000
0000
0000
1000
0001
0000
0000
0000
0000
0000
0000
0000
0100
0000
0000
0000
0010
0000
0000
0000
1000
0000
0000
0000
0001
0000
0100
0000
,
0001
1000
0001
0100
0000
0010
1000
0000
1001
0000
0000
0000
,
0001
0010
0100
1000
0100
0010
0001
2000
0000
0000
0000
0000
,
3001
0010
0000
0100
0000
0010
0100
0000
0020
0000
0000
0000
0000
0000
0030
0000
,
0100
1000
0000
0001
0000
1000
0001
0000
0100
0000
0010
0000
0200
0000
0000
0000
,
0310
1000
0000
0001
0000
0100
0001
0000
0202
0000
0000
0000
0000
0000
0303
0000
,
0001
1000
0001
1000
0001
0000
1000
0000
1100
0000
0000
0000
0011
0000
0000
0000
,
0010
0100
0000
0010
0000
0001
1000
0000
2020
0000
0000
0000
0000
0000
3030
0000
,
1000
0001
0000
0100
0000
0010
1000
0000
0100
0000
0010
0000
0002
0000
0000
0000
,
1003
0100
0000
1000
0000
0001
1000
0000
2002
0000
0000
0000
0000
0000
3003
0000
,
0001
0010
0001
0010
0001
0000
0010
0000
0110
0000
0000
0000
1100
0000
0000
0000
,
0001
0000
1000
0000
0001
0000
0100
0001
0000
1000
0000
0100
0010
0000
0001
0000
,
1000
0000
0010
0000
0100
0000
0010
1000
0000
0010
0000
0100
0001
0000
1000
0000
,
0010
0100
1000
0100
0001
0010
0001
0001
,
0100
0100
0010
0010
2000
0000
0001
0000
,
3010
0000
0100
0000
0001
0000
1000
0100
0000
1000
0000
0001
0100
0000
0010
0000
,
0001
0000
0010
0000
1000
0000
0100
0010
0000
0001
0000
1000
0010
0000
0100
0000
,
0001
0000
0010
0000
0100
0000
0001
0100
0000
1000
0000
0100
1000
0000
0001
0000
,
1000
0000
0010
0000
0100
0000
0001
0100
2000
0000
0000
0000
0000
0000
0000
0000
,
3001
0000
0000
0000
;

//---------------dance-single - M. Simmons----------------
#NOTES:
     dance-single:
     M. Simmons:
     Hard:
     8:
     0.658,0.000,0.197,0.241,0.380:
0000
0000
0000
0000
,
0000
0000
0000
0000
,
0000
0000
0000
0000
,
0000
0000
0000
0000
,
0001
0100
0001
1000
0100
0010
0001
1000
,
0010
0000
0100
0000
0010
0000
1000
0001
0000
1000
0000
0001
0010
0000
0100
0000
,
1000
0001
0100
0001
1000
0100
0010
0001
,
0100
0000
0010
0000
1000
0000
0010
0100
0000
0001
0000
1000
0001
0000
1001
0000
,
1001
0001
0010
0100
1000
0001
0100
0010
,
0100
0000
0001
0000
1000
0000
0100
0010
0000
0100
0000
1000
0001
0000
0100
0000
,
0001
1000
0001
0010
0100
1000
0010
0100
,
0010
0000
1000
0000
0001
0000
0100
0001
0000
1000
0000
0100
0010
0000
0001
0000
,
0010
0100
1000
0010
0001
0010
1000
0001
,
0100
0000
0001
0000
1000
0000
0100
0010
0000
0001
0000
0100
0010
0000
1000
0000
,
0010
0100
0001
0010
0100
1000
0100
0010
,
0001
1000
0000
0001
0000
0010
0000
0100
1000
0000
0001
0000
2002
0000
0000
0000
,
3003
0000
0001
0100
0010
1000
0001
0100
,
0001
0000
1000
0000
0100
0000
0010
0000
0001
0000
0100
0001
0000
1000
0000
0100
,
0010
0100
1000
0001
0100
0010
1000
0010
,
0100
0000
0001
0000
0010
0000
0100
0000
1000
0000
0100
1000
0000
0001
0000
0100
,
0001
0010
0100
0010
0001
0010
0100
0010
,
0001
0000
1000
0000
0001
0000
0100
0000
1000
0000
0100
0001
0000
1000
0000
0100
,
0010
0100
1000
0010
0100
0001
0010
0100
,
1000
0000
0001
0000
0100
0000
0001
1000
0000
0100
0000
0010
0001
0000
0000
0000
,
1000
0100
0000
1000
0000
0100
1000
0000
0002
0000
0000
0000
0003
0000
0000
0000
,
0100
0001
0000
0100
0000
0001
0100
0000
0010
0000
1000
0000
0010
0000
1000
0000
,
0001
1000
0000
0001
0000
1000
0001
0000
2000
0000
0000
0000
3000
0000
0000
0000
,
0100
1000
0100
0000
0010
0000
0001
0000
1001
0000
0000
0000
0110
0000
0000
0000
,
0010
0100
0000
0010
0000
0100
0010
0000
0200
0000
0000
0000
0300
0000
0000
0000
,
0001
0010
0000
0001
0000
0010
0001
0000
1000
0000
0100
0000
1000
0000
0100
0000
,
1000
0001
0000
1000
0000
0001
1000
0000
0002
0000
0000
0000
0003
0000
0000
0000
,
0100
0001
0100
0000
0010
0000
1000
0000
1001
0000
0000
0000
0110
0000
0000
0000
,
0010
1000
0010
0100
0010
1000
0001
0100
,
0001
1000
0001
0010
0200
2300
3200
0300
,
0100
1000
0001
0100
0001
1000
0010
0100
,
0001
1000
0001
0000
0100
0000
0001
0000
2000
0000
0000
0000
3100
0000
0000
0000
,
0100
0010
0001
0100
0010
1000
0100
0010
,
0001
0010
0100
1000
0002
2003
3002
0003
,
0001
1000
0100
0010
0100
1000
0001
0100
,
0001
0010
0001
0000
1000
0000
0010
0000
1010
0000
0000
0000
0101
0000
0000
0000
,
2000
0000
3200
0000
,
0320
0000
0032
0000
,
0203
0000
0320
0000
,
2030
0000
3002
0000
,
1003
0100
0010
0100
,
1000
0001
0100
0010
,
1000
0100
0010
0001
,
1001
0110
1001
0M20
,
0130
0001
0100
0001
0000
1000
0100
1000
,
0100
0000
0010
0001
1000
0100
1000
0100
,
0000
0010
0100
1000
0001
0000
0100
0001
,
0000
0000
1001
0000
0010
1000
0000
0010
,
0100
0001
0100
0000
0010
2000
0002
3003
,
0001
0000
0010
0001
0000
0010
0001
1000
,
0001
0000
1001
0000
0010
0100
0010
0100
,
0001
1000
0100
1000
0000
0001
1000
0000
1001
0000
0000
0000
,
0010
0100
0010
0100
0010
0100
0010
0200
0000
0000
0000
0000
,
0310
1000
0000
0001
0000
0100
0001
0000
1001
0000
0000
0000
0000
0000
0000
0000
,
0001
0010
0000
0001
0000
0010
0100
0000
1000
0000
0100
0000
1000
0000
0100
0000
,
1000
0001
0000
0100
0000
0010
1000
0000
1010
0000
0000
0000
0000
0000
0000
0000
,
0001
1000
0001
0000
0100
0000
0001
0000
0010
0000
0100
0000
1000
0000
0000
0000
,
0001
0010
0000
0100
0000
0010
0001
0000
1001
0000
0000
0000
0000
0000
0000
0000
,
0010
1000
0000
0010
0000
1000
0010
0000
0100
0000
0001
0000
0100
0000
0001
0000
,
1000
0100
0000
1000
0000
0001
0100
0000
0101
0000
0000
0000
0000
0000
0000
0000
,
0010
0100
0010
0000
0100
0000
1000
0000
1100
0000
0000
0000
0110
0000
0000
0000
,
0001
1000
0010
0100
0001
0100
0000
0000
,
0010
0000
1000
0000
0001
0000
0100
0000
0000
0001
0000
0000
0000
0000
0000
0000
,
1000
0100
0010
0100
1000
0001
0100
0100
,
0010
0000
0010
0000
0100
0000
0100
0000
0000
0002
0000
0000
0000
0000
0000
0000
,
1003
0100
1000
0100
0010
0001
0000
0000
,
1000
0000
0010
0000
0100
0000
0010
0000
0000
1000
0000
0000
0000
0000
0000
0000
,
0001
0100
0001
0000
1000
0100
1000
0000
,
0010
0100
0001
0100
0020
0000
0030
0000
,
1001
0000
0000
0000
;

//---------------dance-single - M. Simmons----------------
#NOTES:
     dance-single:
     M. Simmons:
     Medium:
     6:
     0.463,0.000,0.197,0.384,0.031:
0000
0000
0000
0000
,
0000
0000
0000
0000
,
0000
0000
0000
0000
,
0000
0000
0000
0000
,
1000
0100
0010
0000
0100
1000
0001
0000
,
0100
0000
0001
0000
1000
0100
1000
0000
,
0001
0100
0010
0000
0100
0001
0100
0000
,
0010
0000
0000
0000
1000
0000
0000
0000
0000
0001
0000
0000
0010
0000
0010
0000
,
0100
1000
0001
0100
,
0010
0000
0100
0000
0001
1000
0001
1000
,
0001
0100
0001
1000
,
0100
0000
0010
0000
0001
0010
0001
0010
,
0001
1000
0010
0100
,
0001
0000
0010
0000
0100
1000
0100
1000
,
0100
0010
0001
1000
,
0001
0000
0000
0100
0000
0000
0010
0000
0000
1000
0000
0000
0010
0000
0000
0000
,
1010
0001
0100
0001
,
1000
0000
0100
0000
0010
0000
0001
1000
,
0001
1000
0001
0000
0100
0000
0010
0000
,
1000
0000
0100
0000
0010
0000
0001
0010
,
0001
0100
0010
1000
,
0010
0000
0100
0000
0001
0000
1000
0100
,
1000
0100
1000
0000
0001
0000
0100
0000
,
0010
0000
0000
0000
1000
0000
0000
0001
0000
0000
1000
0000
0001
0000
0000
0000
,
0120
1000
0230
0000
,
0301
0000
1000
0000
0100
0010
0100
0010
,
0200
0010
2300
0000
,
3001
0100
1001
0110
,
1002
0010
0203
0000
,
0310
0000
1000
0000
0001
0010
0001
0010
,
0002
0100
0023
0000
,
0130
1000
0100
0000
0110
0000
1001
0000
,
0002
0203
0320
2030
,
3002
0023
0230
2300
,
3200
2300
3002
0203
,
0320
2030
3002
0203
,
0320
0230
0302
2003
,
3200
0320
0032
2003
,
3002
0203
0302
2003
,
3020
0230
0301
1001
,
0001
0000
0100
0000
0010
1000
0010
0000
,
0100
0001
1000
0100
,
0010
0000
0001
0000
1000
0001
1000
0000
,
0001
0010
0100
0010
,
0001
0000
1000
0000
0010
0100
0010
0000
,
1000
0001
0100
0001
,
1000
0000
0100
0000
0010
0100
0010
0000
,
0110
0110
0110
1001
,
0001
0000
0100
0001
0000
1000
0000
0100
,
0010
0000
0100
1000
0001
0000
0100
0001
,
0000
0100
0000
0010
1000
0000
0001
0010
,
0000
0000
0100
0000
1000
0001
0000
0100
,
0001
0000
1000
0000
0100
0020
0000
0000
,
0130
0000
1000
0001
0000
0100
0001
0000
,
1001
1100
1001
0101
,
0001
0000
1000
0001
0000
0000
0010
0000
0200
0000
0000
0000
,
1300
0000
0000
0001
0000
0000
0000
2002
0000
0000
0000
0000
,
3003
0000
0010
0000
,
0100
0000
0001
0000
,
1000
0000
0100
0000
,
0010
0000
0001
0000
,
1000
0010
0100
0010
,
1000
0001
0100
0001
,
1000
0100
0010
0001
,
0010
0100
1001
1001
,
0010
0000
1000
0000
0001
1000
0001
0000
,
0100
0001
1000
0100
,
0010
0001
0010
0100
,
1000
1000
1000
0000
1002
0000
0000
0000
,
0103
0010
1000
0001
,
0100
0000
0001
0000
0010
0001
0010
0000
,
0100
1000
0010
0100
,
0010
1000
1001
0000
,
0110
0000
0000
0000
;

//---------------dance-single - M. Simmons----------------
#NOTES:
     dance-single:
     M. Simmons:
     Easy:
     3:
     0.313,0.000,0.125,0.134,0.000:
0000
0000
0000
0000
,
0000
0000
0000
0000
,
0000
0000
0000
0000
,
0000
0000
0000
0000
,
1000
0000
0001
0000
,
0010
0100
0010
0000
,
0100
0000
1000
0000
,
0001
1000
0001
0001
,
1001
0000
1000
0000
,
0010
0100
0010
0000
,
0100
0000
0001
0000
,
1000
0100
0010
0001
,
1000
0000
0001
0000
,
0100
0001
0100
0000
,
0010
0000
1000
0000
,
2002
0000
3003
0220
,
0330
0001
0010
0000
,
0100
0000
1000
0000
,
0001
0100
0100
0000
,
0010
0000
0100
0000
,
0001
0000
1000
0100
,
0100
0000
0010
0000
,
0001
0000
1000
0010
,
0010
0200
0000
0301
,
1000
0001
1001
0000
,
0001
0010
0100
0010
,
0001
1000
1001
0000
,
0100
0010
0100
0010
,
0100
0001
1001
0000
,
0001
0010
0100
1000
,
0001
0100
1001
0000
,
0001
0100
0001
1000
,
0020
0100
0000
1030
,
0002
0010
0000
1003
,
0200
0010
0000
1300
,
0020
0100
0000
1030
,
0002
0100
0000
0013
,
0200
1000
0000
0301
,
0200
0010
0000
1300
,
0001
0001
1000
1000
,
0010
0100
0001
0000
,
1000
0100
0010
0000
,
0100
1000
0001
0000
,
0100
0010
1000
0000
,
0010
0100
0001
0000
,
1000
0100
0010
0000
,
0001
1000
0001
0000
,
0100
0001
0100
0002
,
1003
0100
0000
0010
,
0001
1000
0001
1000
,
0000
0010
0100
0010
,
0100
0001
0000
1000
,
0100
0010
0000
2001
,
3001
0010
0000
0100
,
1000
0001
1001
1001
,
0001
0010
0100
1000
,
0001
0100
0110
0000
,
0010
1000
0001
0000
,
0100
0001
1000
1000
,
0100
0010
0001
0000
,
0100
0001
1000
0001
,
0100
0001
0010
0000
,
0100
1000
0010
0010
,
0100
0010
1000
0000
,
0001
0100
1001
1001
,
0001
0010
0100
1000
,
0001
0100
0010
0000
,
0100
0100
0010
0010
,
1000
1000
0001
0000
,
0100
0001
1000
0100
,
0010
0001
0010
0000
,
0100
1000
0001
0100
,
0010
1000
0020
0030
,
1001
0000
0000
0000
;

//---------------dance-single - M. Simmons----------------
#NOTES:
     dance-single:
     M. Simmons:
     Beginner:
     1:
     0.103,0.000,0.027,0.009,0.000:
0000
0000
0000
0000
,
0000
0000
0000
0000
,
0000
0000
0000
0000
,
0000
0000
0000
0000
,
0001
0000
0000
0000
,
0010
0000
0000
0000
,
0100
0000
0000
0000
,
0010
0000
0000
0001
,
0001
0000
0000
0000
,
1000
0000
0000
0000
,
0010
0000
0000
0000
,
0100
0000
0000
0000
,
0010
0000
0000
0000
,
1000
0000
0000
0000
,
0001
0000
0000
0000
,
1000
0000
0000
1001
,
0000
0001
0000
0000
,
0000
0010
0000
0000
,
0000
0100
0000
0000
,
0000
1000
0000
0000
,
0000
0001
0000
0000
,
0000
0100
0000
0000
,
0000
0001
0000
0000
,
0000
0000
0000
1000
,
1000
0000
0000
0000
,
0100
0000
0000
0000
,
0010
0000
0000
0000
,
0001
0000
0000
0000
,
1000
0000
0000
0000
,
0001
0000
0000
0000
,
0100
0000
0000
0000
,
0010
0000
0000
0000
,
0100
0000
0000
0000
,
0001
0000
0000
0000
,
1000
0000
0000
0000
,
0100
0000
0000
0000
,
0010
0000
0000
0000
,
0001
0000
0000
0000
,
1000
0000
0000
0000
,
0001
0000
0110
0000
,
0010
0000
0000
0000
,
1000
0000
0000
0000
,
0001
0000
0000
0000
,
0100
0000
0000
0000
,
0001
0000
0000
0000
,
1000
0000
0000
0000
,
0100
0000
0000
0000
,
0020
0000
0000
0030
,
0100
0000
0000
0000
,
1000
0000
0001
0000
,
0000
0000
0100
0000
,
0000
0010
0000
0000
,
0000
0100
0000
0000
,
0001
0000
0000
0000
,
1000
1000
0000
0000
,
0001
0000
0000
0000
,
0010
0000
0000
0000
,
0100
0000
0100
0000
,
0100
0000
0000
0000
,
1000
0000
1000
0000
,
1000
0000
0000
0000
,
0001
0000
0000
0000
,
0100
0000
0000
0000
,
0010
0000
0000
0000
,
0100
0000
0000
0000
,
0001
0000
0000
0000
,
0010
0000
0000
0000
,
0100
0000
0000
0000
,
0010
0000
0000
0000
,
0001
0000
0000
0000
,
1000
0000
0000
0000
,
0100
0000
0000
0000
,
1000
0000
0000
0000
,
1001
0000
0000
0000
;

//---------------dance-double - M. Simmons----------------
#NOTES:
     dance-double:
     M. Simmons:
     Challenge:
     9:
     0.717,0.000,0.330,0.268,0.634:
00000000
00000000
00000000
00000000
,
00000000
00000000
00000000
00000000
,
00000000
00000000
00000000
00000000
,
00000000
00000000
00000000
00000000
,
00001000
00010000
00001000
01000000
00100000
10000000
01000000
00100000
,
00001000
00010000
00000100
00000010
00000001
00001000
00000010
00000100
,
00000010
00010000
00001000
01000000
00100000
10000000
01000000
00010000
,
00001000
00000000
00010000
00000000
00000100
00000000
00000010
00000000
00000001
00001000
00000000
00000000
00000001
00000000
00001100
00000000
,
00000100
00010000
00001000
01000000
00100000
10000000
01000000
00100000
,
00001000
01000000
00001000
00000010
00000001
00001000
00000100
00001000
,
00000010
00010000
00001000
01000000
10000000
01000000
00010000
00100000
,
01000000
00100000
00001000
00010000
00000100
00000010
00000001
00001000
,
00000010
00000000
00001000
00000100
00000000
00000100
00010000
00000000
00010000
00001000
00000000
00001000
,
01000000
00100000
10000000
00100000
01000000
00000000
00010000
00000000
00000000
00110000
00000000
00000000
,
00001000
00010000
00000100
00000010
00000000
00000001
00001000
00000000
00001001
00000000
00000000
00000000
,
00000010
00000100
00000000
00000101
00000000
00000010
00000000
00001000
00000100
00000000
00010000
00000000
00000002
00000000
00000000
00000000
,
00000003
00000000
10000000
01000000
00100000
00000000
10010000
00000000
,
00100000
00000000
00000000
00001000
00000000
00000000
00000000
00010000
00000000
00000000
00000100
00001000
00000000
00001000
00000100
00000000
,
00000010
00000000
00000001
00000000
00001000
00000000
00000000
00000001
00000010
00000000
00000100
00000000
00010000
00000000
00001000
00000000
,
00000000
00000000
01001000
00000000
00000000
00000000
10100000
00000000
00000000
00000000
00010000
00000000
01000000
00001000
00010000
00000000
,
00002000
00000000
00003000
00010000
00000000
00000010
00000100
00000010
,
00001000
00000000
00000100
00000000
00000000
00000000
00000110
00000000
00000000
00000000
00000100
00010000
00000000
00010000
00100000
00000000
,
01000000
00000000
00010000
00000000
00000000
00000000
10000000
00000000
01000000
00000000
00100000
00010000
00000000
00000000
10000000
00000000
,
00000000
00000000
10010000
00000000
00001000
00000000
00010000
00001000
00000000
00001000
01000000
00000000
00100000
00000000
00000000
00000000
,
10000000
00010000
00000000
01000000
00000000
00001000
10000000
00000000
10002000
00000000
00000000
00000000
00003000
00000000
00000000
00000000
,
00100000
01000000
00000000
00100000
00000000
00001000
00010000
00000000
00000100
00000000
00000001
00000000
00000100
00000000
00010000
00000000
,
00000010
00000100
00000000
00000001
00000000
00001000
00000100
00000000
00010200
00000000
00000000
00000000
00000300
00000000
00000000
00000000
,
00100000
00001000
00100000
00001000
00100000
00000000
00000000
00001000
01000000
00000000
00000000
00000000
10100000
00000000
00000000
00000000
,
10000000
01000000
00000000
00100000
00000000
01000000
10000000
00000000
02100000
00000000
00000000
00000000
03000000
00000000
00000000
00000000
,
00100000
00001000
00000000
00010000
00000000
00000100
00000010
00000000
00001000
00000000
00010000
00000000
00000010
00000000
00000100
00000000
,
00000010
00001000
00000000
00000001
00000000
00000100
00001000
00000000
00021000
00000000
00000000
00000000
00030000
00000000
00000000
00000000
,
00000100
00010000
00000100
00010000
00000100
00000000
00000000
00000010
00000100
00000000
00000000
00000000
00010100
00000000
00000000
00000000
,
00000010
00000100
00000000
00000001
00000000
00000100
00000010
00000000
00010020
00000000
00000000
00000000
00000030
00000000
00000000
00000000
,
00010000
00001000
00000000
01000000
00000000
00100000
10000000
00000000
01000000
00000000
00010000
00000000
00001000
00000000
00000100
00000000
,
00000001
00001000
00000000
00000100
00000000
00000010
00000100
00000000
00002100
00000000
00000000
00000000
00003000
00000000
00000000
00000000
,
00000100
00010000
00000100
00001000
00000100
00000000
00000000
00010000
00001000
00000000
00000000
00000000
01001000
00000000
00000000
00000000
,
00010000
10000000
00000000
01000000
00000000
00100000
01000000
00000000
02100000
00000000
00000000
00000000
03000000
00000000
00000000
00000000
,
00100000
00001000
00000000
00010000
00000000
00001000
00010000
00000000
00000100
00000000
00000010
00000000
00000001
00000000
00000100
00000000
,
00000010
00010000
00000000
00001000
00000000
01000000
00100000
00000000
20100000
00000000
00000000
00000000
30000000
00000000
00000000
00000000
,
00010000
01000000
00001000
01000000
00010000
00000000
00000000
00100000
00001000
00000000
00000000
00000000
02010000
00000000
00000000
00000000
,
03100000
00000000
10000000
00000000
01000000
00000000
10000000
00010000
00000000
01000000
00000000
00001000
00010000
00000000
00000100
00000000
,
00000010
00000000
00000001
00000000
00001000
00000000
00000100
00001000
00000000
00000010
00000000
00000100
00000010
00000000
00010000
00000000
,
00000001
00000000
00000100
00000000
00000001
00000000
00001000
00000100
00000000
00010000
00000000
00001000
01000000
00000000
00100000
00000000
,
01000000
00000000
00001000
00000000
00010000
00000000
00001000
00100000
00000000
00001000
00000000
00000100
00000001
00000000
00001000
00000000
,
00000100
00000000
00010000
00000000
00001000
00000000
01000000
00100000
00000000
10000000
00000000
01000000
00100000
00000000
01000000
00000000
,
10000000
00000000
00010000
00000000
01000000
00000000
00001000
00100000
00000000
01000000
00000000
00100000
00001000
00000000
00010000
00000000
,
00000010
00000000
00000100
00000000
00001000
00000000
00010000
00000100
00000000
00010000
00000000
00000010
00000100
00000000
00000010
00000000
,
00020000
00000000
00000000
00000000
00032000
00000000
00000000
00000000
02003000
00000000
00000000
03000000
02002000
00000000
00000000
03003000
,
00001000
00010000
00000100
00001000
00000000
00001000
00000100
00010000
,
00100000
00000000
01000000
00001000
00100000
00000000
00100000
00001000
,
00000000
00000100
00001000
00010000
00000100
00000000
00000100
00000010
,
00000200
00000000
00001300
00000000
00000001
00000100
00000000
00000010
,
00001000
00000010
00000100
00000010
00000001
00000010
00002000
00000000
,
00003100
00000000
00000100
00010000
00000000
01000000
10000000
01000000
,
00100000
00000000
00000000
00000000
10010000
00000000
00000000
00000000
10000000
00010000
00000000
01000000
00000000
00010000
10000000
00000000
,
01000000
00100000
00001000
00010000
00000000
00000100
00010000
00000000
00011000
00000000
00000000
00000000
,
00010000
00000100
00000010
00000001
00000010
00001000
00010000
00002000
00000000
00000000
00000000
00000000
,
01003000
00010000
00000000
10000000
00000000
01000000
10000000
00000000
20020000
00000000
00000000
00000000
30030000
00000000
00000000
00000000
,
01000000
00001000
00000000
00010000
00000000
00000100
00000010
00000000
00000100
00000000
00000010
00000000
00000100
00000000
00000010
00000000
,
00000100
00010000
00000000
00001000
00000000
01000000
00001000
00000000
02002000
00000000
00000000
00000000
03003000
00000000
00000000
00000000
,
00010000
00001000
00010000
00001000
00010000
00000000
00000100
00000000
00002100
00000000
00000000
00000000
00003020
00000000
00000000
00000000
,
00000130
00000001
00000000
00001000
00000000
00000100
00010000
00000000
00012000
00000000
00000000
00000000
00003000
00000000
00000000
00000000
,
01000000
00100000
00000000
01000000
00000000
00001000
01000000
00000000
00100000
00000000
10000000
00000000
01000000
00000000
00100000
00000000
,
00010000
00100000
00000000
01000000
00000000
00100000
00001000
00000000
00021000
00000000
00000000
00000000
00030000
00000000
00000000
00000000
,
00000100
00000010
00000100
00000010
00000100
00000000
00001000
00000000
00001001
00000000
00000000
00000000
00000110
00000000
00000000
00000000
,
00000000
00000000
00000010
00000000
00010000
00000000
00000000
00000000
00001000
00000000
00000000
01000000
00000000
00000000
00100000
00000000
,
00000000
00000000
10010000
00000000
00000000
00000000
10000000
01000000
00000000
01000000
00010000
00000000
00001000
00000000
00000100
00000000
,
00000000
00000010
00001000
00000001
00000010
00000001
00000000
00000110
,
00000000
00000000
00010010
00000000
00000000
00000000
00001000
01000000
00100000
10000000
00010000
00000000
20200000
00000000
00000000
00000000
,
30300000
00000000
01000000
00000000
00010000
00000000
00000000
00000000
00100000
00000000
00000000
01000000
00000000
00000000
00100000
00000000
,
00000000
00000000
00011000
00000000
00000000
00000000
00010000
00000100
00000000
00000100
00000010
00000000
00000001
00000000
00001000
00000000
,
00000000
00000000
00000010
00000000
00010000
00000000
00001000
01000000
00000000
00000000
01000000
00000000
00000000
00000000
00100000
00000000
,
10000000
00010000
00000000
01000000
00000000
00010000
10000000
00000000
02000000
00000000
00000000
00000000
03000000
00000000
00000000
00000000
,
00101000
00000000
00000000
00000000
;

//---------------dance-double - M. Simmons----------------
#NOTES:
     dance-double:
     M. Simmons:
     Medium:
     5:
     0.429,0.000,0.295,0.170,0.013:
00000000
00000000
00000000
00000000
,
00000000
00000000
00000000
00000000
,
00000000
00000000
00000000
00000000
,
00000000
00000000
00000000
00000000
,
00001000
00000000
00100000
00000000
00010000
01000000
00010000
00000000
,
10000000
01000000
00200000
01000000
,
00310000
00000000
01000000
00000000
00001000
00010000
00001000
00000000
,
00010000
00000000
00000010
00000000
00001010
00000000
00000001
00000001
,
00000010
00000100
00010000
00001000
,
01000000
00000000
00100000
00000000
10000000
00010000
10000000
00000000
,
00010000
00100000
01000000
00100000
,
00001000
00010000
00010200
00001000
,
00000310
00000001
00001000
00000010
,
00000100
00000000
00000010
00000000
00010000
00000010
00010000
00000000
,
00000100
00001000
00000100
00010000
,
00002000
00000000
00000000
02003000
,
03000000
00100000
10000000
00010000
,
01000000
00000000
00010000
00000000
00100000
00000000
01000000
00100000
,
01000000
00100000
01000000
00000000
00100000
00000000
00001000
00000000
,
00010000
00000000
00000100
00000000
00010000
00000000
00001000
00010000
,
00001000
00011000
00010000
00000100
,
00000010
00000000
00000001
00000000
00000100
00000000
00000010
00010000
,
00000010
00010000
00000010
00000000
00000100
00000000
00000010
00000000
,
00010000
00000000
00001000
00000000
01000000
00100000
01000000
00000000
,
01100000
00000000
00000000
00000000
20020000
00000000
00000000
30030000
,
00100000
01000000
00100000
00001000
,
00011000
00000000
00000000
00000000
00020200
00000000
00000000
00030300
,
00001000
00000010
00001010
00000101
,
00001001
00000000
00000000
00000000
00000220
00000000
00000000
00000330
,
00000010
00010000
00000010
00010000
,
00011000
00000000
00000000
00000000
00220000
00000000
00000000
00330000
,
00010000
00100000
01000000
10000000
,
00010000
01000000
00001000
00010000
,
00000100
00000000
00000010
00000000
00000001
00001000
00000001
00001000
,
00000001
00000100
00000010
00010000
,
00001000
00010000
00010100
00011000
,
00001000
01000000
00100000
10000000
,
00010000
00000000
01000000
00000000
00100000
10000000
00100000
10000000
,
00100000
01000000
00001000
00010000
,
00000100
00001000
00001010
00000101
,
00000001
00000010
00000100
00010000
,
00001000
01000000
00100000
01000000
,
00001000
00010000
00000100
00000010
,
00000001
00001000
00000010
00000100
,
00000010
00010000
00001000
01000000
,
00100000
10000000
00010000
01000000
,
00010000
10000000
01000000
00100000
,
00002000
00023000
00031000
00011000
,
00010000
00000000
00000100
00000100
00000000
00000000
00010100
00000000
,
00010000
00000000
00001000
00001000
00010000
00000000
00001000
01000000
,
00000000
00000000
01100000
00000000
00100000
00000000
10000000
10000000
,
00000000
00000000
00010000
00000000
00000000
00110000
00000000
00100000
,
00000000
00001000
00010000
00000000
00000100
00010000
00002000
00000000
,
00013000
00000000
00000100
00000010
00000000
00000100
00001000
00000001
,
00001000
00000000
00001001
00000000
00000001
00000010
00000100
00000000
,
00000100
00000000
00001000
00000100
00000000
00000000
00010000
00000000
00000100
00000000
00000000
00000000
,
00010000
00000000
00000000
00001000
00000000
00000000
00010000
00002000
00000000
00000000
00000000
00000000
,
01003000
00000000
01001000
00000000
,
00001000
00000000
00010000
00000000
00000100
00000010
00000100
00000000
,
00001100
00000000
00001001
00000000
,
00000001
00000100
00000001
00000100
00000001
00000000
00001000
00000000
,
00000100
00010000
00011000
00000000
,
00001000
00000000
01000000
00000000
00100000
10000000
00010000
00000000
,
01000000
00010000
01010000
00000000
,
01000000
00001000
00011000
00011000
,
00010000
00000100
00010000
00000000
00002000
00000000
00010000
00000000
,
00013000
00000100
00010100
00000000
,
00000100
00010000
00001000
01000000
,
00100000
00100000
10000000
10000000
00200000
00000000
01000000
00000000
,
01300000
00010000
10000000
00000000
,
10010000
00110000
01010000
00000000
,
00001000
00010000
00000100
00000010
,
00000001
00001000
00000020
00000000
,
00000130
00000000
00000000
00000000
;

//---------------dance-double - D. Bernardone----------------
#NOTES:
     dance-double:
     D. Bernardone:
     Hard:
     8:
     0.575,0.000,0.259,0.152,0.223:
00000000
00000000
00000000
00000000
,
00000000
00000000
00000000
00000000
,
00000000
00000000
00000000
00000000
,
00000000
00000000
00000000
00000000
,
10000000
00000000
01000000
00000000
00100000
00000000
00000000
10000000
00000000
00100000
00000000
00000000
00010000
00000000
01000000
00000000
,
00001000
00000000
00001100
00000000
00001000
00001000
00000100
00000001
,
00000010
00000000
00000100
00000000
00001000
00000000
00000000
00000010
00000000
00000100
00000000
00000000
00001000
00000000
00010000
00000000
,
00100000
01000000
00000000
00010000
10000000
00010000
00000000
00100000
00000000
00000000
00000000
00000000
00000000
00000000
00000000
00000000
,
01000000
00000000
00010000
00000000
00001000
00000000
00010000
00000100
00000000
00010000
00000000
00000100
00001000
00000000
00000010
00000000
,
00000200
00001000
00000301
00001001
,
00001000
00000000
00000100
00000000
00000010
00000000
00000100
00010000
00000000
00001000
00000000
00010000
00001000
00000000
00000010
00000000
,
00000100
00010000
00000000
00001000
00010000
00001000
00000000
01000000
00000000
01000000
00000000
00100000
10000000
00000000
00010000
00000000
,
00200000
01000000
01300000
00010000
,
00002000
00000100
00013000
00000010
,
00000100
00001000
00010000
00000000
00010000
01000000
10000000
00000000
,
10010000
00000000
00000000
10010000
00000000
00000000
01010000
00000000
10000000
00000000
01010000
00000000
00200000
00000000
00300000
00000000
,
01100000
00000000
10000000
01000000
00010000
00000000
01000000
00000000
,
00100000
00001000
00000000
00010000
01000000
00100000
10000000
00100000
,
00001000
00010000
00000000
00010000
00000010
00000100
00000001
00000100
,
00000000
00000010
00000000
00000010
00000000
00000100
00001000
00010000
,
01000000
00000000
00100000
00010000
01000000
00000000
00011000
00000000
,
00010000
00000100
00000000
00000010
00001000
00000010
00000001
00000100
,
00001000
00010000
00000000
00001000
00000100
00001000
00010000
00001000
,
00000000
01000000
00010000
00010000
00100000
00100000
01000000
0M000000
,
10000000
00100000
00010000
00001000
00000010
00000000
00000000
00000000
,
00010000
01000000
00001000
00000100
,
00000100
00000010
00010000
00000100
00000020
00000000
00000030
00000000
,
00000001
00000001
00000001
00000001
00001010
00000000
00001100
00000000
,
00000001
00000100
00001000
00010000
01000000
00000000
00000000
00000000
,
00001000
00000010
00001000
00100000
,
00100000
01000000
00001000
00010000
02000000
00000000
03000000
00000000
,
10000000
10000000
10000000
10000000
01100000
00000000
00011000
00000000
,
00001000
00000010
00000001
00000010
00000001
00000000
00000000
00000000
,
00010000
00100000
10000000
00100000
,
10000000
00010000
00100000
01000000
00010000
00000000
00000000
00000000
,
01000000
10000000
01000000
10000000
00101000
00000000
00011000
00000000
,
00010000
01000000
10000000
01000000
10000000
00000000
00000000
00000000
,
00001000
00000100
00000001
00000100
,
00000001
00000010
00001000
00010000
01000000
00000000
00000000
00000000
,
00100000
00010000
00100000
00010000
01001000
00000000
00010010
00000000
,
00000001
00000000
00000100
00000000
00001000
00000000
00000000
00000100
00000000
00000010
00000000
00000000
00000001
00000000
00000010
00000000
,
00002000
00000001
00003100
00010100
,
00010000
00000000
00100000
00000000
01000000
00000000
00000000
10000000
00000000
01000000
00000000
00000000
00100000
00000000
01000000
00000000
,
00001000
00010000
00000000
00000100
00001000
00000100
00000000
00000010
00000000
00000010
00000000
00000001
00001000
00000000
00000001
00000000
,
00000100
00000000
00000010
00000000
00000100
00000000
00000001
00001000
00000000
00000001
00000000
00001000
00000100
00000000
00000010
00000000
,
00002000
00010000
00003100
00011000
,
00010000
00000000
00001000
00000000
00000100
00000000
00000010
00001000
00000000
00000100
00000000
00001000
00000010
00000000
00010000
00000000
,
00002000
00003002
00002003
00003000
,
00000110
00000000
00000001
00000100
00000000
00001000
00000100
00001000
,
00010000
00000000
00000010
00000010
01000000
00000000
00100000
00010000
,
00000000
00100000
00010000
00001000
00010000
00000000
00000100
00000001
,
00000210
00000300
00001001
00000000
00001000
00000010
00000000
00010000
,
00100000
01000000
00010000
00000000
00100000
01000000
00020000
00000000
,
00031000
00000000
00000100
00000010
00000000
00000001
00000010
00000100
,
00001000
00000000
00001000
00000000
00010000
00010000
00001000
00001000
,
01000000
00010000
01000000
00100000
00000000
10000000
00010000
00000000
20000000
00000000
00000000
30000000
,
01000000
00100000
00010000
00100000
01000000
10000000
00200000
MM3M0000
00000000
00000000
00000000
00000000
,
10000000
01000000
00010000
00000000
,
00000001
00000001
00000010
00001000
,
00010000
00010000
00200000
00300000
,
10010000
10010000
00101000
00001100
,
00000010
00000001
00000100
00000001
00000010
00000000
00000000
00000000
,
01000000
10000000
00100000
01000000
,
00010000
00100000
01000000
00100000
00020000
00000000
00030000
00000000
,
00011000
00011000
00000110
00001001
,
00000001
00000100
00001000
00010000
01000000
00010000
00001000
00000000
,
01000000
00000000
00100000
00000000
10000000
00000000
01000000
00100000
00000000
00010000
01000000
00000000
00100000
00000000
00100000
00000000
,
00000000
10000000
01000000
00010000
00001000
00010000
00000000
00000010
,
00000001
00000010
00000000
00001000
00000100
00010000
00000010
00000000
,
00000100
00000001
00001000
00000100
00000010
00001000
00010000
00001000
,
01000000
00000000
01000000
00000000
00100000
00000000
10000000
01000000
00000000
00010000
01000000
00000000
00100000
00000000
00001000
00000000
,
00010000
00100000
01000000
00100000
00010000
00001000
00000000
00000100
,
00000010
00000010
00001000
00001000
00000001
00000000
0000000M
00000000
,
10000000
00000000
00000000
00000000
;

//---------------dance-double - M. Simmons----------------
#NOTES:
     dance-double:
     M. Simmons:
     Easy:
     3:
     0.244,0.000,0.054,0.045,0.000: // measure 1
00000000
00000000
00000000
00000000
,  // measure 2
00000000
00000000
00000000
00000000
,  // measure 3
00000000
00000000
00000000
00000000
,  // measure 4
00000000
00000000
00000000
00000000
,  // measure 5
00001000
01000000
00000000
00100000
,  // measure 6
00000000
01000000
00000000
00010000
,  // measure 7
00000000
10000000
00000000
01000000
,  // measure 8
00100000
00010000
00100000
00000000
,  // measure 9
00001000
00010000
00000000
00000100
,  // measure 10
00000000
00000010
00000000
00000100
,  // measure 11
00000000
00001000
00000000
00000001
,  // measure 12
00000000
00000100
00000010
00000010
,  // measure 13
00001000
00000100
00000000
00001000
,  // measure 14
00000000
00000001
00000000
00000100
,  // measure 15
00000000
00000010
00000000
00010000
,  // measure 16
00011000
00000000
00000000
00002000
,  // measure 17
00103000
01000000
10000000
00000000
,  // measure 18
00010000
00000000
01000000
00000000
,  // measure 19
00001000
00000000
00010000
00000000
,  // measure 20
00001000
00000000
00010000
00000100
,  // measure 21
00000100
00000000
00000010
00000000
,  // measure 22
00000001
00000000
00001000
00000000
,  // measure 23
00000010
00000000
00000100
00000000
,  // measure 24
00000010
00020000
00000000
00031000
,  // measure 25
01000000
00100000
01000000
00000000
,  // measure 26
00010000
00000000
10000000
00000000
,  // measure 27
01000000
00100000
01000000
00000000
,  // measure 28
00100000
00100000
00001000
00000000
,  // measure 29
00010000
00000100
00010000
00000000
,  // measure 30
00001000
00000000
00010000
00000000
,  // measure 31
00000100
00000010
00000100
00000000
,  // measure 32
00000010
00000010
00000010
00000000
,  // measure 33
00000001
00000000
00001000
00000000
,  // measure 34
00000100
00000000
00001000
00000000
,  // measure 35
00000010
00000000
00010000
00000000
,  // measure 36
00001000
00001000
00001000
00000000
,  // measure 37
00010000
00000000
00001000
00000000
,  // measure 38
01000000
00000000
00100000
00000000
,  // measure 39
10000000
00000000
00010000
00000000
,  // measure 40
00100000
00100000
00100000
00000000
,  // measure 41
01000000
10000000
01000000
00000000
,  // measure 42
00100000
00000000
00100000
00000000
,  // measure 43
00001000
00010000
00001000
00000000
,  // measure 44
00010000
00000000
00010000
00000000
,  // measure 45
00000100
00001000
00000100
00000000
,  // measure 46
00000010
00000000
00000010
00000000
,  // measure 47
00000001
00001000
00000001
00000000
,  // measure 48
00000100
00000100
00000020
00000100
,  // measure 49
00000130
00000000
00000010
00000000
,  // measure 50
00001000
00000000
00000000
00001000
00000000
00000000
00000000
00000100
,  // measure 51
00000000
00000000
00010000
00000000
00000000
00000000
00000000
00010000
,  // measure 52
00000000
00000000
00001000
00000000
00000000
01000000
00000000
00000000
,  // measure 53
00100000
00000000
10000000
00000000
00000000
00020000
00000000
00000000
,  // measure 54
00130000
00000000
00000000
01000000
00000000
00000000
00100000
00000000
,  // measure 55
00001000
00011000
00010000
00010000
,  // measure 56
00001000
00010000
00000100
00000000
,  // measure 57
00000010
00000010
00000020
00000000
,  // measure 58
00000130
00000000
00000110
00000000
,  // measure 59
00000100
00010000
00001000
00010000
,  // measure 60
00001000
00000000
01001000
00000000
,  // measure 61
00010000
00000000
00100000
00000000
,  // measure 62
01000000
10000000
01000000
00000000
,  // measure 63
00100000
00001000
00010000
00001000
,  // measure 64
00010000
00000100
00010000
00000000
,  // measure 65
00000010
00000000
00010010
00000000
,  // measure 66
00000010
00000100
00000010
00000000
,  // measure 67
00001000
00000001
00001000
00000000
,  // measure 68
00000001
00000010
00000001
00000000
,  // measure 69
00000010
00000000
00000100
00000000
,  // measure 70
00010000
00001000
00010000
00000000
,  // measure 71
00001000
01000000
00100000
00000000
,  // measure 72
10000000
00000000
00010000
00000000
,  // measure 73
01000000
01000000
01000000
00000000
,  // measure 74
10010000
00000000
00000000
00000000
;
