#TITLE:Aurora;
#SUBTITLE:;
#ARTIST:KaW;
#TITLETRANSLIT:;
#SUBTITLETRANSLIT:;
#ARTISTTRANSLIT:;
#GENRE:Trance;
#CREDIT:Sync by HellRazoR;
#BANNER:Aurora-bn.png;
#BACKGROUND:Aurora-bg.png;
#LYRICSPATH:;
#CDTITLE:;
#MUSIC:Aurora.ogg;
#OFFSET:-0.107;
#SAMPLESTART:23.000;
#SAMPLELENGTH:12.000;
#SELECTABLE:YES;
#DISPLAYBPM:145.000:91.000;
#BPMS:0=145,178=129.6,179=119,180=109,181=98.5,182=90.84,216=94,217=95.4,218=98.2,219=101.2,220=103.7,221=106.3,222=108.7,223=112,224=113.7,225=119,226=124.5,227=130.7,228=135.8,229=138.6,230=141.48,231=145;
#STOPS:;
#BGCHANGES:0.000=Aurora-bg.png=1.000=0=0=1=====,
8.000=In The Groove Rebirth/320_JB_HD.mpg=1.000=0=0=1=====,
24.000=In The Groove Rebirth/821_JumpBack.mpg=1.000=0=0=1=====,
40.000=In The Groove Rebirth/274_JB_HD.mpg=1.000=0=0=1=SongBgWithMovieViz====,
52.000=Aurora-bg.png=1.000=0=0=1=====,
56.000=In The Groove Rebirth/216_JB_HD.mpg=1.000=0=0=1=====,
72.000=In The Groove Rebirth/172_JB_HD.mpg=1.000=0=0=1===SlideUp==,
88.000=In The Groove Rebirth/206_JB_HD.mpg=1.000=0=0=1=====,
104.000=In The Groove Rebirth/257_JB_HD.mpg=1.000=0=0=1===SlideRight==,
120.000=In The Groove Rebirth/307_JB_HD.mpg=1.000=0=0=1=====,
136.000=In The Groove Rebirth/821_JumpBack.mpg=1.000=0=0=1=====,
152.000=In The Groove Rebirth/172_JB_HD.mpg=1.000=0=0=1=====,
166.500=Aurora-bg.png=1.000=0=0=1=====,
168.000=In The Groove Rebirth/274_JB_HD.mpg=1.000=0=0=1=====,
180.000=In The Groove Rebirth/274_JB_HD.mpg=0.700=0=0=1=====,
181.000=In The Groove Rebirth/274_JB_HD.mpg=0.600=0=0=1=====,
182.000=In The Groove Rebirth/274_JB_HD.mpg=0.500=0=0=1=====,
183.000=In The Groove Rebirth/274_JB_HD.mpg=0.400=0=0=1=====,
184.000=In The Groove Rebirth/307_JB_HD.mpg=1.000=0=0=1=SongBgWithMovieViz====,
192.000=In The Groove Rebirth/320_JB_HD.mpg=1.000=1=0=1=SongBgWithMovieViz==CrossFade==,
200.000=In The Groove Rebirth/216_JB_HD.mpg=1.000=0=0=1=====,
208.000=In The Groove Rebirth/821_JumpBack.mpg=1.000=0=0=1=====,
216.000=In The Groove Rebirth/172_JB_HD.mpg=0.400=1=0=1=SongBgWithMovieViz==CrossFade==,
218.000=In The Groove Rebirth/172_JB_HD.mpg=0.500=0=0=1=SongBgWithMovieViz====,
220.000=In The Groove Rebirth/172_JB_HD.mpg=0.600=0=0=1=SongBgWithMovieViz====,
222.000=In The Groove Rebirth/172_JB_HD.mpg=0.700=0=0=1=SongBgWithMovieViz====,
224.000=In The Groove Rebirth/172_JB_HD.mpg=0.800=0=0=1=SongBgWithMovieViz====,
226.000=In The Groove Rebirth/172_JB_HD.mpg=0.900=0=0=1=SongBgWithMovieViz====,
228.000=In The Groove Rebirth/172_JB_HD.mpg=1.000=0=0=1=SongBgWithMovieViz====,
229.500=Aurora-bg.png=1.000=1=0=1===CrossFade==,
232.000=In The Groove Rebirth/257_JB_HD.mpg=1.000=0=0=1=====,
248.000=In The Groove Rebirth/307_JB_HD.mpg=1.000=0=0=1===SlideLeft==,
264.000=In The Groove Rebirth/206_JB_HD.mpg=1.000=0=0=1=====,
280.000=Aurora-bg.png=1.000=1=0=1===CrossFade==,
99999=-nosongbg-=1.000=0=0=0 // don't automatically add -songbackground-
;
#BGCHANGES2:52.000=yellow flash=1.000=0=0=1=====,
56.000=yellow flash=1.000=0=0=1=====,
88.000=white flash=1.000=0=0=1=====,
120.000=white flash=1.000=0=0=1=====,
168.000=white flash=1.000=0=0=1=====,
184.000=yellow flash=1.000=0=0=1=====,
212.000=yellow flash=1.000=0=0=1=====,
214.000=white flash=1.000=0=0=1=====,
228.000=white flash=1.000=0=0=1=====,
264.000=white flash=1.000=0=0=1=====,
;
#KEYSOUNDS:;

//---------------dance-single - D. Bernardone----------------
#NOTES:
     dance-single:
     D. Bernardone:
     Challenge:
     10:
     0.860,1.000,0.505,0.390,0.886:
0000
0000
0000
0000
,
0000
0000
0000
0000
,
1000
0000
0001
0000
0100
0000
0001
0010
0001
1000
0001
0000
0110
0000
0010
0000
,
1000
0000
0001
0000
0100
0000
0001
0010
0001
1000
0100
0000
0011
0000
0101
0000
,
1000
0000
0010
0000
0100
0000
0001
0010
0100
0010
0001
0000
1100
0000
1000
0000
,
0010
0000
0100
0000
0001
0000
0010
0100
0010
0001
1000
0000
0110
0000
0101
0000
,
0001
0000
1000
0000
0100
0000
1000
0010
0100
0010
1000
0000
0101
0000
0001
0000
,
0010
0000
0100
0000
0010
0000
0001
1000
0100
1000
0010
0000
0101
0000
1001
0000
,
1000
0000
0100
0000
0010
0000
0001
0100
0001
0010
0100
0000
1001
0000
1000
0000
,
0010
0000
0100
0000
0001
0000
0010
0000
1100
0000
0001
0100
0010
0000
1000
0000
,
0100
0010
0001
0100
0001
0000
1000
0100
0010
0100
1000
0001
0100
0000
0010
1000
,
0001
0010
0100
1000
0001
0000
0100
0010
1000
0010
0100
0001
1000
0000
0100
0010
,
0001
0010
0100
0010
0100
0000
1000
0001
0100
0001
0010
0100
1000
0000
0001
0000
,
1000
0010
0100
0000
1001
0000
M00M
0000
0000
0010
0100
0000
1100
0000
1001
0000
,
0202
0020
2000
0303
,
0100
0000
0001
3030
,
2200
0020
0002
3300
,
0100
0000
0000
0000
1000
0033
0000
0000
,
0200
0020
0002
0330
,
0110
0000
1100
0003
,
2000
0000
0002
0000
0020
0000
0000
3003
,
1100
1001
0101
M030
,
1001
0000
0001
0010
0000
0010
0100
0000
1000
0000
0010
0100
0000
0001
0100
0000
,
0010
0000
1000
0100
0000
0100
1000
0001
0010
0001
0000
0010
0001
0010
0000
0000
,
0100
0000
1000
0001
0000
0100
0001
0000
0100
0000
0010
1000
0000
0100
1000
0000
,
0100
0000
0010
0001
0000
0100
0001
0000
0100
0000
0001
1000
0010
0000
1000
0000
,
1100
0000
0000
0010
0000
0010
0001
0000
0100
0000
0001
0010
0000
0001
1000
0000
,
0100
0000
1000
0010
0000
0100
0010
0100
0010
0000
1000
0100
0000
0010
0001
0000
,
0010
0000
0000
0000
MMMM
0000
0000
0000
0100
0000
0000
MMMM
0000
0000
1000
0000
,
0001
0100
0010
0000
1010
0000
1000
0100
0010
0001
0100
0010
0100
0000
0001
1000
,
0002
0000
0000
0000
,
2010
0003
0000
0000
,
0201
3000
2010
3300
,
0001
0000
0100
0000
0100
0000
0000
0010
0000
1000
0000
0001
0010
0000
0010
0000
,
2100
0000
0000
0000
0000
0000
0000
0000
0000
0000
0100
0000
0000
0100
0000
0000
,
0210
0000
3300
0000
0000
1002
0000
0000
,
0000
0000
0000
0000
0000
0000
0000
0000
0000
0000
0100
0000
0000
0100
0000
0000
,
0210
0303
0000
0201
,
0000
0000
0000
0000
0000
0000
0000
0000
0000
0000
0001
0000
0000
0001
0000
0000
,
1002
0000
0000
0000
0303
0000
0000
0000
0000
0000
0001
0000
1000
0100
0000
0200
,
0000
0000
0000
0000
0000
2011
0000
0000
,
3300
0000
0000
0000
0000
0000
2000
0000
0000
0002
0000
0000
0010
0000
3003
0000
,
1001
0000
0010
0000
0100
0000
1000
0001
0100
0001
1000
0000
0010
0100
0000
0001
,
1000
0000
0100
0010
0001
0000
1000
0001
0100
0010
1000
0000
0001
0010
0000
0100
,
1000
0000
0001
0000
0100
0000
0010
1000
0001
1000
0100
0000
1000
0000
0001
0100
,
0001
0000
1000
0100
1000
0000
0001
0010
0100
1000
0001
0100
0010
1000
0100
0010
,
0110
0000
0001
0000
0100
0000
0000
0110
0000
0000
0000
1010
0000
0000
0100
0000
,
1000
0000
0001
0000
0010
0000
0000
0110
0000
0000
0000
0101
0000
0000
0001
0000
,
1000
0000
0010
0000
0100
0000
0000
1001
0000
0000
0000
1100
0000
0000
0100
0000
,
0010
0000
0001
0000
0100
0000
0000
1001
0000
0011
0000
0100
1000
0000
0001
0000
,
0101
0000
0000
0000
0001
1000
0001
0000
0100
0000
0010
0000
1000
0100
1000
0001
1000
0010
1000
0000
0000
0000
0001
0000
0100
0000
0000
0000
0001
0000
0010
0000
,
0100
0000
1000
0010
1000
0001
1000
0100
1000
0001
1000
0000
0000
0000
0010
0000
0100
0010
1000
0010
0100
0000
0001
0000
1000
0000
0000
0000
0001
0000
1000
0000
,
0100
0010
0001
0010
0100
0000
1000
0000
0001
0000
0000
0000
1000
0000
0010
0000
0100
0001
1000
0001
0010
0001
1000
0001
0100
0001
1000
0000
0001
0000
0010
0000
,
0100
0000
1000
0000
0000
0000
0001
0000
1000
0000
0000
0000
0100
0000
0010
0000
0100
0000
1000
0000
0001
0100
0001
0100
0001
0000
0000
0000
0010
0000
0000
0000
,
0001
1000
0001
0100
1000
0100
0001
1000
0100
0010
0001
0010
0100
1000
0001
0100
,
0010
1000
0010
0100
0001
1000
0100
0010
0001
0100
0010
1000
0001
0010
1000
0010
,
0001
0100
0010
0100
0001
1000
0100
0010
0100
1000
0001
0010
0100
1000
0001
0100
,
0110
0000
1010
0000
0011
0000
0000
1100
0000
0101
0000
0010
0100
0000
1001
0000
,
2000
0000
0200
0000
,
0010
0002
3320
0000
1000
0100
1033
0000
,
0002
0000
0200
0000
,
0010
2000
0323
0000
0001
0100
3031
0000
,
2000
0000
0002
0000
,
0010
0010
0023
0000
3100
1000
0001
1000
,
0130
0000
0110
0000
0010
0001
1000
0001
,
0010
0001
0100
0010
1000
0000
0001
0100
0001
0000
1000
0100
0010
0001
0100
0010
,
1000
0000
0000
0000
0000
0001
1000
0000
0010
0000
0100
0000
0001
0000
0001
0000
,
1000
0100
0000
0000
0000
0010
0001
0000
0100
0000
0010
0000
1000
0000
1000
0000
,
0001
0010
0000
0000
0000
0100
1000
0000
0010
0000
0100
0000
0001
0000
0001
0000
,
0010
0100
0000
0000
0000
0000
1000
0001
2000
0000
0000
0000
0100
0000
0000
0000
,
0211
3000
0300
0000
;

//---------------dance-single - D. Bernardone----------------
#NOTES:
     dance-single:
     D. Bernardone:
     Easy:
     6:
     0.239,0.336,0.143,0.238,0.000:
0000
0000
0000
0000
,
0000
0000
0000
0000
,
1000
0001
0100
0001
,
0010
0100
1000
0001
,
1001
0100
0010
1000
,
0100
0010
0001
1000
,
0002
0000
0000
0000
,
0200
0000
0000
0000
,
0020
0000
0000
0000
,
2000
0000
0303
0000
,
0100
0000
0000
0000
,
0001
3030
0000
0000
,
2000
0000
0000
0000
,
0200
0000
0000
0000
,
0020
0000
0000
0000
,
0002
0000
3300
0000
,
0100
0000
0000
0000
,
1000
0033
0000
0000
,
2000
0000
0000
0000
,
3002
0000
0000
0000
,
1010
0000
0003
0000
,
1001
1001
0110
0110
,
1001
0001
0100
0000
,
0001
1000
0100
0000
,
1000
0001
0010
0000
,
0001
1000
0010
0000
,
0100
0001
0010
0000
,
0100
1000
0010
0000
,
0100
0000
0001
0000
,
1000
1000
0100
0100
,
2000
0000
0000
0000
,
0012
0000
3000
0000
,
0000
0003
0000
0000
,
2000
0000
0000
0000
,
0201
0000
3000
0000
,
0000
0000
0300
0000
,
2000
0000
0000
0000
,
0210
0000
3000
0000
,
0000
0000
0300
0000
,
0002
0000
0000
0000
,
1200
0000
0003
0000
,
0000
0000
0300
0000
,
0001
0001
0001
0100
,
0010
0010
0010
1000
,
0100
0100
0100
1000
,
0001
0001
0001
0100
,
0010
0000
1000
0000
,
0100
0000
0010
0010
,
0001
0000
1000
0000
,
0010
0000
0100
0100
,
0001
0000
0000
1000
0001
0000
0000
0000
,
0000
0010
0100
0000
1000
0001
0000
0000
,
0100
0001
0000
0000
1000
0100
0010
0000
,
0000
0000
0000
0000
0000
0100
1000
0000
,
1001
0000
0001
0000
,
1000
0000
0100
0100
,
0000
0010
0000
0001
,
0000
1000
0000
0000
,
0002
0000
0000
0000
,
0200
0000
0000
0000
,
0020
0000
0303
0000
,
1001
0030
0000
0000
,
2000
0000
0000
0000
,
0200
0000
0000
0000
,
0020
0000
3300
0000
,
1001
0030
0000
0000
,
0110
0000
0001
0001
,
0001
0000
0100
0100
,
0100
0000
0010
0010
,
0010
1000
0001
0000
,
2000
0000
3000
0000
;

//---------------dance-single - D. Bernardone----------------
#NOTES:
     dance-single:
     D. Bernardone:
     Beginner:
     1:
     0.124,0.167,0.067,0.000,0.000:
0000
0000
0000
0000
,
0000
0000
0000
0000
,
1000
0000
0000
0000
,
0001
0000
0000
0000
,
0010
0000
0000
0000
,
0100
0000
0000
0000
,
1000
0000
0000
0000
,
0001
0000
0000
0000
,
0100
0000
0000
0000
,
0010
0000
0000
0000
,
1000
0000
1000
0000
,
1000
0000
1000
0000
,
1000
0000
1000
0000
,
1000
0000
1001
0000
,
0001
0000
0000
0000
,
0010
0000
0010
0000
,
0100
0000
0000
0000
,
1000
0000
1000
0000
,
0001
0000
0000
0000
,
0100
0000
0100
0000
,
0001
0000
0000
0000
,
0010
0000
0010
0000
,
0001
0000
0000
0000
,
0100
0000
0000
0000
,
0010
0000
0000
0000
,
1000
0000
0000
0000
,
0100
0000
0000
0000
,
0010
0000
0000
0000
,
0001
0000
0000
0000
,
0100
0000
0100
0000
,
0100
0000
0000
0000
,
0000
0000
0000
0000
,
0010
0000
0000
0000
,
0000
0000
0000
0000
,
0110
0000
0000
0000
,
1000
0000
0000
0000
,
1000
0000
0000
0000
,
0001
0000
0000
0000
,
0001
0000
0000
0000
,
0010
0000
0000
0000
,
0010
0000
0000
0000
,
0100
0000
0000
0000
,
0100
0000
0000
0000
,
1000
0000
0000
0000
,
0001
0000
0000
0000
,
1000
0000
0000
0000
,
0110
0000
0000
0000
,
0010
0000
0000
0000
,
0010
0000
0000
0000
,
0001
0000
0000
0000
,
1001
0000
1000
0000
,
1000
0000
0010
0000
,
0010
0000
0100
0000
,
0100
0000
0001
0000
,
0001
0000
0000
0000
,
0001
0000
0000
0000
,
0001
0000
0000
0000
,
1001
0000
0000
0000
,
0110
0000
0000
0000
,
1000
0000
1000
0000
,
0100
0000
0000
0000
,
0010
0000
0010
0000
,
0001
0000
0000
0000
,
0100
0000
0100
0000
,
0001
0000
0000
0000
,
1000
0000
1000
0000
,
0010
0000
0000
0000
,
0100
0000
0000
0000
,
0001
0000
0000
0000
,
1000
0000
0000
0000
,
1001
0000
0000
0000
;

//---------------dance-single - D. Bernardone----------------
#NOTES:
     dance-single:
     D. Bernardone:
     Medium:
     7:
     0.472,0.671,0.343,0.314,0.071:
0000
0000
0000
0000
,
0000
0000
0000
0000
,
1000
0000
0001
0000
0010
0100
1000
0000
,
0010
0000
0100
0000
0001
1000
0100
0100
,
0010
0000
0001
0000
0100
0010
1000
0000
,
0001
0000
0000
0001
0010
0000
0000
0000
0100
0000
1000
0000
0001
0000
0000
0000
,
0100
0000
0010
0000
1000
0100
0010
0000
,
0001
0000
0100
0000
0001
0010
0100
0100
,
1000
0000
0001
0000
0100
0010
1000
0000
,
0001
0000
0000
0001
0010
0000
0000
0000
0100
0000
1000
0000
0001
0000
0000
0000
,
0200
0000
0002
0000
,
2000
0000
0020
0303
,
0100
0000
0000
0000
0001
3030
0000
0000
,
1001
0000
1001
0000
0001
0100
0010
0000
,
2000
0000
0200
0000
,
0020
0000
0002
3300
,
0100
0000
0000
0000
1000
0033
0000
0000
,
0001
0010
0100
0000
0110
0000
1001
0000
,
2000
0000
0002
0000
,
0020
0000
3003
0000
,
1100
0030
0000
0000
,
1001
0000
1001
0000
1000
0100
0010
0000
,
0001
0000
0100
0100
0100
0000
0010
0000
,
1000
0000
0000
0000
0001
0000
0001
0000
0001
0000
0000
0000
0010
0100
0000
0000
,
1000
0000
0010
0010
0010
0000
1000
0000
,
0001
0000
0000
0000
0010
0000
0010
0000
0010
0000
0000
0001
1000
0000
0000
0000
,
0010
0000
0100
0001
0100
0000
0001
0000
,
0010
0000
0100
1000
0100
0000
1000
0000
,
0001
0000
0010
0100
0010
0000
0100
0000
,
1100
1100
1001
0011
,
0210
0000
0000
0000
,
2010
0000
3300
0000
,
1002
0000
0000
0000
,
0210
0000
0303
0000
,
0012
0000
0000
0100
,
0210
0000
0303
0000
,
2010
0000
0000
0001
,
0012
0000
3003
0000
,
0102
0000
0000
1000
,
2010
0000
3003
0000
,
1200
0000
0000
1000
,
2001
0000
3300
0000
,
1001
0001
0010
0100
,
1000
0010
0100
0001
,
0010
0100
1000
0001
,
0100
0010
0010
1000
1000
0001
0001
0000
,
1000
0001
1000
0000
1000
0100
1000
0000
,
1000
0010
1000
0000
1001
0000
0010
0100
,
0001
0000
0001
1000
0100
0000
0100
0010
,
0001
0000
0001
1000
0010
0000
0010
0100
,
0110
0000
0100
0001
0100
0000
0100
0010
0100
0001
0000
0000
0101
0000
0000
0000
,
0001
0010
0001
1000
0100
0000
0000
0000
1000
0010
0100
0000
0001
0000
0000
0000
,
0010
0100
1000
0000
0001
0000
0000
0000
0100
0010
1000
0010
0100
0001
0000
0000
,
1001
0000
0000
0000
0001
0000
0000
0000
0010
0000
0100
1000
0001
0000
0000
0000
,
0100
0010
1000
0001
0010
0100
1000
0001
,
0100
0010
1000
0001
0010
0100
0010
0001
,
1000
0010
0100
0010
1000
0100
0010
0001
,
0010
0100
1000
0000
1001
0000
0110
0000
,
0002
0000
0200
0000
,
0020
0303
1001
0000
,
0102
0030
0003
0000
,
1000
0000
0100
0000
1000
0010
0100
0001
,
2000
0000
0200
0000
,
0020
3300
1001
0000
,
2100
0030
3000
0000
,
0001
1000
0001
0100
0100
0010
1000
0001
,
1001
0000
0000
0001
1000
0000
0100
0000
,
0100
0000
0000
1000
0001
0000
0100
0000
,
0100
0000
0000
0010
0010
0000
1000
0000
,
0001
0000
0000
0001
2000
0000
0000
0000
,
0210
3000
0300
0000
;

//---------------dance-single - D. Bernardone----------------
#NOTES:
     dance-single:
     D. Bernardone:
     Hard:
     9:
     0.801,0.845,0.124,0.181,0.557:
0000
0000
0000
0000
,
0000
0000
0000
0000
,
0001
0000
0010
0100
0010
0000
0001
0000
0100
0000
0010
0000
2000
0000
0000
0000
,
3100
0000
0010
0001
0010
0000
0001
0000
0100
0000
0010
0000
1000
0000
1000
0000
,
0001
0000
0010
0001
0010
0000
0100
0000
1000
0000
0001
0000
0020
0000
0000
0000
,
0130
0000
1000
0001
1000
0000
0010
0000
0100
0000
0001
0000
0010
0000
0010
0000
,
0001
0000
1000
0100
1000
0000
0010
0000
0100
0000
0001
0000
0020
0000
0000
0000
,
0130
0000
1000
0001
1000
0000
0010
0000
0100
0000
0001
0000
1000
0000
1000
0000
,
0100
0000
0010
0001
0010
0000
0001
0000
0100
0000
0010
0000
2000
0000
0000
0000
,
3100
0000
1000
0001
1000
0000
0010
0000
0100
0000
0001
1000
0010
0000
0010
0000
,
0100
0100
0100
0001
0010
0001
0010
0001
,
0100
0000
0100
0000
0100
0000
0010
0000
1000
0000
0010
0000
1000
0000
0010
0100
,
0002
2003
3200
0320
,
0031
1000
0001
0000
1001
0000
0000
0000
0000
0100
0010
0000
0100
0000
0100
0000
,
0001
0000
0000
1000
0100
0000
0010
0000
0001
0000
0100
0000
0001
0000
0010
0000
,
0100
0000
1000
0001
1000
0000
0010
0000
0100
0001
0000
0001
1000
0000
0100
0000
,
0010
0000
0000
0001
0100
0000
0010
0000
1000
0000
0100
0000
1000
0000
0001
0000
,
0100
0000
0010
1000
0010
0000
0100
0000
0001
0010
0000
0010
0100
0000
1000
0000
,
0001
0000
0000
0100
0010
0000
1000
0000
0100
0000
0010
0000
0100
0000
1000
0000
,
0001
0000
0010
0100
0010
0000
0001
0000
0100
0010
0000
0010
1000
0000
0001
0000
,
0010
0000
0100
1000
0001
0000
0100
0001
1000
0000
0100
0010
0001
0000
0010
0000
,
0011
0000
0000
0000
1100
0000
0000
0000
1001
0000
0001
0100
0001
0000
0010
0000
,
1100
0000
0000
1000
0000
0000
1000
0000
0100
0000
0000
0100
0000
0000
0100
0000
,
0010
0000
0000
0010
0000
0000
0010
0000
0001
1000
0000
0001
1000
0000
0000
0000
,
0010
0000
0000
0010
0000
0000
0010
0000
0100
0000
0000
0100
0000
0000
0100
0000
,
0001
0000
0000
0001
0000
0000
0001
0000
1000
0000
0010
0100
0010
0000
1000
0000
,
0000
0000
0000
0001
0000
0000
0001
0000
0010
0000
0000
0010
0000
0000
0010
0000
,
0100
0000
0000
0100
0000
0000
0100
1000
0001
0000
0000
1000
0000
0000
1000
0000
,
0020
0000
0130
0000
0200
0000
0310
0100
,
0001
0000
0000
0000
1001
0000
0000
0000
1100
0000
0100
0010
0100
0000
1000
0000
,
0001
0100
1000
0100
,
0001
1000
0100
0001
,
0100
1000
0010
0100
,
0001
0000
1000
0000
0001
0000
0000
0100
0000
0010
0000
1000
0001
0000
0001
0000
,
1000
0100
0010
0100
1000
0100
0010
0100
,
1000
0010
0001
0010
1000
0100
0001
0100
,
1000
0001
0010
0001
1000
0001
0010
0001
,
0100
1000
0100
0010
0100
0001
0010
1000
,
0010
0001
1000
0001
0010
0001
1000
0001
,
0100
1000
0100
0001
0100
0010
1000
0100
,
1000
0010
0100
0010
1000
0010
0100
0010
,
1000
0000
0000
0001
1000
0000
0000
1000
0200
0000
0000
0000
0310
0000
0000
0000
,
1001
0000
0000
0000
0001
0000
0000
0010
0100
1000
0000
1000
0001
0100
0000
0100
,
0020
0000
0000
0000
1030
0000
0000
0001
0010
0100
0000
0100
1000
0001
0000
0001
,
0200
0000
0000
0000
0310
0000
0000
1000
0001
0010
0000
0010
0100
1000
0001
1000
,
0001
0000
0100
0001
0010
0000
0000
0100
1000
0001
0100
0010
1000
0001
0010
0100
,
1000
0000
0001
0000
0001
0000
0100
0010
0100
0000
0001
0000
0001
0000
1000
0100
,
1000
0000
0010
0000
0010
0000
0100
0001
1000
0000
0100
0000
0010
0000
0001
0100
,
0010
0000
0100
0000
0100
0000
0010
1000
0001
0000
0010
0000
0010
0000
0100
0001
,
0100
0000
1000
0000
0001
0000
1000
0100
1000
0000
0010
0010
0010
0000
0100
0000
,
1001
0000
0001
1000
0010
0100
0001
0100
1000
0100
0000
0001
0100
0000
0010
0000
,
1000
0100
0001
0100
1000
0001
1000
0000
1000
0100
0001
0000
0100
0000
0010
0000
,
0001
0010
1000
0010
0100
0000
1000
0000
0010
0100
0001
0010
0100
1000
0001
0000
,
1010
0000
1000
0000
0001
0000
0010
0000
0100
0000
1000
0001
0010
0000
0100
0000
,
1000
0001
0100
0000
0010
0000
1000
0000
0001
0010
0100
0000
1000
0000
0001
0000
,
0100
0010
1000
0000
0001
0000
0010
0000
0100
0010
0001
0000
1000
0000
0010
0000
,
0100
0001
0010
0000
0100
0000
1000
0000
0001
0100
0110
0000
1000
0000
0001
0000
,
0010
0100
1100
0000
0001
0000
0000
0001
0100
0010
0000
0010
1000
0000
0001
0000
,
0200
1000
0010
0301
,
1000
0100
0001
0001
0100
1000
0010
0100
,
0020
0001
0100
1030
,
0001
0100
1000
1000
0100
0001
0010
0100
,
2000
0010
0100
3001
,
0010
0001
0100
0100
0001
0010
1000
0010
,
0002
0100
0010
1003
,
0100
0010
0100
0010
0100
0000
1000
0001
1000
0000
0010
0100
0010
0100
0010
1000
,
0010
0000
0000
0000
0000
1000
0100
0000
0010
0000
0010
0000
0001
0000
0001
0000
,
0100
0010
0000
0000
0000
1000
0001
0000
0010
0000
0010
0000
0100
0000
0100
0000
,
1000
0001
0000
0000
0000
0100
0010
0000
1000
0000
1000
0000
0001
0000
0001
0000
,
0010
0100
0000
0000
0000
0000
1000
0001
1000
0000
0100
1000
0001
1000
0000
0000
,
2002
0000
0000
0000
,
3003
0000
0000
0000
;

//---------------dance-double - M. Simmons----------------
#NOTES:
     dance-double:
     M. Simmons:
     Challenge:
     9:
     0.746,0.767,0.324,0.000,0.443:
00000000
00000000
00000000
00000000
,
00000000
00000000
00000000
00000000
,
00001000
00100000
00010000
01000000
00010000
00100000
01000000
00100000
,
00001000
00010000
00000010
00000100
00000010
00001000
00000100
00010000
,
00000100
00010000
00000010
00000100
00001000
00010000
01000000
00100000
,
00001000
00010000
00000010
00000100
00000010
00001000
00000100
00010000
,
00001000
00100000
00001000
00010000
00000010
00000100
00001000
00010000
,
00000100
00000010
00001000
00010000
00100000
01000000
00010000
01000000
,
00100000
00010000
00001000
00000100
00000010
00001000
00000100
00010000
,
00001000
00100000
00010000
01000000
00001000
00010000
00000010
00000100
,
00000010
00000000
00010000
00001000
00000000
00010000
00000100
00000000
00010000
00000010
00000000
00000100
00000010
00000000
00001000
00000100
,
00000000
00000000
00010000
00000010
00000000
00010000
00000100
00000000
01000000
00010000
00000000
00100000
00001000
00000000
00010000
00000010
,
00000000
00000000
00000100
00000010
00000000
00010000
00000100
00000000
00100000
00001000
00000000
01000000
00001000
00000000
00100000
00010000
,
00100000
00000000
00001000
00000000
00010000
00000000
00001000
00100000
00000000
00000000
01000000
00100000
00000000
00000000
00000000
00010000
,
00000000
00000000
01000000
00001000
00010000
00000010
00000100
00001000
,
00010000
00000100
00100000
00001000
00010000
00000100
00001000
00000010
,
01000000
00010000
00100000
00000100
00001000
00000100
00010000
00001000
,
01000000
00000000
00010000
00000000
01000000
00000000
00100000
00000000
00010000
00000000
00001000
00100000
00001000
00000000
00000010
00000000
,
00000100
00000010
00001000
00010000
00100000
00010000
00001000
00000010
,
00000100
00100000
00010000
01000000
00000010
00010000
00000100
00010000
,
00000010
00000100
00001000
01000000
00100000
01000000
00000100
00010000
,
00011000
00000000
00000000
00000000
00010100
00000000
00000000
00000000
00011000
00000000
00001000
00100000
00001000
00000000
00101000
00000000
,
00010000
00000000
00000000
00001000
00000000
00000000
00100000
00000000
00010000
00000000
00000000
01000000
00000000
00000000
00100000
00000000
,
00010000
00000000
00000000
00001000
00000000
00000000
00100000
00001000
00100000
00000000
01000000
00100000
01000000
00000000
00010000
00001000
,
00010000
00000000
00000000
00000100
00000000
00000000
00000010
00000000
00001000
00000000
00000000
00010000
00000000
00000000
00000010
00000000
,
00000100
00000000
00000000
00000010
00000000
00000000
00010000
00000010
00100000
00000000
00000100
01000000
00000000
00000000
00000100
00000000
,
00010000
00000000
00000000
00001000
00000000
00000000
00100000
00000000
01000000
00000000
00000000
00010000
00000000
00000000
00000100
00000000
,
00000010
00000000
00000000
00001000
00000000
00000000
00100000
00010000
00100000
00000000
00010000
01000000
00010000
00000000
00010000
00100000
,
00010000
00000000
00000000
00100000
00000000
00000000
00000100
00000000
00000010
00000000
00000000
00001000
00000000
00000000
00100000
00000000
,
00001000
00000000
00000000
01000000
00000000
00000000
00100000
01000000
00010000
00000000
00100000
00000100
00001000
00000000
00000010
00010000
,
00001000
00110000
00001100
00011000
,
01100000
00011000
00000110
00011000
,
00110000
01010000
00011000
00000110
,
00100000
00000000
00001000
00000000
00010000
00000000
00000000
00000100
00000000
00001000
00000000
00000010
00010000
00000000
01000000
00000000
,
00100000
00010000
00100000
00000000
00001000
00000000
00010000
00000000
00000010
00000000
00000100
00000000
00001000
00000000
00010000
00000000
,
00000100
00100000
00010000
01000000
00000100
00010000
00000010
00000100
,
00000010
00100000
00001000
01000000
00010000
00100000
00001000
00010000
,
00000100
00000010
00001000
00010000
00001000
00000100
00000010
00010000
,
00001000
00100000
01000000
00010000
00001000
01000000
00100000
00010000
,
00001000
00100000
00000100
00000010
00001000
00010000
00000010
00000100
,
00000010
00010000
00001000
00100000
01000000
00100000
00000100
00010000
,
00000010
00100000
00001000
00010000
00000100
00010000
00001000
00100000
,
00010000
00000000
00000000
01000000
00001000
00000000
00000000
00011000
00000000
00000000
00000000
00100000
00000000
00001000
00000000
00000000
,
00010000
00000000
00000000
00000100
00001000
00000000
00000000
00001010
00000000
00000000
00000000
00000010
00000000
00100000
00000000
00000000
,
00001000
00000000
00000000
00010000
00000100
00000000
00000000
00010100
00000000
00000000
00000000
00000000
00001000
00000000
00010000
00000000
,
00001000
00000000
00000000
00100000
00010000
00000000
00000000
01010000
00000000
00000000
00000000
00100000
00000000
01000000
00000000
00010000
,
00100000
00000000
00001000
00000000
00010000
00000000
00000000
00010100
00000000
00000000
00000000
00001010
00000000
00000010
00000100
00000000
,
00000010
00000000
00000000
00000000
00100000
00000000
00000000
00010000
00000000
00000000
00000000
01000000
00010000
00100000
00010000
00000000
,
00011000
00000000
00000000
00000000
01100000
00000000
00000000
00010000
00000000
00000000
00000000
00100000
00000000
00001000
00000010
00000000
,
00000100
00000000
00010000
00000000
00001000
00000000
00000000
00100000
00000000
00010000
00000000
01000000
00001000
00000000
00010000
00000000
,
00000010
00010000
00001000
00000000
00110000
00000000
00010000
00000000
00100000
00001000
00000100
00000000
00001010
00000000
00000000
00000000
,
00001000
00000100
00010000
00000000
00011000
00000000
01000000
00000000
00001000
00010000
00000010
00100000
00011000
00000000
00000000
00000000
,
00000100
00010000
00100000
00000000
01000000
00000000
00001000
00000000
00100000
00001000
00010000
00000000
00000110
00000000
00000000
00000000
,
00001010
00110000
00001100
01010000
,
00100000
00001000
01000000
00000100
,
00100000
00000010
00010000
00001000
,
01000000
00100000
00000100
00000010
,
00010000
00000000
00001000
00000000
00100000
00000000
00000000
00010000
00000000
01000000
00000000
00100000
01000000
00000000
00110000
00000000
,
00001000
00010000
00000100
00000010
00001000
00010000
00100000
01000000
,
00001000
00010000
00000010
00000100
00000010
00100000
01000000
00100000
,
00000100
00010000
00000010
00100000
00000100
00010000
00001000
01000000
,
00100000
00010000
00001000
00100000
00001000
00010000
00000010
00000100
,
00000010
00010000
01000000
00100000
00001000
00000100
00000010
00010000
,
00001000
00100000
01000000
00100000
00001000
00010000
00000010
00000100
,
00001000
00010000
00001000
00100000
00010000
01000000
00001000
00100000
,
00000010
00000100
00000010
00001000
00000100
00010000
00001000
00100000
,
00010000
00000000
00000000
00000000
00000000
00010000
00100000
00000000
00001000
00000000
00001000
00000000
00000100
00000000
00000100
00000000
,
00000010
00010000
00000000
00000000
00000000
00001000
00100000
00000000
01000000
00000000
01000000
00000000
00100000
00000000
00100000
00000000
,
00001000
00100000
00000000
00000000
00000000
00001000
00010000
00000000
00000100
00000000
00000100
00000000
00100000
00000000
00100000
00000000
,
00001000
00010000
00000000
00000000
00000000
00000000
00000100
00010000
00001000
00000000
00100000
00010000
01000000
00001000
00000000
00000000
,
00011000
00000000
00000000
00000000
;

//---------------dance-double - M. Simmons----------------
#NOTES:
     dance-double:
     M. Simmons:
     Hard:
     8:
     0.623,0.700,0.362,0.133,0.267:
00000000
00000000
00000000
00000000
,
00000000
00000000
00000000
00000000
,
00001000
00010000
00011000
00000000
00100000
01000000
00010000
00000000
,
01000000
00100000
01100000
00000000
00001000
00010000
00000100
00000000
,
00000010
00000001
00001001
00000000
00000001
00001000
00000010
00000000
,
00010000
00000100
00010100
00000000
00001000
01000000
00100000
00100000
,
01000000
00000000
00000000
00010000
00100000
00000000
00001000
00000000
01000000
00000000
00000000
00001000
00010000
00000000
00000010
00000000
,
00000100
00000001
00001000
00000100
00000010
00001000
00010000
00000010
,
00000100
00000000
00000000
00000001
00001000
00000000
00000100
00000000
00010000
00000000
00000000
00001000
01000000
00000000
00100000
00000000
,
10000000
00000000
00000000
00000000
01000000
00000000
00000000
00000000
00100000
00000000
00001000
00010000
00000010
00000000
00000100
00000000
,
00000001
00000000
00000000
00010000
00000000
00000000
00001000
00000000
00000000
10000000
00000000
00000000
00010000
00000000
00000000
00000000
,
10000000
00000000
00000000
00001000
00000000
00000000
00010000
00000000
00000000
00000001
00000000
00000000
00001000
00000000
00000000
00000000
,
00000001
00000000
00000000
00010000
00000000
00000000
00001000
00000000
00000000
10000000
00000000
00000000
00010000
00000000
01000000
00000000
,
00100000
01000000
00100000
00000000
00100000
00000000
00000000
00000000
00000000
10000000
01000000
00000000
00100000
00000000
00010000
00000000
,
00100000
01000000
10000000
00010000
01000000
00000000
01010000
00000000
,
00001000
00010000
00000100
00000010
00000100
00000000
00010100
00000000
,
00010000
00000100
00001000
00000010
00010000
00000000
00101000
00000000
,
00100000
00010000
10000000
00010000
00100000
00100000
00100000
00000000
,
00001000
00010000
00000100
00000010
00000100
00000000
00000110
00000000
,
00000001
00001000
00000100
00000010
00000100
00000000
00010100
00000000
,
00010000
00001000
01000000
00100000
10000000
00000000
11000000
00000000
,
00100000
00011000
00001010
00011000
,
00220000
00000000
00001000
00330000
,
00002200
00000000
00010000
00003300
,
00002002
00000000
00000010
00003003
,
00020020
00000000
00100000
00030030
,
00001000
01000000
00100000
10000000
,
01000000
00010000
01000000
00100000
,
00001000
00010000
00000100
00000010
,
00000001
00001000
00000010
00000100
,
00000110
00000000
00010000
00000000
,
00000100
00000000
00010000
00000000
,
00001000
00000000
01000000
00000000
,
00001000
00000000
00100000
00000000
00001000
00000000
00000000
00100000
00000000
00001000
00000000
01000000
00010000
00000000
00100000
00000000
,
01000000
10000000
00010000
01000000
00100000
10000000
00010000
00100000
,
00001000
00000000
00010000
00000000
00000100
00001000
00000100
00000000
,
00010000
00001000
00100000
00010000
01000000
00100000
10000000
01000000
,
00100000
00000000
01000000
00000000
10000000
00010000
00100000
00000000
,
00001000
00010000
00000100
00000010
00000001
00000100
00000001
00001000
,
00000010
00000000
00000100
00000000
00000010
00000100
00000010
00000000
,
00001000
00000100
00010000
00001000
00100000
00001000
00010000
00000010
,
00000100
00000000
00000001
00000000
00001000
00001000
00001000
00000000
,
00000001
00000000
00000000
00000000
00001000
00000000
00000000
00000100
00000000
00000000
00010000
00000000
00001000
00000000
00000000
00000000
,
00100000
00000000
00000000
00000000
01000000
00000000
00000000
10000000
00000000
00000000
00010000
00000000
00100000
00000000
00000000
00000000
,
00001000
00000000
00000000
00000000
00010000
00000000
00000000
00000010
00000000
00000000
00000100
00000000
00000010
00000000
00000000
00000000
,
00010000
00000000
00000000
00000000
00001000
00000000
00000000
00100000
00000000
00000000
00010000
01000000
00000000
00100000
01000000
00000000
,
01001000
00000000
00000000
00011000
00000000
00000000
00010010
00000000
00000010
00000000
00000000
00000100
00000000
00000000
00000001
00000000
,
00000011
00000000
00000000
00001100
00000000
00000000
00011000
00000000
00001000
00000000
01000000
00000000
00100000
00000000
00010000
00000000
,
00001000
00000000
00000000
00010000
00000000
00000000
00000100
00000000
00000110
00000000
00000000
00001001
00000000
00000000
00000110
00000000
,
00010010
00000000
00000000
00000100
00000000
00000000
00010000
00000000
00001000
00000000
00000100
00000000
00000001
00000000
00000010
00000000
,
00000100
00001000
00000100
00000000
00011000
00000000
00001000
00000000
00100000
00010000
01000000
00000000
10100000
00000000
00000000
00000000
,
10000000
00010000
00100000
00000000
01000000
00000000
00100000
00000000
00010000
10000000
00010000
01000000
00100000
00000000
00000000
00000000
,
01000000
00010000
00100000
00000000
00001000
00010000
00001000
00000000
00010000
00000100
00000010
00000100
00001000
00000000
00000000
00000000
,
00001000
00000000
00000000
00000100
00000100
00000000
00000000
00010000
00010000
00000000
00000000
00001000
00001000
00000000
00000000
00000000
,
01000000
00000000
00000000
00010000
00100000
00000000
00001000
00000000
00010000
00000000
00000000
00000100
00000010
00000000
00000001
00000000
,
00001000
00000000
00000000
00000010
00000100
00000000
00001000
00000000
00010000
00000000
00000000
00001000
00100000
00000000
00010000
00000000
,
00100000
01000000
10000000
00010000
01000000
00100000
01000000
00010000
,
10000000
00000000
10000000
00000000
10000000
00000000
00000000
01000000
00000000
00010000
00000000
00001000
00000100
00000000
00000010
00000000
,
00001000
00000001
00000010
00000100
00000010
00000001
00001000
00000000
,
00000010
00010000
00001000
00100000
00010000
00000000
10100000
00000000
,
10000000
00010000
01000000
00100000
00010000
00001000
00000010
00000000
,
00000100
00000001
00000100
00001000
00000110
00000000
00011000
00000000
,
00001000
01000000
00100000
10000000
00010000
00100000
10000000
00000000
,
00100000
00000000
00010000
00000000
10000000
00000000
00100000
00000000
00010000
00000000
00000000
00001000
00010000
00000000
00000000
00001000
,
00010000
00000100
00000010
00000100
00010000
00000100
00000010
00000001
,
00000100
00000010
00000100
00000010
00000100
00000000
00000001
00001000
00000000
00000000
00000100
00010000
00001000
00000000
00100000
00000000
,
01000000
00000000
00000000
00000000
00000000
20000000
02000000
00000000
00000000
00000000
00000000
00000000
00000000
00000000
00000000
00000000
,
33101000
00000000
00000000
00000000
00000000
00000000
00020000
20000000
00000000
00000000
00000000
00000000
00000000
00000000
00000000
00000000
,
31130000
00000000
00000000
00000000
00000000
00000200
00020000
00000000
00000000
00000000
00000000
00000000
00000000
00000000
00000000
00000000
,
00031310
00000000
00011000
00000000
,
10010000
00000000
00000000
00000000
;

//---------------dance-double - M. Simmons----------------
#NOTES:
     dance-double:
     M. Simmons:
     Medium:
     6:
     0.412,0.400,0.257,0.152,0.024:
00000000
00000000
00000000
00000000
,
00000000
00000000
00000000
00000000
,
10000000
01000000
00100000
00000000
00002000
00000000
00000000
00000000
,
00010000
00013000
00000000
00100000
00100000
00001000
00000000
00010000
,
00000010
00000100
00000001
00000000
00002000
00000000
00000000
00000000
,
00000100
00003100
00000000
00000010
00000010
00000001
00000011
00000000
,
00000001
00001000
00000100
00010000
,
00001000
00000000
01000000
00000000
00100000
10000000
00000000
00010000
,
00100000
00001000
00010000
00000100
,
00000010
00000001
00001000
00001001
,
00000020
00000000
00000000
00001000
00000000
00000000
00000130
00000000
,
00000002
00000000
00000000
00001000
00000000
00000000
00000013
00000000
,
00000200
00000000
00000000
00001000
00000000
00000000
00010300
00000000
,
00011000
00000000
00000000
00000000
00011000
00000000
00000000
00000000
00000000
00110000
00000000
00000000
00000000
00000000
00100000
00000000
,
00010000
10000000
00100000
01000000
,
00001000
00010000
00000010
00000100
,
00000010
00010000
00001000
00100000
,
00010000
10000000
00100000
01000000
,
00001000
00010000
00000100
00001000
,
00000001
00001000
00000010
00000100
,
00000010
00010000
00001000
00100000
,
00001000
00000100
00000010
00000110
,
00000200
00000000
00000000
00000001
00000010
00000000
00000000
00001000
,
00000310
00000000
00010000
00000000
00001000
00001000
00000000
00100000
,
00020000
00000000
00000000
01000000
00100000
00000000
00000000
10000000
,
00130000
00010000
00100000
00000000
00101000
00000000
00000000
00000000
,
00020000
00000000
00000000
00001000
00000010
00000000
00000000
00000100
,
00031000
00100000
00010000
10000000
,
10010000
00000000
01100000
00000000
,
01000000
00001000
00010000
00000010
,
00001000
00000001
00000010
00001000
,
00000010
00000000
00000001
00001000
00001000
00000000
00000000
00000000
,
00000100
00010000
01000000
10000000
,
01000000
00100000
00000000
00101000
00000000
00011000
00010000
00000000
,
00000100
00000010
00000001
00001000
,
00000010
00010000
00000100
00001000
,
00000100
00010000
00001000
10000000
,
00100000
01000000
00100000
10000000
,
00010000
00100000
00001000
00010000
,
00000100
00000010
00000001
00001000
,
00001010
00000000
00010100
00000000
,
00011000
00001000
00001000
00000000
,
00200000
00000000
00000000
00000000
00000000
00000000
00000000
00310000
00000000
00000000
00000000
00000000
00000000
00000000
00000000
00000000
,
20000000
00000000
00000000
00000000
00000000
00000000
00000000
30010000
00000000
00000000
00000000
00000000
00000000
00000000
00000000
00000000
,
02000000
00000000
00000000
00000000
00000000
00000000
00000000
03001000
00000000
00000000
00000000
00000000
00000000
00000000
00000000
00000000
,
00020000
00000000
00000000
00000000
00000000
00000000
00000000
00002000
00000000
00000000
00000000
00000000
00033000
00000000
00000000
00000000
,
00011000
00001100
00000010
00000001
,
00001000
00000100
00011000
00000000
,
00010000
01000000
10000000
00010000
,
01000000
00100000
10100000
01010000
,
00100000
00001000
00010000
00000100
,
00001000
00000001
00001001
00000000
,
00000001
00001000
00000100
00010000
,
00001000
00100000
10000000
00100000
,
00010000
10000000
00010000
10000000
,
01000000
00010000
01000000
00010000
,
00001000
00010000
00001000
00010000
,
00011000
00000000
00011000
00000000
00000000
00010000
00000100
00001000
,
00000100
00010000
00001000
00100000
,
00010000
00000000
10000000
00000000
00100000
00100000
00000000
01000000
,
00010000
00100000
00001000
00010000
,
00000100
00000000
00000010
00000000
00000001
00001000
00001000
00000000
,
00000010
00000100
00000010
00001000
,
00000001
00000000
00000010
00000000
00001000
00001000
00000000
00010000
,
00010000
01000000
10000000
00010000
,
01000000
00000000
00100000
00000000
10000000
00010000
00010000
00000000
,
10010000
00000000
00000000
00000000
00200000
00000000
00000000
00300000
,
00101000
00000000
00000000
00000000
00000200
00000000
00000000
00000300
,
00001010
00000000
00000000
00000000
00000002
00000000
00000000
00000003
,
00001001
00000000
00000000
00000000
00000100
00001000
00000000
00000000
,
00011000
00000000
00000000
00000000
;

//---------------dance-double - M. Simmons----------------
#NOTES:
     dance-double:
     M. Simmons:
     Easy:
     1:
     0.136,0.133,0.067,0.000,0.000:
00000000
00000000
00000000
00000000
,
00000000
00000000
00000000
00000000
,
00001000
00000000
00000000
00000000
,
00100000
00000000
00010000
00000000
,
00010000
00000000
00000000
00000000
,
10000000
00000000
01000000
00000000
,
01000000
00000000
00000000
00000000
,
00100000
00000000
00100000
00000000
,
00100000
00000000
00000000
00000000
,
00001000
00000000
00010000
00000000
,
00001000
00000000
00000000
00000000
,
00010000
00000000
00000000
00000000
,
00011000
00000000
00000000
00000000
,
00010000
00000000
00000000
00000000
,
00000100
00000000
00001000
00000000
,
00000100
00000000
00000000
00000000
,
00000010
00000000
00000001
00000000
,
00001000
00000000
00000000
00000000
,
00000010
00000000
00000100
00000000
,
00000010
00000000
00000000
00000000
,
00001000
00000000
00000100
00000000
,
00001000
00000000
00000000
00000000
,
00011000
00000000
00000000
00000000
,
00000000
00000000
00000000
00000000
,
00011000
00000000
00000000
00000000
,
00000000
00000000
00000000
00000000
,
00100000
00000000
00100000
00000000
,
00100000
00000000
00000000
00000000
,
01000000
00000000
01000000
00000000
,
01000000
00000000
00000000
00000000
,
10000000
00000000
00010000
00000000
,
10000000
00000000
00100000
00000000
,
01000000
00000000
00001000
00000000
,
00010000
00000000
00000000
00000000
,
00010000
00000000
00000100
00000000
,
00000100
00000000
00000010
00000000
,
00000001
00000000
00001000
00000000
,
00000010
00000000
00001000
00000000
,
00000010
00000000
00000100
00000000
,
00000001
00000000
00001000
00000000
,
00000100
00000000
00010000
00000000
,
00001000
00000000
00010000
00000000
,
00001000
00000000
00000000
00000000
,
00100000
00000000
00000000
00000000
,
01000000
00000000
00000000
00000000
,
10000000
00000000
00000000
00000000
,
00100000
00000000
01000000
00000000
,
00010000
00000000
00000000
00000000
,
00100000
00000000
00010000
00000000
,
00100000
00000000
00000000
00000000
,
00001000
00000000
00010000
00000000
,
00001000
00000000
00000000
00000000
,
00010000
00000000
00001000
00000000
,
00010000
00000000
00000000
00000000
,
00000100
00000000
00000000
00000000
,
00000000
00000000
00000000
00000000
,
00000000
00000000
00000000
00000000
,
00000000
00000000
00000000
00000000
,
00011000
00000000
00000000
00000000
,
00001000
00000000
00100000
00000000
,
00010000
00000000
00000000
00000000
,
10000000
00000000
01000000
00000000
,
00100000
00000000
00000000
00000000
,
00001000
00000000
00010000
00000000
,
00000100
00000000
00000000
00000000
,
00001000
00000000
00000010
00000000
,
00000100
00000000
00000000
00000000
,
00001001
00000000
00000000
00000000
,
00000110
00000000
00000000
00000000
,
00011000
00000000
00000000
00000000
,
01000000
00000000
00000000
00000000
;
