#TITLE:Asian Crosscounter;
#SUBTITLE:;
#ARTIST:Hi-G;
#TITLETRANSLIT:;
#SUBTITLETRANSLIT:;
#ARTISTTRANSLIT:;
#GENRE:House;
#CREDIT:Sync by HellRazoR;
#BANNER:Asian Crosscounter-bn.png;
#BACKGROUND:Asian Crosscounter-bg.png;
#LYRICSPATH:;
#CDTITLE:;
#MUSIC:Asian Crosscounter.ogg;
#OFFSET:-0.023;
#SAMPLESTART:9.570;
#SAMPLELENGTH:12.980;
#SELECTABLE:YES;
#BPMS:0.000=200.000;
#STOPS:;
#BGCHANGES:0.000=Asian Crosscounter-bg.png=1.000=0=0=1=====,
16.000=In The Groove Rebirth/1130_JumpBack.mpg=1.000=1=0=1===CrossFade==,
28.000=Asian Crosscounter-bg.png=1.000=0=0=1=====,
29.500=Asian Crosscounter-bg.png=1.000=0=0=1====0^1^0^1=,
31.000=Asian Crosscounter-bg.png=1.000=0=0=1====1^0^0^1=====,
32.000=In The Groove Rebirth/901_JumpBack.mpg=1.000=0=0=1=====,
64.000=In The Groove Rebirth/216_JB_HD.mpg=1.000=0=0=1=====,
88.000=Asian Crosscounter-bg.png=1.000=0=0=1=====,
88.500=Asian Crosscounter-bg.png=1.000=0=0=1====0^1^0^1=,
89.000=Asian Crosscounter-bg.png=1.000=0=0=1====0^0^1^1=,
89.500=Asian Crosscounter-bg.png=1.000=0=0=1====1^0^0^1=,
90.000=Asian Crosscounter-bg.png=1.000=0=0=1=====,
91.000=Asian Crosscounter-bg.png=1.000=0=0=1=====,
96.000=In The Groove Rebirth/873_JumpBack.mpg=1.000=0=0=1=====,
112.000=In The Groove Rebirth/252_JB_HD.mpg=1.000=0=0=1=====,
128.000=In The Groove Rebirth/511_JB_HD.mpg=1.000=0=0=1=====,
144.000=In The Groove Rebirth/410_JB_HD.mpg=1.000=0=0=1=====,
160.000=In The Groove Rebirth/1142_JumpBack.mpg=1.000=0=0=1=====,
176.000=In The Groove Rebirth/1130_JumpBack.mpg=1.000=0=0=1=====,
192.000=In The Groove Rebirth/901_JumpBack.mpg=1.000=0=0=1=====,
224.500=In The Groove Rebirth/252_JB_HD.mpg=1.000=0=0=1=====,
248.000=Asian Crosscounter-bg.png=1.000=0=0=1=====,
248.500=Asian Crosscounter-bg.png=1.000=0=0=1====1^0^0^1=====,
249.000=Asian Crosscounter-bg.png=1.000=0=0=1====0^1^0^1=,
249.500=Asian Crosscounter-bg.png=1.000=0=0=1====0^0^1^1=,
250.000=Asian Crosscounter-bg.png=1.000=0=0=1====1^0^0^1=====,
251.000=Asian Crosscounter-bg.png=1.000=0=0=1=====,
256.000=In The Groove Rebirth/410_JB_HD.mpg=1.000=0=0=1=====,
272.000=In The Groove Rebirth/511_JB_HD.mpg=1.000=0=0=1=====,
286.000=Asian Crosscounter-bg.png=1.000=0=0=1=====,
288.000=In The Groove Rebirth/216_JB_HD.mpg=1.000=0=0=1=====,
304.000=In The Groove Rebirth/1142_JumpBack.mpg=1.000=0=0=1=====,
320.000=In The Groove Rebirth/901_JumpBack.mpg=1.000=0=0=1=====,
328.000=In The Groove Rebirth/873_JumpBack.mpg=1.000=0=0=1=====,
336.000=In The Groove Rebirth/1130_JumpBack.mpg=1.000=0=0=1=====,
340.000=In The Groove Rebirth/216_JB_HD.mpg=1.000=0=0=1=====,
344.000=In The Groove Rebirth/252_JB_HD.mpg=1.000=0=0=1=====,
346.000=In The Groove Rebirth/511_JB_HD.mpg=1.000=0=0=1=====,
348.000=In The Groove Rebirth/901_JumpBack.mpg=1.000=0=0=1=SongBgWithMovieViz====,
349.000=In The Groove Rebirth/1130_JumpBack.mpg=1.000=0=0=1=SongBgWithMovieViz====,
350.000=In The Groove Rebirth/1142_JumpBack.mpg=1.000=0=0=1=SongBgWithMovieViz====,
351.000=In The Groove Rebirth/873_JumpBack.mpg=1.000=0=0=1=SongBgWithMovieViz====,
352.000=In The Groove Rebirth/410_JB_HD.mpg=1.000=0=0=1=====,
353.000=In The Groove Rebirth/252_JB_HD.mpg=1.000=0=0=1=====,
353.500=In The Groove Rebirth/216_JB_HD.mpg=1.000=0=0=1=====,
356.000=In The Groove Rebirth/511_JB_HD.mpg=1.000=0=0=1=====,
357.000=In The Groove Rebirth/901_JumpBack.mpg=1.000=0=0=1=====,
357.500=In The Groove Rebirth/1130_JumpBack.mpg=1.000=0=0=1=====,
360.000=In The Groove Rebirth/1142_JumpBack.mpg=1.000=0=0=1=====,
361.000=In The Groove Rebirth/410_JB_HD.mpg=1.000=0=0=1=====,
361.500=In The Groove Rebirth/252_JB_HD.mpg=1.000=0=0=1=====,
363.500=In The Groove Rebirth/216_JB_HD.mpg=1.000=0=0=1=====,
364.500=In The Groove Rebirth/873_JumpBack.mpg=1.000=0=0=1=====,
365.000=In The Groove Rebirth/511_JB_HD.mpg=1.000=0=0=1=====,
366.000=Asian Crosscounter-bg.png=1.000=0=0=1====1^0^0^1=====,
366.500=Asian Crosscounter-bg.png=1.000=0=0=1====0^1^0^1=,
367.000=Asian Crosscounter-bg.png=1.000=0=0=1====0^0^1^1=,
368.000=Asian Crosscounter-bg.png=1.000=1=0=1===CrossFade==,
99999=-nosongbg-=1.000=0=0=0 // don't automatically add -songbackground-
;
#BGCHANGES2:91.000=white flash=1.000=0=0=1=====,
128.000=white flash=1.000=0=0=1=====,
192.000=yellow flash=1.000=0=0=1=====,
220.000=white flash=2.000=0=0=1=====,
221.500=white flash=2.000=0=0=1=====,
223.000=yellow flash=2.000=0=0=1=====,
251.000=white flash=1.000=0=0=1=====,
286.000=white flash=2.000=0=0=1=====,
;
#KEYSOUNDS:;

//---------------dance-single - MG----------------
#NOTES:
     dance-single:
     MG edited by S. Venkat:
     Challenge:
     11:
     1.000,0.000,0.745,0.070,0.329: // measure 1
0000
0000
0000
0000
,  // measure 2
0000
0000
0000
0000
,  // measure 3
0000
0000
0000
0000
,  // measure 4
0000
0000
0000
0000
,  // measure 5
0001
0000
0100
0010
0100
0000
M001
0000
0000
0000
100M
0000
1001
0000
0000
0000
,  // measure 6
1000
0000
0100
0010
0100
0000
100M
0000
0000
0000
M001
0000
1001
0000
0000
0000
,  // measure 7
0001
0000
0100
0010
0100
0000
0001
0000
1000
0000
0100
0010
0100
0000
1000
0000
,  // measure 8
0001
1000
0001
0000
0100
0000
0010
1000
0010
0000
0100
0000
0001
1000
0001
1000
,  // measure 9
0001
0000
0100
0010
0100
0000
0001
0000
1000
0000
0100
0000
0010
0000
0000
0000
,  // measure 10
0001
0000
1000
0100
1000
0000
0001
0000
0010
0000
0001
0000
1000
0100
1000
0000
,  // measure 11
0001
0000
0100
0010
0100
0000
0001
0000
0010
0000
0100
0000
1000
0000
0000
0000
,  // measure 12
0010
0000
1000
0001
1000
0000
0010
0000
0100
0000
0001
0000
1000
0100
1000
0000
,  // measure 13
0010
0100
0001
0010
0100
1000
0101
0000
,  // measure 14
0100
0010
1000
0100
0010
0001
1010
0000
,  // measure 15
0010
0100
0001
1000
0001
0010
0100
1000
,  // measure 16
0011
0000
1000
0110
0000
0101
0010
0010
,  // measure 17
1000
0000
0100
0010
0100
0000
1000
0000
0001
0000
0100
0000
0010
0000
0000
0000
,  // measure 18
1000
0000
0001
0010
0001
0000
1000
0000
0100
0000
1000
0000
0001
0010
0001
0000
,  // measure 19
1000
0000
0010
0100
0010
0000
1000
0000
0100
0000
0010
0000
0001
0000
0000
0000
,  // measure 20
0100
0000
0001
1000
0001
0000
0100
0000
0010
0000
1000
0000
0001
0010
0001
0000
,  // measure 21
0100
0010
1000
0100
0010
0001
1010
0000
,  // measure 22
0010
0100
0001
0010
0100
1000
0101
0000
,  // measure 23
0101
1001
1010
1100
0011
0000
0202
0000
,  // measure 24
0303
0000
0000
0000
1010
0000
0000
0000
1000
0000
0001
1000
0001
0000
1000
0001
,  // measure 25
1000
0000
0010
0100
0010
0000
1000
0000
0100
0000
0001
0000
0100
0000
1000
0000
,  // measure 26
0001
0000
0100
0010
0100
0000
0001
0000
0010
0000
1000
0000
0010
0000
0001
0000
,  // measure 27
0100
0000
0010
1000
0010
0000
0100
0000
0001
0000
0010
0000
0100
0000
1000
0000
,  // measure 28
0010
0100
0010
0000
1000
0000
0001
0010
0001
0000
1000
0000
0010
0100
0010
0000
,  // measure 29
1000
0000
0100
0010
0100
0000
1000
0000
0010
0000
0001
0000
0010
0000
1000
0000
,  // measure 30
0001
0000
0010
0100
0010
0000
0001
0000
0100
0000
1000
0000
0100
0000
0001
0000
,  // measure 31
0010
0000
0100
1000
0100
0000
0010
0000
0001
0000
0100
0000
0010
0000
1000
0000
,  // measure 32
0100
0010
0100
0000
1000
0000
0001
0100
0001
0000
1000
0000
0100
0010
0100
0000
,  // measure 33
1000
0000
0001
0010
0001
0000
0100
0000
0010
0000
1000
0000
0100
0000
0010
0000
,  // measure 34
0001
0000
1000
0100
1000
0000
0010
0000
0100
0000
0001
0000
0010
0000
0100
0000
,  // measure 35
1000
0000
0010
0100
0010
0000
1000
0000
0001
0000
0100
0000
0010
0000
1000
0000
,  // measure 36
0001
0100
0001
0000
1000
0000
0010
0100
0010
0000
1000
0000
0001
0010
0001
0000
,  // measure 37
0100
0000
0010
1000
0010
0000
0100
0000
0001
0000
1000
0000
0001
0000
0100
0000
,  // measure 38
0010
0000
1000
0001
1000
0000
0100
0000
0010
0000
0001
0000
1000
0000
0001
0000
,  // measure 39
0100
0000
0010
1000
0010
0000
0100
0000
0001
0000
0010
0000
0100
0000
1000
0000
,  // measure 40
0010
0100
0010
0000
1000
0000
0001
0010
0001
0000
1000
0000
0010
0100
0010
0000
,  // measure 41
1010
0000
1010
1001
0000
1100
0011
0000
,  // measure 42
0101
0000
0000
0000
1010
0000
0110
0000
0000
0000
0011
0000
0110
0000
1000
0001
,  // measure 43
1000
0000
0101
1010
0000
1001
1100
0000
,  // measure 44
0010
0001
1000
0100
0010
0001
1000
0100
,  // measure 45
0011
0000
1100
1001
0000
1010
0101
0000
,  // measure 46
0011
0000
0000
0000
1100
0000
1001
0000
0000
0000
0101
0000
1001
0000
0010
0100
,  // measure 47
0010
0000
1010
0101
0000
1001
0011
0000
,  // measure 48
0100
1000
0001
0010
0100
1000
0001
0010
,  // measure 49
0001
0000
1000
0100
1000
0000
0001
0000
0100
0000
0010
0000
1000
0000
0000
0000
,  // measure 50
0100
0000
0010
0001
0010
0000
0100
0000
1000
0000
0001
0000
0100
0010
0100
0000
,  // measure 51
0001
0000
1000
0010
1000
0000
0100
0000
0010
0000
0001
0000
1000
0000
0000
0000
,  // measure 52
0010
0000
0100
0001
0100
0000
0010
0000
1000
0000
0001
0000
0100
0010
0100
0000
,  // measure 53
0001
0010
1000
0010
0001
0100
1010
0000
,  // measure 54
1000
0100
0001
0100
1000
0010
0101
0000
,  // measure 55
1000
0100
0010
0100
1000
0010
0100
0001
,  // measure 56
1100
0000
0001
0110
0000
0011
0100
0100
,  // measure 57
1000
0000
0001
0010
0001
0000
1000
0000
0010
0000
0100
0000
0010
0000
0000
0000
,  // measure 58
1000
0000
0100
0010
0100
0000
1000
0000
0001
0000
0010
0000
0100
1000
0100
0000
,  // measure 59
0010
0000
0001
1000
0001
0000
0100
0000
0010
0000
1000
0000
0001
0000
0000
0000
,  // measure 60
0010
0000
0100
1000
0100
0000
0010
0000
0001
0000
1000
0000
0010
0100
0010
0000
,  // measure 61
1000
0010
0100
0001
1000
0100
0011
0000
,  // measure 62
0100
1000
0010
0100
0001
0010
1100
0000
,  // measure 63
1010
1001
0101
0011
1100
0000
0022
0000
,  // measure 64
0033
0000
0000
0000
0110
0000
0000
0000
1000
0000
0010
0100
0010
0000
0100
0010
,  // measure 65
0100
0001
0010
0100
1000
0010
0101
0000
,  // measure 66
0010
1000
0100
0010
0001
0100
1010
0000
,  // measure 67
0100
0010
0001
0100
0010
1000
1100
0000
,  // measure 68
0010
0000
0001
0000
1000
0000
0010
0000
0100
0000
0001
0000
0011
0000
0001
1000
,  // measure 69
0001
0100
0010
1000
0001
0100
1010
0000
,  // measure 70
1000
0100
0010
0001
1000
0100
0011
0000
,  // measure 71
0001
1000
0010
0100
0001
0010
0100
0010
,  // measure 72
0001
0000
0010
0000
0100
0000
1000
0000
0001
0000
1000
0000
022M
0000
0000
M000
0000
0000
033M
0000
0000
0000
0000
0000
,  // measure 73
0001
0010
1000
0010
0001
0100
0010
0100
,  // measure 74
0001
0010
1000
0010
0001
0100
1000
0100
,  // measure 75
0001
1000
0100
0001
0100
1000
0010
0100
,  // measure 76
0010
1000
0100
0001
0100
1000
0010
0001
,  // measure 77
0010
1000
0100
0001
1000
0010
0001
0100
,  // measure 78
0001
0010
1000
0001
0100
1000
0010
0100
,  // measure 79
0010
1000
0001
0100
1000
0001
0010
1000
,  // measure 80
0100
1000
0010
0001
1000
0100
0001
0010
,  // measure 81
0001
0100
0010
1000
0100
0001
0100
1000
,  // measure 82
0010
0100
0001
0010
1000
0010
0001
0100
,  // measure 83
0010
1000
0100
0010
0001
0100
1000
0100
,  // measure 84
0001
0010
0100
1000
0010
0001
0010
1000
,  // measure 85
0100
0100
0010
0010
0001
0001
1000
1000
,  // measure 86
0010
0010
0100
0100
0001
0001
1000
1000
,  // measure 87
0001
0010
0100
1000
0001
0010
0100
1000
,  // measure 88
0001
0010
0100
1000
0001
0010
0100
1000
0001
1000
0100
0010
0001
1000
0100
0010
,  // measure 89
0001
0000
0101
0101
0000
1010
0000
1100
,  // measure 90
1100
0000
0011
0011
0000
0101
0000
1010
,  // measure 91
1010
0000
1100
1100
0000
0011
0000
1001
,  // measure 92
0000
0101
1010
0000
1100
1010
1001
0000
,  // measure 93
M22M
M00M
M00M
M00M
,  // measure 94
M33M
0000
0000
0000
;

//---------------dance-single - Joel S.----------------
#NOTES:
     dance-single:
     Joel S.:
     Hard:
     9:
     0.887,0.000,0.763,1.000,0.105:
0000
0000
0000
0000
,
0000
0000
0000
0000
,
0000
0000
0000
0000
,
0000
0000
0000
0000
0000
0000
0000
0000
1000
0000
0000
0001
1000
0000
1000
0000
,
0001
0101
0001
0101
,
0001
0101
0001
0101
,
0001
0101
0001
0101
,
1000
0000
0001
1000
0000
1000
0001
0000
,
2010
0100
0010
0100
,
0010
3100
0101
0011
,
2010
0100
0010
0100
,
0010
3100
1001
0101
,
0012
0000
0100
0000
0010
0000
1003
0001
,
0100
0000
0100
0001
2000
0000
3200
0000
,
0320
0001
0100
1000
,
0031
0000
1000
0001
0000
0001
1000
0001
,
2010
0100
0010
0100
,
0010
3100
0101
0011
,
2010
0100
0010
0100
,
0010
3100
1001
0101
,
0012
0000
0100
0000
0010
0000
1003
0001
,
0100
0000
0100
0001
2000
0000
3200
0000
,
0301
0100
1000
0100
1010
0000
0101
0000
,
0000
0000
0000
0000
0110
0000
0000
0000
1000
0000
0001
1000
0001
0000
1000
0000
,
0002
0023
0000
0230
1300
0000
2002
3003
,
0020
0230
0000
0302
1003
0000
1002
0013
,
0200
0000
0320
0000
0000
0000
0032
0000
2003
3001
0200
0000
0320
0000
0030
0000
,
2000
0000
3020
0000
0230
0000
0320
0000
1030
0001
1000
0000
0200
0000
0300
0000
,
2000
3200
0000
0320
0031
0000
2002
3003
,
0200
0320
0000
2030
3001
0000
2001
3100
,
0020
0000
0230
0000
0000
0000
2300
0000
3002
1003
0020
0000
0230
0000
0300
0000
,
0002
0000
0203
0000
0320
0000
0230
0000
0301
1000
0001
0000
0020
0000
0030
0000
,
0002
0023
0000
0230
1300
0000
2002
3003
,
0020
0230
0000
0302
1003
0000
1002
0013
,
0200
0000
0320
0000
0000
0000
0032
0000
2003
3001
0200
0000
0320
0000
0030
0000
,
2000
0000
3020
0000
0230
0000
0320
0000
1030
0001
1000
0000
0200
0000
0300
0000
,
2000
3200
0000
0320
0031
0000
2002
3003
,
0200
0320
0000
2030
3001
0000
2001
3100
,
0020
0000
0230
0000
0000
0000
2300
0000
3002
1003
0020
0000
0230
0000
0300
0000
,
0002
0000
0203
0000
0320
0000
0230
0000
0301
1000
0001
0000
0020
0000
0030
0000
,
1001
0000
0001
0011
0000
0100
1100
0000
,
1001
0000
0010
1010
0000
0100
0101
0000
,
1001
0000
1000
0110
0000
0001
0110
0000
,
1000
0001
0100
0010
0000
0010
0110
0000
,
1001
0000
0001
1010
0000
1000
0101
0000
,
1001
0000
0100
1001
0000
0010
1001
0000
,
1001
0000
0010
1001
0000
0100
1001
0000
,
1000
0100
0010
0001
1000
0100
0010
0001
,
2000
0001
0100
0001
,
0100
0100
3002
0023
,
0230
0001
0010
0001
,
0010
0001
0320
0032
,
2003
0000
0000
0001
0000
0000
0100
0000
0000
3001
1000
0001
,
0100
0000
0000
0100
0001
1000
0002
0000
0000
0023
0000
0000
,
0230
0001
1000
0001
,
1300
0000
0001
1020
0030
0100
0021
0030
,
2000
0001
0100
0001
,
0100
0001
3002
0023
,
0230
0010
1000
0010
,
1000
0010
0320
0032
,
2003
0000
0000
0010
0000
0000
0100
0000
0000
3001
1000
0001
,
0100
0000
0000
0100
0001
1000
0002
0000
0000
0023
0000
0000
,
0130
0100
0100
0100
1001
0000
0110
0000
,
0000
0000
0100
0000
1001
0000
0000
0000
1000
0000
0001
1000
0001
0000
1000
0000
,
0001
0000
1000
0000
0010
0000
0100
0001
2000
0000
0010
0000
3010
0000
0000
0000
,
1000
0001
0100
1000
0100
0001
0001
0000
,
0010
0100
1000
0010
1000
0100
0100
0000
,
1000
0001
0100
1000
0100
0001
0001
0000
,
0010
0100
1000
0010
1000
0110
0110
0000
,
1000
0001
0100
1000
0100
1001
1001
0000
,
0001
1000
0010
0001
0010
1000
1000
0001
,
1000
0000
0001
0000
1000
0000
0001
0000
1000
0000
0001
0000
2000
0000
0000
0000
0000
0000
0020
0000
0000
3030
0000
0000
,
1000
0000
0010
0000
0200
0310
1000
0000
,
0001
0000
0010
0000
0200
0310
0001
0000
,
0010
0000
0100
0000
0020
1030
0001
0000
,
0100
0000
1000
0000
0002
1003
0001
0000
,
0100
0000
1000
0000
0002
1003
0100
0000
,
0010
0000
1000
0000
0002
1003
0010
0000
,
1000
0000
0001
0000
2000
3100
0010
0000
,
0001
0000
0100
0000
0020
0130
0010
0000
,
0100
0001
1000
0001
1000
0001
1000
0001
,
0100
0001
0100
0001
0100
0001
0100
0001
,
0010
0100
0010
0100
0010
0100
0010
0100
,
0010
0001
0010
0001
0010
0001
0010
0000
,
1100
1010
1001
0011
,
1100
1010
1001
0011
,
0001
0010
0100
1000
0001
0010
0100
1000
,
0001
1000
0100
0010
0001
0001
0010
0100
,
1000
0000
1100
1100
0000
0011
0000
1010
,
1010
0000
0101
0101
0000
1001
0000
0110
,
0110
0000
1100
0011
0000
1001
0000
0110
,
0000
1001
0110
0000
1001
0110
1001
0000
,
2002
0000
0000
0000
,
3003
0000
0000
0000
;

//---------------dance-single - M. Simmons----------------
#NOTES:
     dance-single:
     M. Simmons:
     Medium:
     6:
     0.509,0.000,0.473,0.079,0.000:
0000
0000
0000
0000
,
0000
0000
0000
0000
,
1001
0000
0000
0000
,
0000
0000
0000
0000
,
0001
0000
0000
0100
0000
0000
0010
0000
,
1000
0000
0000
0001
0000
0000
0100
0000
,
0001
0000
1001
0000
,
0100
0000
0000
0100
0000
0000
0100
0000
,
0010
1000
0001
0100
,
0001
1000
1001
1001
,
1001
0001
0100
0001
,
1000
0100
0110
0110
,
0110
0100
1000
0001
,
1001
0100
0010
0100
,
1001
0001
1000
0100
,
1001
0000
0000
1001
0000
0000
1001
0000
,
0100
0010
1000
0001
,
0100
0001
1100
1100
,
1100
0001
0100
0010
,
0100
0001
0011
0011
,
0011
0010
0100
1000
,
1001
0100
0010
0100
,
4004
0000
0000
3003
,
0000
1001
0000
0000
,
0010
1000
0001
0100
,
0001
1000
0100
0010
,
0100
1000
0001
0100
,
1001
0000
0000
1001
0000
0000
0001
0000
,
1001
0100
0001
0100
,
0010
1000
0100
0010
,
0001
0010
0100
1000
,
0010
0000
0000
0110
0000
0000
0100
0000
,
0110
0010
1000
0001
,
0100
0001
1000
0100
,
0010
0001
0100
0010
,
1000
0000
0000
0011
0000
0000
0010
0000
,
0011
0010
0100
1000
,
0001
0100
0001
1000
,
0010
0100
0010
1000
,
0001
0000
0000
1001
0000
0000
1000
0000
,
1001
0000
0001
0010
0000
0100
1000
0000
,
0001
0000
1000
0100
0000
0010
0001
0000
,
1000
0000
0010
0100
0000
0100
0010
0000
,
2000
3200
0320
0032
,
1003
0000
0010
0100
0000
0100
0001
0000
,
1000
0000
0100
0010
0000
0010
0001
0000
,
1000
0000
0001
0100
0000
0100
0010
0000
,
0200
0302
2003
3200
,
0310
0001
1000
0001
,
0100
0010
0110
0110
,
0110
0010
1000
0001
,
0100
0001
1100
1100
,
1100
1000
0001
0100
,
1001
0001
0100
0010
,
0110
0100
0001
1000
,
0011
0000
0000
0011
0000
0000
0010
0000
,
0011
0001
1000
0010
,
0100
0001
0110
0110
,
0110
0100
0001
1000
,
0100
0010
1001
1001
,
1001
0100
0010
1000
,
1001
0001
0100
0001
,
4004
0000
0000
3003
,
0000
1001
0000
0000
,
0100
0000
0001
0000
1000
0100
1000
0000
,
0001
0000
0100
0000
0010
0100
0010
0000
,
0100
0000
0001
0000
1000
0001
1000
0000
,
0001
0001
1000
1000
,
0001
0000
0100
0000
0010
1000
0010
0000
,
0100
0000
0001
0000
1000
0100
1000
0000
,
0001
0000
0100
0000
0010
0100
0010
0000
,
1000
0001
2001
0000
,
3001
0100
0010
1000
,
0001
0100
0001
1000
,
0100
0010
0001
0010
,
0001
1000
0001
0100
,
0010
0100
0001
1000
,
0100
1000
0001
0100
,
0010
1000
0001
0100
,
0001
1000
0100
0010
,
0001
0010
0001
0010
,
0001
0010
0001
0010
,
0100
1000
0100
1000
,
0100
1000
0100
1000
,
0001
0100
0010
1000
,
0001
0100
0010
1000
,
0001
1000
0001
1000
,
4004
0000
0000
3003
,
0001
0000
0100
0100
0000
0010
0000
1000
,
1000
0000
0100
0100
0000
0010
0000
0001
,
0001
0000
1000
1000
0000
0001
0000
0100
,
0000
0010
1000
0000
0001
1000
0001
0000
,
1001
0000
0000
0000
;

//---------------dance-single - M. Simmons----------------
#NOTES:
     dance-single:
     M. Simmons:
     Easy:
     3:
     0.291,0.000,0.035,0.079,0.000:
0000
0000
0000
0000
,
0000
0000
0000
0000
,
0000
0000
0000
0000
,
0000
0000
0000
0000
,
1000
0000
0001
0000
,
0100
0000
0001
0000
,
1000
0000
0100
0000
,
0010
0010
0010
0000
,
0001
1000
0000
0001
,
0000
0100
0010
0100
,
0010
0100
0000
0001
,
0000
1000
0100
1000
,
0100
0010
0000
0001
,
0010
0010
0000
0100
,
1000
1000
0000
0001
,
1000
0000
0000
0001
0000
0000
1000
0000
,
0010
0100
0000
0010
,
0000
1000
0001
1000
,
0001
0100
0000
0010
,
0000
0100
0010
1000
,
0010
1000
0000
0001
,
0100
0100
0000
0001
,
2000
0000
0000
0000
,
0000
3001
0000
0000
,
0010
0000
0100
0000
,
0010
0000
0001
0000
,
1000
0000
0010
0000
,
0100
0000
0000
0100
0000
0000
0100
0000
,
0100
0000
0010
0000
,
1000
0000
0001
0000
,
0100
0000
0001
0000
,
1000
0000
0000
1000
0000
0000
1000
0000
,
1000
0000
0100
0000
,
0010
0000
0001
0000
,
1000
0000
0001
0000
,
0100
0000
0000
0100
0000
0000
0100
0000
,
0100
0000
0010
0000
,
1000
0000
0001
0000
,
0100
0000
0001
0000
,
0010
0000
0000
0010
0000
0000
0010
0000
,
0010
0000
0000
0100
0000
0000
0000
0000
,
1000
0000
0000
0001
0000
0000
0000
0000
,
0100
0000
0000
0001
0000
0000
0000
0000
,
2002
0000
0000
3003
,
0100
0000
0000
0010
0000
0000
0000
0000
,
1000
0000
0000
0100
0000
0000
0000
0000
,
0010
0000
0000
0001
0000
0000
0000
0000
,
0220
0000
0000
0330
,
1000
0100
0000
0010
,
0000
0001
1000
0100
,
1000
0100
0000
0010
,
0000
0001
1000
0001
,
0100
0100
0000
0001
,
1000
1000
0000
0100
,
0010
0010
0000
0001
,
1000
0000
0000
0001
0000
0000
1000
0000
,
1000
0100
0000
0010
,
0000
0001
1000
0100
,
0010
0001
0000
0010
,
0000
0001
1000
0001
,
0100
0010
0000
0100
,
0010
0010
0000
1000
,
0002
0000
0000
0000
,
0000
1003
0000
0000
,
0100
0000
0000
1000
0000
0000
0001
0000
,
0001
0000
0000
0100
0000
0000
0010
0000
,
0010
0000
0000
1000
0000
0000
0100
0000
,
0100
0000
0000
0010
0000
0000
0010
0000
,
0010
0000
0000
0001
0000
0000
0100
0000
,
0100
0000
0000
0010
0000
0000
1000
0000
,
1000
0000
0000
0001
0000
0000
0010
0000
,
0020
0000
0001
0000
,
0130
1000
0000
0001
,
0000
0100
0000
0010
,
0000
0100
0000
0001
,
0000
1000
0000
0100
,
0000
0010
0000
0001
,
0000
1000
0000
0010
,
0000
0100
0000
0010
,
0000
1000
0000
0001
,
0000
1000
0000
0100
,
0000
0010
0000
0001
,
0000
1000
0000
0001
,
0000
0100
0000
0010
,
1000
0100
1000
0100
,
0010
0001
0010
0001
,
2000
0000
0000
0000
,
0002
0000
0000
3003
,
1001
0000
0000
0001
0000
0100
0000
0000
,
0010
0000
0000
1000
0000
0001
0000
0000
,
0100
0000
0000
0001
0000
1000
0000
0100
,
0000
0010
0001
1000
,
1001
0000
0000
0000
;

//---------------dance-single - M. Simmons----------------
#NOTES:
     dance-single:
     M. Simmons:
     Beginner:
     1:
     0.093,0.000,0.018,0.009,0.000:
0000
0000
0000
0000
,
0000
0000
0000
0000
,
0000
0000
0000
0000
,
0000
0000
0000
0000
,
0001
0000
0000
0000
,
1000
0000
0000
0000
,
0100
0000
0000
0000
,
1000
0000
0000
0000
,
0001
0000
0000
0000
,
0000
0000
0000
0000
,
0100
0000
0000
0000
,
0000
0000
0000
0000
,
0010
0000
0000
0000
,
0010
0000
0000
0000
,
0010
0000
0000
0000
,
0000
0000
0000
0000
,
1000
0000
0000
0000
,
0000
0000
0000
0000
,
0001
0000
0000
0000
,
0000
0000
0000
0000
,
1000
0000
0000
0000
,
1000
0000
0000
0000
,
1001
0000
0000
0000
,
0000
0000
0000
0000
,
1000
0000
0000
0000
,
0100
0000
0000
0000
,
1000
0000
0000
0000
,
0001
0000
0000
0000
,
0100
0000
0000
0000
,
0010
0000
0000
0000
,
0100
0000
0000
0000
,
0001
0000
0000
0000
,
1000
0000
0000
0000
,
0100
0000
0000
0000
,
1000
0000
0000
0000
,
0001
0000
0000
0000
,
1000
0000
0000
0000
,
0100
0000
0000
0000
,
0010
0000
0000
0000
,
0001
0000
0000
0000
,
1000
0000
0000
0000
,
0000
0000
0000
0000
,
0100
0000
0000
0000
,
0000
0000
0000
0000
,
0010
0000
0000
0000
,
0000
0000
0000
0000
,
0001
0000
0000
0000
,
0000
0000
0000
0000
,
1000
0000
0000
0000
,
0000
0000
0000
0000
,
0001
0000
0000
0000
,
0000
0000
0000
0000
,
0100
0000
0000
0000
,
0100
0000
0000
0000
,
0100
0000
0000
0000
,
0000
0000
0000
0000
,
0010
0000
0000
0000
,
0000
0000
0000
0000
,
1000
0000
0000
0000
,
0000
0000
0000
0000
,
0001
0000
0000
0000
,
0001
0000
0000
0000
,
1001
0000
0000
0000
,
0000
0000
0000
0000
,
1000
0000
0000
0000
,
1000
0000
0000
0000
,
1000
0000
0000
0000
,
1000
0000
0000
0000
,
0001
0000
0000
0000
,
0001
0000
0000
0000
,
0001
0000
0000
0000
,
0001
0000
0000
0000
,
0100
0000
0000
0000
,
0100
0000
0000
0000
,
0100
0000
0000
0000
,
0100
0000
0000
0000
,
0010
0000
0000
0000
,
0010
0000
0000
0000
,
0010
0000
0000
0000
,
0010
0000
0000
0000
,
1000
0000
0000
0000
,
0001
0000
0000
0000
,
1000
0000
0000
0000
,
0001
0000
0000
0000
,
1000
0000
1000
0000
,
1000
0000
1000
0000
,
0001
0000
0001
0000
,
0002
0000
0000
0000
,
0003
0000
0000
0000
;

//---------------dance-double - D. Bernardone----------------
#NOTES:
     dance-double:
     D. Bernardone:
     Easy:
     4:
     0.359,0.041,0.430,0.210,0.000:
00000000
00000000
00000000
00000000
,
00000000
00000000
00000000
10000000
,
10010000
00000000
00000000
00000000
,
00000000
00000000
00001000
00001000
,
00001000
00010000
00000000
00000100
,
00000000
00001000
00000000
00000010
,
00000000
00000100
00000000
00000001
,
00000001
00000000
00001001
00000000
,
00001000
00000010
00000000
00010000
,
00000000
00001000
00000000
00010000
,
00000000
01000000
00000000
10000000
,
00000000
00100000
00000000
01000000
,
00000000
00100000
00000000
00010000
,
00000000
00001000
00000000
00010000
,
00000000
00001000
00000000
00000100
,
00000000
00000010
00000000
00001000
,
00000000
00000001
00000000
00000010
,
00000000
00000100
00000000
00000010
,
00000000
00000001
00000000
00000100
,
00000000
00001000
00000000
00010000
,
00000000
00001000
00000000
00010000
,
00000000
00100000
00000000
10000000
,
10000000
01000000
00100000
01100000
,
00000000
10010000
00000000
00000000
,
00020000
00000000
01030000
01000000
,
00002000
00000000
00013000
00010000
,
00000020
00000000
00001030
00001000
,
00000002
00000023
00000130
00000100
,
00002000
00000000
00003010
00000010
,
00020000
00000000
00031000
00001000
,
00200000
00000000
00310000
00010000
,
20000000
32000000
03100000
00100000
,
00020000
00000000
01030000
01000000
,
00002000
00000000
00013000
00010000
,
00000020
00000000
00000130
00000100
,
00000002
00000203
00000310
00000010
,
00002000
00000000
00003100
00000100
,
00020000
00000000
00031000
00001000
,
02000000
00000000
03010000
00010000
,
20000000
30200000
01300000
01000000
,
10010000
00000000
00000000
00000000
,
00011000
00000000
00000000
00000000
,
00001001
00000000
00000000
00000000
,
00011000
00001000
00100000
00100000
,
01100000
00000000
00000000
00000000
,
00011000
00000000
00000000
00000000
,
00000110
00000000
00000000
00000000
,
00011000
00010000
00000010
00001000
,
00001000
00000001
00000000
00000100
,
00000000
00000010
00000000
00010000
,
00000000
00001000
00000000
00010000
,
00000000
01000000
00000000
00100000
,
00000000
00010000
00000000
10000000
,
00000000
00100000
00000000
00010000
,
00000000
00001000
00000000
00010000
,
00000000
00001000
00000000
00000010
,
00000000
00000001
00000000
00000100
,
00000000
00000001
00000000
00000010
,
00000000
00001000
00000000
00010000
,
00000000
00001000
00000000
00010000
,
00000000
01000000
00000000
10000000
,
00000000
00010000
00000000
10000000
,
01000000
00100000
00010000
10010000
,
00000000
01100000
00000000
00000000
,
10000000
01000000
00010000
00000000
,
01000000
00010000
00001000
00000000
,
00010000
00001000
00000100
00000000
,
00001000
00000100
00000001
00000001
,
00000001
00000010
00001000
00000000
,
00000010
00001000
00010000
00000000
,
00001000
00010000
00100000
00000000
,
00010000
00100000
20020000
30030000
,
10010000
00000000
00000000
00000000
,
01010000
00000000
00000000
00000000
,
01001000
00000000
00000000
00000000
,
00011000
00000000
00000000
00000000
,
00010100
00000000
00000000
00000000
,
00001100
00000000
00000000
00000000
,
00001001
00000000
00000000
00000000
,
00000110
00000000
00000000
00000000
,
00001001
00000000
00001001
00000000
,
00001010
00000000
00001010
00000000
,
00010010
00000000
00010010
00000000
,
00011000
00000000
00011000
00000000
,
00101000
00101000
00101000
00101000
,
00110000
00110000
00110000
00110000
,
01100000
01100000
10010000
10010000
,
01100000
10010000
01100000
10010000
,
01100000
00000000
10000000
00000000
,
01000000
00000000
00010000
00000000
,
00001000
00000000
00000010
00000000
,
00000001
00000000
00001000
00000100
,
00002002
00000000
00000000
00000000
,
00000000
00000000
00003003
00000000
;

//---------------dance-double - D. Bernardone & edited by Orangelove----------------
#NOTES:
     dance-double:
     D. Bernardone & edited by Orangelove:
     Challenge:
     11:
     0.824,0.041,0.833,0.096,0.057:
00000000
00000000
00000000
00000000
,
00000000
00000000
00000000
10000000
,
00011000
00000000
00000000
00000000
,
00000000
00000000
00000000
00000000
00000000
00000000
00000000
00000000
00000001
00000000
00000000
00000010
00000100
00000000
00001000
00000000
,
00001001
00000000
00000001
00000100
00001000
00010000
01000000
10000000
,
10010000
00000000
10000000
01000000
00010000
00001000
00000100
00000001
,
00001001
00000000
00000001
00001000
00001010
00000000
00000010
00010000
,
00011000
00000000
00001000
00101000
00000000
00100000
00110000
00000000
,
10010000
00000000
10000000
01000000
00010000
00001000
00010000
00100000
,
00010000
00001000
00000010
00000001
00000200
00000000
00001300
00000000
,
00011000
00000000
00010000
00100000
01000000
00010000
00100000
01000000
,
00010000
00001000
00000100
00001000
00020000
00000000
01030000
00000000
,
11000000
00000000
00100000
00001000
00010000
00000100
00000010
00000000
,
00011000
00000000
00000010
00000100
00001000
00010000
01000000
00000000
,
00100000
00010000
01000000
00001000
00010000
00100000
10000000
00000000
,
10010000
00000000
01000000
01001000
00000000
00001000
00010000
00000100
,
00000110
00000000
00000001
00000010
00001000
00010000
00100000
00010000
,
00001000
00000100
00000010
00001000
00000200
00000000
00010300
00000000
,
00110000
00000000
01000000
00100000
00010000
00001000
00000010
00001000
,
00010000
01000000
00010000
00001000
00000200
00000000
00000301
00000000
,
00010010
00000000
00001000
00000100
00000010
00001000
00010000
00000000
,
10010000
00000000
00100000
00010000
00001000
00000010
00000001
00000000
,
00001001
00001000
00000100
00010000
00100000
00000000
10100000
00000000
,
00000000
00000101
00000000
00000000
,
00001000
00000010
00010000
01000000
00100000
00000000
10010000
00000000
,
00010000
01000000
00001000
00000100
00000010
00000000
00001010
00000000
,
00001000
00000100
00010000
00100000
10000000
00000000
11000000
00000000
,
10000000
00000000
00010000
00000000
01000000
00010000
01000000
00000000
00001000
00000000
00010000
00000000
00000100
00001000
00000100
00000000
,
00001000
00000010
00010000
00100000
10000000
00000000
10010000
00000000
,
00010000
00100000
00001000
00000100
00000010
00000000
00000110
00000000
,
00001000
00000100
00010000
01000000
00100000
00000000
00110000
00000000
,
10000000
00000000
00010000
00000000
00100000
00010000
00100000
00000000
00001000
00000000
00010000
00000000
00000010
00001000
00000010
00000000
,
00000100
00001000
01000000
00100000
10000000
00000000
11000000
00000000
,
00010000
01000000
00001000
00000010
00000001
00000000
00000101
00000000
,
00001000
00000010
00010000
01000000
10000000
00000000
10010000
00000000
,
10000000
00000000
00010000
00000000
01000000
00100000
01000000
00000000
00001000
00000000
00010000
00000000
00000100
00000010
00000100
00000000
,
00000010
00001000
00100000
01000000
10000000
00000000
10100000
00000000
,
00100000
00010000
00000010
00000100
00000001
00000000
00000011
00000000
,
00000001
00000100
00010000
01000000
00100000
00000000
10100000
00000000
,
10000000
00000000
00010000
00000000
00100000
01000000
00100000
00000000
00001000
00000000
00010000
00000000
00000010
00000100
00000010
00000000
,
00001000
00000000
00000100
00000010
00000000
00010000
00100000
00000000
,
10010000
00000000
00010000
01000000
00000000
00000010
00001000
00000000
,
00000011
00000000
00001000
00000100
00000000
00100000
00010000
00000000
,
10000000
01000000
00010000
00000100
00000000
00000100
00010000
01000000
,
10000000
00000000
00010000
00100000
00000000
00001000
00000100
00000000
,
00000101
00000000
00001000
00000010
00000000
00010000
01000000
00000000
,
10010000
00000000
00010000
00100000
00000000
00001000
00000010
00000000
,
00000001
00000001
00000100
00001000
01000000
01000000
00001000
00000100
,
00000001
00000000
00001000
00000010
00000001
00000010
00001000
00000100
,
00000010
00001000
00010000
00100000
02000000
00000000
03001000
00000000
,
00110000
00000000
10000000
00100000
00010000
00001000
00000010
00000100
,
00001000
00000100
00000010
00000001
00000200
00000000
00001300
00000000
,
00010010
00000000
00001000
00000100
00010000
00001000
00100000
00000000
,
10010000
00000000
00100000
01000000
00001000
00010000
00000100
00000000
,
00001001
00000000
00000010
00000100
00000000
00001000
00000100
00010000
,
00011000
00000000
00001000
00101000
00000000
00100000
00110000
00000000
,
10010000
00000000
10000000
01000000
00010000
00001000
00000100
00001000
,
00010000
00000010
00000100
00000001
00002000
00000000
00003100
00000000
,
00011000
00000000
01000000
00001000
00100000
01000000
00100000
00010000
,
01000000
00100000
00010000
00001000
00020000
00000000
00030100
00000000
,
00001001
00000000
00000100
00001000
00010000
00001000
01000000
00000000
,
10010000
00000000
00100000
00010000
00001000
00010000
00000010
00000000
,
00001001
00001000
00000010
00010000
01000000
00000000
11000000
00000000
,
00000000
00000011
00000000
00000000
,
00000001
00000100
00001000
00010000
01000000
10000000
00010000
00000000
,
10000000
00100000
00001000
00000010
00001000
00100000
10000000
00000000
,
10000000
01000000
00010000
00001000
00000100
00000001
00001000
00000000
,
00000001
00000010
00010000
00100000
00010000
00000010
00000001
00000001
,
00001000
00000010
00001000
00100000
00001000
00000010
00000100
00000000
,
00000001
00000010
00001000
00010000
00100000
10000000
00010000
00000000
,
00010000
00100000
00010000
00000010
00010000
00100000
01000000
00000000
,
10000000
00100000
00010000
00001000
00000100
00000001
00002000
00000000
00000000
00003000
00000000
00000000
,
00000101
00000001
00001000
00000010
00010000
00001000
01000000
00000000
,
01001000
00001000
00100000
01000000
00010000
01000000
10000000
00000000
,
11000000
01000000
00100000
00001000
00010000
00000100
00000010
00000000
,
00000110
00000100
00001000
00000001
00000100
00001000
00010000
00000000
,
01010000
01000000
00100000
10000000
01000000
00100000
00001000
00000000
,
00101000
00100000
00010000
01000000
00001000
00010000
00000010
00000000
,
00010010
00010000
00001000
00000100
00000001
00001000
00000010
00000000
,
00001010
00001000
00000100
00000010
00001000
00010000
01000000
00000000
,
10010000
01000000
00011000
00000100
,
00001010
00010000
00110000
00001000
,
00001100
00000010
00011000
00000010
,
00110000
10000000
01100000
00001000
,
00011000
00010010
00001001
00000110
,
00010100
00001010
00110000
01001000
,
10000000
01000000
00010000
00000010
00000100
00000001
00000010
00010000
,
00100000
00000010
00010000
00000001
00000010
00000100
01000000
00100000
,
10000000
00000000
01010000
01001000
00000000
00011000
00000000
00010100
,
00001100
00000000
00001010
00010010
00000000
00011000
00000000
00101000
,
00110000
00000000
01100000
01010000
00000000
00011000
00000000
00001100
,
00000000
00000110
00001001
00000000
00001010
00010010
00011000
00000000
,
20020000
00000000
00000000
00000000
,
00000000
00000000
30030000
00000000
;

//---------------dance-double - D. Bernardone----------------
#NOTES:
     dance-double:
     D. Bernardone:
     Medium:
     7:
     0.615,0.041,0.491,0.114,0.004:
00000000
00000000
00000000
00000000
,
00000000
00000000
00000000
00000001
,
00000110
00000000
00000000
00000000
,
00000000
00000000
00000000
00000000
00001000
00000000
00000100
00010000
,
00010100
00010000
00001000
00100000
,
00110000
00010000
01000000
00100000
,
10100000
10000000
10010000
00010000
,
00110000
00000000
00100000
00100000
00000000
00001000
00001000
00000000
,
00011000
00000000
00010000
00000010
00000000
00000010
00001000
00000000
,
00000100
00000000
00000010
00000001
00000000
00000001
00000100
00000000
,
00000010
00000000
00001000
00000100
00000000
00000100
00010000
00000000
,
00001000
00000000
01000000
00010000
00000000
00010000
00100000
00000000
,
01000000
00000000
10000000
00100000
00000000
00100000
01000000
00000000
,
00001000
00000000
00010000
00000100
00000000
00000100
00000010
00000000
,
00000011
00000000
00000001
00000000
00000100
00000010
00001000
00000000
,
00000100
00000000
00010000
00010000
00000000
00001000
00001000
00000000
,
00011000
00000000
00010000
00000100
00000000
00000100
00001000
00000000
,
00000010
00000000
00010000
00001000
00000000
00001000
00100000
00000000
,
00010000
00000000
01000000
00100000
00000000
00100000
10000000
00000000
,
01000000
00000000
00100000
00001000
00000000
00001000
00010000
00000000
,
00000100
00000000
00001000
00000010
00000000
00000010
00000100
00000000
,
00000001
00000000
00000010
00000100
00000000
00000100
00001000
00000000
,
00000001
00000010
00001000
00000010
00000001
00000000
00000101
00000000
,
00000000
00001010
00000000
00000000
,
00001000
00000100
00001000
00000000
00000100
00000000
00000100
00000000
,
00010000
00001000
00010000
00000000
00001000
00000000
00001000
00000000
,
01000000
00010000
01000000
00000000
00010000
00000000
00010000
00000000
,
00100000
01000000
10000000
00010000
02000000
00000000
03100000
00000000
,
10000000
00010000
10000000
00000000
00010000
00000000
00010000
00000000
,
00100000
00001000
00100000
00000000
00001000
00000000
00001000
00000000
,
00010000
00001000
00010000
00000000
00001000
00000000
00001000
00000000
,
00010000
00000010
00001000
00000100
00000020
00000000
00000031
00000000
,
00001000
00000010
00001000
00000000
00000010
00000000
00000010
00000000
,
00010000
00001000
00010000
00000000
00001000
00000000
00001000
00000000
,
00100000
00010000
00100000
00000000
00010000
00000000
00010000
00000000
,
10000000
00100000
01000000
00010000
00200000
00000000
01300000
00000000
,
10000000
00010000
10000000
00000000
00010000
00000000
00010000
00000000
,
01000000
00001000
01000000
00000000
00001000
00000000
00001000
00000000
,
00010000
00001000
00010000
00000000
00001000
00000000
00001000
00000000
,
00010000
00000100
00001000
00000010
00000200
00000000
00000301
00000000
,
00001001
00000000
00000001
00000100
00000000
00000100
00000010
00000000
,
00010010
00000000
00010000
00001000
00000000
00001000
01000000
00000000
,
01100000
00000000
00100000
10000000
00000000
10000000
00010000
00000000
,
10000000
01000000
00010000
01000000
10000000
00010000
10000000
10000000
,
10010000
00000000
10000000
01000000
00000000
01000000
00100000
00000000
,
00101000
00000000
00001000
00010000
00000000
00010000
00000100
00000000
,
00000110
00000000
00000010
00000001
00000000
00000001
00001000
00000000
,
00000001
00000100
00001000
00000100
00000001
00000010
00001000
00000010
,
00000001
00000000
00000100
00000010
00000000
00000010
00001000
00000000
,
00000100
00000000
00010000
00001000
00000000
00001000
01000000
00000000
,
00010000
00000000
00100000
01000000
00000000
01000000
00010000
00000000
,
00001000
00000000
01000000
00010000
00000000
00010000
00100000
00000000
,
01000000
00000000
10000000
00100000
00000000
00100000
01000000
00000000
,
00001000
00000000
00010000
00000100
00000000
00000100
00001000
00000000
,
00000001
00000000
00000010
00001000
00010000
00000000
00001000
00000000
,
00010000
00000000
00001000
00001000
00000000
01000000
01000000
00000000
,
00010000
00000000
00100000
01000000
00000000
01000000
10000000
00000000
,
00010000
00000000
01000000
00001000
00000000
00001000
00010000
00000000
,
00000010
00000000
00000100
00001000
00000000
00001000
00010000
00000000
,
00000100
00000000
00000010
00000001
00000000
00000001
00000100
00000000
,
00000010
00000000
00010000
00001000
00000000
00001000
00100000
00000000
,
00010000
00000000
01000000
00010000
00000000
00010000
10000000
00000000
,
00100000
00010000
00001000
00010000
00100000
00000000
10100000
00000000
,
00000000
01010000
00000000
00000000
,
20000000
00000000
31000000
00100000
01000000
00000000
10000000
00000000
,
00020000
00000000
01030000
00001000
01000000
00000000
00010000
00000000
,
00200000
00000000
00301000
00010000
00001000
00000000
00010000
00000000
,
00000020
00000000
00001030
00000100
00001000
00000000
00000001
00000001
,
00000020
00000000
00000130
00010000
00000100
00000000
00001000
00000000
,
00000020
00000000
00010030
00001000
00010000
00000000
00001000
00000000
,
00200000
00000000
00310000
01000000
00010000
00000000
10000000
00000000
,
00400000
04000000
00000000
00000000
00000000
00000000
03300000
00000000
00000000
00000000
00000000
00000000
,
10010000
00010000
01000000
00001000
,
00011000
00010000
00000010
00001000
,
00001100
00000100
00000010
00000001
,
00000101
00000100
00000010
00010000
,
00011000
00001000
00100000
01000000
,
01100000
00100000
00010000
01000000
,
01100000
00100000
10000000
01000000
,
01100000
00100000
00001000
00010000
,
00011000
00001000
00011000
00010000
,
00010100
00000100
00010100
00010000
,
00010010
00000010
00010010
00010000
,
00011000
00001000
00011000
00001000
,
00101000
00101000
01001000
01001000
,
00011000
00011000
00010100
00010100
,
00010010
00001010
00000110
00001010
,
00010010
00011000
01001000
00101000
,
00011000
00000000
00000000
00000100
00000000
00000100
00000000
00000000
,
00000110
00000000
00000000
00000001
00000000
00000001
00000000
00000000
,
00001100
00000000
00000000
00010000
00000000
00010000
00000000
00001000
,
00000000
00110000
00100000
01000000
,
20020000
00000000
00000000
00000000
,
00000000
00000000
30030000
00000000
;

//---------------dance-double - D. Bernardone----------------
#NOTES:
     dance-double:
     D. Bernardone:
     Hard:
     9:
     0.775,0.041,0.193,0.351,0.057:
00000000
00000000
00000000
00000000
,
00000000
00000000
00000000
01000000
,
00101000
00000000
00000000
00000000
,
00000000
00000000
00000000
00000000
00000000
00000000
00000000
00000000
00000001
00000000
00000000
00001000
00000100
00000000
00001000
00000000
,
00001010
00000000
00000100
00010000
00000000
00001000
00100000
00000000
,
01100000
00000000
00010000
01000000
00000000
00001000
00010000
00000000
,
00011000
00000000
00010000
00000100
00000010
00000000
00000001
00000100
,
00001000
00000000
00000100
00000100
00000000
00000010
00000010
00001000
,
00000100
00000000
00010000
00001000
00100000
00001000
00010000
00001000
,
01000000
00000000
00010000
00100000
02000000
00000000
03020000
00000000
,
00032000
00000000
00013000
00000010
00010000
00001000
00010000
00000100
,
00000010
00000000
00000001
00000100
00000020
00000000
00002030
00000000
,
00023000
00000000
00100000
00000000
10000000
00000000
01030000
00100000
,
10000000
00000000
01000000
00100000
00010000
00000000
01000000
00000000
,
01001000
00000000
00001000
00010000
00001000
00000100
00000010
00000000
,
00001000
00000000
00000010
00010000
00000000
00001000
01000000
01000000
,
00001000
00000000
00010000
00000100
00010000
00001000
00010000
00000010
,
00000100
00000000
00000001
00000010
00000200
00000000
00020300
00000000
,
00032000
00000000
00013000
00001000
01000000
00001000
00010000
00001000
,
00100000
00000000
00010000
01000000
00200000
00000000
00320000
00000000
,
00032000
00000000
00000100
00000000
00013000
00000000
00010000
00000100
,
00000010
00000000
00000001
00000100
00000010
00000000
00001000
00000000
,
00000001
00000100
00001000
00010000
01000000
00000000
10010000
00000000
,
00000000
00000000
00000000
00000000
00011000
00000000
00000000
00000000
00010000
00000000
00000100
00001000
00000100
00000000
00001000
00000010
,
00001000
00000001
00000010
00000100
00000010
00000001
00001000
00000000
,
00000100
00010000
00001000
00010000
00001000
00100000
00010000
00010000
,
00100000
01000000
00100000
00010000
10000000
01000000
10000000
00000000
,
00010000
00100000
00001000
00010000
00000200
00000000
00001300
00000000
,
00000001
00000100
00000010
00000100
00000001
00001000
00000010
00000000
,
00010000
00001000
00010000
00001000
01000000
00010000
01000000
01000000
,
00100000
01000000
00010000
10000000
00100000
10000000
00010000
00000000
,
01000000
00001000
00010000
00000010
00002000
00000000
00003001
00000000
,
00000100
00000010
00010000
00001000
00000100
00001000
00010000
00000000
,
00001000
00100000
00010000
01000000
00100000
10000000
01000000
01000000
,
10000000
00010000
01000000
00001000
00010000
00100000
00010000
00000000
,
00001000
00010000
00001000
00000100
00000020
00000000
00001030
00000000
,
00000001
00000010
00000100
00001000
00000010
00010000
00001000
00000000
,
00010000
00001000
00010000
01000000
00010000
00001000
00100000
00100000
,
00010000
10000000
00100000
01000000
00010000
00100000
00001000
00000000
,
00010000
00000000
00001000
00010000
00001000
00000000
00010000
00001000
00010000
00000000
00001000
00010000
00001000
00000000
00010000
00001000
,
00020000
00000000
00000010
00000010
00000000
00000100
00000100
00000000
,
00032000
00000000
01000000
01000000
00000000
00100000
00100000
00000000
,
00013000
00000000
00001000
00011000
00000000
00011000
00010000
00000000
,
00010000
00000100
00000010
00000001
00000100
00000010
00010000
00010000
,
00002000
00000000
00100000
00100000
00000000
01000000
01000000
00000000
,
00023000
00000000
00000100
00000100
00000000
00000010
00000010
00000000
,
00031000
00000000
00010000
00011000
00000000
00011000
00001000
00000000
,
00001000
01000000
00100000
00100000
10000000
01000000
00100000
00100000
,
00001000
00000000
00010000
00001000
00000010
00000100
00000010
00000001
,
00000100
00000000
00000010
00001000
00000200
00000000
00020300
00000000
,
00032000
00000000
00103000
01000000
00010000
01000000
10000000
00100000
,
01000000
00000000
00010000
00100000
00002000
00000000
00023000
00000000
,
00030200
00000000
00001300
00000010
00000100
00000000
00000001
00000010
,
00000200
00000000
00010300
00001000
00200000
00000000
02300000
00000000
,
13000000
00010000
01000000
00000000
00100000
10000000
00010000
00000000
,
01000000
00000000
00001000
00010000
00000000
00010000
00000100
00000100
,
00001000
00000000
00000010
00000100
00000001
00000010
00000100
00010000
,
00001000
00000000
01000000
00010000
00200000
00000000
02300000
00000000
,
03020000
00000000
00031000
00100000
01000000
00010000
01000000
10000000
,
00100000
00000000
01000000
00001000
00020000
00000000
00030020
00000000
,
00002030
00000000
00003100
00000010
00000001
00000000
00000100
00000010
,
00020000
00000000
00031000
01000000
00200000
00000000
20300000
00000000
,
31000000
00010000
00001000
00000100
00000001
00000000
00001001
00000000
,
00000000
00000000
00000000
00000000
00011000
00000000
00000000
00000000
00001000
00000000
01000000
00010000
01000000
00000000
00010000
00100000
,
00010000
10000000
01000000
10000000
00010000
01000000
00001000
00000000
,
00010000
00000100
00001000
00000010
00000100
00000001
00001000
00000000
,
00000100
00000010
00000001
00000100
00001000
00010000
00001000
00000000
,
01000000
00010000
00100000
01000000
10000000
00010000
01000000
01000000
,
00100000
10000000
01000000
00010000
00001000
00010000
00000100
00000000
,
00001000
00000001
00000100
00000010
00001000
00000100
00010000
00000000
,
00001000
00100000
00010000
01000000
00100000
10000000
01000000
00100000
,
00001000
00010000
00000010
00000100
00000001
00000010
00002000
00000000
00000000
00000000
00000000
00000000
,
00013000
00000000
00001000
00100000
00010000
00000000
01000000
00100000
,
10000000
00000000
01000000
00010000
00001000
00000000
00010000
00000010
,
00000100
00000000
00000001
00000010
00000100
00000000
00001000
00000010
,
00000100
00000000
00001000
00010000
01000000
00000000
00100000
00010000
,
01000000
00000000
10000000
01000000
00010000
00000000
00100000
00001000
,
00010000
00000000
00000010
00000100
00001000
00000000
00000100
00000001
,
00000010
00000000
00000100
00010000
00000010
00000000
00000100
00001000
,
00010000
00000000
00001000
00100000
01000000
00000000
00010000
01000000
,
10000000
00000000
00100000
01000000
00010000
00000000
00100000
00001000
,
00010000
00000000
00000010
00000100
00000001
00000000
00000010
00001000
,
00010000
00000000
00001000
01000000
00010000
00000000
00100000
01000000
,
10000000
00000000
00100000
01000000
00010000
00000000
00100000
00001000
,
00010000
00010000
00000010
00000000
00001001
00000000
00011000
00000000
,
00001000
00001000
00100000
00000000
10010000
00000000
00011000
00000000
,
00001000
00010000
01000000
01000000
00010000
00001000
00000100
00000100
,
00000010
00000100
00000001
00000010
00001000
00010000
00100000
10000000
,
00010000
00000000
01000000
00100000
00000000
10100000
00000000
10000000
,
01000000
00000000
01000000
00010000
00000000
00011000
00000000
00001000
,
00000100
00000000
00000100
00000010
00000000
00001010
00000000
00000101
,
00000000
00001000
00000001
00000000
00000100
00001000
00010000
00000000
,
00022000
00000000
00000000
00000000
,
00000000
00000000
00033000
00000000
;
