#TITLE:30 Minutes Harder;
#SUBTITLE:;
#ARTIST:Dj Sharpnel & t.A.T.u;
#TITLETRANSLIT:;
#SUBTITLETRANSLIT:;
#ARTISTTRANSLIT:;
#GENRE:Trance;
#CREDIT:Sync by HellRazoR;
#BANNER:30 Minutes Harder-bn.png;
#BACKGROUND:30 Minutes Harder-bg.png;
#LYRICSPATH:;
#CDTITLE:;
#MUSIC:30 Minutes Harder.ogg;
#OFFSET:-0.384;
#SAMPLESTART:50.520;
#SAMPLELENGTH:12.000;
#SELECTABLE:YES;
#DISPLAYBPM:171.000;
#BPMS:0.000=170.680,112.000=171.120,179.000=170.928;
#STOPS:;
#BGCHANGES:0.000=30 Minutes Harder-bg.png=1.000=0=0=1=====,
16.000=In The Groove Rebirth/274_JB_HD.mpg=1.000=0=0=1=====,
32.000=In The Groove Rebirth/167_JB_HD.mpg=1.000=0=0=1=====,
48.000=In The Groove Rebirth/164_JB_HD.mpg=1.000=0=0=1=SongBgWithMovieViz====,
80.000=In The Groove Rebirth/217_JB_HD.mpg=1.000=0=0=1===FadeLeft==,
96.000=In The Groove Rebirth/219_JB_HD.mpg=1.000=0=0=1=====,
112.000=In The Groove Rebirth/902_JumpBack.mpg=1.000=0=0=1=====,
128.000=In The Groove Rebirth/419_JB_HD.mpg=1.000=0=0=1=====,
144.000=In The Groove Rebirth/274_JB_HD.mpg=1.000=0=0=1=====,
160.000=In The Groove Rebirth/503_JB_HD.mpg=1.000=0=0=1===FadeDown==,
176.000=30 Minutes Harder-bg.png=1.000=1=0=1===CrossFade==,
180.000=In The Groove Rebirth/164_JB_HD.mpg=1.000=0=0=1=====,
196.000=In The Groove Rebirth/167_JB_HD.mpg=1.000=0=0=1=====,
212.000=In The Groove Rebirth/419_JB_HD.mpg=1.000=0=0=1=====,
228.000=In The Groove Rebirth/219_JB_HD.mpg=1.000=0=0=1=====,
244.000=In The Groove Rebirth/217_JB_HD.mpg=0.400=0=0=1=Checkerboard1File2x2====,
260.000=In The Groove Rebirth/902_JumpBack.mpg=0.400=0=0=1=Checkerboard1File2x2====,
276.000=In The Groove Rebirth/503_JB_HD.mpg=1.000=0=0=1=====,
292.000=In The Groove Rebirth/219_JB_HD.mpg=1.000=0=0=1=====,
308.000=In The Groove Rebirth/274_JB_HD.mpg=1.000=0=0=1=====,
324.000=30 Minutes Harder-bg.png=1.000=0=0=1=====,
99999=-nosongbg-=1.000=0=0=0 // don't automatically add -songbackground-
;
#BGCHANGES2:48.000=white flash=1.000=0=0=1=====,
112.000=white flash=1.000=0=0=1=====,
308.000=white flash=1.000=0=0=1=====,
324.000=white flash=1.000=0=0=1=====,
;
#KEYSOUNDS:;

//---------------dance-single - C. Sanabria & A.J. Kung----------------
#NOTES:
     dance-single:
     C. Sanabria & A.J. Kung:
     Challenge:
     10:
     0.864,0.000,0.378,0.286,0.399:
0000
0000
0000
0000
,
0000
0000
0000
0000
,
0000
0000
0000
0000
,
0000
0000
0000
0000
,
1000
0100
1000
0000
0100
0000
0010
0000
0100
0000
0010
0000
0001
0000
0010
0000
,
0001
0010
0001
0000
0100
0000
0001
0000
0100
0000
0001
0000
0100
0000
0010
0000
,
1000
0010
1000
0000
0010
0000
1000
0000
0001
0000
1000
0000
0100
0000
0010
0000
,
0001
0010
0001
0000
0010
0000
0001
0000
1000
0000
0001
0000
0100
0000
0010
0000
,
1000
0100
0010
0000
0001
0000
0100
0000
0010
1000
0001
0000
1000
0000
0100
0000
,
0010
0001
1000
0000
1000
0100
0010
0000
0010
0001
1000
0000
0001
0000
0010
0000
,
0100
1000
0001
0000
0001
0100
0010
0000
0010
1000
0001
0000
1000
0000
0100
0000
,
0010
0001
0010
0001
0010
0001
0010
0100
0010
0100
0010
0100
1000
0100
1000
0100
,
2000
0000
0000
0M1M
0000
0000
3002
0000
,
M1M0
0000
0000
1MM0
0000
0000
0023
0000
,
1M0M
0000
0000
M10M
0000
0000
0032
0000
,
1MM0
0000
0000
M1M0
0000
0000
0023
0000
,
MM01
0000
0000
M10M
0000
0000
0032
0000
,
MM10
0000
0000
1MM0
0000
0000
0203
0000
,
M01M
0000
0000
10MM
0000
0000
0302
0000
,
1MM0
0000
0000
M1M0
0000
0000
1MM3
0000
,
0001
0010
0001
0100
0001
0010
0001
0100
,
0010
1000
0100
1000
0010
1000
0100
1000
,
0010
0100
0001
0010
0001
0100
0001
0010
,
0100
1000
1001
0001
1001
1000
1001
0001
,
1001
0000
1000
0001
1000
0001
1000
0001
1000
0001
1000
0001
1000
0001
1000
0000
,
0010
0100
0010
0100
0010
0100
0010
0100
0010
0100
0010
0100
0010
0100
0010
0000
,
0010
0011
0010
1010
0010
0011
0010
1010
,
1000
0100
0010
0100
1000
0001
0100
0010
0100
0001
1000
0100
0010
0100
1000
0000
,
0001
0100
1000
0100
0001
0010
0001
0100
,
1000
0100
0001
0010
0100
1000
0010
1000
,
0100
0001
0100
1000
0010
1000
0100
0001
,
0100
1000
0010
0100
0001
1000
0001
1000
,
0001
0100
1000
0100
0001
0010
0001
0100
,
1000
0100
0001
0010
0100
1000
0010
1000
,
0100
0001
0100
1000
0010
1000
0100
0001
,
0100
0000
0000
1000
0000
0000
0010
0000
0000
0100
0000
0000
0001
0000
0000
1000
0000
0000
0001
0000
0000
1000
0000
00M0
,
MM01
0010
0200
1000
13MM
0100
0020
0001
,
MM31
0000
0000
0010
0000
0000
0200
0000
0000
1000
0000
0000
13MM
0000
0000
0100
0000
0000
0020
0000
0000
0001
0000
M000
,
0M32
0000
0000
1003
0000
0000
0020
0000
0000
0100
0000
000M
M130
0000
0000
0001
0000
0000
0200
0000
0000
0010
0000
M000
,
031M
0000
0000
1000
0000
0000
0020
0000
0000
0100
0000
000M
M130
0000
0000
0001
0000
0000
0200
0000
0000
0310
0000
0000
,
100M
0M00
0000
0010
0000
0000
0200
0000
0000
0001
0000
0000
M3M1
0000
0000
0100
0000
0000
0020
0000
0000
1000
0000
0000
,
1M3M
0010
0200
0001
M3M1
0100
0020
1000
,
2M3M
3001
0020
0100
M13M
1000
0200
0010
,
M31M
0001
0020
0100
M13M
1000
0200
0010
,
M02M
0000
0000
0000
M00M
M00M
M00M
0000
M000
000M
M000
000M
M330
0000
0000
0000
,
1001
1000
0001
0010
0001
1000
0010
1000
,
0001
1000
0100
0000
1000
0000
0001
0000
0100
0000
0001
0000
1000
0000
0100
0000
,
0010
0001
1000
0000
0010
0000
0100
0000
0001
0000
0100
0000
0010
0000
1000
0000
,
0001
0010
0100
0000
1000
0000
0100
0000
0010
0000
0001
0000
0010
0000
0100
0000
,
1000
0100
1000
0000
0001
0000
0100
0000
0001
0000
0010
0000
0001
0000
0001
0000
,
1000
0010
1000
0000
0001
0000
0010
0000
0001
0000
0100
0000
0001
0000
0001
0000
,
1000
0100
1000
0000
0010
0000
0100
0000
0001
0100
0001
0000
0100
0000
0010
0000
,
100M
2000
0M10
3020
010M
0230
M001
0302
,
1003
0010
0100
0000
0010
0000
1000
0000
0000
0000
1100
0000
1100
0000
0000
0000
,
0001
0010
0100
0000
0010
0000
0001
0000
0000
0000
1100
0000
1100
0000
0000
0000
,
1000
0001
0010
0000
0100
0000
1000
0000
0000
0000
0011
0000
1001
0000
0000
0000
,
0001
1000
0010
0000
0100
0000
0001
0000
0000
0000
1010
0000
1001
0000
0000
0000
,
1000
0100
1000
0000
0010
0000
0100
0000
1000
0000
0100
0000
0101
0000
0000
0000
,
0001
0100
0001
0000
0010
0000
0100
0000
0001
0000
0100
0000
1100
0000
0000
0000
,
1000
0100
1000
0000
0010
0000
1000
0000
1010
0000
1000
0000
1001
0000
1000
0000
,
0001
0100
0001
0000
0010
0000
0001
0000
1001
0000
0001
0000
0101
0000
0001
0000
,
1000
0100
0010
0001
1000
0100
0010
0001
,
1000
0010
0100
0001
0010
0001
0100
0010
,
1000
0100
0010
0001
0100
1000
0100
0001
,
0010
0100
1000
0001
0010
1000
0010
0001
,
1000
0100
0010
0011
0001
1001
1000
1100
,
0001
0100
0010
1010
1000
1001
0001
0011
,
1000
0100
1000
0000
0010
1000
0010
0000
0100
0001
0100
0000
0001
0010
0001
0000
,
1000
0100
1000
0000
0001
0100
0010
0000
0100
0001
1000
0000
1000
0100
0010
0000
,
0001
0010
0001
1000
0001
0000
1000
0000
0000
0000
1010
0000
1001
0000
0000
0000
,
1000
0010
1000
0001
1000
0000
0001
0000
0000
0000
0011
0000
1001
0000
0000
0000
,
0001
0100
0010
0100
0001
0000
1000
0000
0000
0000
1100
0000
0110
0000
0000
0000
,
1000
0100
0010
0100
1000
0000
0001
0000
0000
0000
0101
0000
0110
0000
0000
0000
,
1000
0100
0010
0000
0010
0100
1000
0000
0000
0000
1001
0000
1001
0000
0000
0000
,
0001
0100
0010
0000
0010
0100
0001
0000
0000
0000
1001
0000
1001
0000
0000
0000
,
100M
0100
100M
0100
100M
0000
0100
0000
10M0
0001
10M0
0001
10M0
0000
0001
0000
,
1M00
0010
1M00
0010
1M00
0000
0010
0000
M100
0001
M100
0001
M100
0000
0001
0000
,
1001
0100
0010
1000
0010
0001
0100
0010
,
1001
0100
0010
0001
0010
1000
0100
0010
,
1001
0100
1000
0010
0100
0001
0010
0001
,
1001
0000
0100
0000
0001
0000
0010
0000
0100
0000
1000
0000
0010
0100
0010
0100
,
0020
0000
0000
1M0M
0000
0100
0100
M20M
,
0000
0000
0300
0000
0000
0000
1M0M
0000
0000
0000
0100
0000
0100
0000
M002
0M00
,
0000
0000
0000
MM00
0000
0000
0000
MM33
;

//---------------dance-single - Maniac Stepper----------------
#NOTES:
     dance-single:
     Maniac Stepper:
     Hard:
     8:
     0.624,0.000,0.345,0.361,0.025:
0000
0000
0000
0000
,
0000
0000
0000
0000
,
0000
0000
0000
0000
,
0000
0000
0000
0000
,
1010
0100
0001
0000
0011
0100
1000
0000
,
0010
1000
0100
1000
0010
0001
0010
0000
,
1000
0100
0001
0000
0001
0100
1000
0000
,
0001
0100
1000
0100
0001
0010
1000
0000
,
0010
0001
0010
0001
0100
0001
0100
1000
,
0100
1000
0100
0001
0010
0001
0010
0100
,
1000
0100
1000
0100
0001
0100
0001
0100
,
1000
0010
1000
0010
0001
0010
0001
0010
,
2M0M
0000
0000
0M2M
3000
0000
M20M
0030
,
M0M2
0300
0000
2MM0
0003
0000
02MM
3000
,
M02M
0300
0000
MM02
0030
0000
2MM0
0003
,
0M2M
3000
0000
M20M
0030
0000
M0M2
0300
,
2MM0
0003
0000
02MM
3000
0000
M02M
0300
,
MM02
0030
0000
2MM0
0003
0000
0MM2
3000
,
1003
0100
0000
0011
0000
0001
0000
1010
,
0000
0100
0001
0100
0000
1000
0100
1000
,
0000
0001
0010
0001
1000
0001
0100
0001
,
0000
1000
0010
1000
0001
1000
0100
1000
,
0000
0001
0010
0100
1000
0010
0100
0001
,
0000
1000
0010
0100
0001
1000
0100
0010
,
0200
1000
0010
1000
,
0000
0001
0010
0001
,
0000
1000
0010
1000
,
0000
0001
0010
1300
,
1001
0000
0010
0100
0000
0001
1000
0001
,
0000
0010
0000
0100
0000
1000
0100
0010
,
0001
0000
1000
0010
0000
0100
0000
0001
,
0000
1000
0000
1100
0000
0001
0010
0100
,
1001
0000
0100
0010
0000
0001
0000
1000
,
0000
0010
0000
0100
0000
0001
0010
0100
,
1000
0000
0001
0100
0000
0001
0000
1000
,
0000
0100
0000
0010
0001
1000
0010
0100
,
1001
0000
0010
0100
0000
1000
0001
1000
,
0000
0010
0000
0100
0000
0001
0100
0010
,
1000
0000
0001
0010
0000
0100
0000
1000
,
0000
0001
0000
0101
0000
1000
0010
0100
,
1001
0000
0100
0010
0000
1000
0000
0001
,
0000
0010
0000
0100
0000
1000
0010
0100
,
0001
0000
1000
0100
0000
1000
0000
0001
,
0000
0100
0000
0010
1000
0001
0010
0100
,
2002
0000
0000
3003
,
1000
0010
0100
0002
0000
0013
0011
0000
,
0001
0010
0100
2000
0000
3010
1010
0000
,
0010
1000
0100
2000
0000
3010
1001
0000
,
0010
0001
0100
0002
0000
0013
1001
0000
,
1000
0100
0001
0200
0000
0310
0011
0000
,
0001
0100
1000
0200
0000
0310
1010
0000
,
1000
0100
1000
0000
0100
0001
0100
0000
,
0001
0010
0001
0000
0010
1000
0010
0000
,
1000
0000
0100
0000
0010
0000
0110
0000
0000
0000
1000
0001
1000
0000
0000
0000
,
0001
0000
0100
0000
0010
0000
0110
0000
0000
0000
0001
1000
0001
0000
0000
0000
,
1000
0000
0100
0000
0010
0000
1001
0000
0000
0000
0001
0100
0010
0000
0000
0000
,
0001
0000
0100
0000
0010
0000
1001
0000
0000
0000
1000
0100
0010
0000
0000
0000
,
1000
0000
0001
0000
1000
0000
0110
0000
0000
0000
0010
0100
0010
0000
0000
0000
,
1000
0000
0001
0000
1000
0000
0110
0000
0000
0000
0001
1000
0001
0000
0000
0000
,
1000
0100
1000
0000
0100
0001
0100
0000
,
0001
0010
0001
0000
0010
1000
0010
0000
,
1000
0100
0010
0002
0000
1000
1000
0000
,
1003
0001
0010
0200
0000
0010
0010
0000
,
0310
0001
1000
0020
0000
0100
0100
0000
,
0130
0001
1000
0002
0000
1000
1000
0000
,
1003
0001
1000
0200
0000
0010
0010
0000
,
0301
0100
1000
0020
0000
0100
0100
0000
,
0031
0010
1000
0100
0000
0001
0100
0000
,
0001
0100
1000
0010
0000
0001
0010
0000
,
1100
0000
1001
0000
0010
0001
0100
0000
,
0101
0000
1001
0000
0010
1000
0100
0000
,
1100
0000
0110
0000
0001
0001
1000
0000
,
0101
0000
0110
0000
1000
1000
0001
0000
,
1000
1000
1000
0000
0001
0001
0001
0000
,
1000
1000
1000
0000
0001
0001
0001
0000
,
0010
0100
2000
0000
0001
3001
0101
0000
,
0010
0100
0002
0000
1000
1003
1100
0000
,
1000
0100
0010
0001
0000
1000
0010
0100
,
0000
0101
0000
1001
0000
1000
0100
0000
,
0010
0001
1000
0100
0000
1100
0000
0110
,
0000
0011
0000
1001
0000
1010
1000
0010
,
0202
0000
0300
0200
0300
2000
3000
0020
,
0000
0030
0000
0200
0300
2000
3000
0020
,
0000
0000
0000
0000
,
0033
0000
0000
0000
;

//---------------dance-single - C. Sanabria----------------
#NOTES:
     dance-single:
     C. Sanabria:
     Medium:
     6:
     0.415,0.000,0.160,0.143,0.000: // measure 1
0000
0000
0000
0000
,  // measure 2
0000
0000
0000
0000
,  // measure 3
0000
0000
0000
0000
,  // measure 4
0000
0000
0000
0000
,  // measure 5
0001
0000
0001
0000
0001
0000
0010
0001
,  // measure 6
1000
0000
1000
0000
1000
0000
0010
1000
,  // measure 7
0100
0000
0100
0000
0100
0000
1000
0001
,  // measure 8
0010
0010
0010
0100
,  // measure 9
1000
0100
1000
0000
0001
0100
0001
0000
,  // measure 10
1000
0010
1000
0000
0001
0010
0001
0000
,  // measure 11
1000
0100
1000
0100
1000
0000
1000
0000
,  // measure 12
0001
0100
0001
0100
0001
0000
0001
0000
,  // measure 13
2002
0000
0000
3003
,  // measure 14
MMMM
0000
0000
0010
,  // measure 15
0200
0000
0000
0300
,  // measure 16
MMMM
0000
0000
0000
,  // measure 17
0022
0000
0000
0033
,  // measure 18
MMMM
0000
0000
0100
,  // measure 19
2000
0000
3000
0000
,  // measure 20
MMMM
0000
0000
0000
,  // measure 21
2200
0000
0000
3300
,  // measure 22
MMMM
0000
0000
0010
,  // measure 23
0002
0000
0000
0003
,  // measure 24
MMMM
0000
0000
0000
,  // measure 25
1000
0001
1000
0000
0100
0000
0010
0000
,  // measure 26
0001
1000
0001
0000
0100
0000
0010
0000
,  // measure 27
1000
0001
1000
0001
1000
0001
1000
0001
,  // measure 28
1000
0001
1000
0001
1000
0001
1000
0000
,  // measure 29
0010
0000
0010
0100
0001
0000
1000
0000
,  // measure 30
0100
0010
0001
1001
,  // measure 31
0010
0000
0010
0100
1000
0000
0001
0000
,  // measure 32
0100
0010
1010
0000
,  // measure 33
0010
0000
0100
0010
1000
0000
0001
0000
,  // measure 34
0100
0010
1000
1001
,  // measure 35
0100
0000
0100
0010
0001
0000
1000
0000
,  // measure 36
0100
0010
0011
0100
,  // measure 37
1001
0000
1000
0100
1000
0001
0000
1000
,  // measure 38
0000
1000
0000
0001
0000
0001
0000
0000
,  // measure 39
1001
0000
0001
0100
0001
1000
0000
1000
,  // measure 40
0000
0001
0000
0001
0000
0000
0010
0000
,  // measure 41
1001
0000
0100
0010
0100
0010
0000
0001
,  // measure 42
0000
1000
0000
0001
0000
0000
0000
0000
,  // measure 43
1001
0000
0100
0010
0100
0010
0000
1000
,  // measure 44
0000
0001
0000
1000
0000
0000
0000
0000
,  // measure 45
2002
0000
0000
3003
,  // measure 46
1000
0100
1000
0000
0010
0000
0100
0000
,  // measure 47
0001
0100
0001
0000
0010
0000
0100
0000
,  // measure 48
1000
0010
1000
0000
0100
0000
0010
0000
,  // measure 49
0001
0010
0001
0000
0100
0000
0010
0000
,  // measure 50
1000
0001
1000
0000
0100
0000
0010
0000
,  // measure 51
0001
1000
0001
0000
0100
0000
0010
0000
,  // measure 52
1000
0100
0010
0000
0001
0000
1000
0000
,  // measure 53
0001
0100
0010
0000
1000
0000
1001
0000
,  // measure 54
0001
0010
0001
0000
0100
0000
0010
0000
,  // measure 55
1000
0010
1000
0000
0100
0000
0010
0000
,  // measure 56
0001
0100
0001
0000
0010
0000
0100
0000
,  // measure 57
1000
0100
1000
0000
0010
0000
0100
0000
,  // measure 58
0001
1000
0001
0000
0010
0000
0100
0000
,  // measure 59
1000
0001
1000
0000
0010
0000
0100
0000
,  // measure 60
0001
0010
0100
0000
1000
0000
0001
0000
,  // measure 61
1000
0010
0100
0000
0001
0000
1001
0000
,  // measure 62
0001
0010
0100
1000
0000
0000
0000
0000
,  // measure 63
0001
0010
0100
1000
0000
0000
0000
0000
,  // measure 64
1000
0010
0100
0001
0000
0000
0000
0000
,  // measure 65
1000
0010
0100
0001
0000
0000
0000
0000
,  // measure 66
1000
0001
1000
0001
0000
0000
0000
0000
,  // measure 67
0010
0100
0010
0100
0000
0000
0000
0000
,  // measure 68
1000
0010
0100
0001
0000
0000
0000
0000
,  // measure 69
0001
0010
0100
1000
0000
0000
0000
0000
,  // measure 70
2010
0001
0100
3001
,  // measure 71
0012
1000
0100
1003
,  // measure 72
2100
0001
0010
3001
,  // measure 73
0102
1000
0010
1003
,  // measure 74
1000
1000
0100
0100
,  // measure 75
0010
0010
0001
0001
,  // measure 76
1000
0001
1000
0000
0001
1000
0001
0000
,  // measure 77
0010
0100
0010
0000
0100
0010
0100
0000
,  // measure 78
1000
0000
1000
0000
0000
0001
0000
1000
,  // measure 79
0000
0001
0000
1000
0000
0001
0000
0000
,  // measure 80
0001
0000
0001
0000
0000
1000
0000
0001
,  // measure 81
0000
1000
0000
0001
0000
1000
0000
0000
,  // measure 82
0220
0000
0000
0000
,  // measure 83
0000
0000
0000
0000
,  // measure 84
0330
0000
0000
0000
;

//---------------dance-single - C. Sanabria----------------
#NOTES:
     dance-single:
     C. Sanabria:
     Easy:
     4:
     0.339,0.000,0.286,0.067,0.000:
0000
0000
0000
0000
,
0000
0000
0000
0000
,
0000
0000
0000
0000
,
0000
0000
0000
0000
,
0010
0000
1000
0000
,
0010
0000
0001
0000
,
0010
0000
1000
0000
,
0100
0000
0010
0000
,
0001
0100
0001
0010
,
0100
1000
0010
1000
,
0100
0010
0001
0100
,
0001
0010
0100
1000
,
2001
0000
0010
0000
,
0100
0000
0010
3000
,
0002
0000
0010
0000
,
0100
0000
0010
0003
,
0210
0000
1000
0000
,
0010
0000
1000
0000
,
0320
0000
0001
0000
,
0100
0000
0001
0030
,
1001
0000
0100
0000
,
1001
0000
0010
0000
,
1001
0000
0100
0000
,
1001
0000
0010
0000
,
1000
0100
0010
0001
,
1000
0010
0100
0001
,
1000
1000
0001
0001
,
1000
1000
0001
0001
,
1001
0001
0010
0100
,
1000
0100
1000
0001
,
1001
1000
0010
0100
,
0001
0100
0001
1000
,
1100
0010
0001
0010
,
0100
1000
0001
0001
,
0101
0010
1000
0010
,
0100
0001
0001
1000
,
1010
0100
0001
1000
,
0100
0010
0100
0010
,
0011
0100
0001
1000
,
0100
0010
0100
0010
,
1001
1000
0001
1000
,
1001
1000
0001
1000
,
0110
0100
0010
0100
,
0110
0010
0100
0010
,
2002
0000
0000
0000
3003
0000
1000
0001
,
1000
0000
0000
0000
0000
0000
0001
1000
,
0001
0000
0000
0000
0000
0000
0010
0100
,
0010
0000
0000
0000
0000
0000
0100
0010
,
0100
0000
0000
0000
0000
0000
1000
0100
,
1000
0000
0000
0000
0000
0000
0001
0010
,
0001
0000
0000
0000
0000
0000
0001
0100
,
0001
0000
0000
0000
0000
0000
1000
0010
,
1000
0000
0000
0000
0000
0000
0001
1000
,
0001
0000
0000
0000
0000
0000
1000
0001
,
1000
0000
0000
0000
0000
0000
0100
0010
,
0100
0000
0000
0000
0000
0000
0010
0100
,
0010
0000
0000
0000
0000
0000
0001
0010
,
0001
0000
0000
0000
0000
0000
1000
0100
,
1000
0000
0000
0000
0000
0000
1000
0010
,
1000
0000
0000
0000
0000
0000
0001
0100
,
0001
0000
0000
0000
,
1001
0000
0000
1001
0000
0000
0000
0000
,
1001
0000
0000
1001
0000
0000
0000
0000
,
0110
0000
0000
1001
0000
0000
0000
0000
,
0110
0000
0000
1001
0000
0000
0000
0000
,
0011
0000
0000
1100
0000
0000
0000
0000
,
1010
0000
0000
0101
0000
0000
0000
0000
,
1000
0000
0000
1001
0000
0000
0000
0000
,
0001
0000
0000
1001
0000
0000
0000
0000
,
0100
1000
0100
0001
,
0100
1000
0100
0010
,
0010
1000
0010
0001
,
0010
1000
0010
0001
,
1000
1000
0100
1000
,
0001
0001
0100
0001
,
1000
0100
1100
0000
,
0001
0100
0101
0000
,
1000
1000
0100
0010
,
0001
0001
0100
0010
,
1000
1000
0001
0001
,
0010
0010
0100
0100
,
2002
0000
0000
0000
,
0000
0000
0000
0000
,
3003
0000
0000
0000
;

//---------------dance-single - D. Bernardone----------------
#NOTES:
     dance-single:
     D. Bernardone:
     Beginner:
     1:
     0.103,0.000,0.042,0.000,0.000:
0000
0000
0000
0000
,
0000
0000
0000
0000
,
0000
0000
0000
0000
,
0000
0000
0000
0000
,
1000
0000
0100
0000
,
1000
0000
0000
0000
,
0001
0000
0000
0000
,
1000
0000
0001
0000
,
0100
0000
0000
0000
,
0010
0000
0000
0000
,
1000
0000
0000
0000
,
0100
0000
0010
0000
,
0110
0000
0000
0000
,
0000
0000
0000
0000
,
0000
0000
0000
0000
,
0000
0000
0000
0000
,
1001
0000
0000
0000
,
0000
0000
0000
0000
,
0000
0000
0000
0000
,
0000
0000
0000
0000
,
1000
0000
0000
0000
,
1000
0000
0000
0000
,
1000
0000
0000
0000
,
1000
0000
0000
0000
,
0001
0000
0001
0000
,
0001
0000
1000
0000
,
1000
0000
1000
0000
,
0100
0000
0010
0000
,
0001
0000
0000
0000
,
0100
0000
0000
0000
,
0001
0000
0000
0000
,
0010
0000
0000
0000
,
0001
0000
0000
0000
,
1000
0000
0000
0000
,
0010
0000
0000
0000
,
1000
0000
0000
0000
,
0100
0000
0000
0000
,
0010
0000
0000
0000
,
0001
0000
0100
0000
,
0010
0000
0000
0000
,
1000
0000
0000
0000
,
0100
0000
0000
0000
,
0010
0000
0001
0000
,
1000
0000
0000
0000
,
1001
0000
0000
0000
,
0100
0000
0000
0000
,
0000
0000
0000
0000
,
0010
0000
0000
0000
,
0010
0000
0000
0000
,
1000
0000
0000
0000
,
0100
0000
0000
0000
,
0100
0000
0000
0000
,
0100
0000
0000
0000
,
0010
0000
0000
0000
,
0001
0000
0000
0000
,
1000
0000
0000
0000
,
0010
0000
0000
0000
,
0100
0000
0000
0000
,
0001
0000
0000
0000
,
0010
0000
0000
0000
,
0100
0000
0000
0000
,
0110
0000
0000
0000
,
0010
0000
0000
0000
,
0100
0000
0000
0000
,
0100
0000
0000
0000
,
1000
0000
0000
0000
,
1000
0000
0000
0000
,
0010
0000
0000
0000
,
0100
0000
0000
0000
,
0001
0000
0000
0000
,
1000
0000
0000
0000
,
0010
0000
0000
0000
,
0010
0000
0000
0000
,
1000
0000
0000
0000
,
0001
0000
0000
0000
,
1000
0000
0000
0000
,
0010
0000
0000
0000
,
0100
0000
0000
0000
,
0001
0000
0000
0000
,
0010
0000
0100
0000
,
1000
0000
0000
0000
,
1001
0000
0000
0000
;

//---------------dance-double - R. Uchima----------------
#NOTES:
     dance-double:
     R. Uchima:
     Challenge:
     11:
     0.813,0.000,0.286,0.168,0.529:
00000000
00000000
00000000
00000000
,
00000000
00000000
00000000
00000000
,
00000000
00000000
00000000
00000000
,
00000000
00000000
00000000
00000000
,
00010000
10000000
01000000
00000000
00100000
00000000
00001000
00000000
00010000
00000000
00000100
00000000
00000010
00000000
00000000
00000001
,
00000100
00000010
00001000
00000000
00000100
00000000
00010000
00000000
00001000
00000000
01000000
00000000
00100000
00000000
00000000
01000000
,
00100000
10000000
01000000
00000000
00100000
00000000
00010000
00000000
00001000
00000000
00001000
00000000
00000100
00000000
00000000
00000100
,
00001000
00000010
00000100
00000000
00000010
00000000
00001000
00000000
00010000
00000000
00010000
00000000
01000000
00000000
00000000
01000000
,
00100000
10000000
01000000
00000000
10000000
01000000
10000000
00000000
01000000
00100000
01000000
00000000
00100000
00010000
00100000
00000000
,
00010000
01000000
00010000
00000000
01000000
00001000
01000000
00000000
00001000
00010000
00001000
00000000
00010000
00000100
00010000
00000000
,
00000100
00000010
00000100
00000000
00000010
00000001
00000010
00000000
00000001
00000100
00000001
00000000
00000100
00000010
00000100
00000000
,
00000010
00010000
00000010
00000000
00010000
00001000
00010000
00000000
00001000
00010000
00001000
00100000
00001000
10000000
00001000
01000000
,
00020000
00000000
00100000
00200000
00030000
00000000
01000000
00000000
,
02000000
00300000
00001000
00002000
03000000
00000000
00000100
00000000
,
00000200
00003000
00010000
00020000
00000300
00000000
00000010
00000000
,
00000020
00000000
00030000
00000000
00000100
00000000
00000200
00000000
00000030
00000000
00000000
00000000
00100000
00000000
00000000
00000300
,
00200100
00000000
00010000
02000000
00300000
00000000
00100000
00000000
,
00020000
03000000
00100000
00002000
00030000
00000000
00010000
00000000
,
00000200
00003000
00001000
00000020
00000300
00000000
00000100
00000000
,
00002000
00000030
00000010
00020000
00003000
00000000
00031000
00000000
,
00010000
00001000
00100000
01000000
10000000
00100000
00010000
00100000
,
01000000
00001000
00010000
00000010
00000100
00001000
00000100
00000001
,
00000010
00000100
00000001
00000100
00010000
00001000
00000100
00000010
,
00010000
00100000
10000000
01000000
00010000
01000000
00100000
00001000
,
00010000
00000100
00010000
00000100
00001000
00000001
00001000
00000001
00000010
00000100
00000010
00000100
00001000
00000010
00001000
00000010
,
00010000
00001000
00010000
00001000
00100000
00010000
00100000
00010000
01000000
00100000
01000000
00100000
10000000
00010000
10000000
00010000
,
01000000
00100000
01000000
00100000
10000000
01000000
10000000
01000000
00100000
00010000
00100000
00010000
01000000
00001000
01000000
00001000
,
00010000
00000100
00001000
00000010
00000100
00000001
00000010
00000100
00001000
00000010
00010000
00001000
01000000
00010000
10000000
00100000
,
01000000
00010000
00100000
00100000
00000000
00001000
00100000
00000100
,
00000000
00100000
00000000
00010000
00000000
00001000
00000100
00000010
,
00000001
00001000
00000010
00000010
00000000
00010000
00000010
01000000
,
00000000
00000010
00000000
00001000
00000000
00010000
01000000
01000000
,
00100000
10000000
00010000
00010000
00000000
00100000
01000000
10000000
,
00000000
00010000
00000000
00001000
00000000
00000100
00010000
00010000
,
00000010
00001000
00000001
00000001
00000000
00000010
00000100
00000010
,
00000000
00000000
00001000
00000000
00000000
00000000
00010000
00000000
00001000
00100000
00010000
00100000
00001000
00010000
00000100
00001000
,
00000100
00000100
00010000
00010000
00000000
00001000
00100000
00010000
,
00000000
10100000
00000000
01001000
00000000
00010010
00000010
00001000
,
00000100
00000100
00000010
00000010
00000000
00000001
00000100
00000010
,
00000000
00010010
00000000
00101000
00000000
10010000
10000000
01000000
,
00100000
00100000
00010000
00010000
00000000
00100000
00001000
00010000
,
00000000
00101000
00000000
00010100
00000000
01001000
01000000
00001000
,
00010000
00010000
00000010
00000010
00000000
00000100
00000001
00001000
,
00000000
00010010
00000000
00010100
00000000
01000100
00000000
00000000
,
01200120
00000000
00000000
00000000
00000000
00000000
00000000
MM0MMM0M
,
00311030
00000000
00000000
00010000
00000000
00000000
00001000
00000000
00000000
00000000
01000000
00000000
00010000
00000000
00010000
00000000
,
00100000
00000000
00000000
01000000
00000000
00000000
10000000
00000000
00000000
00000000
00100000
00000000
00010000
00000000
00010000
00000000
,
00001000
00000000
00000000
00010000
00000000
00000000
00000100
00000000
00000000
00000000
00000010
00000000
00000001
00000000
00000001
00000000
,
00000100
00000000
00000000
00000010
00000000
00000000
00010000
00000000
00000000
00000000
00001000
00000000
00100000
00000000
00100000
00000000
,
00100000
00000000
00000000
00110000
00000000
00000000
10100000
00000000
00000000
00000000
00100000
00000000
01000000
00000000
01000000
00000000
,
01000000
00000000
00000000
01001000
00000000
00000000
00011000
00000000
00000000
00000000
00010000
00000000
00000100
00000000
00000100
00000000
,
00000100
00000000
00000000
00010100
00000000
00000000
00001010
00000000
00000000
00000000
00001000
00000000
00000001
00000000
00000001
00000000
,
00000001
00000000
00000000
00001001
00000000
00000000
00010010
00000000
00000000
00000000
00000010
00000000
00010000
00000000
00010000
00000000
,
00001000
00000000
00000000
00100000
00010000
00000000
00010000
00000000
00000000
00000000
00100000
00000000
01000000
00000000
01000000
00000000
,
10000000
00000000
00000000
01000000
00100000
00000000
00100000
00000000
00000000
00000000
00001000
00000000
00010000
00000000
00010000
00000000
,
00000100
00000000
00000000
00001000
00000010
00000000
00000010
00000000
00000000
00000000
00001000
00000000
00000001
00000000
00000001
00000000
,
00000010
00000000
00000000
00000100
00001000
00000000
00001000
00000000
00000000
00000000
00000100
00000000
00010000
00000000
00010000
00000000
,
00010000
00000000
00000000
00001000
00100000
00000000
00110000
00000000
00000000
00000000
00010000
00000000
01000000
00000000
01000000
00000000
,
01000000
00000000
00000000
00100000
10000000
00000000
11000000
00000000
00000000
00000000
01000000
00000000
00010000
00000000
00010000
00000000
,
00010000
00000000
00000000
00001000
00010000
00000000
00010010
00000000
00000000
00000000
00000010
00000000
00001000
00000000
00001000
00000000
,
00001000
00000000
00000000
00000100
00000010
00000000
00000011
00000000
00000001
00000100
00000010
00001000
00000100
00010000
00001000
00100000
,
00010000
00000000
00100000
00010000
00000000
00010000
01000000
00000000
00100000
00000000
10000000
00000000
01000000
00000000
01000000
00000000
,
00100000
00000000
00010000
01000000
00000000
01000000
00001000
00000000
00010000
00000000
00000100
00000000
00000010
00000000
00000010
00000000
,
00000001
00000000
00000100
00000010
00000000
00000010
00010000
00000000
00001000
00000000
01000000
00000000
00100000
00000000
00100000
00000000
,
10000000
00000000
01000000
00100000
00000000
00100000
00010000
00000000
00100000
00000000
00001000
00000000
00010000
00000000
00010000
00000000
,
00010000
00000000
00001000
00000010
00000000
00000010
00000001
00000000
00000010
00000000
00000100
00000000
00000001
00000000
00000001
00000000
,
00000001
00000000
00000100
00010000
00000000
00010000
00001000
00000000
00100000
00000000
00010000
00000000
01000000
00000000
01000000
00000000
,
01000000
00000000
00100000
00010000
00000000
00010000
00001000
00000000
00010000
00000000
00000100
00000000
00001000
00000000
00001000
00000000
,
00001000
00000000
00000010
00000100
00000000
00000100
00001000
00000000
00010000
00000000
00001000
00000000
00100000
00000000
00100000
00000000
,
00010000
00000000
01000000
00100000
00000000
00100000
10000000
00000000
00100000
10000000
01000000
00000000
00100000
00000000
00100000
00000000
,
00010000
00000000
00100000
00001000
00000000
00001000
00010000
00000000
00001000
00010000
00000100
00000000
00001000
00000000
00001000
00000000
,
00000010
00000000
00000100
00000001
00000000
00000001
00000010
00000000
00000001
00000010
00000100
00000000
00001000
00000000
00001000
00000000
,
00000100
00000000
00010000
00001000
00000000
00001000
00100000
00000000
00001000
00100000
00010000
00000000
01000000
00000000
01000000
00000000
,
01000000
00000000
10000000
01000000
00000000
01000000
00100000
00000000
10000000
01000000
00100000
00000000
00010000
00000000
00010000
00000000
,
00010000
00000000
00100000
00010000
00000000
00010000
00001000
00000000
00000100
00001000
00000100
00000000
00001000
00000000
00001000
00000000
,
00001000
00000000
00000010
00000100
00000000
00000100
00001000
00000000
00000100
00000010
00001000
00000000
00000100
00000000
00000100
00000000
,
00000100
00000000
00000010
00000100
00000000
00000100
00000001
00000000
00000001
00000100
00000010
00000100
00001000
00000010
00010000
00001000
,
00010000
00001000
00100000
01000000
00M00000
01000000
00100000
10000000
,
00000000
10100000
00000000
01100000
00000000
00110000
00010000
00100000
,
00001000
00010000
00000100
00000010
00000M00
00000010
00000100
00000001
,
00000000
00000000
00000101
00000000
00000000
00000000
00000110
00000000
00000000
00000000
00001100
00000000
00000100
00010000
00001000
00000000
,
00011000
01000000
00000000
00000100
00000000
00100000
00010000
00100000
,
00000000
00000100
00001000
00000100
00000000
01000000
00010000
01000000
,
00000000
00000010
00001000
00000010
00000000
00100000
00000200
00200000
,
00300300
00000000
00000000
00000000
;

//---------------dance-double - D. Bernardone----------------
#NOTES:
     dance-double:
     D. Bernardone:
     Easy:
     4:
     0.283,0.277,0.092,0.118,0.000:
00000000
00000000
00000000
00000000
,
00000000
00000000
00000000
00000000
,
00000000
00000000
00000000
00000000
,
00000000
00000000
00000000
00000000
,
10000000
01000000
00000000
00000000
,
00010000
00000000
00001000
00000000
,
00000100
00000000
00000010
00000000
,
00002000
00000001
00003002
00000010
,
00000013
00000100
00010000
00001000
,
00100000
01000000
10000000
00100000
,
01000000
00001000
00010000
00000010
,
00000100
00000001
00000100
00001000
,
00022000
00000000
00000000
00000000
,
00100000
00000000
00000000
00000000
,
01000000
00000000
00000000
00000000
,
00100000
00000000
00033000
00000000
,
00022000
00000000
00000000
00000000
,
00000100
00000000
00000000
00000000
,
00000010
00000000
00000000
00000000
,
00000100
00000000
00033000
00000000
,
00002000
00000000
00010000
00000000
,
00100000
00000000
01000000
00100000
,
00023000
00000000
00001000
00000000
,
00000100
00000000
00000010
00000100
,
00031000
01000000
00010000
00100000
,
00001000
00010000
00000100
00001000
,
00000010
00010000
00001000
00100000
,
00001000
00010000
00000010
00010000
,
00012000
00000000
01003000
00010000
,
00100000
00000000
00000000
01000000
,
20000000
00000000
30100000
00010000
,
00001000
00000000
00000000
00010000
,
00000020
00000000
00000130
00000001
,
00001000
00000000
00000000
00000010
,
00000200
00000000
00001300
00010000
,
00100000
00000000
00000000
01000000
,
00010000
00010000
00100000
01000000
,
10000000
00010000
01000000
00001000
,
00010000
00010000
00001000
00000010
,
00000001
00001000
00000010
00000100
,
00000010
00000010
00010000
00001000
,
00100000
00010000
10000000
00100000
,
10000000
10000000
01000000
00010000
,
00001000
00010000
00000010
00000100
,
00002002
00000000
00000000
00003003
,
00001001
00000000
00000000
00000000
,
00000010
00000000
00000000
00000000
,
00011000
00000000
00000000
00000000
,
01000000
00000000
00000000
00000000
,
10010000
00000000
00000000
00000000
,
00100000
00000000
00000000
00000000
,
00011000
00000000
00000000
00000000
,
00000100
00000000
00000000
00000100
,
00000010
00000000
00000000
00000001
,
00000001
00000000
00000000
00000100
,
00000110
00000000
00000000
00000010
,
00001000
00000000
00000000
00000100
,
00010000
00000000
00000000
00001000
,
00011000
00000000
00000000
00100000
,
00100000
00000000
00000000
01000000
,
01100000
00000000
00000000
00010000
,
00100000
00001000
00010000
00000000
,
00000010
00001000
00000001
00000000
,
00000010
00000100
00001000
00000000
,
00000010
00010000
00001000
00000000
,
00010000
00100000
01000000
00000000
,
00010000
00100000
01000000
00000000
,
00010000
00001000
00010000
00000000
,
00000010
00000100
00000001
00001000
,
00000100
00000010
00000001
00000000
,
00000100
00000010
00010000
00000000
,
00001000
00100000
00010000
00000000
,
01000000
00100000
10000000
01000000
,
01000000
00010000
00001000
00010000
,
00010000
00001000
00000100
00000010
,
00000010
00001000
00000001
00000000
,
00000010
00000100
00001000
00000010
,
00010000
00010000
00010000
00010000
,
00100000
00100000
00100000
00100000
,
01000000
01000000
01000000
01000000
,
00001000
00001000
00001000
00001000
,
00000100
00000000
00000100
00000000
,
00000100
00000000
00000100
00000000
;

//---------------dance-double - D. Bernardone----------------
#NOTES:
     dance-double:
     D. Bernardone:
     Medium:
     6:
     0.402,0.000,0.176,0.109,0.000:
00000000
00000000
00000000
00000000
,
00000000
00000000
00000000
00000000
,
00000000
00000000
00000000
00000000
,
00000000
00000000
00000000
00000000
,
10000000
01000000
10000000
00010000
00000000
00000000
01000000
00000000
,
01000000
00001000
00010000
00000100
,
00000010
00000001
00001000
00000010
,
00000100
00001000
00010000
01000000
,
00010000
00001000
00000010
00001000
,
00010000
00001000
01000000
00100000
,
10000000
00100000
01000000
00100000
00000000
00000000
01000000
00000000
,
01000000
00100000
00010000
00001000
,
00022000
00000000
00000010
00000000
,
00000100
00000000
00000010
00000000
,
00000100
00000000
00000010
00000000
,
00000100
00000000
00033010
00000000
,
00022000
00000000
01000000
00000000
,
00100000
00000000
01000000
00000000
,
00100000
00000000
01000000
00000000
,
00100000
00000000
01033000
00000000
,
00010000
00000000
00000000
00000100
00000000
00000000
00001000
00000000
,
00000010
00000000
00000000
00000100
00000000
00000000
00001000
00000000
,
00010000
00000000
00000000
00100000
00000000
00000000
01000000
00000000
,
00001000
00000000
00000000
00010000
00000000
00000000
00000010
00000000
,
00000100
00000001
00000010
00000100
,
00010000
00001000
00010000
00100000
,
10000000
01000000
00100000
00000000
00010000
01000000
00001000
00000000
,
00010000
00001000
00010000
00001000
00010000
00001000
00020000
00000000
,
00030010
00000100
00000001
00000000
00000010
00000000
00001000
00000000
,
00010000
00001000
01000000
00000000
00100000
00000000
00010000
00000000
,
00100000
10000000
01000000
00000000
00100000
00000000
00110000
00000000
,
00210000
00000000
00001000
00000000
00301000
00000000
00010000
00010000
,
00000100
00000010
00000001
00000100
,
00000010
00001000
00000100
00000000
00010000
00000000
00001000
00000000
,
01000000
00010000
00100000
00000000
01000000
00000000
11000000
00000000
,
21000000
00000000
00100000
00000000
30100000
00000000
01000000
00001000
,
00010000
00000000
00001000
00000000
00000100
00000000
00000010
00001000
,
00000001
00000000
00000010
00000000
00000100
00000000
00001000
00000010
,
00010000
00001000
00100000
00110000
,
00120000
00000000
01000000
00000000
01030000
00000000
00100000
00100000
,
10000000
00000000
01000000
00000000
00010000
00000000
00001000
00010000
,
00000010
00000000
00000100
00000000
00001000
00000000
00000100
00000001
,
00000010
00000100
00001000
00001010
,
00002010
00000100
00003200
00010300
,
00022000
00000000
00033000
00001000
,
01001000
00000000
00000000
00100000
,
10100000
00000000
00000000
00010000
,
00110000
00000000
00000000
00001000
,
00011000
00000000
00000000
00000100
,
00000011
00000000
00000000
00000100
,
00001010
00000000
00000000
00000100
,
00001100
00000000
00000000
01000000
,
01010000
00000000
00000000
00001000
,
00011000
00000000
00000000
00000000
00000000
00000000
00010000
00000100
,
00010000
00000000
00000000
00000000
00000000
00000000
00000010
00000100
,
00000010
00000000
00000000
00000000
00000000
00000000
00010000
00001000
,
00010000
00000000
00000000
00000000
00000000
00000000
01000000
01000000
,
00100000
00000000
00000000
00000000
00000000
00000000
00010000
01000000
,
00001000
00000000
00000000
00000000
00000000
00000000
00010000
00000100
,
00001000
00000000
00000000
00000000
00000000
00000000
00000001
00000100
,
00000001
00000000
00000000
00000000
00000000
00000000
00000010
00000100
,
00001000
00000000
00000010
00000000
00010000
00000000
00001000
00100000
,
00001000
00000000
01000000
00000000
00010000
00000000
00100000
01000000
,
00100000
00000000
00010000
00000000
01000000
00000000
00001000
00010000
,
00000010
00000000
00000100
00000000
00000001
00000000
00000010
00001000
,
00010000
00000000
00100000
00000000
01000000
00000000
00001000
00010000
,
00001000
00000000
00000010
00000000
00000100
00000000
00010000
00001000
,
01000000
00000000
10000000
00000000
01000000
00000000
00010000
00100000
,
00001000
00000000
00000010
00000000
00000100
00000000
00001000
00000001
,
00000100
00000000
00000010
00000000
00001000
00000000
00000100
00010000
,
00001000
00000000
01000000
00000000
00100000
00000000
10000000
01000000
,
00010000
00000000
00001000
00000000
00000100
00000000
00000010
00010000
,
00000100
00000000
00000010
00000000
00000001
00000000
00000100
00001000
,
00010000
00000000
00100000
00000000
01000000
00000000
10000000
01000000
,
00001000
00000000
00010000
00000000
00000100
00000000
00001000
00000010
,
00000100
00000000
00000001
00000000
00000010
00000000
00000100
00001000
,
00000001
00000000
00000010
00000000
00000100
00000000
00010000
00001000
,
01000000
00000000
00000000
00000000
00100000
00000000
00100000
01000000
,
00100000
00000000
00000000
00000000
00000000
00000000
10000000
00010000
,
10000000
00000000
00010000
00000000
01000000
00000000
01000000
00001000
,
01000000
00000000
00000000
00000000
00001000
00000000
00010000
00001000
,
00012000
00000000
00013000
00000000
,
00000100
00000000
00000010
00000000
;

//---------------dance-double - D. Bernardone----------------
#NOTES:
     dance-double:
     D. Bernardone:
     Hard:
     8:
     0.471,0.000,0.076,0.067,0.000:
00000000
00000000
00000000
00000000
,
00000000
00000000
00000000
00000000
,
00000000
00000000
00000000
00000000
,
00000000
00000000
00000000
00000000
,
10000000
01000000
00010000
00001000
00010000
00000000
00010000
00000000
,
00000010
00000010
00000100
00000100
,
00000001
00000001
00000010
00000010
,
00000100
00010000
00000010
00010000
00001000
00100000
00001000
01000000
,
00100000
00000000
10000000
01000000
00100000
00000000
00010000
01000000
,
00001000
00000000
00010000
00000010
00001000
00000000
00000010
00001000
,
00000001
00000100
00001000
00010000
00001000
00000000
00100000
01000000
,
10000000
00010000
01000000
00001000
00010000
00000100
00010000
00001000
,
00022000
00000000
00000000
00100000
00000000
00000000
01000000
00000000
,
00100000
00000000
00000000
01000000
00000000
00000000
00100000
00000000
,
01000000
00000000
00000000
00100000
00000000
00000000
01000000
00000000
,
00100000
00000000
00000000
01000000
00000000
00000000
00133000
00000000
,
00022000
00000000
00000000
00000100
00000000
00000000
00000010
00000000
,
00000100
00000000
00000000
00000010
00000000
00000000
00000100
00000000
,
00000010
00000000
00000000
00000100
00000000
00000000
00000010
00000000
,
00000100
00000000
00000000
00000010
00000000
00000000
00033100
00000000
,
00001000
01000000
00010000
00100000
00010000
01000000
00100000
00000000
,
10000000
01000000
00010000
01000000
00100000
00001000
00010000
00000000
,
00000010
00000100
00000001
00000010
00000100
00001000
00000001
00000000
,
00000100
00001000
00000100
00000010
00010000
00001000
00100000
00000000
,
01000000
00010000
01000000
10000000
00100000
01000000
00010000
00000000
,
00100000
00001000
00010000
00000010
00000100
00001000
00000100
00000000
,
00000001
00000010
00000100
00001000
00000010
00000100
00001000
00010000
,
00001000
00100000
01000000
00010000
00001000
00000010
00000100
00010000
,
00011000
00000000
00001000
00000000
01000000
00000000
00100000
10000000
,
01000000
00000000
00100000
00000000
00010000
00000000
01000000
00001000
,
00010000
00000000
00000100
00000010
00000000
00000010
00000001
00001000
,
00000001
00000000
00000001
00000000
00000001
00000000
00000001
00000100
,
00000010
00000000
00001000
00000000
00000100
00000000
00010000
00001000
,
00001000
00000000
01000000
00000000
00010000
00000000
00100000
01000000
,
10000000
00000000
00100000
01000000
00000000
01000000
00001000
00010000
,
00000010
00000000
00000100
00000000
00000001
00000000
00000010
00000100
,
00000110
00000000
00000001
00000100
00000000
00000100
00001000
00000000
,
00010000
00000000
01000000
00000000
00100000
00000000
00010000
10000000
,
00100000
00000000
01000000
00010000
00000000
00010000
00100000
00001000
,
00010000
00000000
00000100
00000000
00000010
00000000
00000001
00000100
,
00000010
00000000
00001000
00000100
00000000
00000100
00000010
00000000
,
00001000
00000000
00010000
00000000
00100000
00000000
01000000
00010000
,
00100000
00000000
01000000
10000000
00000000
10000000
00010000
00000000
,
01010000
00000000
01000000
00001000
00010000
00000010
00010000
00001000
,
00022000
00000000
00000000
00000000
00000000
00033000
00001000
00010000
,
00001000
00000000
00000000
00000000
00000000
00000000
00000010
00000100
,
00000010
00000000
00000000
00000000
00000000
00000000
00000001
00000100
,
00001000
00000000
00000000
00000000
00000000
00000000
00010000
01000000
,
10000000
00000000
00000000
00100000
,
01001000
00000000
00000000
00000000
00000000
00000000
00010000
00000100
,
00000010
00000000
00000000
00000000
00000000
00000000
00000001
00000100
,
00001000
00000000
00000000
00000000
00000000
00000000
00010000
00100000
,
10000000
00000000
00000000
00000000
00000000
00000000
01000000
00100000
,
00001000
00000000
00000000
00000000
00000000
00000000
00000100
00000010
,
00001000
00000000
00000000
00000000
00000000
00000000
00000001
00000010
,
00001000
00000000
00000000
00000000
00000000
00000000
00010000
00100000
,
10000000
00000000
00000000
00000000
00000000
00000000
01000000
00100000
,
00101000
00000000
00000000
00000000
00000000
00000000
00010000
00000010
,
00000100
00000000
00000000
00000000
00000000
00000000
00000001
00000010
,
00001000
00000000
00000000
00000000
00000000
00000000
00010000
01000000
,
10000000
00000000
00000000
00000000
00000000
00000000
00100000
01000000
,
00001000
00000000
00010000
00000000
00010000
00000000
00000010
00000100
,
00000001
00000000
00000010
00000000
00000010
00000000
00000100
00010000
,
00001000
00000000
00010000
00000000
00010000
00000000
00001000
01000000
,
00010000
00000000
00100000
00000000
00100000
00000000
01000000
10000000
,
00010000
00000000
01000000
00000000
00001000
00000000
00010000
00000010
,
00000100
00000000
00000001
00000000
00000010
00000000
00000100
00010000
,
00001000
00000000
01000000
00000000
00100000
00000000
10000000
01000000
,
00100000
00000000
00010000
00000000
01000000
00000000
00001000
00010000
,
00000010
00000000
00000100
00000000
00000100
00000000
00000001
00000010
,
00001000
00000000
00010000
00000000
00010000
00000000
00100000
01000000
,
00001000
00000000
00010000
00000000
00010000
00000000
01000000
00100000
,
00001000
00000000
00010000
00000000
00010000
00000000
00100000
01000000
,
10000000
00000000
01000000
00000000
00010000
00000000
00100000
00001000
,
00010000
00000000
00000010
00000000
00000100
00000000
00000001
00000100
,
00001000
00000000
00010000
00000000
01000000
00000000
00100000
00001000
,
00010000
00000000
01000000
00000000
00100000
00000000
00001000
00010000
,
00000010
00000000
00000100
00000001
00000000
00000001
00000010
00001000
,
00020000
00000000
00100000
00000000
00031000
00000000
00100000
01000000
,
10000000
00000000
00100000
00010000
00000000
00001000
00000010
00000001
,
00000100
00001000
00010000
01000000
00100000
00001000
00000010
00000010
,
00000021
00000000
00000100
00000000
,
00000001
00000000
00000100
00000000
,
00000030
00000000
00000000
00000000
;
