#TITLE:World of Dreams;
#SUBTITLE:(Two Gees Radio Edit);
#ARTIST:Hit 'N' Hide;
#TITLETRANSLIT:;
#SUBTITLETRANSLIT:;
#ARTISTTRANSLIT:;
#GENRE:Techno;
#CREDIT:;
#BANNER:World of Dreams-bn.png;
#BACKGROUND:World of Dreams-bg.png;
#LYRICSPATH:;
#CDTITLE:;
#MUSIC:World of Dreams.ogg;
#OFFSET:0.001;
#SAMPLESTART:37.060;
#SAMPLELENGTH:11.860;
#SELECTABLE:YES;
#BPMS:0.000=136.030,136.000=68.000,144.000=136.000;
#STOPS:;
#BGCHANGES:0.42=World of Dreams.mpg=1.000=1=0=0=StretchNoLoop==CrossFade==,
99999=-nosongbg-=1.000=0=0=0 // don't automatically add -songbackground-;
#KEYSOUNDS:;

//---------------dance-single - J. Frederick----------------
#NOTES:
     dance-single:
     J. Frederick:
     Easy:
     2:
     0.171,0.160,0.047,0.161,0.000,105.000,5.000,17.000,0.000,0.000,0.000,0.171,0.160,0.047,0.161,0.000,105.000,5.000,17.000,0.000,0.000,0.000:
0000
0000
0000
0000
,
0000
0000
0000
0000
,
0000
0000
0000
0000
,
2000
3000
0002
0003
,
0010
0000
0100
0000
,
1000
0000
0001
0000
,
0100
0000
0010
0000
,
1000
0000
0001
0000
,
0220
0000
0000
0330
,
1000
0000
0001
0000
,
0100
0000
0010
0000
,
1000
0000
0001
0000
,
0010
0010
0010
0000
,
0100
0000
1000
0000
,
0001
0000
0100
0000
,
0010
0000
1000
0000
,
0001
0001
0001
0000
,
0200
0000
0000
0300
,
0020
0000
0000
0030
,
2002
0000
0000
0000
,
0000
0000
0000
3003
,
0100
0010
1000
0000
,
0001
0000
0010
0000
,
0100
1000
0100
0000
,
0010
0000
0001
0000
,
0100
0001
0100
0000
,
0010
0000
1000
0000
,
0001
0000
0010
0000
,
0100
0010
0100
0000
,
1000
0000
0001
0000
,
0100
0000
0010
0000
,
1000
0000
0001
0000
,
0010
0000
0100
0000
,
0220
0000
0000
0330
,
1000
0000
0001
0000
,
0100
0000
0010
0000
,
1000
0000
0000
0000
,
0001
0000
0000
0000
,
0010
0000
0100
0000
,
1000
0001
2000
3000
,
0001
0010
0100
0000
,
1000
0000
0010
0000
,
0100
0001
0100
0000
,
0010
1000
0010
0000
,
0200
0300
0000
0000
,
0020
0030
0000
0000
,
1000
0000
0001
0000
,
2002
0000
0000
3003
,
0100
0000
0010
0000
,
1000
0000
0001
0000
,
0010
0000
0100
0000
,
1000
0000
0001
0000
,
0100
0000
0010
0000
,
1000
0000
0001
0000
,
0010
0000
0100
0000
,
1000
0000
0001
0000
,
0220
0000
0330
0000
;

//---------------dance-single - K.W----------------
#NOTES:
     dance-single:
     K.W:
     Hard:
     8:
     0.465,0.423,0.113,0.094,0.085,323.000,12.000,10.000,3.000,0.000,0.000,0.465,0.423,0.113,0.094,0.085,323.000,12.000,10.000,3.000,0.000,0.000:
0000
0000
0000
0000
,
0000
0000
0000
0000
,
0000
0000
0000
0000
,
2000
0000
0000
0000
3002
0000
0013
000M
,
1000
0000
0010
0000
0100
0000
0001
0000
1000
0010
0000
0000
0100
0000
0000
0000
,
0001
0000
1000
0000
0100
0000
0010
0000
0001
0010
0000
0000
0100
0000
0000
0000
,
1000
0000
0001
0000
0100
0000
0010
0000
1000
0100
0000
0000
1000
0000
0000
0000
,
0010
0000
0100
0000
0001
1000
0000
0000
0010
0000
0001
0000
0010
0100
0000
0000
,
1001
0000
0000
0000
,
0001
0000
1000
0000
0010
0000
0000
0100
0001
0000
1000
0000
0100
0000
0000
0000
,
0010
0100
1000
0010
0001
0010
0001
0000
,
1000
0000
0100
0000
0010
0000
0000
0001
1000
0000
0100
0000
0010
0000
0000
0001
,
0100
0010
1000
0001
0020
0000
0031
0000
,
0001
0000
0100
0000
1000
0000
0000
0100
0001
0000
0010
0000
0001
0000
0000
1000
,
0010
0100
1000
0100
0010
0000
0100
0000
,
0001
0010
0100
0010
0002
0000
1003
0000
,
1000
0010
0100
0001
0020
0000
0031
0000
,
1000
0000
0100
0000
0010
0000
0000
0001
1000
0000
0100
0000
0010
0000
0000
0000
,
0001
0000
1000
0000
0010
0000
0000
0100
0001
0000
1000
0000
0001
0000
0000
0000
,
0020
0000
0000
0000
0031
0100
0010
0100
,
0000
0001
0000
0110
0000
1001
0000
0000
,
1000
0001
0010
0100
0010
0001
0100
0010
,
1000
0001
0010
0100
1000
0001
0100
0000
,
0010
1000
0000
0000
0001
0000
0000
0000
0010
0001
0000
0000
1000
0000
0000
0000
,
0100
1000
0000
0000
0001
0000
0000
0000
0010
0001
0000
0000
1000
0000
0000
0000
,
0001
1000
0100
0010
0100
1000
0010
0100
,
0001
1000
0100
0010
0000
0100
1000
0000
,
0010
0001
0010
0100
,
0010
0100
0000
0002
0000
0010
0013
00MM
,
1000
0100
1000
0001
0100
0010
1000
0001
,
0010
1000
0010
0001
0100
0010
1000
0001
,
0010
0100
1000
0001
0100
0010
1000
0001
,
0010
0000
0100
0000
0010
0000
0000
0001
1000
0000
0010
0000
0100
0000
0000
0001
,
2000
0000
0000
0000
,
3010
0100
0001
0010
0002
1000
1003
0000
,
0010
0100
0001
0010
0001
1000
1000
0000
,
0001
0100
0010
1100
,
1000
0010
0100
0011
,
0001
0000
1000
0000
0010
1000
1000
0000
,
0001
0010
0100
0010
0002
0000
0000
0000
,
1003
0010
0100
1000
0100
0000
0000
0000
,
0001
0010
0100
0010
0000
0000
0000
0000
,
0001
1000
0010
0100
0001
0000
1000
0100
,
0000
0010
0100
1000
1001
0000
0110
0000
,
0001
0010
0001
0000
1000
0000
1000
0000
,
0010
0100
0001
0000
0010
0000
0010
0000
,
0001
1000
0100
0000
1000
0010
0100
0000
,
0001
1000
0110
1001
,
1000
0010
0100
0001
1000
0100
0001
0100
,
1000
0001
0100
0010
1000
0001
0010
1000
,
0010
0001
1000
0000
0010
0100
0001
0000
,
0010
0100
1000
0001
0010
0010
0010
0000
,
0001
0010
0100
1000
0001
0100
0010
0010
,
0100
0001
1000
0100
0010
0100
1000
1000
,
0001
0100
0010
1000
0001
0100
0100
0001
,
1000
0110
0001
0110
,
1001
0000
0000
0000
;

//---------------dance-double - T.VanToll----------------
#NOTES:
     dance-double:
     T.VanToll:
     Challenge:
     10:
     0.592,0.688,0.151,0.236,0.416,398.000,16.000,25.000,18.000,29.000,0.000,0.592,0.688,0.151,0.236,0.416,398.000,16.000,25.000,18.000,29.000,0.000:
00000000
00000000
00000000
00000000
,
00000000
00000000
00000000
00000000
,
10000000
00100000
01000000
00000000
00010000
01000000
00100000
00000000
01000000
00001000
00010000
00000000
00000100
00010000
00001000
00000000
,
00010000
00000010
00001000
00000000
00000001
00000100
00000010
00000000
00001000
00000010
00000100
00000000
00000010
00010000
00001000
00000000
,
00010000
00000000
00001000
00000000
01000000
00000000
00010000
00000000
10000000
00000000
01000000
00010000
00000000
00010000
00001000
00000000
,
00000100
00000000
00000001
00000000
00000010
00000000
00001000
00000000
00010000
00000000
00100000
10000000
00000000
10000000
00001000
00000000
,
01000000
00000000
00000100
00000000
00010000
00000000
00000010
00000000
00010000
00000000
00000001
00010000
00000000
00010000
00000100
00000000
,
01000000
00000000
00010000
00000000
10000000
00000000
00100000
00000000
00010000
00000000
00001000
01000000
00000000
00000100
00010000
00000000
,
00022000
00000000
00000000
00000000
00000000
00033000
00000000
00000000
,
00010000
00000000
00001000
00000000
10000000
00000000
00001000
10000000
00010000
00000000
10000000
00000000
00001000
00000000
00010000
00000000
,
00000001
00010000
00001000
10000000
00001000
00010000
00000001
00000000
,
01000000
00000000
00000100
00000000
01000000
00000000
00000010
00100000
00000010
00000000
00100000
00000000
00000100
00000000
01000000
00000000
,
00000010
00100000
00000100
01000000
00000100
00000000
00100010
00000000
,
10000000
00000000
00001000
00000000
01000000
00000000
00000100
01000000
00001000
00000000
10000000
00000000
00000100
00000000
01000000
00000000
,
00001000
10000000
01000000
10000000
00000100
01000000
00000100
00000000
,
00100000
00000000
00000001
00000000
00010000
00000000
00000001
00010000
00000010
00000000
00100000
00000000
00000001
00000000
00010000
00000000
,
00000001
00100000
00010000
00000010
00000001
00000000
00011000
00000000
,
02020000
00000000
00100000
10000000
03030000
00000000
00000000
00010000
,
00002200
00000000
00000010
00000001
00003300
00000000
00000000
00000000
,
00000000
00000000
00000001
00000010
00001000
00010000
00001000
00000200
,
00000000
00002000
00000000
00010000
00000000
00013300
00000000
00000000
,
00000100
00000000
00000000
00011000
00000000
00000000
10000000
00000000
02020000
00000000
00000000
00000000
00000000
00000000
10000000
00000000
,
00001000
00000000
00000000
10000000
00000000
00000000
03130000
00000000
00000000
00000000
00000000
00000000
00000000
00000000
10000000
00000000
,
00001000
01000000
00000100
00010000
00001000
10000000
00000000
01100000
,
00000000
01000000
00010000
00001000
00000010
00001000
00000000
00000000
,
00010000
00000000
00000000
01100000
00000000
00000000
00010000
00000000
00002200
00000000
00000000
00000000
00000000
00000000
00000010
00000000
,
00010000
00000000
00000000
00000001
00000000
00000000
00003310
00000000
00000000
00000000
00000000
00000000
00000000
00000000
00000001
00000000
,
00000100
00001000
00010000
00100000
20000000
00000000
00000000
02000000
,
00000000
00200000
00000000
33310000
00000000
00000000
00000000
00000000
,
10000000
00100000
01000000
00000000
01000000
00010000
00100000
00000000
00001000
00010000
00000100
00000000
00001000
00000100
00000010
00000000
,
00000001
00000100
00001000
00000000
00001000
00000100
00000010
00000000
00000010
00001000
00000100
00000000
00000100
01000000
00001000
00000000
,
01000000
00001000
00010000
00000000
00010000
00000001
00001000
00000000
00000010
00001000
00000100
00000000
00000100
00001000
00000010
00000000
,
00000010
00001000
00000001
00000000
00000001
00010000
00001000
00000000
00010000
00001000
10000000
00M00000
00100000
M0M00000
10000000
M0000000
,
02020000
00000000
00000000
00000000
,
10000000
00001000
10000000
00100000
00200000
10030000
20000000
00000000
,
0001MM00
000M1M00
000MM100
000M1M00
0001MM00
333M1M00
0002MM00
00000000
,
00100000
00000010
00000001
00000100
,
01000000
00000000
10000000
00000000
02000000
00030000
00000000
00000000
,
10000000
00010000
10000000
00000100
,
00100000
00001000
13000000
00000000
,
02000000
00000000
00000000
00000010
00000000
00000000
00001000
00000000
03000200
00000000
00000000
00000000
00000000
00000000
00000010
00000000
,
00001000
00000000
00000000
01000000
00000000
00000000
00001000
00000000
00000300
00000000
00000000
00000000
00000000
00000000
01000000
00000100
,
00010000
00000000
00001000
01000000
00010000
00000000
10000000
00001000
01000000
00000000
00010000
00000000
00000000
00000000
00001100
00000000
,
00000000
00000000
00000010
00010000
00000010
00000000
00010000
00000010
00100000
00000000
00000000
00000000
10010000
00000000
00000000
00000000
,
10000000
00000000
00000000
00020000
00000000
00000000
01000000
00030000
02000000
00000000
00000000
00000000
00000000
00000000
00100000
00000000
,
00010000
00000000
00000000
00001000
03000000
00000000
00000100
00000000
00000000
00000000
00000000
00000000
00000000
00000000
00001000
00010000
,
00001000
00000000
00010000
00000001
00001000
00000000
00000100
01000000
00010000
00000000
00000000
00000000
00000000
00000000
01000010
00000000
,
00000000
00100100
00000000
00011000
00000000
00000000
00000000
00000000
,
00010000
00000100
00001000
00000000
00000100
01000000
00010000
00000000
00010000
10000000
00100000
00000000
10000000
00001000
00010000
00000000
,
00010000
00000001
00001000
00000000
00000001
00000100
00001000
00000000
00000001
00000100
00000010
00000000
00000010
00000100
00001000
00000000
,
00001000
01000000
00100000
00000000
10000000
01000000
00010000
00000000
00010000
01000000
00100000
00000000
00100000
00000100
00001000
00000000
,
00001000
00000100
00000001
00000000
00000001
00000100
00010000
00000000
00010000
00000010
00000100
00000000
00000100
00001000
00010000
00000000
,
00010000
00001000
10000000
00000000
10000000
00100000
01000000
00000000
01000000
00000100
00010000
00000000
00000100
00010000
00000100
00000000
,
00000001
00010000
00000100
00000000
00010000
00001000
00100000
00000000
00010000
01000000
00100000
00000000
01000000
00001000
00010000
00000000
,
00010000
00000010
00000100
00000000
00000100
00001000
00010000
00000000
00100000
10000000
00010000
00000000
00010000
01000000
00100000
00000000
,
10000000
00001000
00010000
00000000
00010000
00000010
00000100
00000000
00000010
00010000
00001000
00100000
00010000
01000000
00001000
00010000
,
00000100
00000000
00000000
00000000
;

//---------------dance-double - J.Casarino----------------
#NOTES:
     dance-double:
     J.Casarino:
     Hard:
     8:
     0.556,0.453,0.283,0.246,0.057,356.000,30.000,26.000,4.000,0.000,0.000,0.556,0.453,0.283,0.246,0.057,356.000,30.000,26.000,4.000,0.000,0.000:
00000000
00000000
00000000
00000000
,
00000000
00000000
00000000
00000000
,
00010000
00001000
00010000
00000100
,
00002002
00003000
00000013
00001001
,
00000001
00000000
00000100
00000000
00000001
00000000
00000100
00000000
00000020
00000000
00000000
00001000
00000000
00000000
00001030
00000000
,
00000100
00000000
00010000
00000000
00000100
00000000
00010000
00000000
00002000
00000000
00000000
00100000
00000000
00000000
00100000
00000000
,
00013000
10000000
00010000
10000000
00100000
01000000
00100000
01000000
,
00010000
00100000
00010000
00100000
00001000
00010000
00001000
00010000
,
00002020
00000000
00000000
00003030
,
00000001
00001000
00000100
00010000
00000001
00001000
00000100
00010000
,
00001000
00100000
00010000
10000000
00010000
00100000
01000000
00000000
,
10000000
00010000
01000000
00001000
10000000
00010000
01000000
00001000
,
00010000
00000010
00001000
00000001
00020000
00000000
00030010
00000000
,
00010000
00001000
00100000
00001000
00010000
00001000
00100000
00001000
,
00010000
00100000
00010000
00001000
00200000
00000000
00300020
00000000
,
00010030
00001000
00000010
00001000
00010000
00000010
00001000
00000100
,
00001000
00000010
00010000
00001000
00000020
00000000
00000230
00000000
,
00001300
00000100
00000010
00000001
00000100
00000010
00001000
00000100
,
00010000
00001000
01000000
00010000
10000000
00100000
01000000
00010000
,
00200000
00000000
00001000
00001000
00301000
00100000
00001000
00011000
,
00000000
00001010
00000000
00000110
00000000
00000101
00000000
00000000
,
00011000
00000000
00000000
00100000
00000000
00000000
00011000
00000000
00000100
00000000
00000000
00000000
00010000
00000000
00001000
00000000
,
00100000
00010000
01000000
00100000
10000000
01000000
01000000
10000000
,
00100000
01000000
00100000
00010000
00001000
00001000
00000000
00010010
,
00000000
00001000
00000100
00001000
00000001
00000001
00000101
00000000
,
00000010
00000000
00000000
00011000
00000000
00000000
00100000
00000000
00011000
00000000
00000000
00000000
00001000
00000000
00010000
00000000
,
00000100
00010000
00001000
01000000
00001000
00010000
00010000
00001000
,
00100000
00010000
00100000
01000000
10000000
00010000
00010000
00000000
,
00100000
00001000
01000000
00010000
20000000
00010000
30010000
M00M0000
,
01000000
00000000
00001000
00000000
00010000
00000000
00001000
00000000
02000000
00000000
00000000
00001000
00000000
00000000
03001000
00000000
,
00010000
00000000
00000100
00000000
00010000
00000000
00000100
00000000
00002000
00000000
00000000
00000010
00000000
00000000
00003010
00000000
,
00010000
00000100
00010000
00000100
01000000
00001000
01000000
00001000
,
00100000
00010000
00100000
00010000
01000000
00001000
01000000
00000100
,
00022000
00000000
00000000
00000000
00000000
00000000
00033000
000MM000
,
10000000
00100000
00010000
00001000
00000020
00000001
00000031
00000000
,
00000001
00000010
00001000
00010000
00200000
10000000
10300000
00000000
,
10010000
01100000
00011000
00000110
,
00001001
00000000
00000010
00000001
00000100
00000000
00001001
00000000
,
00010100
00101000
01001000
00010010
,
00001000
01000000
00100000
10000000
02000000
00000000
10000000
00000000
,
03100000
00000000
00000000
00011000
00000000
00000000
00000100
00000000
00000010
00000000
00000000
00000000
00000001
00000000
00001000
00000000
,
00000010
00000001
00000010
00001000
00000100
00010000
00010000
00001000
,
00010000
00000100
00010000
00001000
00100000
00100000
00000000
10010000
,
00000000
10000000
00100000
10000000
01000000
01000000
01100000
00000000
,
00011000
00000000
00000000
00000100
00000000
00000000
00011000
00000000
00100000
00000000
00000000
00000000
00001000
00000000
00000001
00000000
,
00000010
00000100
00010000
00001000
00100000
00010000
01000000
01000000
,
00100000
01000000
00001000
00010000
00000010
00000100
00000100
00000000
,
00000010
00001000
00000100
00010000
00001000
01000000
00010000
00000000
,
00100000
00000000
00010000
00000000
01000000
00000000
00100000
00000000
20000000
00000000
00000000
01000000
00000000
00000000
31000000
00000000
,
00010000
00000000
00001000
00000000
00100000
00000000
00001000
00000000
00020000
00000000
00000000
00000100
00000000
00000000
00030100
00000000
,
00010000
00000010
00001000
00000010
00010000
00000010
00001000
00000010
,
00010000
00001000
00010000
01000000
00010000
00001000
00010000
00000100
,
00001000
00000010
00000100
00000001
00000010
00000100
00001000
00000010
,
00010000
00000000
00001000
00000000
01000000
00000000
00001000
00000000
00020000
00000000
00000000
00000100
00000000
00000000
00031000
00000000
,
00100000
00000000
00010000
00000000
00100000
00000000
01000000
00000000
20000000
00000000
00000000
00100000
00000000
00000000
30010000
00000000
,
00100000
00001000
00010000
00000010
00010000
00001000
00100000
00001000
,
00022000
00000000
00000000
00033000
00000000
00000000
00000000
00000000
;

//---------------dance-double - J.Casarino----------------
#NOTES:
     dance-double:
     J.Casarino:
     Medium:
     6:
     0.372,0.374,0.378,0.123,0.038,223.000,40.000,13.000,18.000,0.000,0.000,0.372,0.374,0.378,0.123,0.038,223.000,40.000,13.000,18.000,0.000,0.000:
00000000
00000000
00000000
00000000
,
00000000
00000000
00000000
00000000
,
00000000
00000000
00000000
00000000
,
00020010
00000000
00000100
00030000
,
00011000
00100000
00011000
00000010
,
00011000
01000000
00011000
00000100
,
00010000
00000100
00010000
00000000
00001000
00100000
00001000
00000000
,
00010000
00000010
00010000
00000000
00001000
01000000
00001000
00000000
,
00022000
00000000
00000000
00033000
,
00010000
00001000
00000100
00000110
,
00000010
00001000
00000001
00000011
,
00000100
00001001
00000010
00001001
,
00000001
00000010
00000100
00001000
00000100
00000000
00010000
00000000
,
00001000
00010000
01000000
01100000
,
00100000
00010000
10000000
10100000
,
01000000
10010000
00100000
10010000
,
10000000
00100000
01000000
00010000
01000000
00000000
00001000
00000000
,
00010000
00001000
00010000
00000000
00000100
00010000
00000100
00000000
,
00001000
00000010
00001000
00000000
00000001
00001000
00000001
00000000
,
00000101
00000000
00001000
00000100
00001000
00000100
00001000
00000100
,
00000000
00010000
00000000
00001000
00000000
01000000
00000000
00000000
,
00010000
00000000
00000000
00010000
00000000
00000000
00000000
00000000
10010000
00000000
00000000
00000000
00000000
00000000
000M0000
00000000
,
M0000000
00000000
00000000
000M0000
00000000
00000000
M0000000
00000000
00000000
00000000
00000000
00000000
00000000
00000000
00000000
00000000
,
10000000
01000000
10000000
01000000
10000000
00000000
00000000
00000000
,
00010000
00100000
00010000
00100000
00001000
00000000
00000000
00000000
,
00010000
00000000
00000000
00000010
00000000
00000000
00000000
00000000
00010010
00000000
00000000
00000000
00000000
00000000
000M0000
00000000
,
000000M0
00000000
00000000
000M0000
00000000
00000000
000000M0
00000000
00000000
00000000
00000000
00000000
00000000
00000000
00001000
00000000
,
00000100
00000000
00000010
00000001
00000100
00000000
00000000
00000020
,
00000000
00020030
00000000
00032000
00000000
00003000
00000000
00000000
,
00010010
00001000
00101000
00010000
,
00010100
00001000
01001000
00010000
,
00001000
00010000
00000100
00000000
00010000
00001000
01000000
00000000
,
00001000
00010000
00000010
00000000
00010000
00001000
00100000
00000000
,
00022000
00000000
00000000
00033000
,
00001000
00010000
01000000
10000000
00100000
00010000
00001000
00000000
,
00000100
00000001
00000010
00001000
00010000
01000000
10000000
00000000
,
10010000
01100000
10010000
00100000
,
00001000
00010000
00000100
00000000
,
00001001
00000110
00001001
00010010
,
00001000
00010000
00000100
00001000
00000001
00000000
00000000
00000000
,
00001000
00000000
00000000
00000001
00000000
00000000
00000000
00000000
00001001
00000000
00000000
00000000
00000000
00000000
0000M000
00000000
,
0000000M
00000000
00000000
0000M000
00000000
00000000
0000000M
00000000
00000000
00000000
00000000
00000000
00000000
00000000
00000000
00000000
,
00000001
00000010
00000001
00001000
00000001
00000000
00000000
00000000
,
00001000
00000100
00010000
00001000
00010000
00000000
00000000
00000000
,
00001000
00000000
00000000
01000000
00000000
00000000
00000000
00000000
01001000
00000000
00000000
00000000
00000000
00000000
0000M000
00000000
,
0M000000
00000000
00000000
0000M000
00000000
00000000
0M000000
00000000
00000000
00000000
00000000
00000000
00000000
00000000
00010000
00000000
,
01000000
00000000
00100000
10000000
01000000
00000000
00000000
00200000
,
00000000
00302000
00000000
00023000
00000000
00030000
00000000
00000000
,
00001000
01000000
00010000
10000000
,
11000000
00110000
00101000
00011000
,
00000100
00001000
00000010
00000100
,
00001001
00000110
00010100
00011000
,
00001000
00010000
00001000
00000000
00100000
00010000
00100000
00000000
,
01000000
10000000
01000000
00000000
10000000
00010000
10000000
00000000
,
00100000
01000000
00010000
01000000
00001000
00010000
00001000
00000000
,
00010000
00001000
00010000
00000100
00001000
00000001
00000010
00000000
,
00002002
00000000
00000000
00003003
0000M00M
00000000
00000000
00000000
;

//---------------dance-double - M.Emirzian----------------
#NOTES:
     dance-double:
     M.Emirzian:
     Easy:
     4:
     0.243,0.212,0.038,0.057,0.000,170.000,4.000,6.000,0.000,0.000,0.000,0.243,0.212,0.038,0.057,0.000,170.000,4.000,6.000,0.000,0.000,0.000:
00000000
00000000
00000000
00000000
,
00000000
00000000
00000000
00000000
,
00000000
00000000
00000000
00000000
,
00000000
00000000
00000000
00000000
,
10000000
00010000
10000000
01000000
,
10000000
00010000
01000000
00001000
,
00010000
00000100
00000010
00000001
,
00001000
00000010
00001000
00000100
,
00002002
00000000
00000000
00003003
,
00000010
00001000
00000100
00001000
,
00000010
00001000
00000100
00000000
,
00100000
00010000
01000000
00010000
,
00100000
00010000
01000000
00000000
,
00000010
00001000
00000010
00000001
,
00000010
00001000
00000010
00000000
,
00010000
01000000
10000000
01000000
,
00010000
01000000
10000000
00000000
,
00100000
01000000
00100000
00000000
,
00000100
00000010
00000100
00000000
,
00022000
00000000
00000000
00033000
,
00010000
00001000
00010000
00001000
,
01000000
00010000
01000000
00000000
,
00000100
00010000
00000100
00000000
,
00001000
00000000
00000001
00000000
00001000
00000100
00000000
00000000
,
00010000
00000000
00001000
00000000
00010000
00001000
00000000
00000000
,
01000000
00100000
01000000
00000000
,
00001000
00010000
00001000
00000000
,
00000010
00010000
00000010
00000000
,
00000010
00001000
00000010
00000000
,
00000010
00001000
00000100
00001000
,
00000010
00001000
00000100
00010000
,
00001000
01000000
00010000
00100000
,
00010000
01000000
00100000
10000000
,
20020000
00000000
00000000
30030000
,
10000000
00000000
00010000
00000000
,
00001000
00000000
00000100
00000000
,
00000001
00000000
00000100
00000000
,
00000010
00001000
00000010
00000000
,
00010000
00000000
00001000
00000000
,
01000000
00001000
01000000
00000000
,
00010000
00100000
00010000
00000000
,
01000000
00001000
00010000
00000000
,
00000100
00000000
00010000
00000000
00000100
00001000
00000000
00000000
,
00000001
00000000
00001000
00000000
00000001
00001000
00000000
00000000
,
00000010
00001000
00000100
00000000
,
00001000
00000100
00010000
00000000
,
00001000
00010000
00001000
00000000
,
00010000
00001000
01000000
00000000
,
00100000
10000000
00010000
10000000
,
01000000
10000000
00010000
00100000
,
00010000
01000000
00001000
00010000
,
00000100
00001000
00000010
00001000
,
00000100
00001000
00000001
00001000
,
00000100
00010000
00001000
01000000
,
00100000
01000000
00010000
01000000
,
00100000
00000000
10000000
00000000
,
11000000
00000000
00000000
00000000
;

//---------------dance-single - D. Runberg----------------
#NOTES:
     dance-single:
     D. Runberg:
     Challenge:
     10:
     0.738,0.643,0.331,0.208,0.581,490.000,35.000,22.000,48.000,0.000,0.000,0.738,0.643,0.331,0.208,0.581,490.000,35.000,22.000,48.000,0.000,0.000: // measure 1
0000
0000
0000
0000
,  // measure 2
0000
0000
0000
0000
,  // measure 3
2000
0000
0000
0000
,  // measure 4
3002
0000
0203
0300
,  // measure 5
0001
0100
0001
0000
0100
0010
0100
0000
0010
1000
0010
0000
1000
0001
1000
0000
,  // measure 6
0001
0010
0001
0000
1000
0100
1000
0000
0001
0100
0001
0000
0100
0010
0100
0000
,  // measure 7
0010
1000
0100
0000
1000
0100
0010
0000
0100
0010
0001
0000
0010
0001
0100
0000
,  // measure 8
0001
0100
0010
0000
1000
0010
0100
0000
0001
0010
0100
0000
1000
0100
0010
0000
,  // measure 9
2002
0000
0000
0000
0000
0000
3003
M00M
,  // measure 10
1100
0000
1000
0010
0100
0000
0010
0000
0110
0000
0100
0001
1000
0000
0010
0000
,  // measure 11
0110
0100
1001
0010
0101
0001
0011
0000
,  // measure 12
1100
0000
1000
0100
0010
0000
0001
0000
0011
0000
0010
0001
1000
0000
0010
0000
,  // measure 13
0210
0000
0001
0000
0301
0000
1000
0000
0200
M000
0000
0000
0320
0000
0M00
0000
,  // measure 14
0031
0000
0001
0100
0001
0000
0010
0000
0100
0000
0100
1000
0100
0000
1000
0000
,  // measure 15
0010
0010
0100
0001
1001
0010
0100
M0M0
,  // measure 16
1100
0000
1000
0010
0100
0000
0001
0000
1001
0000
1000
0100
0010
0000
0001
0000
,  // measure 17
0100
0100
0010
1000
0002
0000
0013
000M
,  // measure 18
0001
0100
0001
010M
1000
0100
1000
M100
,  // measure 19
0001
0100
0M01
0010
0001
0010
1000
0010
,  // measure 20
0002
0000
1003
01M0
M001
01M0
1000
0010
,  // measure 21
0110
0000
0100
0000
0101
0000
0001
0000
0010
0001
0000
0001
0100
0000
0010
0000
,  // measure 22
1000
0000
0001
0010
0100
0000
1000
0000
0010
0000
0100
0001
0010
0000
0001
0000
,  // measure 23
0101
0000
0000
0110
0000
0000
1010
0000
MMMM
0000
1000
0000
0001
0000
1000
0000
,  // measure 24
0010
1000
0010
0000
0100
0001
0100
0000
0010
1000
0010
0000
1000
0000
0100
0000
,  // measure 25
1000
0100
1000
0000
0001
0010
0001
0000
1000
0010
1000
0000
1001
0000
0M0M
0000
,  // measure 26
0001
0000
0100
0010
1000
0000
0010
0000
1000
0000
0100
0010
0001
0000
1000
0000
,  // measure 27
1010
0000
0000
0110
0000
0000
0101
0000
MMMM
0000
0001
0000
1000
0000
0100
0000
,  // measure 28
1000
0010
0100
0010
2000
00M0
3000
M021
,  // measure 29
0000
0031
0100
0M20
0000
1030
0100
0010
,  // measure 30
0001
0010
0001
0000
0010
0100
0010
0000
0100
1000
0100
0000
1000
0001
1000
0000
,  // measure 31
0001
0100
0010
0000
0100
0010
1000
0000
0010
1000
0100
0000
0010
0001
0100
0000
,  // measure 32
0001
0100
0010
0000
0100
0001
1000
0000
0001
0010
0100
0000
1000
0100
0010
0000
,  // measure 33
0100
1000
0010
0000
1000
0010
0100
0000
0010
0100
0001
0000
1000
0100
0010
0000
,  // measure 34
2002
0000
0000
0000
0000
0000
0000
3003
,  // measure 35
1000
00M0
M100
000M
0010
0M00
0001
M000
0010
000M
M100
00M0
1000
0M00
0000
M000
,  // measure 36
00M1
0000
010M
0000
M010
0000
10M0
0000
0M10
000M
0100
0000
0M01
0000
0000
0000
,  // measure 37
1000
0000
0100
1000
0100
0000
1000
0000
0010
0000
0100
0001
0100
0000
0001
0000
,  // measure 38
0010
0000
0100
1000
0100
0000
1000
0000
0010
0000
0100
0001
0100
0000
0010
0000
,  // measure 39
1000
0000
0001
1000
0001
0000
0100
0000
0010
0000
1000
0100
1000
0000
0100
0000
,  // measure 40
1100
0000
1000
0000
1010
0000
0010
0000
0100
0010
0000
0010
1000
0000
0001
0000
,  // measure 41
0010
0000
0100
1000
0010
1000
0100
0000
0010
0000
0001
0010
0001
0100
0001
0000
,  // measure 42
0100
0000
0010
1000
0000
1000
0100
0000
1000
0000
0001
0100
0000
0100
0010
0000
,  // measure 43
1010
0100
0110
0010
0101
0001
0M0M
0010
,  // measure 44
0011
0000
0100
0000
1100
0000
1000
0010
0100
0000
M00M
0000
2002
0000
3003
0000
,  // measure 45
1000
0000
0001
0100
0010
0100
0010
0000
1000
0000
0001
0010
0001
0010
0100
0000
,  // measure 46
0010
0000
0100
1000
0100
1000
0001
0000
1000
0000
0010
0100
0010
0100
0001
0000
,  // measure 47
1000
1001
0100
0010
2000
00M0
3001
0010
,  // measure 48
0100
0000
1000
0001
0100
0001
0010
0000
0001
0000
0100
0000
2200
0000
3300
0000
,  // measure 49
1000
0100
0010
0000
1000
0010
0100
0000
0001
0100
1000
0000
0100
0001
0010
0000
,  // measure 50
0001
0010
1000
0000
0010
0001
0100
0000
0010
1000
0100
0000
1000
0100
0001
0000
,  // measure 51
0100
0010
0001
0000
0010
0001
0100
0000
0100
0010
1000
0000
0010
0001
0010
0000
,  // measure 52
1000
0010
0100
0000
0001
0010
0100
0000
1000
0100
0001
0000
0100
0010
0001
0000
,  // measure 53
1000
0010
0100
0000
0001
0100
1000
0000
0100
0010
1000
0000
0010
1000
0100
0000
,  // measure 54
1000
0001
0100
0000
1000
0100
0010
0000
0100
0010
1000
0000
0001
0010
1000
0000
,  // measure 55
0010
0100
1000
0000
0100
0010
0001
0000
1000
0010
0100
0000
0001
0100
1000
0000
,  // measure 56
0100
0001
0010
0000
0001
0010
0100
0000
0010
0100
1000
0000
0001
0100
0010
0000
,  // measure 57
2002
0000
0000
3003
;

//---------------dance-single - J. Frederick----------------
#NOTES:
     dance-single:
     J. Frederick:
     Beginner:
     1:
     0.081,0.079,0.057,0.000,0.000,54.000,6.000,0.000,0.000,0.000,0.000,0.081,0.079,0.057,0.000,0.000,54.000,6.000,0.000,0.000,0.000,0.000:
0000
0000
0000
0000
,
0000
0000
0000
0000
,
0000
0000
0000
0000
,
1000
0000
0001
0000
,
0100
0000
0000
0000
,
0010
0000
0000
0000
,
1000
0000
0000
0000
,
0001
0000
0000
0000
,
1001
0000
0000
0000
,
0100
0000
0000
0000
,
0010
0000
0000
0000
,
1000
0000
0000
0000
,
0001
0000
0000
0000
,
0100
0000
0000
0000
,
0010
0000
0000
0000
,
1000
0000
0000
0000
,
0001
0000
0000
0000
,
0100
0000
0000
0000
,
0010
0000
0000
0000
,
1001
0000
0000
0000
,
0000
0000
0000
0000
,
0010
0000
0000
0000
,
0100
0000
0000
0000
,
1000
0000
0000
0000
,
0001
0000
0000
0000
,
0010
0000
0000
0000
,
0100
0000
0000
0000
,
1000
0000
0000
0000
,
1001
0000
0000
0000
,
0100
0000
0000
0000
,
0010
0000
0000
0000
,
1000
0000
0000
0000
,
0001
0000
0000
0000
,
0110
0000
0000
0000
,
1000
0000
0000
0000
,
0001
0000
0000
0000
,
0100
0000
0000
0000
,
0010
0000
0000
0000
,
1000
0000
0000
0000
,
1001
0000
0000
0000
,
0100
0000
0000
0000
,
0010
0000
0000
0000
,
1000
0000
0000
0000
,
0001
0000
0000
0000
,
1000
0000
0000
0000
,
0010
0000
0000
0000
,
0100
0000
0000
0000
,
0001
0000
0000
0000
,
1000
0000
0000
0000
,
0001
0000
0000
0000
,
0100
0000
0000
0000
,
0010
0000
0000
0000
,
1000
0000
0000
0000
,
0001
0000
0000
0000
,
0010
0000
0000
0000
,
0100
0000
0000
0000
,
0110
0000
0000
0000
;

//---------------dance-single - J. Frederick----------------
#NOTES:
     dance-single:
     J. Frederick:
     Medium:
     6:
     0.335,0.322,0.094,0.217,0.000,215.000,10.000,23.000,0.000,0.000,0.000,0.335,0.322,0.094,0.217,0.000,215.000,10.000,23.000,0.000,0.000,0.000:
0000
0000
0000
0000
,
0000
0000
0000
0000
,
0000
0000
0000
0000
,
2000
3000
0002
0003
,
0010
0000
0100
0000
1000
0100
1000
0000
,
0010
0000
0100
0000
0001
0100
0001
0000
,
0010
0000
0100
0000
0010
0100
0010
0000
,
0001
0000
1000
0000
0001
1000
0001
0000
,
2002
0000
0000
0000
0000
0000
3000
0003
,
0100
0010
0100
0000
0010
0000
1000
0000
,
0100
0010
0100
0000
0010
0000
0001
0000
,
0100
0001
0100
0000
0010
0000
1000
0000
,
0010
1000
0010
0000
0110
0000
0110
0000
,
1000
0100
1000
0000
0001
0000
0010
0000
,
0001
0100
0001
0000
1000
0000
0010
0000
,
0100
0010
0100
0000
0001
0000
0010
0000
,
0100
1000
0100
0000
0010
0000
0001
0000
,
0100
0000
0001
2000
0000
0000
3000
0000
,
0010
0000
0100
0020
0000
0000
0030
0000
,
1000
0001
0010
0100
,
0010
0100
2002
3003
,
0100
0010
0100
0000
0001
0000
0000
0000
,
1000
0100
1000
0000
0100
0000
0000
0000
,
0010
0001
0100
0010
,
1000
0001
0010
0100
,
1000
0100
1000
0000
0100
0000
0000
0000
,
0010
0001
0010
0000
0001
0000
0000
0000
,
0100
0010
1000
0001
,
2002
0000
0000
3003
,
0100
0000
0010
0000
1000
0100
0010
0000
,
0001
0000
0100
0000
0001
1000
0001
0000
,
0100
0000
0010
0000
1000
0010
0100
0000
,
0002
0003
2000
3000
,
0220
0000
0000
0330
,
1000
0001
0010
0000
0100
0000
1000
0000
,
0010
0100
0001
0000
0010
0000
0100
0000
,
1000
0001
0100
0010
,
1000
0100
0020
0030
,
0001
0100
0010
1000
,
0001
1000
0001
0000
2002
0000
3003
0000
,
0100
0010
0100
0000
0001
0000
0000
0000
,
0010
0100
0010
0000
0100
0000
0000
0000
,
1000
0010
0100
0001
,
0010
0001
2002
3003
,
0100
0010
0100
0000
0001
0000
0000
0000
,
1000
0100
0010
0000
0100
0000
0000
0000
,
1000
0010
0100
0001
,
2002
0000
0000
3003
,
0100
0000
0001
0000
0010
0100
1000
0000
,
0100
0000
0010
0000
0001
0100
0001
0000
,
1000
0000
0010
0000
0100
0010
0100
0000
,
0001
0000
0010
0000
0001
0010
0100
0000
,
1000
0000
0100
0000
0010
0001
0100
0000
,
0001
0000
1000
0000
0010
0100
0001
0000
,
0010
0000
0100
0000
1000
0100
0010
0000
,
0001
1000
0001
0000
,
0220
0000
0000
0330
;
