#TITLE:Wild Thing;
#ARTIST:Ton Loc;
#BANNER:Wild Thing-bn.png;
#BACKGROUND:Wild Thing-bg.png;
#CDTITLE:.\CDTITLES\ITG3.png;
#MUSIC:Wild Thing.ogg;
#OFFSET:-0.467;
#SAMPLESTART:46.74;
#SAMPLELENGTH:11.84;
#BPMS:0=126.58;
#BGCHANGES:0=Wild Thing.avi=1=1=0=0,999=-=1=0=0=0;

//---------------dance-single - K. Ward + R. McKanna----------------
#NOTES:
     dance-single:
     K. Ward + R. McKanna:
     Hard:
     7:
     0.469,0,0.327,0.100,0.064:
0000
0000
0000
0000
,
0000
0000
0000
0000
,
0000
0000
0000
0000
,
0000
0000
0000
0000
,
0000
0000
0000
0000
0000
0000
1000
0001
1000
0000
0010
0000
0100
0000
0010
0000
,
1010
0000
0001
1000
0000
1000
0001
0100
,
0200
0000
0310
0100
0200
0000
0310
0000
,
0101
0000
0100
0010
0000
0010
1000
0100
,
0200
0000
0000
0000
0000
0000
1300
0001
1000
0000
0001
0000
0100
0000
0010
0000
,
1000
0000
0001
1000
0000
1000
0010
0100
,
0100
0000
0001
0000
0010
0100
0010
0100
,
1001
0000
0101
0000
1010
0100
0010
1000
,
0020
0100
0031
0000
,
0100
1000
0100
0010
0100
0000
0000
0010
,
0100
0001
0010
0001
1000
1000
0000
0000
,
0001
1000
0001
1000
0000
0000
0100
0000
1000
0000
0010
0000
0100
0000
0100
0000
,
0001
1000
0100
0010
1001
0000
0110
0000
,
0001
0010
0100
1000
0010
0001
0010
0100
,
0002
0100
0010
0103
,
1000
0100
0010
0001
0100
1000
0100
0000
,
1010
0000
0000
0000
0000
0000
0001
0010
0001
0000
0010
0000
0100
0000
0010
0000
,
1100
0000
0010
0100
0000
0001
1000
0100
,
0010
0000
0100
0000
1000
0010
0001
0000
,
0100
0001
0000
0100
0000
0000
0010
0000
0001
0000
0010
0000
0100
0000
1000
0000
,
0100
0100
0100
1001
,
1000
0100
0001
0100
1000
0100
0001
0100
,
0002
0103
1100
0110
,
0001
0100
1000
0100
0001
0100
1000
0100
,
2000
0000
0000
0000
3100
0000
0010
0100
0010
0000
0100
0000
0001
0000
1000
0000
,
1100
0000
0000
0110
0000
1001
0000
0000
,
0000
0000
0000
0000
0010
0100
0001
0010
,
0011
0000
0000
0100
0000
1010
0110
0000
,
0000
0000
0000
0000
0000
0000
0001
1000
0001
0000
0100
0000
0010
0000
0100
0000
,
1000
0000
0000
0000
1000
0000
0100
0000
0000
0000
0100
0000
0010
0000
0100
0001
,
0100
0100
0020
0000
1000
0000
1030
0000
,
0010
0000
1000
1100
0000
0011
0000
0100
,
0010
0000
1001
0000
0100
1000
0010
0100
,
0001
0011
0100
1100
,
0010
0000
1001
0000
0100
1000
0100
0010
,
0001
0110
0100
1010
,
0100
0010
0100
1000
0100
0000
0101
0000
,
0010
1000
0100
0001
,
0100
0000
0100
0100
0100
0000
0000
0000
,
0010
0001
0010
0100
0001
1000
0100
0010
,
0001
0110
1001
0000
,
0100
0010
1000
1000
0010
0100
0001
0000
,
0000
1000
0010
0001
0020
0000
0130
0000
,
0001
0000
0010
0001
0000
0000
1000
0000
0100
0000
1000
0100
0000
0000
0000
0000
,
0010
0001
0100
1000
,
0010
0100
0001
0100
0010
0100
0001
1000
,
0100
0000
0110
0000
0100
1000
1100
0000
,
0010
0100
1000
0100
0010
0001
0010
0100
,
1001
0000
0000
0000
0000
0000
0010
0001
0010
0000
0100
0000
0001
0000
0010
0000
,
0100
1000
0100
0010
0100
1000
0010
0001
,
0010
0000
1100
0000
0010
0100
1001
0000
,
0100
0010
0100
1000
0100
0010
0100
0010
,
0220
0000
0000
0000
0330
0000
0001
1000
0001
0000
0010
0000
0100
0000
0010
0000
,
1100
0000
0000
0000
;

//---------------dance-single - K. Ward----------------
#NOTES:
     dance-single:
     K. Ward:
     Medium:
     5:
     0.318,0,0.273,0.045,0:
0000
0000
0000
0000
,
0000
0000
0000
0000
,
0000
0000
0000
0000
,
0000
0000
0000
0000
,
0000
0000
0000
0010
0100
0001
0020
0000
,
0130
0000
0000
1001
0000
0110
0000
0000
,
0000
0000
0000
0000
0010
1000
0100
0000
,
0010
0000
0000
1100
0000
0011
0000
0000
,
0100
1000
0010
0001
,
1000
0100
1000
0000
1000
0000
0000
0000
,
0100
0100
0100
0000
,
0010
0001
0010
0000
0100
1000
0100
0000
,
0010
0100
2000
0000
,
3001
0100
0010
0001
,
0010
0000
0100
0000
0001
1000
0001
0000
,
0010
0100
0010
0000
0100
0000
0100
0000
,
1000
0001
1000
0000
1001
0000
0000
0000
,
1000
0100
0010
0100
1000
0000
1000
0000
,
0100
1000
0010
0001
,
0010
0100
0010
0001
0010
0000
0101
0000
,
0010
0001
0100
1000
,
1001
0000
0000
0000
0000
0000
0000
0010
,
0100
0010
0101
0000
,
1000
0100
0010
0100
1000
0100
0010
0100
,
1000
0001
1000
0001
,
0200
0000
0000
0310
0000
1001
0000
0000
,
0000
0000
0000
0000
0001
1000
0001
0000
,
0020
0000
0000
0130
0000
1010
0000
0000
,
0010
0001
0010
0100
,
1001
0000
0000
0110
0000
0011
0000
0000
,
0000
0000
0000
0000
0001
1000
0100
0000
,
0110
0000
0000
1100
0000
0110
0000
0000
,
0000
0000
0000
1000
0001
0010
0001
0100
,
0010
0010
0010
0010
,
0000
0000
0000
0000
1000
0001
2000
0000
,
3100
0000
0000
0110
0000
1001
0000
0000
,
0000
0000
0000
0100
0010
0100
0001
0000
,
0001
0100
0010
1000
,
0001
0000
0010
0000
0100
0010
0001
0000
,
0100
0100
0010
0010
,
1000
0001
0100
0010
1000
0000
0010
0000
,
1001
0000
0000
0010
0000
0010
0000
0000
,
0100
1000
0100
0001
,
0010
0000
0000
0001
0000
0001
0000
0000
,
0010
0100
0110
0000
,
1001
0010
0001
0010
,
0100
1000
0100
0010
0100
0000
0000
0000
,
0010
0001
0010
0000
0100
1000
0100
0000
,
0001
1000
0001
0000
0010
0000
0101
0000
,
1000
0000
0000
0110
0000
0101
0000
0000
,
0000
0000
0000
0000
0100
0010
0100
0000
,
0010
0000
0000
1100
0000
0011
0000
0000
,
0100
1000
0010
0001
,
0100
0000
0000
0011
0000
1100
0000
0000
,
0010
0000
0001
0000
0010
0100
1000
0000
,
0100
0000
0000
0010
0000
1001
0000
0000
,
0100
1000
0010
0001
,
1001
0000
0000
0000
;

//---------------dance-single - K. Ward----------------
#NOTES:
     dance-single:
     K. Ward:
     Easy:
     3:
     0.195,0,0.118,0.009,0:
0000
0000
0000
0000
,
0000
0000
0000
0000
,
0000
0000
0000
0000
,
0000
0000
0000
0000
,
0000
0000
0010
0100
,
0001
0010
0001
0010
,
0100
0100
0000
0000
,
1000
0100
1000
0010
,
0100
0100
0000
0000
,
1001
0000
0000
0000
,
0010
0100
0001
0000
,
1000
0001
1000
0000
,
0100
0100
0100
0000
,
0010
0001
0010
0000
,
0100
1000
0010
0000
,
0100
0100
0010
0010
,
1000
0001
1001
0000
,
0100
0000
0100
0000
,
0010
0000
0010
0000
,
1000
0100
0010
0000
,
0010
0100
1000
0000
,
1001
0000
0000
0000
,
0100
0100
0010
0000
,
1000
0001
1000
0001
,
0100
0000
0010
0100
,
1001
0000
0100
0100
,
0000
0000
0001
1000
,
0010
0000
1001
0000
,
0000
0000
0100
0010
,
1000
0000
0001
0000
,
0000
0000
0000
0000
,
0001
0000
1000
0000
,
0000
0000
0010
0000
,
1001
0000
0100
0100
,
0000
0000
0010
0100
,
1001
0000
0001
0000
,
1000
0001
0100
0000
,
0010
0001
0010
0000
,
0100
1000
0100
0000
,
0200
0000
0310
0000
,
1000
0001
0010
0100
,
0010
0000
0001
0000
,
0100
0000
0010
0100
,
0010
0000
0010
0000
,
1000
0001
1000
0001
,
1001
0000
0100
0000
,
1000
0000
0100
0000
,
0001
1000
0001
1000
,
0100
0000
0010
0000
,
1001
0000
0001
0000
,
0100
0100
0100
0000
,
0010
0000
0100
0000
,
0001
1000
0001
0000
,
1100
0000
0011
0000
,
0000
0000
0100
0010
,
0100
0000
1001
0000
,
0100
0010
0100
0010
,
1001
0000
0000
0000
;

//---------------dance-single - Blank----------------
#NOTES:
     dance-single:
     Blank:
     Beginner:
     1:
     0.083,0,0.018,0,0:
0000
0000
0000
0000
,
0000
0000
0000
0000
,
0000
0000
0000
0000
,
0000
0000
0000
0000
,
0000
0000
0000
0000
,
1000
0000
0000
0000
,
1000
0000
0000
0000
,
0001
0000
0000
0000
,
0001
0000
0000
0000
,
0100
0000
0000
0000
,
0010
0000
0010
0000
,
1000
0000
0000
0000
,
0001
0000
1000
0000
,
0001
0000
0100
0000
,
0010
0000
0000
0000
,
0010
0000
0010
0000
,
0010
0000
0000
0000
,
1000
0000
0000
0000
,
0001
0000
0000
0000
,
0100
0000
0100
0000
,
0010
0000
0000
0000
,
1000
0000
0000
0000
,
0001
0000
0000
0000
,
0100
0000
0100
0000
,
0100
0000
0000
0000
,
0010
0000
0000
0000
,
1000
0000
0000
0000
,
0001
0000
0000
0000
,
0010
0000
0000
0000
,
0001
0000
0000
0000
,
0000
0000
0000
0000
,
1000
0000
0000
0000
,
0000
0000
0000
0000
,
0100
0000
0000
0000
,
0100
0000
0010
0000
,
0010
0000
0000
0000
,
0100
0000
0100
0000
,
1001
0000
0000
0000
,
1000
0000
0000
0000
,
0001
0000
0000
0000
,
0010
0000
0100
0000
,
0010
0000
0000
0000
,
0001
0000
0000
0000
,
1000
0000
0000
0000
,
0010
0000
0100
0000
,
0010
0000
0000
0000
,
1000
0000
0000
0000
,
0001
0000
0001
0000
,
0001
0000
0000
0000
,
0100
0000
0000
0000
,
0100
0000
0000
0000
,
0010
0000
0000
0000
,
0010
0000
0000
0000
,
1000
0000
0000
0000
,
0001
0000
0000
0000
,
0001
0000
0000
0000
,
1000
0000
0000
0000
,
1001
0000
0000
0000
;

//---------------dance-single - K. Ward----------------
#NOTES:
     dance-single:
     K. Ward:
     Challenge:
     10:
     0.610,0,0.618,0.264,0.173:
0000
0000
0000
0000
,
0000
0000
0000
0000
,
0000
0000
0000
0000
,
0000
0000
0000
0000
,
0000
0000
0000
0000
0000
0000
0000
0000
0000
1000
0100
1000
0100
0000
0000
0010
0000
0000
0001
0000
0000
0010
0000
0000
,
0100
0010
1001
0010
0100
0010
0101
0010
,
0100
0000
1010
0000
0100
0001
0020
0000
,
0130
0010
1100
0001
0010
0100
1001
0100
,
2000
0000
0000
0000
0000
0000
3100
0000
0000
0010
0100
0010
0100
0000
0000
1000
0000
0000
0100
0000
0000
0010
0000
0000
,
1001
0100
0010
0100
1010
0100
0001
0010
,
1002
0000
0013
0000
0100
0010
0101
0210
,
0000
0301
1000
0001
0010
0001
0100
1000
,
0110
0001
1100
0010
2200
0000
0001
3300
,
0001
1000
0001
0000
0010
0000
0100
0000
0010
0000
0100
0000
1000
0000
0010
0100
,
0010
0100
0001
0010
0110
1001
0000
0000
,
01M0
0M10
0110
0000
0M10
01M0
1001
0000
,
0001
1000
0001
0000
0100
0000
1000
0000
0110
0000
0011
0000
1100
0000
0110
0000
,
1002
0000
0013
0200
0000
1000
0310
0100
,
0100
0000
1001
0000
0010
0100
0101
0000
,
0100
0000
1000
0000
0100
0000
0001
0000
0010
0000
0100
0010
0100
0000
0000
0000
,
2000
0001
3002
1000
2003
0001
3002
1000
,
1003
0000
0110
0011
0000
1001
1020
0100
,
0230
0000
0301
0000
0100
1000
0100
0010
,
1000
0100
0000
1100
0000
0000
0010
0100
0010
0001
0010
0200
0000
0000
1000
0000
,
0310
0000
0000
0000
0000
0000
1100
0000
0000
0010
0100
0010
0100
0000
0000
0001
0000
0000
0010
0000
0000
0100
0000
0000
,
4001
0000
3400
0010
0000
1300
0001
1000
,
2004
0000
3003
M00M
0010
0100
2001
0000
,
3100
0010
0101
0140
0000
0031
0100
1000
,
0100
0000
0000
0010
0000
0000
0100
0000
0000
1000
0100
1000
0100
0000
0000
0010
0000
0000
0100
0000
0000
1000
0000
0000
,
0110
0001
1001
0000
0010
0100
1001
0000
,
0100
0010
1001
0011
0000
1100
1001
0000
,
0100
0010
1001
0000
0010
0100
1001
0000
,
0100
0000
0000
0010
0000
0000
1001
0000
0000
0010
0100
0010
0100
0000
0000
1000
0000
0000
0100
0000
0000
0010
0000
0000
,
0041
0000
0000
0000
0100
0000
0000
0000
0001
0000
0000
0000
0130
0000
0001
0100
,
0010
0100
0010
0000
1001
0000
0000
0000
1200
0000
0000
0000
0310
0000
0000
0000
,
0410
0000
1000
0000
0010
0000
1300
0010
,
0100
0000
0000
1000
0000
0000
0100
0000
0000
0001
1000
0001
1000
0000
0000
0010
0000
0000
0100
0000
0000
1000
0000
0000
,
0100
0000
0011
00MM
0100
0010
1001
M00M
,
0100
1000
0100
0001
0010
0100
0010
1002
,
0100
0000
0023
0100
0000
0031
0100
1000
,
0010
0100
0110
0001
2001
0000
3100
0MM0
,
0010
0100
0010
0000
0100
0000
1000
0000
0100
0000
0001
0000
0010
0000
0100
0000
,
1000
0100
0001
0010
0100
0010
0011
M00M
,
1MM0
0001
1000
0000
0001
1000
0001
0000
0100
0010
0100
0000
0001
0010
0001
0000
,
0210
0000
1000
0000
0310
0001
0100
1000
,
0100
0010
1001
0100
0010
0100
1010
0100
,
0001
0010
0210
0000
1000
1300
1001
0000
,
1000
0100
0000
1100
0000
0000
0010
0000
0100
0010
0000
1001
0000
0000
0100
0000
,
0010
0000
0000
1000
0000
0000
0010
0000
0000
1000
0001
1000
0001
0000
0000
0010
0000
0000
0100
0000
0000
0010
0000
0000
,
0410
0000
1000
0000
0010
0000
2300
0001
,
3004
M000
0013
00MM
0100
1000
0200
0000
,
0304
0000
0023
0400
0030
0340
0000
0001
,
0031
0000
0000
0000
0000
0000
0000
0000
0000
1000
0001
1000
0002
0000
0000
0000
0000
0000
1003
0000
0000
M00M
0000
0000
,
0140
0000
0001
0000
0100
0000
0031
0010
,
0102
0000
0013
0000
0100
0010
2001
0000
,
3100
0MM0
0010
1001
0M00
0100
1000
0400
,
0010
0000
0000
0000
0000
0000
1300
0000
0000
0010
0100
0010
0100
0000
0000
0001
0000
0000
0010
0000
0000
0100
0000
0000
,
1001
0000
0000
0000
;

//---------------dance-double - M.Emirzian----------------
#NOTES:
     dance-double:
     M.Emirzian:
     Hard:
     7:
     0.495,0,0.327,0.027,0.018:
00000000
00000000
00000000
00000000
,
00000000
00000000
00000000
00000000
,
00000000
00000000
00000000
00000000
00010000
00110000
00000000
10010000
,
01000000
00000000
00000000
00100000
00000000
10000000
00000000
01000000
,
10000000
00000000
00100000
10000000
00010000
01000000
00100000
10000000
,
01000000
00100000
00010000
01000000
00001000
01000000
00010000
01000000
,
01010000
00000000
00001000
00010000
00010100
00000000
00001010
00000000
,
00000010
00000100
00000001
00001000
00000100
00000010
00000001
00001000
,
00000010
00000000
00000000
00000000
00000100
00000000
00000001
00000100
00000001
00000000
00001000
00000000
00000100
00000000
00001000
00000000
,
00000010
00010000
00001000
01000000
00001000
00010000
00001000
00100000
,
00010000
10000000
00010000
00100000
01000000
20000000
00000000
00000000
,
30010000
01000000
00100000
10000000
00100000
01000000
00010000
00100000
,
00001000
00000000
00010000
00001000
00010000
00000100
00001000
00000001
,
00001000
00000010
00000100
00000001
00001000
00000100
00000010
00000001
,
00001000
00000010
00010000
00000010
00001000
00000020
00000000
00000000
,
00001030
00000100
00010000
00001000
01000000
00010000
01000000
00001000
,
01000000
00010000
00100000
01000000
10000000
00200000
00000000
00000000
,
01300000
00010000
10000000
01000000
00100000
00010000
10000000
00100000
,
10000000
00010000
00100000
00001000
00010000
00000100
00010100
00000000
,
00010000
00000010
00001000
00000010
00010000
00000010
00001000
00000001
,
00000100
00000010
00001000
00000100
00000010
00000000
00001001
00000000
,
00001000
00000010
00001000
00000001
00000100
00000010
00000100
00000001
,
00001000
00000100
00010000
00000100
00001000
00000010
00010000
00000000
,
00001000
01000000
00001000
00010000
00001000
01000000
00010000
10000000
,
00100000
01000000
00010000
10000000
10010000
00000000
11000000
00000000
,
00100000
00010000
01000000
00001000
01000000
00010000
01000000
00001000
,
00011000
00000000
00001000
00010000
00010010
00000000
00001010
00000000
,
00000001
00000100
00000010
00001000
00000001
00000100
00000010
00001000
,
00001001
00000000
00000000
00000000
00000100
00000000
00001000
00000100
00001000
00000000
00000001
00000000
00001000
00000000
00000010
00000000
,
00001000
00000000
00000000
00001100
00000000
00010100
00000000
00000000
,
01001000
00000000
00000000
00000000
00100000
00110000
00000000
11000000
,
10000000
00000000
00000000
01010000
00000000
01001000
00000000
00000000
,
00010010
00000000
00000000
00000000
00000000
00000000
00001000
00000010
00001000
00000000
00000010
00000000
00000100
00000000
00000001
00000000
,
00001000
00000100
00000010
00000001
00000000
00000001
00000010
00000100
,
00001000
00000000
00000010
00001000
00010010
00000000
00011000
00000000
,
00001000
01000000
00001000
00010000
00000000
00010000
00001000
00100000
,
00001000
00000000
00000000
00000000
00010000
00000000
00001000
00010000
00001000
00000000
01000000
00000000
00010000
00000000
01000000
00000000
,
00100000
10000000
01000000
00100000
00010000
10000000
01000000
00100000
,
00010000
01000000
00001000
01000000
00010000
00000000
00011000
00000000
,
00000100
00010000
00000100
00001000
00000100
00000010
00000001
00001000
,
00000010
00010000
00000010
00001000
00000100
00000000
00001010
00000000
,
00001000
00000001
00000100
00000010
00001000
00000100
00010000
00001000
,
01000000
00010000
10000000
01000000
00100000
00000000
00110000
00000000
,
10000000
00010000
01000000
00010000
10000000
01000000
00100000
00010000
,
00100000
00001000
00010000
00000100
00001000
00000000
00001010
00000000
,
00000001
00000100
00000010
00001000
00000010
00000100
00000001
00001000
,
00000010
00001000
00000100
00010000
00001000
00000000
00010100
00000000
,
00001000
00010000
00001000
01000000
00001000
00010000
00001000
00100000
,
00010000
01000000
00100000
10000000
00100000
00000000
10010000
00000000
,
10000000
01000000
00100000
00010000
01000000
00001000
00010000
00001000
,
00011000
00000000
00000100
00010000
00001100
00000000
00000011
00000000
,
00000001
00000100
00000010
00001000
00000100
00010000
00001000
01000000
,
01010000
00000000
00100000
10000000
11000000
00000000
00110000
00000000
,
00101000
00000000
00000000
00000000
;

//---------------dance-double - J. Frederick----------------
#NOTES:
     dance-double:
     J. Frederick:
     Easy:
     2:
     0.174,0,0.055,0.136,0:
00000000
00000000
00000000
00000000
,
00000000
00000000
00000000
00000000
,
00000000
00000000
00000000
00000000
,
00000000
00000000
00000000
00000000
,
00000000
00000000
20020000
30030000
,
00010000
00000000
00100000
00000000
,
10000000
00000000
01000000
02000000
,
03010000
00000000
00100000
00000000
,
00010000
00000000
00001000
00000000
,
00000100
00000000
00000001
00000000
,
00000010
00000000
00000001
00000000
,
00000100
00000000
00000010
00000000
,
00001000
00001000
00002000
00003000
,
00001000
00000000
00010000
00000000
,
00100000
00000000
00010000
00000000
,
01000000
00000000
00010000
00000000
,
10000000
00000000
00200000
00300000
,
01000000
00000000
10000000
00000000
,
00010000
00000000
00001000
00000000
,
00000100
00000000
00000001
00000000
,
00000010
00000001
00000200
00000300
,
00000010
00000000
00001000
00000000
,
00000001
00000000
00000100
00000000
,
00001000
00000000
00010000
00000000
,
00022000
00000000
00000000
00033000
,
00010000
00000000
00001000
00000000
,
00100000
00000000
01000000
01000000
,
01000000
00000000
10000000
00000000
,
00010000
00000000
00001000
00000000
,
00000100
00000000
00000100
00000000
,
00000100
00000000
00000000
00000000
,
00000010
00000000
00000010
00000000
,
00000010
00000000
00000000
00000000
,
00000001
00000000
00001000
00000000
,
00000020
00000030
00000010
00000010
,
00001000
00000000
00010000
00000000
,
00200000
00300000
00100000
00100000
,
10000000
00000000
01000000
00000000
,
00010000
00000000
00011000
00000000
,
00000100
00000000
00001000
00000000
,
00000001
00000000
00000020
00000030
,
00000100
00000000
00000001
00000000
,
00001000
00000000
00000100
00000000
,
00000001
00000000
00000010
00000000
,
00001000
00000000
00022000
00033000
,
00010000
00000000
00100000
00000000
,
10000000
00000000
01000000
00000000
,
10000000
00000000
00010000
00000000
,
00100000
00000000
00010000
00010000
,
00020000
00030000
00010000
00000000
,
00001000
00000000
00000100
00000100
,
00000100
00000000
00000001
00000000
,
00000020
00000030
00001000
00000100
,
00000001
00000000
00000010
00000000
,
00001000
00000000
00011000
00001000
,
00010000
00000000
10000000
00000000
,
00100000
00000000
01000000
00000000
,
10010000
00000000
00000000
00000000
;

//---------------dance-double - J. Frederick----------------
#NOTES:
     dance-double:
     J. Frederick:
     Medium:
     5:
     0.317,0,0.182,0.245,0:
00000000
00000000
00000000
00000000
,
00000000
00000000
00000000
00000000
,
00000000
00000000
00000000
00000000
,
00000000
00000000
00000000
00000000
,
00000000
00000000
00220000
00330000
,
00010000
00000000
00100000
00010000
00000000
00010000
00000000
00100000
,
00010000
00000000
10010000
10010000
,
01000000
00000000
10000000
01000000
00000000
01000000
00000000
00100000
,
00010000
00000000
00002000
00003000
,
00000010
00000001
00000100
00000001
,
00000010
00000001
00000200
00000300
,
00000010
00001000
00000010
00001000
,
00100000
00010000
00020000
00030000
,
00100000
01000000
10000000
00010000
,
01000000
00100000
20000000
30000000
,
01000000
00000000
00100000
00000000
,
00011000
00011000
00022000
00033000
,
00001000
00000100
00000001
00000000
,
00000010
00000001
00000100
00000000
,
00000010
00001000
00000001
00000200
,
00000300
00000010
00002020
00003030
,
00000010
00001000
00000100
00000000
,
00001000
00000000
00010000
00000000
,
00100000
01000000
10000000
00010000
,
00100000
01000000
01100000
01100000
,
10000000
00000000
00010000
01000000
00000000
00100000
00000000
00010000
,
00002000
00003000
00001001
00001001
,
00000010
00000000
00000001
00000100
00000000
00000010
00000000
00001000
,
00000100
00000001
00002002
00003003
,
00001000
00000000
00000010
00001000
00000010
00000000
00000001
00000100
,
00000001
00000000
00000010
00001000
00000000
00001000
00000000
00010000
,
00100000
00000000
00010000
00100000
00010000
00000000
10000000
00010000
,
10000000
00010000
20020000
30030000
,
00010000
00000000
00100000
00010000
00000000
00010000
00000000
00100000
,
00020000
00000000
00000000
00000000
00001000
00000000
00001000
00030000
,
00001000
00000000
00000100
00000001
00000000
00000001
00000000
00000010
,
00002000
00010000
00100000
00013000
,
00011000
00010000
00001000
01000000
,
10000000
00100000
00020000
00030000
,
00100000
01000000
10000000
00010000
,
01000000
00010000
00022000
00033000
,
00001000
00000001
00000100
00000010
,
00001000
00000001
00000200
00000300
,
00000001
00000010
00000001
00000100
,
00000010
00001000
00002002
00003003
,
00000001
00000010
00000001
00000100
,
00000010
00001000
00020000
00030000
,
00010000
00100000
00010000
01000000
,
10000000
00000000
10010000
10010000
,
00100000
00000000
00010000
00001000
00000000
00000001
00000000
00000100
,
00000020
00000030
00001000
00000001
,
00000100
00000000
00000010
00001000
00000000
00001000
00000000
00010000
,
00001000
00000000
00010000
00000000
00001000
00010000
00001000
00000000
,
00011000
00000000
00010000
00001000
00000000
00100000
00000000
00100000
,
00020000
00030000
10000000
01000000
,
00100000
00000000
00010000
00001000
00000000
00001000
00000000
00000001
,
00000100
00000010
00001000
00000000
,
00001001
00000000
00000000
00000000
;
