#TITLE:Who;
#SUBTITLE:;
#ARTIST:KaW;
#TITLETRANSLIT:;
#SUBTITLETRANSLIT:;
#ARTISTTRANSLIT:;
#GENRE:Silly Pop;
#CREDIT:;
#BANNER:Who-bn.png;
#BACKGROUND:Who-bg.png;
#LYRICSPATH:;
#CDTITLE:;
#MUSIC:Who.ogg;
#OFFSET:-0.072;
#SAMPLESTART:67.700;
#SAMPLELENGTH:11.840;
#SELECTABLE:YES;
#BPMS:0.000=141.800;
#STOPS:;
#BGCHANGES:-0.035=Who.mpg=1.000=1=0=0=StretchNoLoop==CrossFade==,
99999=-nosongbg-=1.000=0=0=0 // don't automatically add -songbackground-;
#KEYSOUNDS:;

//---------------dance-single - K. Ward----------------
#NOTES:
     dance-single:
     K. Ward:
     Hard:
     8:
     0.479,0.521,0.340,0.295,0.259,299.000,38.000,33.000,20.000,8.000,0.000,0.479,0.521,0.340,0.295,0.259,299.000,38.000,33.000,20.000,8.000,0.000:
0000
0000
0000
0000
,
0000
0000
0000
0000
,
0000
0000
0000
0000
,
0000
0000
0000
0000
,
2000
0000
0000
0000
3200
0000
0000
0000
0300
0010
0100
0000
1000
0000
0100
0000
,
2000
0000
0000
0000
3200
0000
0000
0000
0300
0010
1000
0000
0100
0000
0010
0000
,
0200
0000
0000
0000
0320
0000
0000
0000
0030
0001
0100
0000
0010
0000
0100
0000
,
0010
0100
1000
0100
,
2002
00M0
0000
0M00
,
0000
00M0
0000
3M03
,
1000
0000
0000
0001
0000
0000
1000
0000
0000
0001
0000
0000
1000
0000
0000
0000
,
0100
1000
0100
0000
1000
0001
1000
0000
0010
0100
0000
0110
0000
0000
0000
0000
,
0100
0000
0000
0000
0100
0000
0000
0000
0200
0000
0000
0000
0000
0300
0000
0000
,
0010
0000
0000
0000
1000
0000
0000
0000
0002
0000
0000
0000
0000
0003
0000
0000
,
0010
0000
0000
0000
0100
0000
0000
0000
2000
0000
0000
0000
0000
3000
0000
0000
,
1011
0MM0
1110
0MM0
,
0010
0000
0100
0000
0100
0010
1000
0000
,
0100
0000
0100
0000
0010
0001
0010
0000
,
0100
0010
0001
1000
,
0111
0MM0
1110
1101
,
2002
0000
0010
3003
,
2020
0000
0000
0000
0001
3030
0000
0000
,
0202
0000
0010
0303
,
0100
0000
0000
0000
0010
0000
0001
0000
0010
0100
0000
0100
0000
0100
0000
0000
,
0011
0000
0000
0000
0100
0000
0000
2200
0000
0000
3300
0000
0000
0000
0000
0000
,
1001
0000
0000
0000
0010
0000
0000
0022
0000
0000
0033
0000
0000
0000
0000
0000
,
0001
0010
0000
0000
0001
0000
0000
0000
0100
0010
0000
0000
0100
0000
0000
0000
,
1000
0100
0001
0100
0010
0100
0010
1000
,
1000
0000
0000
0000
0101
0000
0000
0202
0000
0000
0303
0000
0000
0000
0000
0000
,
0100
0000
0000
0000
0110
0000
0000
0220
0000
0000
0330
0000
0000
0000
0000
0000
,
1000
0001
0000
0000
0001
0000
0000
0000
0010
0100
0000
0000
0010
0000
0000
0000
,
0001
0100
1000
0100
0010
0100
0001
0000
,
1000
0100
1000
0100
1000
0000
0000
0000
1100
0000
0000
0000
0011
0000
0000
0000
,
0001
0010
0001
0010
0001
0000
0000
0000
0011
0000
0000
0000
0110
0000
0000
0000
,
0010
0100
0010
0100
0010
0000
0000
0000
0110
0000
0000
0000
1001
0000
0000
0000
,
1000
0001
1000
0000
1000
0000
0000
0000
0001
1000
0001
0000
0001
0000
0000
0000
,
0100
0000
0010
0000
0100
0000
0001
0100
0000
0000
0M00
0000
1000
0000
0000
0000
,
0100
0000
0010
0000
0100
0000
0001
0010
0000
0000
00M0
0000
0100
0000
0000
0000
,
0010
0000
0001
0000
0001
0000
1000
0001
0000
0000
000M
0000
0010
0000
0000
0000
,
2002
0000
0000
3003
MMMM
0000
0000
0000
,
1000
0000
0000
1000
0000
0000
0010
0000
0100
0000
0000
0100
0000
0000
0001
0000
,
0010
0000
0000
0010
0000
0000
0100
0000
0010
0000
0000
0000
1001
0000
0000
0000
,
0010
0000
0000
0010
0000
0000
0100
0000
1000
0000
0000
1000
0000
0000
0100
0000
,
0001
0000
0000
0001
0000
0000
0010
0000
0100
0000
0000
0000
1010
0000
0000
0000
,
0100
0000
0000
0010
0000
0000
0001
0000
0010
0000
0000
0100
0000
0000
1000
0000
,
0010
0000
0000
0100
0000
0000
0010
0000
0100
0000
0000
0000
1001
0000
0000
0000
,
0010
0000
0000
0100
0000
0000
0010
0000
0001
0000
0000
0010
0000
0000
0100
0000
,
0100
0010
0000
0000
0000
0000
0010
0000
0100
0000
0001
0000
0010
0000
0100
0000
,
1000
0000
0000
1000
0100
0000
0000
0000
0010
0000
0000
0010
0100
0000
0000
0000
,
1000
0000
0000
1000
0001
0000
0000
0000
0001
0000
0100
0000
0010
0000
0001
0000
,
0010
0000
0000
0010
0100
0000
0000
0000
0001
0000
0000
0001
0010
0000
0000
0000
,
0100
0000
0000
0100
0010
0000
0000
0000
0100
0000
1000
0000
0100
0000
0010
0000
,
0001
0000
0000
0001
1000
0000
0000
0000
1000
0000
0000
1000
0001
0000
0000
0000
,
0100
0000
0000
0100
0010
0000
0000
0000
0100
0000
0010
0000
0100
0000
1000
0000
,
0100
0000
0000
0100
0010
0000
0000
0000
0010
0000
0000
0010
1000
0000
0000
0000
,
1100
0000
0000
0010
0001
0010
0100
0010
,
0001
0000
0100
0000
0010
1000
0100
0000
,
1010
0000
0000
0100
0001
0010
0100
0010
,
0001
0000
0011
0000
0010
0100
1000
0000
,
0110
1100
0010
1001
,
0100
1000
0000
0000
0200
0000
0000
0000
0000
0000
0300
0000
1001
0000
0000
0000
,
0100
0010
0000
0000
0200
0000
0000
0000
0000
0000
0300
0000
0011
0000
0000
0000
,
0100
1000
0000
0000
0200
0000
0000
0000
0000
0000
0300
0000
0110
0000
0000
0000
,
0001
0010
0000
0000
0002
0000
0000
0000
0000
0000
0003
0000
0100
0000
0000
0000
,
2002
0M00
0000
00M0
0000
0M00
3003
0000
;

//---------------dance-double - M.Emirzian----------------
#NOTES:
     dance-double:
     M.Emirzian:
     Easy:
     3:
     0.226,0.257,0.125,0.045,0.000,158.000,14.000,5.000,0.000,0.000,0.000,0.226,0.257,0.125,0.045,0.000,158.000,14.000,5.000,0.000,0.000,0.000:
00000000
00000000
00000000
00000000
,
00000000
00000000
00000000
00000000
,
00000000
00000000
00000000
00000000
,
00000000
00000000
00000000
00000000
,
20020000
30030000
10000000
01000000
,
10000000
00000000
00001000
00010000
,
00001000
00000000
00000100
00010000
,
00000100
00000000
00000000
00001001
,
00001001
00000000
00000020
00000000
,
00001030
00001000
00001000
00000000
,
00001100
00000000
00010100
00000000
,
00010000
00001000
00010000
00001000
,
00010000
00000000
01000000
00000000
,
10000000
10000000
00000000
00010000
,
01000000
00000000
00100000
00000000
,
10000000
10000000
00000000
01000000
,
00010000
00000000
00001000
00000000
,
00010000
00010000
00000000
00000100
,
00000010
00000000
00000001
00000000
,
00000100
00000100
00000000
00000010
,
00001000
00000000
00000100
00000000
,
00010000
00010000
00000000
00001000
,
00010000
00000000
00100000
00000000
,
10000000
10000000
00000000
01000000
,
00100000
00000000
00010000
00000000
,
01000000
01000000
00000000
00001000
,
00010000
00000000
00000100
00000000
,
00000010
00000000
00000001
00000001
,
00001000
00000000
00000100
00000000
,
00010000
00001000
00000000
00010000
,
00010000
00000000
01000000
00000000
,
10000000
00000000
00100000
01000000
,
00100000
00000000
10000000
00010000
,
10000000
00000000
00001000
00100000
,
00001000
00000000
00010000
00001000
,
00010000
00000000
00000010
00001000
,
00000010
00000000
00001000
00000001
,
00001000
00000000
00010000
00001000
,
00010000
00000000
00001000
01000000
,
00001000
00000000
00022000
00033000
,
00010000
00001000
00010000
00000000
,
00011000
00000000
00100000
01000000
,
00100000
00000000
10010000
00000000
,
00010000
00010000
00000000
00100000
,
00001000
00010000
00001000
00000000
,
00011000
00000000
00000100
00001000
,
00000100
00000000
00001010
00000000
,
00000001
00000001
00000000
00000100
,
00000010
00001000
00000010
00000000
,
00011000
00000000
00010000
00001000
,
00010000
00000000
01010000
00000000
,
10000000
10000000
00000000
00100000
,
10000000
00100000
10000000
00000000
,
01010000
00000000
00001000
00010000
,
00001000
00000000
00010100
00000000
,
00001000
00001000
00000000
00000100
,
00000010
00000000
00000001
00000000
,
00001000
00000100
00000000
00000100
,
00000001
00000000
00000100
00000000
,
00010000
00001000
00000000
00001000
,
01000000
00000000
00010000
00000000
,
00100000
00000000
10000000
00000000
,
01000000
00000000
00100000
00000000
,
00001000
00000000
00010000
00000000
,
00000100
00000000
00000000
00000000
;

//---------------dance-double - M.Emirzian----------------
#NOTES:
     dance-double:
     M.Emirzian:
     Medium:
     6:
     0.372,0.343,0.018,0.080,0.000,280.000,2.000,9.000,10.000,0.000,0.000,0.372,0.343,0.018,0.080,0.000,280.000,2.000,9.000,10.000,0.000,0.000:
00000000
00000000
00000000
00000000
,
00000000
00000000
00000000
00000000
,
00000000
00000000
00000000
00000000
,
00000000
00000000
00000000
00000000
,
10000000
01000000
00000000
00010000
00000000
00000000
00001000
00000000
,
00010000
00001000
00000000
00000100
00000000
00000000
00000001
00000000
,
00000010
00001000
00000000
00010000
00000000
00000000
00100000
00000000
,
10000000
01000000
00000000
00010000
00000000
00000000
00001000
00000000
,
00010000
00000100
00010000
00100000
,
00100000
10000000
01000000
00000000
00010000
00000000
00001000
00000000
,
00000100
00000001
00001000
00000010
,
00001000
00000010
00000100
00000000
00001000
00000000
00010000
00000000
,
00000100
00000000
00010000
00000100
00000000
00000100
00001000
00000000
,
00000010
00010000
01000000
10000000
,
00100000
00000000
01000000
00010000
00000000
00010000
00100000
00000000
,
00100000
00000000
00100000
00M00000
00100000
00001000
00010000
00000000
,
00001000
00000000
00010000
00001000
00000000
00001000
00000100
00000000
,
00000100
00000000
00000100
00000M00
00000100
00000000
00000001
00000000
,
00000010
00000000
00000100
00010000
00000000
00010000
00001000
00000000
,
00001000
00000000
00001000
0000M000
00001000
01000000
00010000
00000000
,
00100000
00000000
01000000
00000000
00100000
00000000
00100000
00010000
,
10000000
10000000
01000000
01000000
,
01000000
00100000
00010000
00000000
00010000
00000000
00010000
00100000
,
00001000
00000000
00001000
00000000
00010000
00000100
00000000
00010000
,
00001000
00000000
00001000
00000000
00001000
00000000
00001000
00010000
,
00000100
00000100
00000010
00000010
,
00000010
00000001
00001000
00000000
00000100
00000000
00000010
00000100
,
00001000
00000000
00001000
00000000
00000010
00000000
00000010
00000100
,
00000002
00001000
00002003
00000100
,
00003200
00010000
00020300
00001000
,
00032000
01000000
02003000
00100000
,
03200000
00000000
10000000
00000000
10300000
00000000
10000000
00010000
,
01000000
00000000
00100000
10000000
00000000
00010000
01000000
00000000
,
01000000
00000000
00001000
00010000
00000000
00010000
00000100
00000000
,
00000100
00000000
00001000
00000010
00000000
00000100
00000001
00000000
,
00000010
00000000
00000100
00001000
00000000
00001000
00000001
00000000
,
00000001
00000000
00000100
00001000
00000000
00010000
00001000
00000000
,
00010000
00000000
00001000
01000000
00000000
01000000
00100000
00000000
,
00100000
00000000
10000000
01000000
00000000
00100000
00010000
00000000
,
20020000
00000000
30030000
M00M0000
,
00100000
00000000
01000000
10000000
01000000
00000000
00010000
00000000
,
00010000
00000000
00100000
00000000
00100000
00000000
00001000
00010000
,
00000100
00000100
00001000
00001000
,
00000010
00000000
00000010
000000M0
00000010
00000100
00000001
00000000
,
00000001
00000000
00000010
00000100
00001000
00000000
00000010
00000000
,
00000010
00000000
00000100
00000000
00000100
00000000
00001000
00010000
,
00100000
10000000
10000000
00010000
,
00010000
00000000
M0000000
10000000
01000000
00000000
01000000
00100000
,
00010000
00000000
00010000
00100000
00001000
00000000
00001000
00000000
,
00010000
00000000
00010000
00000000
00000100
00000000
00000100
00001000
,
00000010
00000010
00000100
00000100
,
00000001
00000000
00000001
0000000M
00000001
00000100
00001000
00000000
,
00000100
00000000
00001000
00010000
00001000
00000000
00000100
00000000
,
00001000
00000000
00010000
00000000
00100000
00000000
00010000
00001000
,
00010000
01000000
01000000
10000000
,
10000000
00000000
000M0000
00010000
10000000
00000000
01000000
00000000
,
00100000
00000000
00100000
00001000
00000000
00001000
00010000
00000000
,
00000010
00000000
00000010
00010000
00000000
00000010
00001000
00000000
,
00001000
00000000
00000100
00000010
00000000
00000010
00000001
00000000
,
00000001
00000000
00000010
00001000
00000000
00010000
00001000
00000000
,
00000100
00000000
00001000
00010000
00000000
00010000
00100000
00000000
,
00010000
00000000
00001000
01000000
00000000
00010000
10000000
M0000000
,
10000000
00000000
01000000
00100000
00000000
00100000
00001000
00000000
,
00010000
00010000
00000100
00000100
,
00000110
00000000
00000000
00000000
;

//---------------dance-double - M.Emirzian----------------
#NOTES:
     dance-double:
     M.Emirzian:
     Hard:
     9:
     0.663,0.543,0.295,0.027,0.585,483.000,33.000,3.000,0.000,0.000,0.000,0.663,0.543,0.295,0.027,0.585,483.000,33.000,3.000,0.000,0.000,0.000:
00000000
00000000
00000000
00000000
,
00000000
00000000
00000000
00000000
,
00010000
00001000
00010000
00100000
00000000
00010000
00001000
00000000
,
00000100
00000000
00001000
00000000
00010000
00000000
00001000
00000000
00000000
00000000
00010000
00000000
01000000
00000000
10000000
00100000
,
00000000
10000000
00000000
01000000
00000000
00100000
00010000
00000000
00000000
00100000
00001000
00000000
00010000
00000000
00000010
00001000
,
00000000
00000100
00000000
00000010
00000000
00000100
00001000
00000000
00000000
00001000
00000010
00000000
00010000
00000000
00001000
01000000
,
00000000
00001000
00000000
00010000
00000000
00001000
01000000
00000000
00000000
10000000
01000000
00000000
00010000
00000000
00100000
00000000
,
01000000
00100000
00000000
00001000
00000000
00010000
00000010
00000000
00000000
00010000
00001000
00000000
00000100
00000000
00000001
00000000
,
00001000
00000000
00000001
00000000
00000100
00000000
00000010
00001000
00000000
00000010
00000100
00000000
00001000
00000000
00010000
00000000
,
00100000
00000000
01000000
00000000
00001000
00000000
01000000
00010000
01000000
00000000
10000000
00000000
00010000
00000000
10000000
00000000
,
01000000
00000000
00010000
00000000
00100000
00000000
00001000
00010000
00000000
00010000
00001000
00000000
00010000
00000000
00000100
00000000
,
00000010
00000000
00000001
00000000
00001000
00000000
00000001
00000100
00000010
00000000
00010000
00000000
00002000
00000000
00000000
00000000
,
00103000
01000000
00000000
01000000
10000000
00000000
00010000
00000000
01000000
00000000
00100000
00000000
01000000
00000000
00001000
00000000
,
00010000
00001000
00000000
00001000
00000010
00000000
00000001
00010000
00000000
00001000
00000000
00010000
00000000
00000000
00000001
00000000
,
00000100
00000010
00000000
00000010
00010000
00000000
00001000
00000000
00010000
00000000
00100000
00000000
10000000
00000000
00001000
00000000
,
00010000
00000000
01000000
00000000
10000000
00000000
00010000
00000000
01000000
00001000
00000000
00010000
00000000
00001000
00000000
00000000
,
10000000
01000000
00000000
01000000
00100000
00000000
00001000
00000000
00010000
00000000
00100000
00000000
00010000
00000000
00001000
00000000
,
00010000
00000100
00000000
00000100
00000010
00000000
00000001
00010000
00000000
00001000
00000000
00010000
00000000
00000000
00000001
00000000
,
00001000
00000100
00000000
00000100
00000010
00000000
00000100
00000000
00010000
00000000
00001000
00000000
00100000
00000000
00001000
00000000
,
00010000
00000000
00100000
00000000
10000000
00000000
00010000
00000000
10000000
00000000
01000000
00100000
00000000
00100000
00000000
00000000
,
00010000
10000000
00001000
00010000
01000000
00010000
00000100
00001000
,
00000010
00010000
00000000
00010000
00001000
00000000
01000000
00001000
00000000
00010000
00000000
00000100
00000000
00000000
00000010
00000000
,
00000001
00000000
00000000
00000000
00010100
00000000
00000000
00000000
00010000
00000000
00100000
00000000
00010000
00000000
00001000
01000000
,
00000000
01000000
00100000
00000000
10000000
00010000
00000000
00100000
00000000
01000000
00000000
10000000
00000000
00010000
00000000
00000000
,
10000000
00100000
00010000
10000000
01000000
00001000
00010000
00000100
,
00010000
00001000
00000000
00001000
00000010
00000000
00000001
00001000
00000000
00000100
00000000
00000010
00000000
00000000
00000100
00000000
,
00000100
00000000
00000000
00000000
00010100
00000000
00000000
00000000
00001000
00000000
01000000
00000000
00100000
00000000
00010000
00100000
,
00000000
00100000
10000000
00000000
01000000
00000000
00100000
00010000
00000000
01000000
00001000
00000000
00010000
00000010
00000000
00000000
,
00001000
00000001
00000010
00001000
00000001
00000100
00010000
00000010
,
00000100
00001000
00000000
00001000
00010000
00000000
00010000
00000100
00000000
00010000
00000000
00001000
00000000
00000000
01000000
00000000
,
01000000
00000000
00000000
00000000
10001000
00000000
00000000
00000000
00100000
00000000
00010000
00000000
01000000
00000000
00001000
00010000
,
00000000
00010000
00000100
00000000
00000010
00000100
00000000
00010000
00000100
00000000
00001000
00000010
00000000
00000000
00000100
00000000
,
00001001
00000000
00000010
00000000
00000000
00000000
00000100
00000000
00010100
00000000
00000000
00010000
00001000
00000000
01000000
00000000
,
00001000
00100000
00000000
01100000
10000000
00000000
01010000
00000000
,
01001000
00000000
00010000
00000000
00000000
00000000
00001000
00000000
00010010
00000000
00000000
00000010
00010000
00000000
00000100
00000000
,
00000010
00000100
00000000
00010100
00001000
00000000
00000110
00000000
,
00001001
00000000
00000000
00010000
00001000
00000000
00010100
00000000
00000000
00000000
00010000
00001000
00010000
00000000
00100000
00000000
,
10000000
00000000
00010000
00000000
10000000
00000000
01000000
00000000
00100000
00010000
00100000
00000000
00001000
00000000
00010000
00000000
,
00000100
00000000
00000000
01000000
00001000
00000000
00011000
00000000
00000000
00000000
00000100
00010000
00000100
00000000
00001000
00000000
,
00020200
00000000
00000000
00000000
00030300
00000000
00000000
00000010
,
00001100
00000000
00000000
00001001
00000000
00000000
00000010
00001000
00000001
00000000
00000000
00010010
00000000
00000000
00010000
00000000
,
00010000
00000000
00000000
00001000
00000000
00000000
00001000
00000000
01000000
00000000
00000000
01000000
00100000
00000000
10000000
00000000
,
01000000
01000000
01000000
00100000
00001000
00010000
00010000
00010000
,
00001000
00010000
00000000
00000100
00000000
00000000
00010000
00000000
00001000
00000000
00000010
00000000
00000100
00001000
00000000
00000000
,
00010010
00000000
00000000
00001010
00000000
00000000
00000100
00000001
00001000
00000000
00000000
00010010
00000000
00000000
00000100
00000000
,
00000100
00000000
00000000
00001000
00000000
00000000
00000010
00000000
00000010
00000000
00000000
00010000
00001000
00000000
00000100
00000000
,
00001000
00000000
00001000
00000000
00001000
00000000
00100000
00000000
00010000
00000000
10000000
00000000
10000000
00000000
10000000
00100000
,
01000000
00000000
00010000
00000000
10000000
00000000
01000000
00100000
00001000
00000000
00000000
00011000
00000000
00000000
00000100
00000000
,
00010100
00000000
00000000
00000110
00000000
00000000
00000001
00001000
00000010
00000000
00000000
00001100
00000000
00000000
00010000
00000000
,
00010000
00000000
00000000
00001000
00000000
00000000
00000100
00000000
00000100
00000000
00000000
00001000
00010000
00000000
00000100
00000000
,
01000000
01000000
01000000
00001000
00010000
01000000
01000000
01000000
,
10000000
00100000
00000000
00010000
00000000
00000000
00100000
00000000
01000000
00000000
00001000
00000000
00010000
00000000
00001000
00000000
,
01001000
00000000
00000000
00110000
00000000
00000000
00100000
00001000
00010000
00000000
00000000
00110000
00000000
00000000
00010000
00000000
,
00001000
00000000
00000000
00001100
00000000
00000000
00001000
00000000
00010000
00000000
00000000
01000000
00010000
00000000
00001000
00000000
,
01000000
00000000
01000000
00000000
01000000
00000000
00001000
00000000
00010000
00000000
00000010
00000000
00000010
00000000
00000010
00001000
,
00000001
00000000
00000100
00000000
00001000
00000000
00010000
00000000
00000100
00000000
00000000
00000110
00000000
00000000
00010100
00000000
,
00001000
00000000
00000000
00001000
00010000
00000000
00100000
00000000
10000000
00000000
00010000
00000000
01000000
00000000
10000000
00000000
,
01000000
00000000
00010000
00110000
00000000
00001000
00001100
00000000
,
00010000
00000000
00000000
00010000
00001000
00000000
00000100
00000000
00000001
00000000
00001000
00000000
00000010
00000000
00000001
00000000
,
00000010
00001000
00000000
00000100
00000010
00001000
00100000
00010000
,
10000000
00100000
00000000
01000000
00000000
00000000
10000000
00000000
00000000
00000000
01000000
00000000
01000000
00000000
00000000
00000000
,
00010000
10000000
00000000
01000000
00000000
00000000
00100000
00000000
00000000
00000000
00001000
00000000
00001000
00000000
00000000
00000000
,
00010000
00000100
00000000
00010000
00000000
00001000
00010000
00000000
00000000
00000100
00001000
00000000
00000010
00000000
00001000
00000000
,
00000001
00000000
00000000
00000100
00000000
00000010
00001000
00000000
00000000
00000100
00010000
00000000
00001000
00000000
01000000
00001000
,
00010000
00000000
00000000
00000000
;

//---------------dance-double - M.Emirzian----------------
#NOTES:
     dance-double:
     M.Emirzian:
     Challenge:
     11:
     0.707,0.686,0.295,0.054,0.992,513.000,33.000,6.000,22.000,13.000,23.000,0.707,0.686,0.295,0.054,0.992,513.000,33.000,6.000,22.000,13.000,23.000:
00000000
00000000
00000000
00000000
,
00000000
00000000
00000000
00000000
,
00000010
00001100
00000000
01000100
00000000
01010000
10000000
00000000
,
01000000
00110000
00000000
00010100
00000000
00000100
00001000
00000010
,
00000100
00000001
00001000
00000100
00000000
00000100
00001000
00000000
00000000
00000100
00010000
00000000
00001000
00000000
00010000
00000100
,
00000000
00000100
00010000
00001000
00000000
00001000
00100000
00000000
00000000
00000010
00010000
00000000
00001000
00000000
01000000
00001000
,
00000000
00001000
00010000
00000100
00000000
00000100
01000000
00000000
00000000
00001000
00010000
00000000
00000010
00000000
00010000
00000010
,
00000000
00000010
00010000
00001000
00000000
00001000
00010000
00000000
00000000
01000000
00100000
00000000
00010000
00000000
01000000
00000000
,
00040000
40000000
00000000
00000000
00000000
00000000
00000000
00000000
00100000
30030000
00000000
00000000
00000000
00000000
00010000
00000000
,
00004000
04000000
00000000
00000000
00000000
00000000
00000000
00000000
00010000
03003000
00000000
00000000
00000000
00000000
00000010
00000000
,
00004000
00000400
00000000
00000000
00000000
00000000
00000000
00000000
00000010
00003300
00000000
00000000
00000000
00000000
00010000
00000000
,
00000010
00001000
00000010
00000100
00000010
00000000
00001000
00000100
00010000
00000000
00001000
00000000
00010100
00000000
000M0M00
00000000
,
00010000
00001000
00000000
00001000
01000000
00000000
01000000
00000100
00000000
00000100
00000000
00010000
00001000
00010000
00001000
01000000
,
00010000
00100000
00000000
00100000
01000000
00000000
01000000
10000000
00000000
00001000
00000000
00010000
00000000
00000000
00001000
00000000
,
00100000
00000010
00000000
00000010
00001000
00000000
00001000
00000100
00000000
00000010
00000000
00000001
00001000
00000001
00000100
00000010
,
00000000
00000010
00001000
00000100
00010000
00001000
00000000
00001000
00010000
00000100
00000000
01000000
00000000
00000100
00000000
00000000
,
00010000
00001000
00000000
00001000
10000000
00000000
10000000
01000000
00000000
00100000
00000000
00010000
01000000
00010000
10000000
01000000
,
00100000
00001000
00000000
00001000
00010000
00000000
00010000
00000010
00000000
00100000
00000000
00000010
00000000
00000000
00010000
00000000
,
00000100
00000010
00000000
00000010
00000001
00000000
00000001
00010000
00000000
00001000
00000000
00001000
00010000
00000100
00010000
00001000
,
00000000
00001000
01000000
00010000
00100000
00010000
00000000
00010000
10000000
00000000
10000000
01000000
00000000
00100000
00000000
00000000
,
00001000
00010000
00000000
00010000
00000100
00000000
00000100
01000000
00000000
01000000
00000000
00001000
00010000
00000100
00001000
00000100
,
00010000
00001000
00000000
00001000
00000100
00000000
00000100
00000001
00000000
00010000
00000000
000M1000
00000000
0000M000
00000010
00000000
,
00000001
00010000
00000000
00010000
00001000
00000000
00001000
01000000
00000000
01000000
00000000
00001000
00010000
00000010
00010000
00001000
,
00000000
00001000
01000000
00010000
01000000
00100000
00000000
00100000
10000000
01000000
00000000
00100000
00000000
00M01000
00000000
0000M000
,
00010000
00001000
00000000
00100000
00000010
00000000
00010000
00001000
00000000
01000000
00000000
00001000
00010000
00000010
00001000
00000001
,
00001000
00000100
00000000
00000100
00000010
00000000
00000010
00000100
00000000
00010000
00000000
00001000
00000000
00000000
01000000
00000000
,
00100000
01000000
00000000
01000000
00001000
00000000
00002000
20000000
00000000
00000000
00000000
00000000
00040000
00000000
00400000
00000000
,
00000000
00000000
00000000
00000000
00330000
00000000
30003000
00000000
00000000
00000000
00010000
00000000
00001000
01000000
00000000
00000000
,
00010000
00000000
00001000
01000000
00001000
00000000
01000000
00010000
10000000
00000000
00010000
00000000
01000000
00000000
00001000
00000000
,
00010000
00000100
00000000
01000000
00001000
00000000
00010000
00000100
00000000
00010000
00000000
000M0001
00000000
0000000M
00001000
00000000
,
00000010
00000000
00000100
00000001
00001000
00000000
00000100
00010000
00001000
00000000
02000000
00000200
00000000
00000000
00000000
00000000
,
00040000
00004000
00000000
00000000
00033000
03000300
00000000
00000000
,
00011000
00000000
00000000
00000000
00000000
00000000
00000010
00000001
00000010
00000100
00000010
00001000
00000010
00000100
00000010
00000001
,
00001000
00000000
0000M00M
00000000
00000000
00000000
10000000
00400000
10000000
00000000
01000000
00000000
00010000
00000000
01000000
00000000
,
10300000
00000000
M0M00000
00000000
00000000
00000000
00001000
00010000
00001000
01000000
00001000
00010000
00001000
00100000
00001000
10000000
,
00001000
00000000
M000M000
00000000
00000000
00000000
00004000
00040000
00000000
00000000
00000000
00000000
00000000
00000000
00000000
00000000
,
00133000
00000000
00000000
00000000
00000000
00000000
00000010
00000100
00001000
00000100
00000010
00000100
00010000
00000100
00000010
00000100
,
00000001
00000000
00000M0M
00000000
00000000
00000000
00100000
04000000
00010000
00000000
00001000
00000000
00010000
00000000
00100000
00000000
,
13000000
00000000
MM000000
00000000
00000000
00000000
00010000
00001000
00010000
00000000
00000000
00000000
00000000
00000000
00000000
00000000
,
00122010
00000000
00000000
00000000
01033100
000MM000
00000000
00000000
,
00100010
00000000
00000000
00101000
00000000
00000000
10000000
01000000
00100000
00000000
00000000
00011000
00000000
00000000
00000100
00000000
,
00001100
00000000
00000000
00010010
00000000
00000000
00000101
00000000
00000100
00000000
00000000
00000010
00000100
00000000
00001000
00000000
,
01001000
00000000
00000000
01100000
00000000
00000000
00100000
10000000
00100000
00000000
00000000
01001000
00000000
00000000
00040000
00004000
,
00000000
00000000
00000000
00000000
00000000
00000000
00000000
00000000
00100000
00033000
00000000
00000000
00000000
00000000
00000000
00000000
,
00010100
00000000
00000000
00011000
00000000
00000000
00001000
00100000
00010000
00000000
00000000
01001000
00000000
00000000
00100000
00000000
,
10100000
00000000
00000000
00011000
00000000
00000000
00000110
00000000
00000001
00000000
00000000
00001000
00000100
00000000
00010000
00000000
,
01000100
00000000
00000000
00011000
00000000
00000000
00100000
00000010
00010000
00000000
00000000
01001000
00000000
00000000
00100000
00001000
,
00040000
00004000
00000000
00000000
00000000
00000000
00000000
00000000
00000010
00033000
00000000
00000000
00000000
00000000
00000000
00000000
,
00000100
00001000
00000000
00001000
00000010
00000000
00000010
00010000
00001000
01000000
00000000
01000000
00001000
00010000
00001000
00010000
,
00100000
01000000
00000000
01000000
00010000
00000000
00010000
10000000
01000000
00100000
00000000
00100000
00001000
00000000
00000100
00000000
,
00000001
00001000
00000000
00000010
00010000
00000000
00001000
00010000
00000100
00010000
00000000
00004000
10000000
00000000
01000000
00000000
,
00010000
00000000
00100000
00000000
00010000
00000000
01000000
00000000
10003000
00000000
00001000
00010000
00001000
00000000
00000010
00000000
,
00010000
00001000
00000000
00001000
01000000
00000000
01000000
00000100
00010000
00001000
00000000
00001000
10000000
00010000
10000000
01000000
,
10000000
01000000
00000000
01000000
00100000
00000000
00000010
00010000
00001000
01000000
00000000
01000000
00001000
00000000
00000010
00000000
,
00000001
00001000
00000000
00000100
00010000
00000000
00000010
00010000
00001000
00010000
00000000
00040000
00000001
00000000
00000010
00000000
,
00001000
00000000
00000100
00000000
00001000
00000000
00000010
00000000
00030001
00000000
00010000
00001000
00010000
00000000
00000100
00000000
,
00011000
00000000
00000000
00000000
00000000
00000000
10000000
01000000
10000000
00100000
10000000
01000000
10000000
00010000
10000000
00001000
,
10000000
00000000
M000M000
00000000
00000000
00000000
00000000
00000004
00000400
00000000
00000000
00000000
00000000
00000000
00000000
00000000
,
00001303
00000000
00000000
00000000
00000000
00000000
00000010
00010000
00001000
00010000
00000100
00010000
00001000
00010000
00100000
00010000
,
00001000
00000000
00000000
00000000
00000000
00000000
00100000
00004000
00010000
00000000
01000000
00000000
00100000
00000000
00010000
00000000
,
00103000
00000000
00000000
00011000
00000000
01000100
00010000
00000000
,
00001000
00000000
00000000
01000000
00000000
00000000
00010000
00000000
00000000
10000000
01000000
00000000
00100000
00000000
00001000
00000000
,
00000100
00000110
00000000
00001001
00000000
00001100
00000010
00000000
,
00000100
00000000
00000000
00010000
00000000
00000000
01000000
00000000
00000000
00010000
10000000
00000000
01000000
00000000
00100000
00010000
,
01000000
00000000
00000000
00000000
;

//---------------dance-single - J. Frederick----------------
#NOTES:
     dance-single:
     J. Frederick:
     Beginner:
     1:
     0.096,0.114,0.054,0.000,0.000,69.000,6.000,0.000,0.000,0.000,0.000,0.096,0.114,0.054,0.000,0.000,69.000,6.000,0.000,0.000,0.000,0.000:
0000
0000
0000
0000
,
0000
0000
0000
0000
,
0000
0000
0000
0000
,
0000
0000
0000
0000
,
1000
0000
0000
0000
,
0001
0000
0000
0000
,
0010
0000
0000
0000
,
0100
0000
0000
0000
,
1001
0000
0000
0000
,
0110
0000
0000
0000
,
1001
0000
0000
0000
,
0110
0000
0000
0000
,
1000
0000
0000
0000
,
0001
0000
0000
0000
,
0010
0000
0000
0000
,
0100
0000
0100
0000
,
0100
0000
0000
0000
,
1000
0000
0000
0000
,
0001
0000
0000
0000
,
1000
0000
1000
0000
,
1000
0000
0000
0000
,
0010
0000
0000
0000
,
0100
0000
0000
0000
,
0001
0000
1000
0000
,
0001
0000
0000
0000
,
0100
0000
0000
0000
,
0010
0000
0000
0000
,
1000
0000
0001
0000
,
1000
0000
0000
0000
,
0010
0000
0000
0000
,
0100
0000
0000
0000
,
0001
0000
1000
0000
,
0010
0000
0000
0000
,
0100
0000
0000
0000
,
1000
0000
0000
0000
,
0001
0000
0000
0000
,
0010
0000
0000
0000
,
0100
0000
0000
0000
,
1000
0000
0000
0000
,
1001
0000
0000
0000
,
0010
0000
0000
0000
,
1000
0000
0000
0000
,
0100
0000
0000
0000
,
0010
0000
0001
0000
,
1000
0000
0000
0000
,
0001
0000
0000
0000
,
0010
0000
0000
0000
,
0100
0000
1000
0000
,
0010
0000
0000
0000
,
0100
0000
0000
0000
,
1000
0000
0000
0000
,
0001
0000
0000
0000
,
0010
0000
0000
0000
,
0100
0000
0000
0000
,
1000
0000
0000
0000
,
0001
0000
0000
0000
,
0010
0000
0000
0000
,
0100
0000
0000
0000
,
1000
0000
0000
0000
,
0001
0000
0010
0000
,
0100
0000
0000
0000
,
1000
0000
0000
0000
,
0001
0000
0000
0000
,
0100
0000
0000
0000
,
1001
0000
0000
0000
;

//---------------dance-single - J. Frederick----------------
#NOTES:
     dance-single:
     J. Frederick:
     Easy:
     4:
     0.263,0.257,0.206,0.268,0.000,153.000,23.000,30.000,0.000,0.000,0.000,0.263,0.257,0.206,0.268,0.000,153.000,23.000,30.000,0.000,0.000,0.000:
0000
0000
0000
0000
,
0000
0000
0000
0000
,
0000
0000
0000
0000
,
0000
0000
0000
0000
,
2000
0001
0000
3001
,
0020
0100
0000
0130
,
2000
0010
0000
3010
,
0200
0001
0000
0301
,
2002
0000
0000
3003
,
0022
0000
0000
0033
,
2200
0000
0000
3300
,
0220
0000
0000
0330
,
1000
0010
0100
0001
,
0010
0000
0100
0000
,
1000
0001
0010
0001
,
1001
0000
1001
0000
,
0100
0001
0010
0001
,
1000
0000
0010
0000
,
0100
0010
1000
0001
,
1001
0000
0110
0000
,
2000
0100
0000
3100
,
0020
0001
0000
0031
,
0200
0010
0000
0310
,
1000
0001
0010
0100
,
2000
0100
0000
3100
,
0020
0001
0000
0031
,
0200
0010
0000
0310
,
2000
0000
0002
3003
,
0010
0100
0000
1000
,
0010
0100
0000
0001
,
0010
0001
0000
1000
,
1100
0000
0011
0000
,
1001
0000
1000
0001
,
0101
0000
0010
0001
,
0011
0000
1000
0010
,
1010
0000
0100
1000
,
1100
0000
0100
0010
,
0110
0000
1000
0001
,
1001
0000
0100
0010
,
0100
0000
2002
3003
,
0010
0100
1000
0000
,
0100
0000
0010
0000
,
0001
0100
0001
0000
,
1000
0000
0001
0000
,
0100
0010
1000
0000
,
0100
0000
0010
0000
,
0001
0100
0001
0000
,
2000
3000
0002
0003
,
0010
0100
1000
0000
,
0010
0000
0100
0000
,
0001
0010
0001
0000
,
1000
0000
0010
0000
,
0100
0001
0010
0000
,
0100
0000
1000
0000
,
0010
0100
0001
0010
,
0200
0300
2000
3000
,
0020
0000
0000
1030
,
2000
0000
0000
3001
,
0002
0000
0000
1003
,
0020
0000
0100
1030
,
1001
0000
0000
0000
,
0110
0000
0000
0000
,
1001
0000
0000
0000
,
0110
0000
0000
0000
,
1001
0000
0000
0000
;

//---------------dance-single - J. Frederick----------------
#NOTES:
     dance-single:
     J. Frederick:
     Medium:
     6:
     0.341,0.405,0.170,0.188,0.000,227.000,19.000,21.000,0.000,0.000,0.000,0.341,0.405,0.170,0.188,0.000,227.000,19.000,21.000,0.000,0.000,0.000:
0000
0000
0000
0000
,
0000
0000
0000
0000
,
0000
0000
0000
0000
,
0000
0000
0000
0000
,
1000
0100
1000
0000
0100
0000
0000
0000
,
0010
0001
0010
0000
0001
0000
0000
0000
,
0010
0100
0010
0000
0100
0000
0000
0000
,
1000
0001
1000
0000
,
0200
0000
0000
0000
0010
0000
0010
0300
,
0020
0000
0000
0000
0100
0000
0100
0030
,
2000
0000
0000
0000
0001
0000
0001
3000
,
2002
0000
0000
3003
,
1000
0001
1000
0000
0100
0000
0010
0000
,
0001
0100
0010
0000
,
1000
0100
1000
0000
0001
0000
0010
0000
,
0011
0000
1100
0000
,
0010
0001
0010
0000
0001
0000
0100
0000
,
0010
1000
0100
0000
,
1000
0001
1000
0000
0010
0000
0100
0000
,
0110
0000
1010
0000
,
1000
0001
1000
0000
0100
0000
0000
0000
,
0010
0001
0010
0000
0100
0000
0000
0000
,
1000
0010
0100
0000
0001
0000
0000
0000
,
0011
1000
1100
0001
,
1000
0010
0100
0000
0001
0000
0000
0000
,
0010
0001
1000
0000
0100
0000
0000
0000
,
1000
0010
0100
0000
0001
0000
0000
0000
,
1001
0000
0110
0000
,
1000
0100
0010
0000
0001
0000
0000
0000
,
0100
0010
1000
0000
0010
0000
0000
0000
,
0100
0001
0100
0000
0001
0000
0010
0000
,
0110
0000
1001
0000
,
2000
0000
0000
0000
0001
0000
0010
3000
,
0020
0000
0000
0000
0100
0000
1000
0030
,
2000
0000
0000
0000
0001
0000
0010
3000
,
0200
0000
0000
0000
0010
0000
1000
0300
,
0020
0000
0000
0000
0001
0000
0100
0030
,
0002
0000
0000
0000
0100
0000
1000
0003
,
0020
0000
0000
0000
0100
0000
1000
0030
,
0220
0000
0000
0330
1001
0000
0000
0000
,
0100
0010
1000
1000
,
0100
0010
0001
0100
,
0001
1000
0010
0100
,
0001
0000
0010
0000
0100
1000
0100
0000
,
0010
0001
0100
0010
,
1000
0010
0001
0010
,
1000
0100
0001
1000
,
0010
0000
0100
0000
0001
0010
0100
0000
,
1000
0100
0010
0001
,
0100
0001
1000
0010
,
0100
0001
0010
0100
,
1000
0100
1000
0000
0010
0100
0001
0000
,
0010
0001
0100
0001
,
1000
0010
0100
0001
,
0010
0100
1000
0100
,
0010
0001
0010
0000
0100
1000
0100
0000
,
0120
0000
0100
0000
0100
0000
0100
0030
,
1002
1000
1000
1003
,
1020
0000
1000
0000
1000
0000
1000
0030
,
0102
0000
0100
0003
1020
0000
1000
0030
,
1000
0001
1000
0000
0100
0000
0000
0000
,
0010
0001
0010
0000
0100
0000
0000
0000
,
1000
0100
1000
0000
0010
0000
0000
0000
,
0100
0001
0100
0000
0010
0000
0100
0000
,
0220
0000
0000
0330
;

//---------------dance-single - M. Calfin + J. Frederick----------------
#NOTES:
     dance-single:
     M. Calfin + J. Frederick:
     Challenge:
     10:
     0.771,0.723,0.045,0.080,1.000,590.000,5.000,9.000,39.000,2.000,0.000,0.771,0.723,0.045,0.080,1.000,590.000,5.000,9.000,39.000,2.000,0.000: // measure 1
0000
0000
0000
0000
,  // measure 2
0000
0000
0000
0000
,  // measure 3
0000
0000
0000
0000
,  // measure 4
0000
0000
0000
0000
,  // measure 5
1000
0100
1000
0100
1000
0000
0100
0000
0010
0000
0001
0000
0010
0000
0001
0000
,  // measure 6
0100
0001
0100
0001
0100
0000
0001
0000
1000
0000
0100
0000
0010
0000
0001
0000
,  // measure 7
0100
0010
0100
0010
0100
0000
0010
0000
1000
0000
0100
0000
0010
0000
0001
0000
,  // measure 8
0010
0001
0010
0001
0010
0000
0001
0000
0010
0000
0001
0000
0100
0000
0010
0000
,  // measure 9
1000
0001
0000
0010
0100
0000
1000
0100
0000
0010
0001
0100
0010
1000
0100
0000
,  // measure 10
1000
0010
0000
0100
0010
0000
1000
0001
0000
0010
0100
1000
0010
0100
0001
0000
,  // measure 11
1000
0100
0000
0010
0001
0000
0100
0010
0000
1000
0100
0010
0001
0100
0010
0000
,  // measure 12
0100
0001
0100
0000
0010
1000
0100
0000
0010
0100
0000
0100
1000
0000
0010
0000
,  // measure 13
1000
0001
0000
0010
0100
0000
1000
0100
0000
0010
0000
0001
0100
0001
0100
0001
,  // measure 14
0000
1000
0000
0001
0200
0000
0000
0301
0000
1000
0000
0010
0100
0000
0010
0000
,  // measure 15
1000
0100
0000
0010
0001
0000
1000
0100
0000
0010
0000
0001
1000
0001
1000
0010
,  // measure 16
0000
1000
0100
0000
0010
0000
0001
0100
0000
0010
0000
1000
0000
0100
0000
0000
,  // measure 17
0010
0001
0000
0010
0100
0000
1000
0100
0000
0010
0000
0001
0100
0001
0100
0001
,  // measure 18
0000
1000
0000
0001
0200
0000
0000
0301
0000
1000
0000
0010
0100
0000
0010
0000
,  // measure 19
1000
0100
0000
0010
0001
0000
1000
0100
0000
0010
0000
0001
1000
0001
1000
0100
,  // measure 20
0000
0010
0001
0000
0001
0100
0000
0010
1000
0000
1000
0100
0000
0100
0010
0000
,  // measure 21
0010
0001
0000
0010
0100
0000
1000
0100
0000
0010
0000
0001
0100
0001
1000
0001
,  // measure 22
0000
0100
0000
0010
2000
0000
0000
3010
0000
0100
0000
0010
1000
0000
0100
0000
,  // measure 23
0010
0100
0000
1000
0001
0000
0010
0100
0000
1000
0000
0010
0100
0001
0010
0100
,  // measure 24
0000
1000
0001
0000
0010
0100
0000
1000
0000
0110
0000
0110
0000
0110
0000
0000
,  // measure 25
0100
0001
0000
0010
0100
0000
1000
0100
0000
0010
0000
0001
1000
0001
0100
0010
,  // measure 26
0000
1000
0000
0010
0200
0000
0000
0310
0000
1000
0000
0100
0010
0000
0100
0000
,  // measure 27
1000
0010
0000
0100
0001
0000
0010
0100
0000
1000
0000
0100
0010
0001
0100
0001
,  // measure 28
0000
1000
0001
0000
0100
0000
0100
0001
0000
0001
0100
0000
0010
1000
0000
0000
,  // measure 29
0001
1000
0000
0100
0010
0000
0001
0010
0000
0100
0000
1000
0010
1000
0001
1000
,  // measure 30
0000
0010
0000
0100
0002
0000
0000
0103
0000
0010
0000
0100
0001
0000
0010
0000
,  // measure 31
0100
0010
0000
0001
1000
0000
0100
0010
0000
0001
0000
0100
0010
1000
0100
0010
,  // measure 32
0000
1000
0010
0000
0010
0100
0000
1000
0010
0000
0100
0010
0000
0001
0010
0000
,  // measure 33
0100
0001
1000
001M
1000
0000
1M00
0010
1000
0010
1000
0000
0001
0000
01M0
0001
,  // measure 34
M100
0000
0010
1000
0M01
0000
1000
0100
0010
0001
0100
0000
M010
0000
1000
0001
,  // measure 35
01M0
0000
0010
1000
0001
0000
1000
0100
001M
0100
0010
0000
M001
0000
0100
0010
,  // measure 36
0100
0000
00M1
1000
0100
0000
100M
0100
0000
0010
M001
0000
0001
0000
01M0
0001
,  // measure 37
0100
0000
001M
0000
1000
0000
0001
0100
0010
1000
00M1
1000
0100
0000
M010
0001
,  // measure 38
0100
0000
0010
1000
0001
0000
0100
0010
0000
1000
00M1
0000
0100
0000
00M1
0000
,  // measure 39
1000
0100
100M
0100
0010
0000
M001
0010
0001
0000
M100
0010
0100
0000
0001
200M
,  // measure 40
0200
0000
0000
0000
0011
0000
0000
3301
,  // measure 41
1000
0000
0000
0001
0000
0000
0010
0100
0010
0000
0000
0100
0000
0000
1000
0000
,  // measure 42
0010
0000
0000
0100
0000
0000
0001
0010
0001
0000
0000
0100
0010
0000
0100
0000
,  // measure 43
0010
0000
0000
1000
0000
0000
0100
0010
0100
0000
0000
0010
0000
0000
0001
0000
,  // measure 44
0100
0010
0000
0010
1000
0000
0100
0000
0010
0000
0001
0000
0100
0000
0000
0000
,  // measure 45
0001
0000
0000
1000
0000
0000
0100
0010
0100
0000
0000
0010
0000
0000
0001
0100
,  // measure 46
0010
0000
0000
1000
0000
0000
0010
1000
0100
0000
0000
1000
0001
0000
0100
0000
,  // measure 47
0010
0000
0000
1000
0000
0000
0010
0100
0001
0000
0000
1000
0000
0000
0010
0100
,  // measure 48
0010
0100
0000
0000
0000
0000
0001
0010
0001
0000
0000
0100
0000
0000
1000
0000
,  // measure 49
0100
0000
0000
0010
0000
0000
1000
0001
0100
0000
0000
0010
0000
0000
0010
0100
,  // measure 50
0010
0000
0000
0010
0000
0000
1000
0100
1000
0000
0000
0010
0001
0000
0100
0000
,  // measure 51
0001
0000
0000
1000
0000
0000
0010
0100
0010
0000
0000
1000
0000
0000
0100
0000
,  // measure 52
1000
0100
0000
1000
0010
0000
1000
0000
0010
0000
0100
0000
0001
0000
0000
0000
,  // measure 53
0010
0000
0000
0001
0000
0000
1000
0001
1000
0000
0000
0001
0000
0000
0100
0010
,  // measure 54
0100
0000
0000
0010
0000
0000
1000
0000
0100
0000
0000
0100
0010
0000
0001
0000
,  // measure 55
0100
0000
0000
0001
0000
0000
1000
0010
0100
0000
0000
0001
0000
0000
0010
0100
,  // measure 56
1000
0100
0000
0000
0000
0000
0010
0000
0100
0000
0000
0010
0000
0000
0001
0000
,  // measure 57
1000
0000
0M01
1000
0010
0000
1000
0001
0010
0100
M001
0100
0010
0000
0001
0100
,  // measure 58
0010
0000
1M00
0001
1000
0000
0001
0010
0100
1000
0001
0000
0M10
0000
M001
0100
,  // measure 59
0010
0000
1000
0001
01M0
0000
0001
1000
0M10
1000
0001
0000
0100
0000
00M1
0100
,  // measure 60
0001
0000
M100
0000
0001
0000
0100
0001
00M0
1000
0100
0000
1000
0000
0M01
0000
,  // measure 61
1000
0010
0100
0001
0010
0100
1000
0000
0000
0100
0010
0000
0001
0000
0001
0000
,  // measure 62
0010
0001
1000
0001
01M0
0001
M010
0000
0000
0010
0M01
0000
1000
0000
0010
0000
,  // measure 63
0100
0010
1000
0100
0010
0001
1000
0000
0000
1000
0010
0000
0001
0000
1000
0000
,  // measure 64
0100
0001
0010
0100
0001
0100
0010
0000
0000
0010
0100
0000
0010
0000
0001
0000
,  // measure 65
2002
0M00
0000
00M0
0000
0M00
3003
0000
;
