#TITLE:Virtual Emotion;
#SUBTITLE:;
#ARTIST:Inspector K;
#TITLETRANSLIT:;
#SUBTITLETRANSLIT:;
#ARTISTTRANSLIT:;
#GENRE:Rave;
#CREDIT:;
#BANNER:Virtual Emotion-bn.png;
#BACKGROUND:Virtual Emotion-bg.png;
#LYRICSPATH:;
#CDTITLE:;
#MUSIC:Virtual Emotion.ogg;
#OFFSET:-0.014;
#SAMPLESTART:24.000;
#SAMPLELENGTH:18.000;
#SELECTABLE:YES;
#BPMS:0.000=90.000,36.000=180.000,164.000=90.000,196.000=180.000;
#STOPS:;
#BGCHANGES:-2.882=Virtual Emotion.mpg=1.000=1=0=0=StretchNoLoop==CrossFade==,
99999=-nosongbg-=1.000=0=0=0 // don't automatically add -songbackground-;
#KEYSOUNDS:;

//---------------dance-single - D. Runberg +----------------
#NOTES:
     dance-single:
     Runberg+Konkul:
     Edit:
     12:
     0.000,0.000,0.000,0.000,0.000,0.000,0.000,0.000,0.000,0.000,0.000,0.000,0.000,0.000,0.000,0.000,0.000,0.000,0.000,0.000,0.000,0.000:
;

//---------------dance-single - R. Konkul----------------
#NOTES:
     dance-single:
     R. Konkul:
     Hard:
     9:
     0.689,0.868,0.267,0.240,0.392,485.000,30.000,27.000,24.000,0.000,0.000,0.689,0.868,0.267,0.240,0.392,485.000,30.000,27.000,24.000,0.000,0.000:
0000
0000
0000
0000
,
0000
0000
0000
0000
,
1000
0100
0010
0001
0000
0010
0010
0000
0000
0100
0100
1000
0010
0000
0100
0000
,
0010
1000
0001
0010
0001
0000
0100
0100
0000
0000
0010
0000
1000
0100
0010
0100
,
0010
0000
0000
0000
0001
0010
0001
0000
0010
0000
0000
0000
0110
0000
0000
0000
1000
0000
0000
0000
0001
0100
0001
0000
1010
0000
0000
0000
0101
0000
0000
0000
,
0011
0000
0000
0000
0010
0100
0010
0000
1100
0000
0000
0000
0100
0000
0010
0000
0000
0000
0001
0000
0010
0000
0000
0000
0110
0000
0000
0000
1001
0000
0000
0000
,
0001
0000
0000
0000
0100
0001
0100
0000
0001
0000
0000
0000
0100
0000
0000
0000
0010
0000
0000
0000
1000
0001
1000
0000
0020
0000
0000
0000
0000
0000
0000
0030
,
1000
0000
0000
0000
0100
0010
0100
0000
0010
0000
0000
0000
0001
0000
0100
0000
0010
0000
1000
0000
0000
0000
0100
0000
0100
0000
0010
0000
0001
0000
0100
0000
,
0101
0000
00M0
0101
0000
0M00
1001
M000
0011
0000
00MM
1100
0000
00M0
1100
0M00
,
1001
0000
0000
0000
1000
0000
0001
0000
0010
0000
0001
0000
2000
00M0
000M
0000
,
0M00
0000
3010
0000
1000
0000
0010
0000
1000
0000
0100
0000
0020
0000
0M00
0030
,
0100
0000
1000
0000
0001
1000
0001
0000
1000
0000
0001
0000
0100
0000
0020
0000
,
0M00
0030
0100
0000
0010
0000
0100
0000
0010
0000
1000
0000
0200
0000
0010
0000
,
0000
0300
0010
0000
0100
0000
1000
0000
0001
0000
0100
0000
0002
0000
0000
0000
,
0000
0003
0010
0000
0001
0000
1000
0000
0001
1000
0001
0000
1000
0000
0000
0000
,
0010
1000
0010
1000
0100
0010
0200
1000
,
0000
1300
0100
0010
0200
0000
0320
0000
,
0031
0000
0010
0000
0001
0000
1000
0000
0001
0000
0100
0000
0020
0000
0000
MM00
,
0000
0030
0100
0000
0010
0000
1000
0000
0010
0000
1000
0000
0100
0000
0000
0000
,
1000
0000
0100
0000
0010
0001
0010
0000
0001
0000
0010
0000
0002
0000
1000
0000
,
0000
0000
1003
0000
0001
0000
0100
0000
0010
0100
0010
0000
0100
0000
0010
0000
,
1000
0000
0100
0000
1000
0100
1000
0000
0100
0000
0010
0000
0002
0000
0000
0000
,
M000
0003
1000
0000
0001
0100
0010
0100
0010
0000
0100
0000
0010
0000
0000
0000
,
1000
0001
0010
0100
1000
0100
0010
0200
,
0000
1000
0000
1300
0001
0100
0001
0000
,
0110
0100
0000
0001
0000
0001
1000
0100
,
1000
0000
0100
0000
0000
0000
0020
MM00
0000
0000
0000
0000
0000
0030
0000
0000
,
0010
0001
0000
0001
0000
0001
0100
0010
,
0100
0000
0010
0000
0000
0000
0020
0000
0000
0000
2000
0030
0000
0000
3100
0000
,
1000
0200
0000
0320
0000
0032
0000
1003
,
0002
0000
0100
0000
0000
0000
0100
0000
0000
0000
0000
0000
0000
0000
0000
0003
,
0100
0010
0000
1000
0000
0010
1000
0100
,
0010
0000
0110
0000
1001
0001
0001
1000
,
1000
0000
0100
0000
0010
0000
0001
0000
0100
0000
0000
0010
0000
0000
0010
0000
,
1000
0000
0100
0000
1000
0000
0100
0000
0010
0000
0000
0001
0000
0000
1000
0000
,
0001
0000
0100
0000
0010
0000
0100
0000
1000
0000
0000
0100
0000
0000
0010
0000
,
1000
0000
0000
0001
0000
0000
0010
0000
1000
0000
0010
0000
0010
0000
0001
0000
,
1000
0000
0001
0000
0100
0000
0010
0000
0001
0000
0000
0010
0000
0000
0100
0000
,
0001
0000
1000
0000
0100
0000
0010
0000
0100
0000
0000
1000
0000
0000
0100
0000
,
0001
0000
0100
0000
1000
0000
0001
0000
0100
0000
0000
1000
0000
0000
0100
0000
,
0001
0000
0000
0100
0000
0000
0001
0000
1000
0000
0100
0000
0010
0000
0100
0000
,
1001
0000
0000
0000
0001
0010
0001
0000
0010
0000
0000
0000
0100
0000
0000
0000
1000
0000
0000
0000
0010
0100
0010
0000
0100
0000
0000
0000
0000
0000
0000
0000
,
0001
0000
0000
0000
0010
0001
0010
0000
1000
0000
0000
0000
1000
0000
0000
0000
1000
0000
0000
0000
0001
0100
0001
0000
0001
0000
0000
0000
0000
0000
0000
0000
,
1000
0000
0000
0000
0010
0100
0010
0000
0100
0000
0000
0000
0001
0000
0000
0000
0010
0000
0000
0000
0100
1000
0100
0000
1000
0000
0000
0000
0000
0000
0100
0000
,
0010
0000
0000
0000
0001
1000
0001
0000
0100
0000
0000
0000
0010
0000
0000
0000
0010
0000
0000
0000
0100
0001
0100
0000
0001
0000
0000
0000
1000
0000
0000
0000
,
1100
0000
0010
0000
1000
0000
0100
0000
0010
0000
0011
0001
0011
0000
0010
0000
,
0100
0000
1000
0000
1100
0000
0200
0000
0000
0300
0010
0000
0110
0000
0000
0000
,
0100
0001
0011
0000
0010
0011
1100
0000
,
1000
0100
1000
0000
0001
0100
0001
0000
0100
0010
0100
0000
0001
1000
0001
0000
,
1000
0000
0000
0000
0100
0000
0000
0000
1000
0000
0100
0000
1000
0000
0000
0000
0001
0000
0000
0000
0010
0000
0000
0000
0002
0000
0000
0000
0000
0M00
0000
0000
,
0000
0000
0003
0000
0010
0000
0000
0000
0001
0000
0010
0000
0001
0000
0000
0000
0001
0000
0000
0000
1000
0000
0000
0000
0020
0000
0000
0M00
0000
0000
0000
0000
,
1030
0000
0010
0000
1000
0100
1000
0000
0100
0000
1000
0000
0200
0000
0010
0000
,
0000
0300
0010
0000
0001
0000
1000
0000
0001
0100
0001
0000
0100
0000
0001
0000
,
1000
0000
0110
0000
1000
0010
1000
0000
0010
0000
0100
0000
0020
0000
MM00
0000
,
0000
0030
0100
0000
0001
0000
0010
0000
0100
0000
1000
0000
0001
0000
0000
0000
,
1000
0000
0100
0000
1000
0100
1000
0000
0100
0000
0010
0000
0200
0000
0010
0000
,
0000
0300
0010
0000
0000
0000
0001
0000
0010
0000
0000
0000
0011
0000
0000
0000
,
0011
0000
1100
0000
1000
0010
1000
0000
,
0010
0100
0010
0000
0100
0001
0100
0000
,
0001
0000
1000
0000
0100
1000
0001
0000
0100
0000
0100
0000
0010
0000
0010
0000
,
0000
0100
0010
1000
1000
0001
0001
0001
,
0010
0000
0100
0000
1000
0001
1000
0000
0100
0000
0010
0000
0002
0000
MM00
0000
,
0000
0013
0100
0100
0010
0001
1000
1000
,
0010
0000
0100
0000
0001
1000
0001
0000
0100
0000
0001
0000
1000
0000
0010
0000
,
M000
0000
0010
0000
1000
0000
0100
1000
0100
0000
1000
0000
0001
0000
0010
0001
,
1000
0000
0000
0000
;

//---------------dance-single - R. Konkul----------------
#NOTES:
     dance-single:
     R. Konkul:
     Medium:
     6:
     0.309,0.318,0.160,0.000,0.000,225.000,18.000,0.000,0.000,0.000,0.000,0.309,0.318,0.160,0.000,0.000,225.000,18.000,0.000,0.000,0.000,0.000:
0000
0000
0000
0000
,
0000
0000
0000
0000
,
0100
0000
1100
0000
0001
0000
0101
0001
,
0100
0000
0000
0001
0010
0000
0010
0000
,
0110
0000
0100
0000
1000
0100
1000
0000
,
0000
0001
0010
0000
0000
0010
0100
0000
,
0000
1000
0010
0000
0000
0100
0100
0000
,
0001
0000
0010
0000
0001
1000
0010
0000
,
1000
0100
0000
1000
0100
0010
0000
0001
,
1000
0001
0100
0000
,
0001
0000
0100
0000
,
0010
1000
0010
0000
1000
0000
0100
0000
,
0000
1000
0100
1000
0100
0000
0010
0000
,
0001
0000
1000
0001
1000
0001
0100
0000
,
0000
0000
0100
0001
0100
0000
0010
0000
,
0100
0000
0010
0000
,
1000
0100
1000
0100
1000
0000
0001
0000
,
0011
0000
0010
0000
,
0001
1000
1010
1000
,
0100
0000
1000
0000
,
0100
0000
0010
0000
0001
0010
0001
0000
,
0010
0000
0100
0000
,
1000
0000
0010
0000
,
0100
1001
0100
0001
,
0010
0000
0001
0000
,
1001
0000
1000
0000
,
0100
0000
0000
1000
0000
0000
0000
0000
,
1000
0010
0000
1000
0000
0010
1000
0001
,
1000
0010
0000
1000
0000
0000
0000
0000
,
0001
0000
0010
0000
,
1001
0000
0001
0000
,
0010
1001
0010
0000
,
0001
0001
0001
0000
,
1000
0010
1000
0000
,
0001
0010
0001
0000
,
1000
0100
1000
0000
0100
0000
0000
0000
,
1000
0010
0100
0000
,
0101
0000
0001
0000
,
0010
0001
1000
0000
,
1010
0000
0010
0000
,
1000
1100
1000
0001
,
0011
0000
0001
0000
,
0100
0000
0100
0000
0010
0010
0010
0000
,
1000
0000
0001
0000
0010
0001
0010
0000
,
0100
0000
0100
0000
1000
1000
1000
0000
,
0010
0100
0100
0001
,
1000
0000
0000
1000
1000
0000
0100
0000
,
0100
0010
0001
0000
,
0100
0001
1000
0000
,
1001
0000
0001
1000
,
0001
0000
0000
0000
0100
0001
0100
0000
,
0001
0000
1000
0110
,
1000
0100
0010
0100
,
1001
0000
1000
0000
,
0001
0100
0110
0000
,
0100
0000
0010
0000
1000
0010
1000
0000
,
0010
0000
1000
0000
0100
1000
0100
0000
,
1000
0000
0001
0000
,
0010
0001
1000
0010
,
0100
0010
0100
0000
0001
0000
0001
0000
,
0000
0010
0010
0100
,
1000
0000
0001
0000
,
0100
0000
0001
0000
1000
0010
1000
0000
,
0010
0000
0100
0000
,
0001
0010
0001
0000
0010
0000
0100
0000
,
1001
0000
0000
0000
;

//---------------dance-single - R. Konkul----------------
#NOTES:
     dance-single:
     R. Konkul:
     Easy:
     4:
     0.186,0.202,0.062,0.000,0.000,139.000,7.000,0.000,0.000,0.000,0.000,0.186,0.202,0.062,0.000,0.000,139.000,7.000,0.000,0.000,0.000,0.000:
0000
0000
0000
0000
,
0000
0000
0000
0000
,
0001
0000
0100
0000
,
0001
0001
0000
0010
,
0010
0000
1100
0000
,
1000
0000
0001
0000
,
0010
0000
0001
0000
,
0100
0010
0100
0000
,
0010
1000
1000
1000
,
0001
0010
0001
0000
,
0000
1000
1000
0000
,
0100
1000
0100
0000
,
0010
0010
0010
0000
,
0001
0100
0001
0000
,
0000
1000
1000
0000
,
0010
0000
0100
0000
,
0010
0010
0010
0000
,
1001
0000
1000
0000
,
0001
0000
0010
0001
,
0010
0000
0100
0000
,
1000
1000
1000
0000
,
1001
0000
1000
0000
,
0001
0000
0000
0100
,
0100
0000
0000
0010
,
0010
0000
0000
0000
,
1001
0000
0000
0000
,
0001
0000
0000
0000
,
0010
0000
0000
0000
,
0100
0000
0000
0000
,
1000
0000
1000
0000
,
1000
0000
0000
0000
,
0001
0000
0001
0000
,
0001
0000
0000
0000
,
0100
0010
0100
0000
,
0001
1000
0001
0000
,
1000
0000
1000
0000
,
0100
1000
0001
0000
,
0010
0000
0010
0000
,
0001
0000
0100
0000
,
0010
0000
0100
0000
,
0001
0001
0001
0000
,
1000
0000
0100
0000
,
0010
0010
0000
0001
,
0000
1000
0000
0010
,
0000
0100
0001
0001
,
0010
0000
0100
0000
,
1000
0000
0010
0000
,
0100
0000
0001
0000
,
0010
0000
0100
0000
,
1000
0000
0000
0000
,
0001
0000
0100
0001
,
0100
0000
0000
0001
,
1000
0000
0100
1000
,
0010
0000
1000
0000
,
0001
0000
0010
0000
,
0010
0000
0000
0100
,
0100
0000
1000
0001
,
1000
0000
0010
0000
,
0100
0000
0000
0100
,
0100
0000
0001
0000
,
0000
0001
0010
0000
,
0100
0000
1001
0000
,
0000
1000
0010
0000
,
1000
0000
0010
0000
,
0100
0000
0110
0000
,
1001
0000
0000
0000
;

//---------------dance-single - R. Konkul----------------
#NOTES:
     dance-single:
     R. Konkul:
     Beginner:
     1:
     0.088,0.116,0.000,0.000,0.000,69.000,0.000,0.000,0.000,0.000,0.000,0.088,0.116,0.000,0.000,0.000,69.000,0.000,0.000,0.000,0.000,0.000:
0000
0000
0000
0000
,
0000
0000
0000
0000
,
0100
0000
0000
0010
,
0000
0000
1000
0000
,
0000
0001
0000
0000
,
0000
0010
0000
0100
,
0000
0000
1000
0000
,
0000
0001
0000
0000
,
0100
0000
0010
0000
,
1000
0000
0000
0000
,
0000
0000
0100
0000
,
0000
0000
0000
0000
,
0010
0000
0000
0000
,
0001
0000
0000
0000
,
1000
0000
0000
0000
,
0010
0000
0000
0000
,
0100
0000
0100
0000
,
0001
0000
0000
0000
,
0010
0000
0000
0000
,
0000
0100
0000
0000
,
0000
0000
1000
0000
,
0000
0000
0000
0001
,
0000
0000
0000
0000
,
0100
0000
0000
0000
,
0000
0010
0010
0010
,
0000
0000
0000
1000
,
0000
0000
0000
0000
,
0100
0000
0000
0000
,
0000
0010
0000
0000
,
0001
0000
0000
0000
,
0100
0000
0000
0000
,
0000
0000
0000
0000
,
0001
0000
0000
0000
,
1000
0000
0000
0000
,
0100
0000
0000
0000
,
0000
0000
0010
0000
,
0000
0000
0001
0000
,
0000
0000
0100
0000
,
0000
0000
0010
0000
,
1000
0000
0001
0000
,
0000
0000
0010
0000
,
0100
0000
1000
0000
,
0000
0001
0000
0000
,
0000
0100
0000
0000
,
0000
0010
0000
1000
,
0000
0001
0000
0010
,
0000
0100
0000
1000
,
0000
1000
0000
0001
,
0000
0100
0000
0010
,
0000
0000
0000
0000
,
1000
0000
0000
0000
,
0000
0000
0001
0000
,
0000
0000
0000
0010
,
0000
0000
0000
0000
,
0100
0000
0000
0000
,
0000
0000
1000
0000
,
0000
0000
0001
0000
,
0000
0000
0100
0000
,
0000
0000
0010
0000
,
0000
0000
0000
0000
,
0000
1000
0000
0000
,
0000
0000
0000
0001
,
0000
0000
0000
0000
,
0000
0010
0000
0000
,
0000
0000
0100
0000
,
1000
0000
0000
0000
;

//---------------dance-double - R. Konkul----------------
#NOTES:
     dance-double:
     R. Konkul:
     Easy:
     3:
     0.139,0.202,0.009,0.000,0.000,108.000,1.000,0.000,0.000,0.000,0.000,0.139,0.202,0.009,0.000,0.000,108.000,1.000,0.000,0.000,0.000,0.000:
00000000
00000000
00000000
00000000
,
00000000
00000000
00000000
00000000
,
10000000
01000000
00100000
00000000
,
00010000
00010000
00001000
00001000
,
00000100
00000000
00000010
00000001
,
00000100
00000010
00000000
00000100
,
00000001
00001000
00000000
00000100
,
00000000
01000000
00000000
00010000
,
00000000
00100000
00000000
00010000
,
10000000
00000000
00000000
00100000
,
00000000
00000000
00000000
01000000
,
00000000
00010000
00000000
00000000
,
00100000
00000000
00000000
00001000
,
00000000
00000010
00000000
00000001
,
00000000
00000000
00000100
00000000
,
00000001
00000000
00001000
00000000
,
00000100
00000000
00100000
00000000
,
00010000
00000000
01000000
00000000
,
00000000
00010000
10000000
00000000
,
00000000
01000000
00000000
00000000
,
00000000
10000000
00000000
00000000
,
00010000
00000000
00100000
00000000
,
00000000
00001000
00000000
00000010
,
00000000
00000010
00000000
00000000
,
00000000
00000001
00000000
00000000
,
00001000
00000000
00000000
00000000
,
00000100
00000000
00000000
00000000
,
00010000
00000000
00000000
00000000
,
00010000
00010000
00010000
00000000
,
01000000
00000000
00000000
00000000
,
00010000
00000000
00000000
00000000
,
10000000
00000000
00000000
00000000
,
00100000
00000000
00000000
00000000
,
01000000
00000000
00010000
00000000
,
00100000
00000000
00000000
00000000
,
00001000
00000000
00000000
00010000
,
00000000
00000000
00000100
00000000
,
00010000
00000000
00000000
00000000
,
00000100
00000000
00001000
00000000
,
00000001
00000000
00000010
00000000
,
00000001
00000000
00001000
00000000
,
00000100
00010000
01000000
10000000
,
00100000
00010000
00000000
00001000
,
00000000
00000100
00000000
00000001
,
00000000
00000010
00000000
00001000
,
00000000
00000100
00000000
00010000
,
00000000
01000000
00000000
00100000
,
00000000
10000000
00000000
01000000
,
00000000
00100000
00000000
00010000
,
00000100
00000000
00000000
00000000
,
00001000
00000000
00000000
00000000
,
00000000
00000001
00000000
00000000
,
00000000
00000010
00000000
00000000
,
00000100
00000000
00000000
00000000
,
00000000
00001000
00000000
00000000
,
00000000
00000000
00000001
00000000
,
00000000
00000000
00000100
00000000
,
00000010
00000000
00000000
00000000
,
00010000
00000000
00000100
00000000
,
00010000
00000000
00000000
00000000
,
00001000
00000000
00100000
00000000
,
01000000
00000000
00000000
00000000
,
10000000
00000000
00000000
00000000
,
00010000
00000000
01000000
00000000
,
00000001
00000000
00010000
00000000
,
00001001
00000000
00000000
00000000
;

//---------------dance-double - R. Konkul----------------
#NOTES:
     dance-double:
     R. Konkul:
     Medium:
     5:
     0.264,0.318,0.027,0.062,0.000,198.000,3.000,7.000,0.000,0.000,0.000,0.264,0.318,0.027,0.062,0.000,198.000,3.000,7.000,0.000,0.000,0.000:
00000000
00000000
00000000
00000000
,
00000000
00000000
00000000
00000000
,
10000000
01000000
00100000
00000000
00100000
00000000
00010000
00000000
,
00100000
00001000
00010000
00000100
,
00001000
00000000
00000001
00000000
00000000
00000010
00000100
00000000
,
00000000
00001000
00000100
00000000
00000000
00100000
00100000
00000000
,
00000000
00010000
00100000
00000000
00000000
01000000
10000000
00000000
,
00000000
00100000
10000000
00000000
00000000
00010000
01000000
00000000
,
00000100
00100000
00100000
00001000
,
00010000
00001000
00010000
00000100
,
00000000
00001000
00000001
00000000
,
00001000
00000001
00000010
00000001
,
00000000
00000100
00000001
00001000
,
00000010
00000000
00001000
00000000
,
00000100
00000000
00010000
00001000
,
00010000
00000000
00001000
00000000
,
01000000
00000000
00010000
00010000
,
01000000
00000000
00100000
00000000
,
00000000
10000000
01000000
00000000
,
00000000
10000000
00010000
00000000
,
00000000
00100000
00001000
00000000
,
00000100
00000000
00000001
00000000
,
00000000
00000010
00000010
00000000
,
00000000
00000100
00001000
00000100
,
00000000
00100000
00010000
00100000
,
01100000
00000000
10000000
00000000
,
00010000
00000000
01000000
00000000
,
00100000
00000000
01000000
00000000
,
00001000
00000000
00010000
00000000
,
00000200
00000000
00000000
00000300
00002000
00000000
00000000
00000000
,
00003002
00000000
00000023
00000000
,
00000000
00000000
00000000
00000000
00000200
00000030
00000000
00000000
,
00002300
00000000
00003002
00000000
,
00001003
00001000
00000100
00000000
,
00010000
00010000
00001000
00000000
,
01000000
00010000
01000000
00000000
00010000
00000000
00000000
00000000
,
10000000
00100000
00100000
00000000
,
00000000
00100000
00100000
00000000
00100000
00000000
00000000
00000000
,
10000000
01000000
00100000
00000000
,
00010000
00100000
00010000
00000000
00100000
00000000
00001000
00000000
,
00010000
00000000
00000100
00000000
00001000
00000100
00001000
00000001
,
00000010
00000000
00000001
00000000
00000100
00000100
00000010
00000000
,
00000000
00001000
00000010
00000000
00000000
00001000
00000100
00000000
,
00000000
00010000
00000100
00000000
00000000
00100000
00010000
00000000
,
00000000
10000000
01000000
00000000
00000000
10000000
00010000
00000000
,
01000000
00001000
00010000
00000100
,
00001000
00000010
00000001
00000100
,
00001000
00010000
01000000
10000000
,
00100000
00010000
00001000
00011000
,
00000100
00000000
00000000
00001000
,
00000001
00000000
00000000
00000010
,
00000001
00000000
00000010
00000000
00000100
00000010
00000100
00000000
,
00000000
00001000
00000100
00000000
,
00010000
00000000
00001000
00000000
00100000
00010000
00100000
00000000
,
00000000
01000000
10000000
00100000
,
00000000
00000000
10000000
00000000
00100000
01000000
00100000
00000000
,
01000000
00000000
00010000
00000000
,
01000000
00001000
00010000
00000000
,
00000100
00000000
00001000
00000000
,
00000010
00000010
00000001
00001000
,
00000000
00000001
00000100
00001000
,
00010000
00000000
00100000
00000000
,
00000000
01000000
00100000
10000000
,
00000000
00000000
01000000
00000000
00100000
00010000
00100000
00000000
,
00010000
00000000
01000000
00001000
,
00011000
00000000
00000000
00000000
;

//---------------dance-double - R. Konkul----------------
#NOTES:
     dance-double:
     R. Konkul:
     Hard:
     9:
     0.674,0.752,0.338,0.240,0.312,465.000,38.000,27.000,12.000,17.000,0.000,0.674,0.752,0.338,0.240,0.312,465.000,38.000,27.000,12.000,17.000,0.000:
00000000
00000000
00000000
00000000
,
00000000
00000000
00000000
00000000
,
00001000
00010000
00001000
00010000
00000000
00000100
00001000
00000000
00000001
00000010
00000100
00000010
00000000
00000001
00001000
00000000
,
00000100
00000000
00010000
00001000
00100000
00010000
00100000
00010000
00000000
10000000
00100000
01000000
00010000
00010000
01000000
00001000
,
00010000
00000100
00000010
00000001
00000100
00000000
00000100
00000010
,
00001000
00000000
00000100
00010000
00000010
00000000
00001000
00000000
00000100
00010000
00100000
00000000
20000000
00000000
00000000
00000000
,
31000000
00000000
00100000
00010000
00100000
00000000
00000100
00000000
00010000
00000000
00000010
00001000
00000001
00000000
00000010
00000000
,
00000100
00000000
00001000
00000000
00000010
00010000
00001000
00000000
01000000
00000000
00100000
00000000
10000000
00000000
00010000
00100000
,
00001000
00000100
00000010
00001000
00000001
00000010
00000100
00010000
,
00100000
00000000
10000000
00000000
00100000
01000000
00100000
01000000
00100000
00000000
01000000
00000000
02000000
00000000
00000000
00000000
,
00000000
03000000
00010000
00100000
00010000
00100000
00010000
00000000
000M0000
00000000
00000100
00000000
00000100
00000000
00000000
00000000
,
00000010
00000000
00000001
00000000
00000100
00000010
00000100
00000010
00001000
00000000
00000100
00000000
00010000
00000000
00001000
00000000
,
000MM000
00000000
00100000
00000000
01000000
10000000
01000000
00000000
10000000
00000000
00010000
00000000
00001000
00000000
00010000
00000000
,
00000010
00000100
00000001
00000100
00000010
00001000
00002000
00MM0M00
,
00000000
00003000
00000001
00000010
00000001
00000010
00000100
00000000
000MMM00
00000000
00100000
00000000
00100000
00000000
00000000
00000000
,
00010000
01000000
00100000
10000000
00000000
00100000
01000000
00000000
,
00001000
00010000
00001000
00010000
00000100
00000000
00000011
00000000
,
00000101
00000000
00000000
00000000
00001000
00000000
00000010
00000000
00001000
00000100
00001000
00000000
00000100
00000000
00010000
00000000
,
00010000
00000000
00001000
00000000
00100000
00001000
01000000
00010000
,
10000000
00000000
11000000
00000000
00110000
00000000
00100000
00010000
,
000M0000
00010000
00000100
00001000
00000010
00000100
00000100
00000001
,
00000001
00000000
00000011
00000000
00000110
00000000
00000100
00010000
,
00001000
00100000
00010000
01000000
00001000
00010000
00000100
00000010
,
00000011
00000000
00000001
00000000
00000010
00000001
00001000
00000000
00000010
00000000
00000010
00000000
00010000
00000000
00020000
00000000
,
00000000
00000000
00032000
00000000
00000000
00000000
00103000
00010000
10000000
00000000
00100000
01000000
00100000
00000000
01000000
00000000
,
10010000
00010000
00000000
00100000
00000000
00001000
00000000
00010000
,
00001000
00001000
00000000
00000200
00000000
00000000
00000000
00000000
,
00000001
00000002
00000000
00000010
00000000
00001000
00000010
00001000
,
00000010
00000000
00001000
00000303
00000000
00000000
00000002
00000000
00000000
00000003
00000002
00000000
00000000
00000000
00001003
00000000
,
00000100
00000100
00000000
00010000
00000000
00001000
00000000
00200000
,
00010000
00310000
00000000
22000000
00000000
00000000
00000000
00000000
,
00010000
00010000
33000000
10000000
00000000
01000000
00100000
00010000
,
00011000
00000000
00000000
00000000
00000110
00000000
00000000
00000000
00000001
00000100
00000010
00000000
00000100
00000010
00001000
00000000
,
00000010
00000000
00001000
00000000
00000100
00000000
00010000
00000000
00001000
00000000
00000000
01000000
00000000
00000000
01000000
00000000
,
00100000
00000000
10000000
00000000
00010000
00000000
00100000
00000000
01000000
00000000
00000000
00100000
00000000
00000000
00100000
00000000
,
00010000
00000000
01000000
00000000
00001000
00000000
00010000
00000000
00000100
00000000
00000000
00000010
00000000
00000000
00000010
00000000
,
00000010
00000000
00000000
00000001
00000000
00000000
00000001
00000000
00000100
00000000
00001000
00000000
00000100
00000000
00000001
00000000
,
00001000
00000000
00000100
00000000
00010000
00000000
00001000
00000000
00100000
00000000
00000000
00100000
00000000
00000000
01000000
00000000
,
01000000
00000000
10000000
00000000
00100000
00000000
01000000
00000000
00001000
00000000
00000000
00011000
00000000
00000000
00000010
00000000
,
00000100
00000000
00000000
00000011
00000000
00000000
00000100
00000000
00000100
00000000
00000000
00001000
00000000
00000000
00001000
00000000
,
00000010
00010000
00001000
01000000
00100000
01000000
10000000
01000000
,
10010000
00000000
10000000
00000000
12000000
00000000
00000000
03000000
00110000
00000000
00001000
00000000
00022000
00000000
00000000
00033000
,
00000100
00000000
00000010
00000000
00000202
00000000
00000000
00000000
00000010
00000000
00001000
00000000
00000010
00000303
00000000
00000000
,
00001000
00000200
00020000
00000000
00000010
00000001
00030310
00000000
,
00001000
00000000
00100000
00000000
02020000
00000000
00000000
00000000
00100000
00000000
10000000
00000000
00100000
03030000
00000000
00000000
,
00000000
00000000
11000000
00000000
01100000
00000000
00210000
00000000
00000000
00000000
00310000
00100000
00000000
00100000
00000100
00010000
,
00001000
00000000
01000000
00000000
00010000
00000000
00010000
00000000
000M0000
00000000
00000100
00000000
00000010
00000001
00000010
00000000
,
00000110
00000000
00000100
00000000
00001100
00000000
00011000
00000000
00000000
00000000
00001000
00100000
00000000
01000000
10000000
01000000
,
01100000
00000000
00000000
00110000
00000000
00000000
00001100
00000000
00000011
00000000
00000000
00000101
00000000
00000000
00011000
00000000
,
10100000
00000000
10000000
00000000
01000000
00100000
01000000
00100000
01000000
00000000
00100000
00000000
00100000
00000000
00000000
00000000
,
00000000
00000000
00001000
00010000
00001000
00010000
00001000
00000000
00000000
00000000
00010000
00000000
00010000
00000000
00000000
00000000
,
00000100
00000000
00000010
00000000
00000001
00000100
00000001
00000100
00000001
00000000
00000100
0000000M
00000100
00000000
00000100
00000000
,
00000000
00000000
00000010
00000000
00001000
00000100
00001000
00000100
00010000
00000000
00001000
00000000
00100000
00000000
00010000
00000000
,
02000000
00000000
00000000
03000000
00100000
10000000
00100000
01000000
00100000
00000000
01000000
00000000
02000000
00000000
00000000
00000000
,
00000000
03000000
00010000
00100000
00010000
00100000
00001000
00000000
00010000
00000000
00010000
00000000
00002000
00000000
00000000
00000000
,
00013000
00000100
00000010
00000001
00000100
00000010
00001000
00011000
,
00000000
00000000
00001000
00000000
00000000
00000000
00100000
00010000
00100000
00000000
00010000
00000000
00010000
00000000
10000000
00000000
,
20200000
00000000
00000000
30300000
10000000
00000000
00010000
00000000
00100000
00010000
00100000
00000000
00010000
00000000
01000000
00000000
,
00001000
00000000
00000000
00000000
00010000
00000000
00000100
00000000
00000010
00000001
00000010
00000000
00000001
00000000
00000100
00000000
,
00000010
00000000
00000010
00001000
00000100
00010000
00001000
00100000
,
00010000
00000000
01000000
00100000
01000000
00000000
00100000
00000000
10000000
00000000
10000000
00000000
01000000
00000000
01000000
00000000
,
01000000
00000000
00100000
00000000
00001000
00010000
00000010
00001000
,
00000001
00000000
00000010
00000000
00000100
00000000
00001000
00000000
00000100
00001000
00000100
00000000
00010000
00000000
00010000
00000000
,
00001000
00100000
00010000
01000000
00100000
00000000
10100000
00000000
,
11000000
00000000
00000000
00000000
00110000
00000000
00000000
00000000
00010000
00001000
00010000
00000000
00000100
00000000
00000010
00000000
,
00000011
00000000
00000000
00000000
;

//---------------dance-double - R. Konkul----------------
#NOTES:
     dance-double:
     R. Konkul:
     Challenge:
     12:
     0.884,0.984,0.854,0.320,0.694,553.000,96.000,36.000,113.000,41.000,0.000,0.884,0.984,0.854,0.320,0.694,553.000,96.000,36.000,113.000,41.000,0.000: // measure 1
00000000
00000000
00000000
00000000
,  // measure 2
00000000
00000000
00000000
00000000
00000000
00000000
00000000
00000000
00000000
00000000
00000000
00000000
00000000
00000000
00000000
00001000
,  // measure 3
00011000
00000000
00010000
00000000
00001000
00000000
00100000
00000000
00000000
00000000
00000000
00000000
0002M000
0000000M
0000M000
000000M0
0000M000
00000M00
0000M000
000000M0
0103M000
0000000M
0100M000
00000000
00000000
00000000
00100000
00000000
10000000
00000000
00010000
00000000
,  // measure 4
00000000
00110000
00100000
00001000
00000100
00000010
00000001
00000010
00000012
00000000
00001000
00000000
00001003
00000100
00010000
00000100
,  // measure 5
00010000
00000010
00010000
00011000
00100000
0000MMMM
00200MM0
00000MM0
00300MM0
10000MM0
1000MMMM
01100000
00000000
00000000
00001000
MMMM1000
,  // measure 6
0MM01000
0MM00000
0MM00001
0MM00011
00000101
00000000
00001010
00000000
00110000
00000000
11000000
01000000
00010000
00110000
00010100
00000000
,  // measure 7
0MM00110
M0000000
M0MM0001
M00M0110
MM0M1100
0MM00000
00011000
00000000
22000MM0
0000M00M
0010000M
00010MMM
0000000M
0001M00M
00100MM0
00010000
,  // measure 8
33100000
00000000
01000000
00110000
01010000
00000000
00002200
00000000
M00M0000
M00M0000
M00M0010
0MM00000
0MM00001
00000010
00000001
00000010
,  // measure 9
00000010
00003300
00000000
00001011
00000000
00000000
00111000
00000000
0111MMMM
0000M000
0000MMMM
1110M000
0000MMMM
00000000
11110000
00000000
,  // measure 10
10010000
00000000
00010000
00000000
01000000
00100000
01000000
00010000
00100000
00000000
00001000
00000000
00002000
00000000
00000000
00000000
,  // measure 11
00000000
00000000
00013000
00000100
00000010
00000001
00000100
00000000
00001000
00000000
00010000
00000000
10100000
00000000
00000000
00000000
,  // measure 12
11000000
00000000
01000000
00000000
00100000
00001000
00010000
00000100
00000010
00000000
00000010
00000000
00000101
00000000
00000002
00000000
,  // measure 13
00000000
00000000
00000100
00000003
00000100
00010000
00000100
00001000
00010000
00000000
00010000
00000000
10100000
00000000
10000000
00000000
,  // measure 14
10100000
00000000
00000000
00000000
10000000
01000000
00100000
00010000
00100000
00000000
00010000
00000000
00001000
00000000
00MMM000
00000000
,  // measure 15
00000000
00000000
00000010
00000001
00000100
00000010
00010000
00000000
00001000
00000000
00001000
00000000
00100000
00000000
00001000
00000000
,  // measure 16
00100000
00000000
01000000
00000000
10000000
01000000
00100000
00010000
01000000
00000000
00001000
00000000
00011000
00000000
00001000
00000000
,  // measure 17
00000000
00000000
00000110
00000000
00000000
00000000
00000001
00000010
00000100
00000000
00000100
00000000
00010000
00000000
00001000
00000000
,  // measure 18
01100000
00000000
00000000
00000000
10000000
00010000
10000000
00010000
01000000
00000000
00100000
00000000
00200000
00000000
00000000
00000000
,  // measure 19
00000000
00300000
01000000
00001000
00010000
00000100
00000010
00000000
00000MM0
00000000
00000010
00000000
00000020
00000000
00000000
00000030
,  // measure 20
00000101
00000000
00000101
00000000
00000101
00000000
00001000
00000010
00010000
00001000
00010000
00000000
00011000
00000000
00200000
00000000
,  // measure 21
00000000
00000000
01300000
00000000
00100000
01000000
10000000
01000000
00100000
00000000
00010000
00000000
01010000
00000000
00001000
00000000
,  // measure 22
00020000
00000000
00000000
00000000
00030100
00000010
00000001
00001000
00000010
00000000
00001000
00000000
00002000
00000000
00000000
00000000
,  // measure 23
00000000
00003000
00000010
00010000
00001000
00010000
00001000
00000000
00100000
00000000
00100000
00000000
02200000
00300000
00000000
03000000
,  // measure 24
01100000
00000000
01000000
00000000
01000000
10000000
00100000
01000000
00010000
00000000
00010000
00000000
00100000
00000000
00010000
00000000
,  // measure 25
00000000
00000000
00000110
00000000
00000000
00000000
00000001
00000100
00000010
00000000
00001000
00000100
00010000
00000000
01000000
00000000
,  // measure 26
10000000
11000000
00000000
00010000
00000000
01000000
00000000
00010000
,  // measure 27
00100000
00001000
00000000
00000110
00000MM0
MMMMM00M
00000000
00000000
,  // measure 28
00000001
00000001
00000000
00000100
00000000
00000010
00001000
00001000
,  // measure 29
00000200
00000000
00002000
00000000
00000000
00000000
00000010
00000000
00000000
00000000
00000010
00003300
00000000
00000000
00000100
00000000
,  // measure 30
00010000
00001000
00000000
00100000
00000000
01100000
00000000
01000000
,  // measure 31
10000000
00100000
00000000
00011000
000MM000
MMM00MMM
00000000
00000000
,  // measure 32
00000110
00000110
00000000
00000011
00000000
00000001
00000001
00000001
,  // measure 33
00000010
00000000
00000000
00000000
00000010
00000000
00000000
00000000
00000100
00010000
00001000
00100000
00010000
10000000
00100000
01000000
,  // measure 34
00010000
00000000
00010000
00100000
00001000
00000010
00000001
00000100
,  // measure 35
00000010
00001000
00000100
00010000
00001000
01000000
00100000
10000000
,  // measure 36
01000000
00010000
00001000
00000010
00000001
00000100
00000010
00001000
,  // measure 37
00000100
00010000
00001000
00100000
01000000
10000000
00010000
00000000
,  // measure 38
00000010
00000001
00000010
00000100
00100000
00001000
01000000
00100000
,  // measure 39
01000000
00100000
10000000
01000000
00100000
00001000
00010000
00000100
,  // measure 40
00001000
00000001
00000010
00001000
00100000
00100000
00010000
00000010
,  // measure 41
00000001
00000100
00010000
00100000
01000000
00010000
00001000
00000100
,  // measure 42
00001100
00000000
00000000
00000000
00000001
00000010
00000001
00000000
00001100
00000000
00000000
00000000
00000000
00000000
00000000
00000000
00001100
00000000
00000000
00000000
00010000
00001000
00010000
00000000
00110000
00000000
00000000
00000000
00100000
00010000
10000000
00000000
,  // measure 43
20000000
00000000
00000000
00000000
30010000
00100000
01000000
00000000
01001000
00000000
00000000
00000000
00020200
00000000
00000000
00000000
00000000
00000000
00000000
00000000
00000010
00000001
00000010
00000000
00000011
00000000
00030300
00000000
00000000
00000000
00000000
00000000
,  // measure 44
00000011
00000000
00000000
00000000
00000010
00000100
00000001
00000000
00000110
00000000
00000000
00000000
00000010
00000100
00001000
00000000
00010000
00000000
00000000
00000000
00001000
00010000
00001000
00000000
00220000
00000000
00000000
00000000
00330000
00000000
00000000
00000000
,  // measure 45
10100000
00000000
00000000
00000000
00100000
10000000
00010000
00000000
00100000
00000000
00000000
00000000
00010000
00100000
00001000
00000000
00010000
00000000
00000100
00000000
00001000
00000001
00000010
00000000
00000000
00000000
00000001
00000100
00000010
00000000
00001100
00000000
,  // measure 46
00011000
00000000
00110000
00000000
01100000
00000000
22000000
00000000
00000000
00000000
00100000
00010000
00000000
00000000
00010000
00100000
,  // measure 47
00010000
33000000
00000000
00000000
01100000
00000000
00022000
00000000
00000000
00000000
00100000
00000000
00100000
00000010
00000010
00033000
,  // measure 48
00011000
00000000
00000100
00000000
00000201
00000000
00000002
00000000
00000000
00000000
00000010
00001000
00000000
00000000
00001000
00000010
,  // measure 49
00001003
00000300
00000000
00000000
00000000
00000000
00000111
00000000
00000000
00000000
00000000
00000000
00011100
00000000
00000000
00000000
00111000
00000000
00000000
00000000
00000000
00000000
01110000
00000000
00000000
00000000
00000000
00000000
00000000
00000000
00000000
00000000
,  // measure 50
10010000
00000000
10000000
00000000
01000000
00010000
00001000
00010000
00001000
00000000
00001000
00000000
00002000
00000000
00000000
00000000
,  // measure 51
00000000
00003000
00000010
00000001
00000100
00000010
00001000
00000000
00001010
00000000
00000010
00000000
00001001
00000000
00000001
00000010
,  // measure 52
00000100
00000000
00001000
00000000
00000010
00000100
00000010
00010000
00000100
00000000
00100000
00000000
00010000
00000000
01000000
00000000
,  // measure 53
01000000
00000000
00100000
01000000
00010000
00100000
01000000
00100000
01000000
00000000
00100000
00000000
00001000
00000000
00000100
00000000
,  // measure 54
00000102
00000000
00000000
00000003
00000110
00000000
00001000
00000010
00010000
00000000
00010000
00000000
00022000
00000000
00000000
00030000
,  // measure 55
00000000
00003000
00100000
01000000
10000000
01000000
00100000
00000000
00M00000
00000000
00011000
00000000
00011000
00000000
00000100
00000010
,  // measure 56
00000001
00000100
00000010
00000100
00000010
00001000
00000100
00001000
00000100
00000000
00010000
00000000
00110000
00000000
01000000
00000000
,  // measure 57
10000000
00010000
00000000
00100000
00001000
00010000
00000100
00000000
00000011
00000000
00000001
00000000
00000011
00000000
00000010
00000000
,  // measure 58
00000120
00000000
00000000
00000030
00001100
00000000
00000100
00010000
00001000
00000000
00100000
00000000
00200000
00000000
00000000
00000000
,  // measure 59
00000000
00300000
01000000
00100000
00010000
00100000
00001000
00010000
00001000
00000000
00000100
00000000
00000001
00000000
00000110
00000000
,  // measure 60
00000100
00001000
00000001
00000100
00000010
00001000
00000100
00000000
00001000
00000000
00011000
00000000
00010000
00000000
00010000
00000000
,  // measure 61
00MM0000
00000000
00010000
01000000
00100000
00000000
00100000
10000000
00010000
00100000
00001000
00010000
00000100
00000000
00000010
00000000
,  // measure 62
00001001
00000000
00000000
00000000
00000101
00000000
00000100
00000010
00001000
00000000
00000010
00000000
00000020
00000000
00000000
00000000
,  // measure 63
00000030
00000000
00001000
00000100
00010000
00001000
01000000
00000000
01100000
00000000
00100000
00000000
10010000
00000000
00000000
00000000
,  // measure 64
11000000
00000000
01000000
00100000
00010000
01000000
00001000
00010000
00000100
00000000
00000010
00000000
00000001
00000000
00000010
00000000
,  // measure 65
00000110
00000000
00011000
00000000
00000000
00000000
10000000
01000000
00100000
00010000
00001000
00000100
00000010
00000001
00000010
00000100
,  // measure 66
00000110
00000000
00000000
00000000
;

//---------------dance-single - D. Runberg----------------
#NOTES:
     dance-single:
     D. Runberg:
     Edit:
     11:
     0.884,0.849,0.561,0.329,0.890,595.000,63.000,37.000,90.000,0.000,0.000,0.884,0.849,0.561,0.329,0.890,595.000,63.000,37.000,90.000,0.000,0.000:
0000
0000
0000
0000
,
0000
0000
0000
0000
,
1000
0100
1000
0001
0000
0100
0010
0000
1000
0100
0010
0100
0000
1000
0001
0000
,
0100
0010
0100
0001
0100
0010
1000
0100
0000
0010
0001
0010
0100
0010
0010
0001
,
0100
0000
0010
0000
0100
0001
0100
0000
0001
0000
0000
0000
1000
0000
0000
0000
0001
0000
0010
0000
0100
0000
1100
0000
0000
0000
1000
0000
0010
0000
0100
0000
,
0000
0000
0M01
0000
1000
0001
1000
0000
0100
0000
0000
0000
0010
0000
0000
0000
0001
0000
0100
0000
0001
0000
0000
0000
1000
0000
0100
0000
1000
0000
0000
0000
,
0100
1000
0100
0010
0000
0M10
0001
0000
0100
0000
0010
1000
0000
0100
0010
0000
,
0100
0000
0010
0000
0001
1000
0001
0000
0100
0000
0010
0000
1000
0000
0000
0000
0010
0000
1000
0000
0100
0000
0000
0000
10M0
0000
0100
0000
0010
0000
0001
0000
,
1001
0000
0100
10M1
0000
0010
1M01
0000
0110
0000
0010
0101
0000
1000
1001
0001
,
0010
0000
0010
0000
0100
1000
0010
0100
0001
0000
0010
0000
0100
0000
0010
0000
,
0001
0000
1000
0100
0010
0100
1000
0010
0100
0000
0100
0000
0001
0000
1000
0000
,
0100
0000
1000
0000
0001
0100
0000
0010
1000
0100
0010
0000
0010
0000
0002
00M0
,
0000
0000
0013
0000
0001
0000
0100
0010
1000
0000
1010
0000
0100
0000
0101
0000
,
0010
0000
1000
0000
0100
0010
0001
0010
0100
0000
1000
0000
0010
0000
0100
0000
,
0010
0000
1000
0010
0100
0010
1000
0000
0100
0000
0001
0000
0100
0000
1000
0000
,
0001
0000
0101
0000
0001
0100
0010
1000
0200
0000
M010
0000
230M
0000
0010
0000
,
3M00
0110
M0M0
0010
0100
0001
0010
0100
,
1100
0000
1000
0000
0010
0100
0010
1000
0100
0000
0100
0000
0010
0000
0001
0000
,
0100
0000
0010
0100
0001
0010
0001
0100
0010
0000
1000
0000
0100
0000
0100
0000
,
2001
3100
0100
0010
0M01
0100
0010
1000
,
0MM0
0000
0001
0000
0010
0000
0100
1000
0010
0000
0001
0000
0010
1000
0100
0000
,
0001
0000
0100
0000
0010
0100
1000
0100
0010
0000
0001
0100
0010
0000
1000
0000
,
0100
0000
1000
0010
0100
0010
0001
0010
0100
0000
0001
0000
0010
0000
0100
0000
,
0010
0000
0001
0000
1000
0010
0100
0000
0010
0000
0100
0010
1000
0000
0002
0000
,
M000
0000
0013
0000
0000
00M0
0100
0000
1200
0000
1300
0000
0001
0000
0100
0000
,
0110
0000
2010
0000
00M0
0000
3200
000M
0000
M000
03M2
0000
M000
0000
02M3
0000
,
100M
0000
2300
0000
3M00
0000
2020
0000
0M00
0000
0000
000M
0000
0000
3M30
0000
,
0110
0000
0102
0000
0000
0M00
2003
0000
00M0
000M
3020
0000
0100
M000
0130
0000
,
02M0
0001
03M0
0101
0MM0
0021
000M
0130
,
1000
0M20
M00M
0032
0M00
0023
M000
0130
,
0001
0000
0M02
0000
0000
0003
0011
0000
M000
0000
000M
0M00
0000
000M
M000
0000
,
0200
0000
1000
00M0
0000
M000
0010
0000
000M
0000
0301
0000
0001
0000
01M0
0000
,
1100
0000
0MM0
0000
1010
0000
0M0M
0000
0101
0000
0001
0100
0001
1000
0001
1000
,
0100
0000
0100
0010
0100
0000
0010
0000
0011
0000
0001
0100
0000
0100
0010
0000
,
1000
0000
1000
0000
1000
0000
0001
0000
0011
0000
0010
0001
0000
0010
0100
0000
,
1000
0000
0100
1000
0000
0010
0100
0001
1000
0000
0100
0010
0000
0100
0010
0001
,
0100
0000
0010
0100
0000
0010
1000
0001
1000
0010
0100
0000
0001
0000
0010
0100
,
1000
0000
1000
0000
1000
0000
0010
0000
0010
0000
0100
0001
0000
0001
0010
0000
,
0100
1000
0010
1000
0001
0000
0010
0000
0100
0000
0000
1100
0000
1000
0001
0000
,
0101
0000
0000
0110
0000
0000
0010
1000
0100
0000
0000
0110
0000
0000
0010
0001
,
0200
0000
0310
0000
1020
0000
013M
0000
M102
0000
0013
0000
021M
0000
1300
000M
,
01M0
0000
1000
0000
0100
0000
0000
0010
0000
0000
0001
0000
0000
0000
1MM1
0000
0000
0000
1000
0000
0010
0000
0000
0100
0000
0000
0001
0000
0000
0000
M1M1
0000
,
0000
0000
0001
0000
1000
0000
0000
0100
0000
0000
0010
0000
0000
0000
MM11
0000
0000
0000
0001
0000
0100
0000
0000
0010
0000
0000
0100
0000
0000
0000
1MM1
0000
,
0000
0000
0001
0000
0010
0000
0000
0100
0000
0000
1000
0000
0000
0000
1M1M
0000
0000
0000
0100
0000
0001
0000
0000
0100
0000
0000
0010
0000
0000
0000
1M1M
0000
,
0000
0000
1000
0000
0100
0000
0000
0010
0000
0000
0100
0000
0000
0000
11MM
0000
0000
0000
1000
0000
0001
0000
0000
0100
0000
0000
0010
0000
0000
0000
0000
0000
,
1000
0001
0100
0000
0110
0000
1010
0000
1000
0000
0100
1000
0000
0100
1000
0020
,
M000
0000
0000
0000
0130
0001
0100
0000
0010
0000
0000
0000
2000
0000
0000
0000
3000
0000
0000
0000
0001
0000
0000
0000
0010
0000
0100
0000
0010
0000
0000
0000
,
0001
0000
0000
0000
0100
0010
0100
0000
0001
0000
0000
0000
2000
0000
0000
0000
3000
0000
0000
0000
0001
0000
0100
0000
0000
0000
0010
0000
1000
0000
0100
0000
,
1100
0000
0010
110M
0000
10M0
0101
0000
1M10
0000
M010
0101
0000
0010
1M10
1000
,
1001
0000
0001
0000
1000
0100
0010
0001
0100
0010
1000
0000
0020
0000
0000
0030
,
0100
0000
0000
0000
0001
0000
1000
0000
0001
0000
0010
0000
0100
0000
0000
0000
1000
0000
0000
0000
1000
0000
0000
0000
0020
0000
0000
0000
0000
0030
0000
0000
,
0100
0000
0001
0000
0010
0100
0000
0010
0100
1000
0001
0000
0100
0000
0110
0000
,
0M0M
0000
0010
0000
1000
0000
0100
0010
0100
1000
0010
0000
0100
0000
0101
0000
,
0001
0000
0100
0000
0010
1000
0100
0010
0001
0000
0010
0000
1001
0000
1000
0000
,
0010
0000
0100
0001
0010
0001
1000
0010
0100
0000
0010
0000
1000
0000
0000
0000
,
0001
0000
0001
0000
1000
0100
0010
0100
0010
0001
1000
0000
0020
0000
0100
0000
,
0M00
0100
0M00
0130
0001
0001
1000
1100
,
0M0M
0000
1001
0000
1000
0010
0100
0001
0010
0000
0001
0100
0010
0000
0100
0000
,
0010
0000
1000
0100
1000
0001
0100
0010
0100
0000
0001
0000
0010
0000
0100
0000
,
0100
0000
0010
0001
0100
0000
0010
0000
0100
0000
0010
1000
0200
0000
1000
0000
,
0000
0000
0310
0000
0001
0010
0001
0000
1000
0010
0100
0000
0101
0000
0001
0000
,
0010
0000
0100
0000
1000
0010
0100
0010
0001
0010
1000
0000
1001
0000
0000
0000
,
0001
0000
0100
0010
0100
0001
0010
0100
1000
0000
0001
0000
0200
0000
0000
0000
,
0310
0000
0110
0000
1000
0001
0010
0000
000M
0000
0011
0000
0100
1000
0001
0000
,
M000
0000
0101
0000
M00M
0000
0110
0000
0010
0000
1010
0000
1000
0100
0010
0000
,
2002
0000
0000
3003
;

//---------------dance-single - D. D'Amato----------------
#NOTES:
     dance-single:
     D. D'Amato:
     Challenge:
     10:
     0.716,0.734,0.116,0.169,0.681: // measure 1
1001
0000
0010
0001
0000
0100
0001
0000
1000
0000
0010
1000
0000
0100
1000
0000
,  // measure 2
0010
0000
0100
0001
0000
1000
0100
0000
0010
0000
0100
0000
1000
0001
1000
0000
,  // measure 3
0000
0000
0010
1000
0000
0100
1000
0000
0001
0000
0010
0001
0000
0100
0001
0000
,  // measure 4
0010
0000
0100
1000
0010
1000
0001
1000
0000
0000
0100
0000
0010
0001
1000
0001
,  // measure 5
0100
0000
0001
1000
0010
0000
0100
0000
0000
0001
1000
0010
0000
1000
0100
0010
,  // measure 6
0001
0010
0100
0010
1000
0000
0010
0001
0000
0001
0100
0000
0010
1000
0100
0010
,  // measure 7
0100
0000
1000
0010
0000
1000
0100
0000
0000
0010
0001
0100
0000
0010
1000
0000
,  // measure 8
0100
0010
0100
0001
0100
1000
0010
1000
0000
1000
0100
0000
0010
0001
0100
0010
,  // measure 9
0100
0000
1000
0100
0000
0001
0100
0000
0010
0000
1000
0100
0010
0001
0100
0000
,  // measure 10
1001
0000
0000
0000
0010
0000
0100
1000
0010
0000
1000
0000
0001
0000
0010
0000
,  // measure 11
0000
0000
0001
1000
0100
1000
0010
0000
1000
0000
0001
0000
0010
0000
0000
0000
,  // measure 12
0010
0000
0001
0000
0100
0000
0000
0010
1000
0000
0010
0000
0100
0000
0001
0000
,  // measure 13
0000
0000
0001
0000
1000
0000
0010
1000
0010
0000
0100
0000
0001
0000
0010
0000
,  // measure 14
0100
0000
0000
1000
0001
0000
0010
0001
0010
0000
0100
0000
1000
0000
0000
0000
,  // measure 15
0000
0000
0001
0010
0100
1000
0100
0000
0010
0000
0001
0000
0100
0000
0000
0000
,  // measure 16
0100
0000
0001
0000
0010
0000
0100
1000
0001
0000
0100
0000
0010
0000
0100
0000
,  // measure 17
0000
0000
0100
0000
0000
0000
0100
0001
0010
0000
0100
0000
0010
0000
0100
0000
,  // measure 18
1001
0000
0000
0000
0010
0000
0100
0001
0010
0000
0001
0000
1000
0000
0010
0000
,  // measure 19
0000
0000
1000
0001
0100
0001
0010
0000
0001
0000
1000
0000
0010
0000
0000
0000
,  // measure 20
0010
0000
1000
0000
0100
0000
0000
0010
0001
0000
0010
0000
0100
0000
1000
0000
,  // measure 21
0000
0000
1000
0000
0001
0000
0010
0001
0010
0000
0100
0000
1000
0000
0010
0000
,  // measure 22
0100
0000
0000
0001
1000
0000
0010
1000
0010
0000
0100
0000
0001
0000
0000
0000
,  // measure 23
0000
0000
1000
0010
0100
0001
0100
0000
0010
0000
1000
0000
0100
0000
0000
0000
,  // measure 24
0100
0000
1000
0000
0010
0000
0100
0001
1000
0000
0100
0000
0010
0000
0100
0000
,  // measure 25
0000
0000
0100
0000
0000
0000
0100
1000
0010
0000
0100
0000
0010
0000
0100
0000
,  // measure 26
1002
0010
0000
1000
0000
0010
0000
1003
,  // measure 27
0200
0010
0000
1300
0000
0000
0000
0000
,  // measure 28
0002
0010
0000
1000
0000
0013
0100
1000
,  // measure 29
0002
0010
0000
1000
0000
0013
0000
0001
,  // measure 30
2000
0010
0000
0001
0000
0010
0000
3001
,  // measure 31
0200
0010
0000
0301
0000
0000
0000
0000
,  // measure 32
2000
0010
0000
0001
0000
3010
0100
0001
,  // measure 33
2000
0000
0010
0000
3010
0100
0001
0000
,  // measure 34
0100
0001
0100
0001
0200
0000
0000
0001
0000
0000
0310
0000
0000
1000
0000
0000
,  // measure 35
0100
1000
0100
1000
0200
0000
0000
1000
0000
0000
0310
0000
0000
0001
0000
0000
,  // measure 36
2100
0000
0000
0001
0000
0000
3010
0000
0102
0000
0000
0010
0000
0000
1003
0000
,  // measure 37
0210
0000
0000
1000
0000
0000
0301
0000
1000
0001
1000
0001
1000
0000
0100
0000
,  // measure 38
0010
0001
0010
0001
0020
0000
0000
0001
0000
0000
0130
0000
0000
1000
0000
0000
,  // measure 39
0010
1000
0010
1000
0020
0000
0000
1000
0000
0000
0130
0000
0000
0001
0000
0000
,  // measure 40
2010
0000
0000
0001
0000
0000
3100
0000
0012
0000
0000
0100
0000
0000
1003
0000
,  // measure 41
0100
0001
0100
1000
0010
0100
0001
0010
,  // measure 42
1001
0000
0100
1000
0000
0100
0000
0010
0000
0000
0010
0001
0000
1000
0000
0010
,  // measure 43
0000
0000
0010
0100
0000
0010
0000
1000
0000
0000
1000
0010
0000
0100
0000
0010
,  // measure 44
0000
0000
0100
0001
0000
0100
0000
0010
0000
0000
0010
1000
0000
0001
0000
0010
,  // measure 45
0000
0000
0010
0100
0000
0010
0000
0001
0000
0000
0001
0010
0000
0100
0000
0010
,  // measure 46
0100
0000
1000
0001
0010
0000
0100
0000
0000
1000
0001
0010
0000
0001
0100
0010
,  // measure 47
1000
0010
0100
0010
0001
0000
0010
1000
0000
1000
0100
0000
0010
0001
1000
0000
,  // measure 48
0000
0000
0001
1000
0010
0000
0100
0000
0000
0001
1000
0010
0000
1000
0100
0010
,  // measure 49
0100
0000
0001
0100
0000
1000
0100
0000
0010
0000
0001
0100
0010
1000
0100
0000
,  // measure 50
1001
0000
0000
0000
0010
0000
0100
1000
0010
0000
1000
0000
0001
0000
0010
0000
,  // measure 51
0000
0000
1000
0001
0010
0001
0100
0000
0001
0000
1000
0000
0010
0000
0000
0000
,  // measure 52
0001
0000
1000
0000
0100
0000
0000
0010
1000
0000
0010
0000
0100
0000
0001
0000
,  // measure 53
0000
0000
0100
0000
1000
0000
0100
0001
0100
0000
0010
0000
1000
0000
0001
0000
,  // measure 54
0100
0000
0000
1000
0001
0000
0010
0001
0010
0000
0100
0000
0010
0000
0000
0000
,  // measure 55
0000
0000
1000
0100
0010
0001
0010
0000
0100
0000
1000
0000
0010
0000
0000
0000
,  // measure 56
0100
0000
0001
0000
0010
0000
0100
1000
0001
0000
0100
0000
0010
0000
0100
0000
,  // measure 57
0000
0000
0100
0000
0000
0000
0100
1000
0010
0000
0100
0000
0010
0000
0100
0000
,  // measure 58
1001
0000
0000
0000
0010
0000
0100
0001
0010
0000
0001
0000
1000
0000
0010
0000
,  // measure 59
0000
0000
0001
1000
0010
1000
0100
0000
1000
0000
0001
0000
0010
0000
0000
0000
,  // measure 60
1000
0000
0001
0000
0100
0000
0000
0010
0001
0000
0010
0000
0100
0000
1000
0000
,  // measure 61
0000
0000
0100
0000
0001
0000
0100
1000
0100
0000
0010
0000
0001
0000
1000
0000
,  // measure 62
0100
0000
0000
0001
1000
0000
0010
1000
0010
0000
0100
0000
0010
0000
0000
0000
,  // measure 63
0000
0000
0001
0100
0010
1000
0010
0000
0100
0000
0001
0000
0010
0000
0000
0000
,  // measure 64
0010
0000
1000
0000
0100
0000
0010
M000
000M
0000
0010
0000
0100
0000
0010
0000
,  // measure 65
0000
0000
0010
0000
0000
0000
0010
1000
0100
0000
0010
0000
0100
0000
0010
0000
,  // measure 66
2002
0000
0000
0000
,  // measure 67
3003
0000
0000
0000
;
