#TITLE:Tribe Attacker;
#SUBTITLE:;
#ARTIST:CanBlaster;
#TITLETRANSLIT:;
#SUBTITLETRANSLIT:;
#ARTISTTRANSLIT:;
#GENRE:Techno;
#CREDIT:;
#BANNER:Tribe Attacker-bn.png;
#BACKGROUND:Tribe Attacker-bg.png;
#LYRICSPATH:;
#CDTITLE:;
#MUSIC:Tribe Attacker.ogg;
#OFFSET:-0.034;
#SAMPLESTART:19.220;
#SAMPLELENGTH:11.840;
#SELECTABLE:YES;
#BPMS:0.000=150.000;
#STOPS:;
#BGCHANGES:0.230=Tribe Attacker.mpg=1.000=1=0=0=StretchNoLoop==CrossFade==,
99999=-nosongbg-=1.000=0=0=0 // don't automatically add -songbackground-;
#KEYSOUNDS:;

//---------------dance-single - D. D'Amato----------------
#NOTES:
     dance-single:
     D. D'Amato:
     Challenge:
     9:
     0.757,0.738,0.643,0.198,0.704,472.000,68.000,21.000,20.000,0.000,0.000,0.757,0.738,0.643,0.198,0.704,472.000,68.000,21.000,20.000,0.000,0.000: // measure 1
0000
0000
0000
0000
,  // measure 2
0000
0000
0000
0000
,  // measure 3
0000
0000
0000
0000
,  // measure 4
1000
0000
0000
1000
0001
0000
0000
0001
0100
0000
0010
0000
1000
0000
0001
1000
,  // measure 5
0001
0000
0010
0000
0001
0000
0100
0001
0000
0001
0010
0000
0001
0000
0100
0000
,  // measure 6
0010
0000
1000
0000
0100
0000
0010
0100
0000
0100
1000
0000
0100
0010
0100
0000
,  // measure 7
1000
0000
0010
0000
1000
0000
0100
1000
0000
1000
0010
0000
1000
0000
0100
0000
,  // measure 8
0010
0001
0010
0000
0001
0100
0000
0100
0010
0000
0100
0000
0010
0100
0010
1000
,  // measure 9
0001
0000
0010
0000
0001
0100
0000
0100
0010
1000
0010
0000
1000
0000
0100
0000
,  // measure 10
1000
0000
0010
0000
1000
0100
0000
0100
0010
0001
0010
0000
0001
0000
0100
0000
,  // measure 11
0010
1000
0010
0001
0010
1000
0010
0001
,  // measure 12
0010
0000
0000
0100
0000
0000
0010
0000
0000
0100
0000
0000
0010
0000
0100
0000
0010
0000
0100
0000
0010
0000
0100
0000
,  // measure 13
0010
0000
1000
0000
0010
0000
1000
0000
0100
0000
0000
0110
0000
0000
0010
0000
,  // measure 14
0002
0000
0000
0000
0103
0000
0000
0000
0101
0000
0000
0011
0000
0000
1010
0000
,  // measure 15
0010
0000
0001
0000
0010
0000
0001
0000
0100
0000
0000
0110
0000
0000
0010
0000
,  // measure 16
2000
0000
0000
0000
3100
0000
0000
0000
1100
0000
0000
1010
0000
0000
0011
0000
,  // measure 17
0010
0000
1000
0000
0010
0000
1000
0000
0100
0000
0000
0110
0000
0000
0010
0000
,  // measure 18
0002
0000
0000
0000
0103
0000
0000
0000
0101
0000
0000
0011
0000
0000
1010
0000
,  // measure 19
0010
0000
0001
0000
0010
0000
0001
0000
0100
0000
0000
0110
0000
0000
0010
0000
,  // measure 20
2000
0000
0000
0000
3100
0000
0000
0000
1100
0000
0000
1010
0000
0000
0011
0000
,  // measure 21
0020
0000
0000
0000
0000
0000
1030
0000
0000
0200
0000
0000
0000
0000
0000
1300
0000
0000
0001
0000
0100
0000
0001
0000
,  // measure 22
0200
0000
0310
1001
0200
0000
0310
1001
,  // measure 23
0110
0000
0000
M00M
0000
0000
0110
0000
M00M
0000
0MM0
0000
0001
0000
1000
0000
0010
0000
0100
0000
0001
0000
1000
0000
,  // measure 24
0200
0000
0000
1300
0001
0100
0010
1000
0001
0020
0000
0000
,  // measure 25
0130
0000
1000
0000
1100
0000
0100
0000
0010
0000
0000
0110
0000
0000
0100
0000
,  // measure 26
1000
0000
0100
0000
0010
0000
0001
0000
0011
0000
0000
0101
0000
0000
1100
0000
,  // measure 27
0100
0000
0001
0000
0101
0000
0100
0000
0010
0000
0000
0110
0000
0000
0100
0000
,  // measure 28
0001
0000
0100
0000
0010
0000
1000
0000
1010
0000
0000
1100
0000
0000
0101
0000
,  // measure 29
0110
0000
0000
0000
0011
0000
0000
0000
0101
0000
0000
0000
0001
0100
0010
0000
,  // measure 30
0110
0000
0000
0000
1010
0000
0000
0000
1100
0000
0000
0000
1000
0100
0010
0000
,  // measure 31
0110
0000
0000
0000
1100
0000
0000
0000
1010
0000
0000
0000
1000
0010
0100
0000
,  // measure 32
0110
0000
0000
0000
0101
0000
0000
0000
0011
0000
0000
0000
0001
0010
0100
0000
,  // measure 33
0010
0001
0010
0001
0010
0001
0010
0001
0010
0001
0010
0001
,  // measure 34
0010
0100
0010
0100
0010
0100
0010
0100
0010
0100
0010
0100
,  // measure 35
1000
0100
1000
0100
1000
0100
1000
0100
1000
0100
1000
0100
,  // measure 36
0020
0000
0000
0000
0001
0000
0000
0000
0100
0000
0000
0000
0031
0100
0010
0000
,  // measure 37
0110
0000
0100
0000
0001
0000
1000
0100
0000
0010
0000
0001
0100
0000
0010
0000
,  // measure 38
1010
0000
1000
0000
0100
0000
0010
0001
0000
0100
0000
0010
1000
0000
0100
0000
,  // measure 39
0110
0010
0001
0100
0101
0001
1000
0100
,  // measure 40
0110
0000
0000
1001
0M00
00M0
0001
0010
0100
1000
0M00
00M0
,  // measure 41
1001
0000
0010
0000
1000
0000
0010
0100
0010
1000
0000
0001
0100
0000
0010
0000
,  // measure 42
1000
0000
0001
0000
1000
0000
0100
0010
0100
1000
0000
0001
0010
0000
0100
0000
,  // measure 43
1000
0000
0010
0000
0100
0000
0010
0100
0010
0000
0100
0000
0001
0000
0010
0100
,  // measure 44
0010
0000
0100
1000
0100
0000
0010
0001
0010
0100
0000
1000
0001
0000
0100
0010
,  // measure 45
0100
0101
0M01
0101
,  // measure 46
010M
0101
0M01
0101
,  // measure 47
1M01
1100
1M00
1100
,  // measure 48
M100
0000
0000
1M00
0000
0000
M100
0000
0000
10MM
0100
0010
,  // measure 49
1001
0000
0100
0000
0011
0000
0100
0000
0010
0000
0000
1010
0000
0000
1000
0000
,  // measure 50
0200
0000
0000
0000
0010
0000
0000
0000
2300
0000
0000
0001
0000
0000
3010
0000
,  // measure 51
1001
0000
0100
0000
1010
0000
0100
0000
0010
0000
0000
0011
0000
0000
0001
0000
,  // measure 52
0200
0000
0000
0000
0010
0000
0000
0000
0302
0000
0000
1000
0000
0000
0013
0000
,  // measure 53
1100
0000
0001
0000
0110
0000
1000
0000
0100
0000
0000
1100
0000
0000
1000
0000
,  // measure 54
0020
0000
0000
0000
0100
0000
0000
0000
2030
0000
0000
0001
0000
0000
3010
0000
,  // measure 55
0101
0000
1000
0000
0110
0000
0001
0000
0100
0000
0000
0101
0000
0000
0001
0000
,  // measure 56
0020
0000
0000
0000
0100
0000
0000
0000
0032
0000
0000
1000
0000
0000
0013
0000
,  // measure 57
0100
0000
0010
0001
0000
0000
0010
0001
0000
0000
1000
0010
0000
0000
1000
0010
,  // measure 58
0000
0000
0100
0001
0000
0000
0100
0001
0000
0000
1000
0100
0000
0000
1000
0100
,  // measure 59
0000
0000
0010
0001
0000
0000
0000
0000
0000
0000
1000
0010
0000
0000
0100
0001
,  // measure 60
0000
0000
1000
0100
0000
0000
0010
0001
0000
0000
0100
0010
0000
0000
1000
0001
,  // measure 61
0000
0000
0010
0100
0000
0000
0010
0001
0000
0000
0010
0100
0000
0000
1000
0100
,  // measure 62
0000
0000
1000
0001
0000
0000
0010
0001
0000
0000
0010
0100
0000
0000
1000
0100
,  // measure 63
0000
0000
1000
0001
0000
0000
0010
0001
0000
0000
0010
0100
0000
0000
0010
0001
,  // measure 64
0000
0000
0000
0000
0000
0000
0010
0000
0000
0100
0000
0000
1000
0000
0000
0010
0000
0000
0100
0000
0000
0010
0000
0000
0100
0000
0000
0010
0000
0000
0100
0000
0000
0010
0000
0000
1000
0000
0000
0000
0001
0000
0000
0000
1000
0000
0000
0000
,  // measure 65
0001
0000
1000
0000
0001
0000
1000
0000
0000
0020
0000
0000
0000
0000
0000
0000
0000
0000
0200
0000
0000
0000
0000
0000
,  // measure 66
0000
0330
0000
0000
0000
0000
0000
0000
;

//---------------dance-single - D. D'Amato----------------
#NOTES:
     dance-single:
     D. D'Amato:
     Hard:
     8:
     0.618,0.552,0.661,0.217,0.137,365.000,70.000,23.000,0.000,0.000,0.000,0.618,0.552,0.661,0.217,0.137,365.000,70.000,23.000,0.000,0.000,0.000:
0000
0000
0000
0000
,
0000
0000
0000
0000
,
0000
0000
0000
0000
,
1000
0000
0000
0001
1000
0000
0000
0001
1000
0000
0100
0000
0010
0000
0001
0000
,
0100
0010
0100
0010
1000
0010
1000
0010
,
1000
0100
1000
0100
0010
0100
0010
0100
,
1000
0001
1000
0001
0010
0001
0010
0001
,
1000
0010
1000
0010
0100
0010
0100
0001
,
0101
0100
0001
1000
0001
0010
0100
1000
,
1100
0100
1000
0001
1000
0010
0100
0001
,
1001
1000
0100
1000
1001
0001
0100
0001
,
1001
1000
0010
1000
0200
0000
0000
0000
,
0310
0000
0000
0000
1001
0000
0000
0000
0101
0000
0000
0010
0000
0000
1000
0000
,
0100
0000
0000
0000
0011
0000
0000
0000
0100
0000
0000
1000
0000
0000
0001
0000
,
0100
0000
0000
0000
1001
0000
0000
0000
1010
0000
0000
0100
0000
0000
0001
0000
,
0010
0000
0000
0000
1100
0000
0000
0000
0010
0000
0000
0001
0000
0000
1000
0000
,
0010
0000
0000
0000
1001
0000
0000
0000
1100
0000
0000
0010
0000
0000
0001
0000
,
0100
0000
0000
0000
1010
0000
0000
0000
0100
0000
0000
0001
0000
0000
1000
0000
,
0100
0000
0000
0000
1001
0000
0000
0000
0011
0000
0000
0100
0000
0000
1000
0000
,
0010
0000
0000
0000
0101
0000
0000
0000
0010
0000
0000
1000
0000
0000
0001
0000
,
0020
0000
0130
0200
0000
0010
0310
0001
,
0100
0000
0010
0001
0100
0000
0010
0001
,
0101
0000
1100
0000
0010
1000
0100
0000
,
1020
0000
0130
0001
0010
0001
0201
0000
,
0310
0000
0010
0000
2010
0000
0000
0000
0100
0000
0000
0001
0000
0000
3010
0000
,
0100
0000
0000
0000
0101
0000
0000
0000
1020
0000
0000
0100
0000
0000
1030
0000
,
0001
0000
0100
0000
0102
0000
0000
0000
0010
0000
0000
1000
0000
0000
0103
0000
,
0010
0000
0000
0000
1010
0000
0000
0000
0201
0000
0000
0010
0000
0000
0301
0000
,
1001
0000
1001
0000
1001
0100
0001
1000
,
0110
0000
0110
0000
0110
0001
1000
0010
,
0101
0000
0101
0000
0101
0010
1000
0001
,
1010
0000
1010
0000
1010
0001
1000
0100
,
0010
0000
1100
0001
0100
0000
1010
0100
,
0001
0000
0101
1000
0100
0000
0011
0100
,
1000
0000
1100
0010
0001
0000
1010
0100
,
0010
0001
0100
0010
1000
0100
0011
1000
,
0001
0100
0010
0000
0010
0010
1000
0100
,
1100
1000
0100
0000
0100
0100
0010
0001
,
1001
0000
0010
0001
0101
0000
0010
0100
,
0110
0000
0000
1001
0000
0000
0100
0010
0100
0010
0000
0000
,
1001
0001
0010
0100
0010
0010
0001
0100
,
0101
0001
0100
0010
0100
0100
0010
1000
,
1001
0000
0010
1000
1100
0000
0010
0100
,
0110
0000
0000
0000
1001
0000
0000
0010
0000
1000
0000
0001
1000
0000
0100
0000
,
0010
0011
0010
0110
,
0010
0011
0010
0110
,
0100
1100
0100
0110
,
0100
0000
0000
1000
0000
0001
0000
0000
0100
0000
0000
0000
0010
0000
0100
0000
,
0010
0000
0020
0000
1030
0000
2000
0000
3100
0000
0000
1000
0000
0000
0001
0000
,
0201
0000
0000
0000
0010
0000
0000
0000
0301
0000
0000
1000
0000
0000
0100
0000
,
0010
0000
0020
0000
0031
0000
0002
0000
0103
0000
0000
0001
0000
0000
1000
0000
,
1200
0000
0000
0000
0010
0000
0000
0000
1300
0000
0000
0001
0000
0000
0010
0000
,
0100
0000
0200
0000
1300
0000
2000
0000
3010
0000
0000
1000
0000
0000
0001
0000
,
0021
0000
0000
0000
0100
0000
0000
0000
0031
0000
0000
1000
0000
0000
0010
0000
,
0100
0000
0200
0000
0301
0000
0002
0000
0013
0000
0000
0001
0000
0000
1000
0000
,
1020
0000
0000
0000
0100
0000
0000
0000
1030
0000
0000
0001
0000
0000
0100
0000
,
0000
0010
0000
1000
0000
0001
0000
0100
,
0000
1000
0000
0001
0000
0100
0000
0010
,
1000
0001
0000
0100
0000
0001
0000
0010
,
0000
0100
0000
0001
0000
1000
0000
0010
,
0001
1000
0000
0010
0000
0100
0000
0010
,
1000
0001
0000
0010
0000
0100
0000
0010
,
0001
1000
0000
0010
1000
0001
0000
0010
,
0001
0110
1001
0110
,
1000
0002
0000
0000
2000
0000
0000
3003
;

//---------------dance-single - D. D'Amato----------------
#NOTES:
     dance-single:
     D. D'Amato:
     Medium:
     6:
     0.456,0.429,0.425,0.246,0.000,267.000,45.000,26.000,0.000,0.000,0.000,0.456,0.429,0.425,0.246,0.000,267.000,45.000,26.000,0.000,0.000,0.000:
0000
0000
0000
0000
,
0000
0000
0000
0000
,
0000
0000
0000
0000
,
0010
0000
0100
0000
0010
1000
0100
0010
,
0100
0000
0100
1000
0100
0000
0100
0000
,
0010
0000
0010
0001
0010
0000
0010
0000
,
0001
0000
0001
1000
0001
0000
0001
0000
,
1000
0000
1000
0001
1000
0000
1000
0000
,
0100
1000
0001
0000
0010
0100
1000
0000
,
0010
1000
0001
0000
0010
0001
0100
0000
,
0010
1000
0010
0100
0010
1000
0010
0100
,
0010
0010
0020
0000
,
1030
1000
2000
0000
,
3010
1010
0001
0010
,
0001
0001
0002
0000
,
0103
0101
1000
0100
,
1000
1000
2000
0000
,
3100
1100
0001
0100
,
0001
0001
0002
0000
,
0013
0011
1000
0010
,
0200
0000
0000
0000
0320
0000
1000
1000
,
1030
0001
1000
0001
,
1100
0011
0100
0010
,
1001
0010
0100
1001
,
1010
1100
2000
0000
,
3010
1010
0101
0010
,
0011
0101
0002
0000
,
0013
0011
1100
0010
,
0001
0000
0001
0000
0001
0000
0100
0010
,
1000
0000
1000
0000
1000
0000
0100
0010
,
0001
0000
0001
0000
0001
0000
0010
0100
,
1000
0000
1000
0000
1000
0000
0010
0100
,
0001
0000
0010
0100
1000
0000
0100
0010
,
0001
0000
0100
0010
1000
0000
0010
0100
,
0001
0000
0010
0100
1000
0000
0100
0010
,
0001
0000
0100
0010
1000
0010
0100
0001
,
1001
0000
0010
0000
0100
0001
0010
0000
,
1001
0000
0010
0000
0100
1000
0010
0000
,
1001
0100
1001
0010
,
1001
0110
2002
3003
,
0110
0000
0001
0000
1000
0100
0001
0000
,
0110
0000
1000
0000
0001
0100
1000
0000
,
0110
0001
0110
1000
,
0110
0000
1001
0000
0010
1000
0100
0001
,
0010
0010
0010
0010
,
0010
0010
0010
0010
,
0010
0010
0010
0010
,
0020
0000
0000
0000
0000
0000
0130
0100
,
0110
1001
0200
0010
,
0301
1000
0100
0000
1100
0000
0101
0000
,
0110
1001
0020
0100
,
1030
0001
0010
0000
1010
0000
0011
0000
,
0110
1001
0200
0010
,
1300
0001
0100
0000
0101
0000
1100
0000
,
0110
1001
0020
0100
,
0031
1000
0010
0000
0011
0000
1010
0000
,
0000
0200
0000
0000
0000
0320
0000
0000
,
0000
2030
0000
0000
0000
3200
0000
0000
,
0000
0320
0000
0000
0000
0032
0000
0000
,
0000
0203
0000
0000
0000
0320
0000
0000
,
0000
1030
0000
1000
0000
0001
0000
0001
,
0000
1000
0000
1000
0000
0001
0000
0001
,
0000
0100
0000
0100
0000
0100
0000
0100
,
0010
0010
0010
0010
,
0010
0200
0000
0000
0020
0000
0000
0330
;

//---------------dance-single - D. D'Amato----------------
#NOTES:
     dance-single:
     D. D'Amato:
     Easy:
     4:
     0.297,0.398,0.265,0.123,0.000,179.000,28.000,13.000,0.000,0.000,0.000,0.297,0.398,0.265,0.123,0.000,179.000,28.000,13.000,0.000,0.000,0.000:
0000
0000
0000
0000
,
0000
0000
0000
0000
,
0000
0000
0000
0000
,
1000
0100
0001
0100
,
0010
0000
0010
0000
,
0100
0000
0100
0001
,
1000
0000
1000
0000
,
0001
0000
0001
0010
,
1100
0000
0100
0000
,
0011
0000
0010
0000
,
0110
0000
1001
0000
,
0110
1000
0200
0000
,
0310
0010
0001
0000
,
1000
1000
0001
0000
,
0100
0100
0001
0000
,
1000
1000
0001
0100
,
0010
0010
1000
0000
,
0001
0001
1000
0000
,
0100
0100
1000
0000
,
0001
0001
1000
0100
,
0020
0000
0000
0031
,
0100
1000
0100
0001
,
1010
0011
0200
0000
,
0310
0020
0000
0130
,
1001
1001
0100
0000
,
0010
0000
1000
0010
,
1001
1001
0100
0000
,
0010
0000
0001
0010
,
0100
0100
0100
1000
,
0100
0100
0100
0001
,
0100
0100
0100
1000
,
0100
0100
0100
0001
,
0100
1000
0100
1000
,
0100
0001
0100
0001
,
0010
1000
0010
1000
,
0020
0000
0000
0031
,
0200
0000
0000
0300
,
1010
0200
0000
0300
,
1010
0100
1010
0100
,
1010
0100
2002
3003
,
0200
0000
0000
0300
,
0011
0200
0000
0300
,
0011
0100
0011
0100
,
0011
0100
1000
0001
,
0100
0000
0100
0000
,
0100
0000
0100
0000
,
0100
0000
0100
0000
,
0200
0000
0000
0310
,
0110
0110
1000
0001
,
1000
0000
0010
0100
,
1001
1001
0010
0100
,
0010
0000
0001
1000
,
0110
0110
0001
1000
,
0001
0000
0100
0010
,
1001
1001
0100
0010
,
0100
0000
1000
0001
,
0000
0010
0000
0100
,
0000
1000
0000
0001
,
0000
0100
0000
0010
,
0000
1000
0000
0001
,
0000
0100
0000
0010
,
0000
0100
0000
0010
,
0000
0100
0000
0100
,
0010
0010
0010
0010
,
0200
0000
0000
0000
0000
0000
0000
0300
;

//---------------dance-double - M.Emirzian----------------
#NOTES:
     dance-double:
     M.Emirzian:
     Easy:
     4:
     0.273,0.303,0.151,0.066,0.000,179.000,16.000,7.000,0.000,0.000,0.000,0.273,0.303,0.151,0.066,0.000,179.000,16.000,7.000,0.000,0.000,0.000:
00000000
00000000
00000000
00000000
,
00000000
00000000
00000000
00000000
,
00000000
00000000
00000000
00000000
,
00000000
00000000
00000000
00000000
,
00010000
10000000
00010000
00000000
,
00001000
00000000
00010000
00000000
,
00000001
00001000
00000001
00000000
,
00001000
00000000
00010000
00000000
,
01001000
00000000
00100000
00000000
,
11000000
00000000
00001000
00000000
,
00011000
00000000
00010100
00000000
,
00010000
00001000
00010000
00001000
,
00010000
00000100
00001000
00000000
,
00000010
00001000
00000100
00000000
,
00000001
00000100
00001000
00000000
,
00010000
00100000
10000000
00000000
,
00100000
10000000
01000000
00000000
,
00010000
01000000
10000000
00000000
,
01000000
00100000
00001000
00000000
,
00010000
00000100
00001000
00000000
,
00000020
00000000
00000230
00000000
,
00000000
00000000
00000301
00000001
,
00000001
00000000
00002000
00000000
,
00023000
00000000
00031000
00000000
,
00010000
00001000
00010000
00000000
,
00100000
10000000
01000000
00000000
,
10000000
00100000
00010000
00000000
,
00001000
01000000
00001000
00000000
,
00010000
00001000
00010000
00011000
,
00010000
00000100
00001000
00001100
,
00000100
00000010
00000001
00000011
,
00000010
00000100
00001000
00001100
,
00001000
00000100
00010000
00010100
,
00010000
00001000
01000000
01001000
,
01000000
01000000
01000000
01000000
,
00100000
00100000
00100000
00100000
,
10010000
00000000
00000000
01000000
,
01001000
00000000
00000000
00000010
,
00010010
00000000
00000001
00001000
,
00000001
00001000
00000100
00000010
,
00000100
00000010
00000100
00001000
,
00001100
00000000
00000000
00010000
,
01001000
00000000
00010000
00001000
,
01000000
00001000
00100000
00001000
,
01000000
00100000
01000000
00100000
,
01000000
00100000
10000000
00010000
,
10000000
00010000
10000000
00010000
,
20000000
00000000
00000000
30000000
,
10000000
01000000
10000000
00000000
,
00100000
10000000
01000000
00000000
,
00100000
00001000
00010000
00000000
,
00010000
00001000
00000100
00000000
,
00000001
00001000
00000010
00000000
,
00001000
00000100
00000010
00000000
,
00000100
00010000
00001000
00000000
,
00000100
00010000
00001000
00000000
,
00001000
00000000
00010000
00000000
,
00001000
00000000
10000000
00010000
,
10000000
00000000
00001000
00000000
,
00010000
00000000
00000001
00001000
,
00000001
00000000
00001000
00000000
,
00010000
00000000
10000000
00010000
,
10000000
00000000
00001000
00000000
,
00010000
00000100
00001000
00000010
,
00002002
00003003
00000000
00000000
00000000
00000000
00000000
00000000
;

//---------------dance-double - M.Emirzian----------------
#NOTES:
     dance-double:
     M.Emirzian:
     Medium:
     6:
     0.504,0.485,0.633,0.047,0.000,301.000,67.000,5.000,0.000,0.000,0.000,0.504,0.485,0.633,0.047,0.000,301.000,67.000,5.000,0.000,0.000,0.000:
00000000
00000000
00000000
00000000
,
00000000
00000000
00000000
00000000
,
00000000
00000000
00000000
00000000
,
00000000
00000000
00000000
00000000
,
00010000
10000000
00000000
00010000
10000000
00010000
00000000
00100000
,
01000000
00100000
00000000
00001000
00010000
00001000
00000000
00000100
,
00000010
00000100
00000000
00000001
00001000
00000001
00000000
00001000
,
00000001
00001000
00000000
00000010
00000100
00000010
00000000
00010000
,
00001000
00010000
00000000
00100000
01000000
00100000
00000000
10000000
,
00010000
10000000
00000000
00010000
10000000
00010000
00000000
10000000
,
01000000
00100000
00110000
01000000
,
01010000
01001000
00011000
00010100
,
00010000
00001000
00010000
00001000
00010000
00000000
00001001
00000000
,
00000001
00001000
00000001
00001000
00000001
00000000
00011000
00000000
,
10000000
00010000
10000000
00010000
10000000
00000000
00011000
00000000
,
00000001
00001000
00000001
00001000
00000001
00000100
00000010
00000000
,
00010000
00001000
00010000
00001000
00010000
00000000
10010000
00000000
,
10000000
00010000
10000000
00010000
10000000
00000000
00011000
00000000
,
00000001
00001000
00000001
00001000
00000001
00000000
00011000
00000000
,
10000000
00010000
10000000
00010000
10000000
01000000
00100000
00000000
,
00020000
00000000
00000000
02000000
00000000
00030000
03100000
00000000
,
10000000
00000000
01000000
00000000
00100000
00010000
01000000
00000000
,
01010000
01001000
00001000
00010000
,
00010010
00001010
00000100
00000010
,
00000001
00001000
00000010
00000100
00000001
00000000
00001010
00000000
,
00010000
00001000
01000000
00001000
00010000
00000000
01001000
00000000
,
00010000
01000000
00100000
10000000
00010000
00000000
00110000
00000000
,
00001000
00100000
00001000
00100000
00001000
00010000
00000100
00000000
,
00001000
00000100
00000010
00001001
,
00000001
00000100
00000010
00010010
,
00010000
00001000
01000000
01001000
,
01000000
00100000
10000000
10100000
,
10000000
01000000
00100000
00110000
,
00100000
00101000
00001000
00011000
,
00010000
00010100
00000100
00001100
,
00001000
00000010
00000100
00001001
,
00000001
00000100
00001000
00000000
00000100
00000000
00000001
00000000
,
00000100
00001000
00010000
00000000
00100000
00000000
10000000
00000000
,
00100000
01000000
00010000
00000000
10000000
00000000
01000000
00000000
,
00010000
00001000
00011000
00010100
,
00010000
00001000
00000010
00000000
00000001
00000000
00000010
00000000
,
00001000
00000010
00000001
00000000
00000100
00000000
00001000
00000000
,
00010000
00100000
10000000
00000000
01000000
00000000
00100000
00000000
,
00010000
10000000
00010000
01000000
,
01010000
01010000
01010000
01010000
,
01001000
01001000
01001000
01001000
,
00011000
00011000
00010100
00010100
,
00000200
00000000
00000000
00000300
,
00001000
00000100
00001000
00000100
00001000
00000000
00010010
00000000
,
00010000
00001000
00010000
00001000
00010000
00000000
01001000
00000000
,
00010000
00100000
00010000
00100000
00010000
00000000
01001000
00000000
,
00010000
10000000
00010000
10000000
00010000
00000000
00011000
00000000
,
00000001
00001000
00000001
00001000
00000001
00000000
00001100
00000000
,
00000100
00010000
00000100
00010000
00000100
00000000
00011000
00000000
,
00001000
01000000
00001000
01000000
00001000
00000000
01010000
00000000
,
00100000
10000000
00100000
10000000
00100000
01000000
00010000
00000000
,
10000000
01000000
00000000
00100000
00000000
00110000
00000000
00110000
,
00000000
00100000
00000000
00001000
00000000
00011000
00000000
00011000
,
00000000
00010000
00000000
00000100
00000000
00010100
00000000
00010100
,
00000000
00000010
00000000
00001000
00000000
00001100
00000000
00001100
,
00000000
00000001
00000000
00001000
00000000
00011000
00000000
00011000
,
00000000
00010000
00000000
10000000
00000000
10010000
00000000
10010000
,
00000000
10000000
00000000
01000000
00000000
00110000
00000000
00110000
,
00100000
00101000
00101000
00101000
,
00202000
00303000
00000000
00000000
00000000
00000000
00000000
00000000
;

//---------------dance-double - M.Emirzian----------------
#NOTES:
     dance-double:
     M.Emirzian:
     Hard:
     8:
     0.545,0.485,0.491,0.028,0.128,349.000,52.000,3.000,15.000,0.000,0.000,0.545,0.485,0.491,0.028,0.128,349.000,52.000,3.000,15.000,0.000,0.000:
00000000
00000000
00000000
00000000
,
00000000
00000000
00000000
00000000
,
01000000
00001000
00010000
00000100
,
00010000
00000000
00000000
00010000
00001000
00000000
00000000
00001000
01000000
00000000
00001000
00000000
00010000
00000000
00000100
00000000
,
00001000
00000100
00000000
01000000
00010000
010M0000
00000000
00000100
,
00001000
0000M100
00000000
01000000
00010000
010M0000
00000000
00001000
,
00010000
000M1000
00000000
00000010
00001000
0000M010
00000000
00100000
,
00010000
001M0000
00000000
00000010
00001000
0000M010
00000000
00010000
,
00001000
0001M000
00000000
10000000
00010000
100M0000
00000000
00001000
,
00010000
000M1000
00000000
00000001
00001000
0000M001
00000000
00001000
,
00000100
00000010
00001001
00000010
,
00010000
00000000
00000000
00001000
00000000
00000000
00010000
00001000
00010000
00001000
00000000
00000000
,
00010000
00000000
00000100
00000000
00010000
00000000
00001000
00000000
00100000
00000000
00000000
00010000
00000000
00000000
10000000
00000000
,
01000000
00100000
00010000
00000000
00001000
00000100
00000010
00000000
,
00000001
00000000
00001000
00000000
00000001
00000000
00001000
00000000
00000010
00000000
00000000
00010000
00000000
00000000
00000100
00000000
,
00010000
00001000
01000000
00001000
00010000
00000010
00010000
00000000
,
00001000
00000000
01000000
00000000
00001000
00000000
00010000
00000000
00000010
00000000
00000000
00010000
00000000
00000000
00001000
00000000
,
01000000
00010000
10000000
00000000
00001000
00010000
00000100
00000000
,
00001000
00000000
00000001
00000000
00001000
00000000
00000001
00000000
00001000
00000000
00000000
00000100
00000000
00000000
00010000
00000000
,
00001000
01000000
00001000
00010000
00000010
00001000
00000010
00000000
,
00010010
00000000
00000000
01001000
00000000
00100000
10000000
00100000
,
10000000
00000000
01001000
00000000
01000000
00001000
00010000
00000000
,
00010100
00000000
00010100
00000000
00010000
00000100
00001000
00000000
,
00010100
00000000
00010000
00000100
00001000
00000100
00000010
00000000
,
00000100
00000000
00001000
00000000
00000001
00000000
00001000
00000000
00000001
00000000
00000000
00000100
00000000
00000000
00000010
00000000
,
00001000
00000100
00001000
00000000
00010000
01000000
00100000
00000000
,
10000000
00000000
00010000
00000000
10000000
00000000
00010000
00000000
00100000
00000000
00000000
00001000
00000000
00000000
00010000
00000000
,
00000100
00001000
00000100
00010000
00001000
00100000
00010000
00000000
,
01000000
0M000000
00100000
00000000
01000000
00000000
00011000
00000000
,
00000100
00000M00
00000010
00000000
00000100
00000000
00011000
00000000
,
00000001
0000000M
00001000
00000000
00000001
00000000
00011000
00000000
,
10000000
M0000000
00010000
00000000
10000000
00000000
00011000
00000000
,
00000100
00010100
01000000
01010000
,
00000100
00001100
00000010
00001010
,
00100000
00110000
00000010
00001010
,
00000100
00011000
00100000
10010000
,
00100000
01000000
00100000
01000000
00010000
01000000
00100000
00000000
,
00000010
00000100
00000010
00000100
00001000
00000100
00000010
00000000
,
00100000
01000000
00100000
01000000
00010000
10000000
01000000
00000000
,
00110000
00000000
00000000
00001100
00000000
00000000
00010000
00001000
00010000
00001000
00000000
00000000
,
00000010
00000001
00000010
00000100
00000010
00000001
00000010
00000000
,
00100000
00010000
00100000
01000000
00100000
01000000
10000000
00000000
,
00000100
00001000
00000001
00001000
00000100
00000010
00000001
00000000
,
00001100
00000000
00000000
00000000
00110000
00000000
00000000
00001000
00000000
00010000
00000000
00001000
00010000
00000000
00000000
00000000
,
01001000
00010010
01010000
00001100
,
00011000
01100000
00011000
00000110
,
00000001
00000000
00000000
00000001
00000100
00000000
00000000
00000100
00000010
00000000
00000000
00000010
00010000
00000000
00000000
00010000
,
00200000
00000000
00000000
10300000
,
10100000
00000000
00000000
00000000
01001000
00000000
00000000
00000000
00010000
00000000
00000000
00001000
00000000
00000000
01000000
00000000
,
00001000
00010000
00000010
00001000
00000010
00010000
00001000
00000000
,
01001000
00000000
00000000
00000000
00010100
00000000
00000000
00000000
00000001
00000000
00000000
00001000
00000000
00000000
00000001
00000000
,
00001000
00000100
00010000
00001000
00100000
00010000
00100000
00000000
,
00110000
00000000
00000000
00000000
00010100
00000000
00000000
00000000
00010000
00000000
00000000
00000100
00000000
00000000
00001000
00000000
,
00000010
00010000
00000010
00010000
00001000
01000000
00001000
00000000
,
01001000
00000000
00000000
00000000
10010000
00000000
00000000
00000000
10000000
00000000
00000000
01000000
00000000
00000000
00100000
00000000
,
00010000
00100000
00001000
00010000
00000100
00001000
00000100
00000000
,
00000000
00010000
00000000
00001000
00000000
01010000
00000000
00001100
,
00000000
00010000
00000000
00001000
00000000
01100000
00000000
01001000
,
00000000
00100000
00000000
00001000
00000000
00110000
00000000
00001100
,
00000000
00000010
00000000
00000100
00000000
00001001
00000000
00011000
,
00000000
00000100
00000000
01000000
00000000
01010000
00000000
00001100
,
00000000
00010000
00000000
00001000
00000000
00110000
00000000
00001010
,
00000000
00010000
00000000
00001000
00000000
01000000
00000000
00010000
,
01000000
00100000
01000000
00100000
00000000
00000000
00010000
00001000
00010000
00001000
00000000
00000000
,
00020200
00030300
00000000
00000000
00000000
00000000
00000000
00000000
;

//---------------dance-double - M.Emirzian----------------
#NOTES:
     dance-double:
     M.Emirzian:
     Challenge:
     9:
     0.690,0.636,0.576,0.208,0.539,428.000,61.000,22.000,0.000,13.000,0.000,0.690,0.636,0.576,0.208,0.539,428.000,61.000,22.000,0.000,13.000,0.000:
00000000
00000000
00000000
00000000
,
00000000
00000000
00000000
00000000
,
01000000
00000100
00010000
00001000
,
00100000
00000000
00000000
00100000
00001000
00000000
00000000
00001000
00010000
00000000
00000100
00000000
01000000
00000000
00001000
00010000
,
00001000
00000000
01000000
00000000
00000000
00000000
00100000
01000000
00100000
01000000
00100000
00000000
00000000
00000000
01000000
00000000
,
00000100
00000000
00010000
00000000
00000000
00000000
00000010
00000100
00000010
00000100
00000010
00000000
00000000
00000000
00010000
00000000
,
00000010
00000000
00100000
00000000
00000000
00000000
01000000
00100000
01000000
00100000
01000000
00000000
00000000
00000000
01000000
00000000
,
00100000
00000000
00000010
00000000
00000000
00000000
00000100
00000010
00000100
00000010
00000100
00000000
00000000
00000000
00000001
00000000
,
00010000
00000000
00001000
00000000
00000000
00000000
10000000
00010000
10000000
00010000
10000000
00000000
00000000
00000000
00001000
00000000
,
00010000
00000000
00000001
00000000
00000000
00000000
00001000
00000001
00001000
00000001
00001000
00000000
00000000
00000000
00000010
00000000
,
00010010
00011000
01001000
00011000
,
00001000
00010000
00001000
01000000
00001000
00010000
00001000
00010000
00000010
00010000
00001000
00010000
,
00001000
00000000
00010000
00000000
00001000
00000000
01000000
00000000
00010000
00000000
10000000
00010000
00000000
10000000
01000000
00000000
,
00100000
00000000
00000000
00100000
00010000
00000000
00000000
00010000
00100000
00000000
00001000
00000000
00010000
00000000
00000100
00000000
,
01000000
00000000
00001000
00000000
00010000
00000000
00000010
00000000
00100000
00000000
00001000
00010000
00000000
00001000
01000000
00000000
,
00001000
00000000
00010000
00000000
00000100
00000000
00001000
00000000
00000010
00000100
00000010
00000100
00000010
00000000
00001000
00000000
,
00000001
00000000
00001000
00000000
00000100
00000000
00010000
00000000
00001000
00000000
01000000
00001000
00000000
00010000
00000010
00000000
,
00010000
00000000
00000000
00010000
00001000
00000000
00000000
00001000
00010000
00000000
00001000
00000000
01000000
00000000
00010000
00000000
,
00100000
00000000
00001000
00000000
10000000
00000000
00001000
00000000
01000000
00000000
00010000
01000000
00000000
00100000
01000000
00000000
,
00010000
00000000
10000000
00000000
00001000
00000000
00010000
00000000
00001000
00010000
00001000
00010000
00001000
00000000
00010000
00000000
,
00000100
00000000
00000000
00100000
00000000
00001000
00010000
00000100
,
01000000
00000000
00011000
00000000
00100010
00000000
00001000
00010000
,
00011000
00000000
00000110
00000000
00000001
00010000
00001000
00000000
,
01100000
00000000
10000000
00001000
00010000
00000001
00001000
00000000
,
00010010
00000000
00000000
00000000
00001100
00000000
00000000
00000000
00000010
00000000
00010000
00001000
00000000
00100000
00001000
00000000
,
00010000
00000000
00000000
00010000
00001000
00000000
00000000
00001000
01000000
00000000
00001000
00000000
00010000
00000000
00000000
00000000
,
00101000
00000000
00000000
00000000
00010100
00000000
00000000
00000000
00010000
00000000
00001000
01000000
00000000
00010000
00100000
00000000
,
00010000
00000000
01000000
00000000
00100000
00000000
10000000
00000000
01000000
00100000
01000000
00100000
01000000
00000000
00000000
00000000
,
10010000
00000000
00000000
00000000
21000000
00000000
00000000
00000000
02000000
00000000
00000000
00000000
00010000
33000000
00000000
00000000
,
11000000
00000000
00000000
00000000
00210000
00000000
00000000
00000000
00002000
00000000
00000000
00000000
00010000
00303000
00000000
00000000
,
00101000
00000000
00000000
00000000
00021000
00000000
00000000
00000000
00000200
00000000
00000000
00000000
00001000
00030300
00000000
00000000
,
00010100
00000000
00000000
00000000
00002100
00000000
00000000
00000000
00000002
00000000
00000000
00000000
00000010
00003003
00000000
00000000
,
00002200
00013300
00020200
00031300
,
00022000
00133000
02002000
00200000
,
03023000
01000000
00001000
01331000
,
02000000
00020000
13130000
00000000
,
01000000
00000000
00010000
01000000
00000000
00100000
00000000
10000000
00000000
00001000
00000000
00010000
00000100
00000000
00010000
00000000
,
00001000
00000000
00100000
00000010
00000000
00010000
00000000
00001000
00000000
01000000
00000000
00000100
00010000
00000000
00001000
00000000
,
00010000
00000000
00000001
00010000
00000000
00000001
00000000
00001000
00000000
00000100
00000000
00000010
00000001
00000000
00001000
00000000
,
00001010
00000000
00000000
00000101
00000000
00000000
00000010
00010000
00001000
01000000
00000000
00000000
,
00001000
00000000
00010000
00000010
00000000
00100000
00000000
00001000
00000000
00010000
00000000
00000100
01000000
00000000
00001000
00000000
,
00010000
00000000
00001000
10000000
00000000
00010000
00000000
10000000
00000000
00001000
00000000
00100000
00001000
00000000
00010000
00000000
,
00000010
00000000
00010000
00001000
00000000
01000000
00000000
00000100
00010000
00000000
00001000
00100000
00000000
00000010
00000000
00010000
,
00001000
00000000
00010000
00000001
00000000
00010000
00000000
00001000
00000000
10000000
00000000
00010000
01000000
00000000
00000000
00000000
,
10100000
00101000
10100000
01001000
,
11000000
01001000
00010010
00000011
,
00010010
00000101
00010100
00000101
,
00011000
00000000
00000000
00000000
,
00100010
00000000
00000000
00000000
00011000
00000000
00000000
00000000
00010000
00000000
00001000
01000000
00000000
00001000
00010000
00000000
,
00001000
00000000
00000000
00001000
01000000
00000000
00000000
01000000
00100000
00000000
10000000
00000000
01000000
00000000
00000000
00000000
,
00110000
00000000
00000000
00000000
00100010
00000000
00000000
00000000
00010000
00000000
00001000
00010000
00000000
00000010
00001000
00000000
,
00000100
00000000
00000010
00000000
00000001
00000000
00000100
00000000
00000010
00000100
00000010
00000100
00000010
00000000
00000000
00000000
,
00010100
00000000
00000000
00000000
01000100
00000000
00000000
00000000
00010000
00000000
00001000
01000000
00000000
00001000
00010000
00000000
,
00000010
00000000
00000000
00000010
00010000
00000000
00000000
00010000
00001000
00000000
00100000
00000000
00010000
00000000
00000000
00000000
,
01010000
00000000
00000000
00000000
01000100
00000000
00000000
00000000
00010000
00000000
00001000
00010000
00000000
00001000
01000000
00000000
,
00001000
00000000
00010000
00000000
00000010
00000000
00001000
00000000
00000100
00000010
00000100
00000010
00000100
00000000
00001000
00000000
,
00000000
00000000
00000101
00000000
00000000
00000000
00010010
00000000
00000000
00000000
00010000
00000000
00000000
00010000
00001000
00000000
,
00010000
00001000
00000000
01001000
00000000
01010000
00000000
00101000
,
00000000
00010000
10000000
00001000
00010000
00000001
00001000
00000001
,
00000000
00000001
00010000
00001000
10000000
00010000
00000000
11000000
,
00000000
00000000
00101000
00000000
00000000
00000000
01010000
00000000
00000000
00000000
01000000
00000100
01000000
00000100
01000000
00000000
,
00000000
00000000
00001000
00000000
00000000
00000000
00100000
00000000
00000000
00000000
00000010
00100000
00000010
00100000
00000010
00000000
,
00000000
00011000
00000000
00100010
00000000
00011000
00000000
00010000
,
00001000
00010000
00001000
00100000
00001000
00010000
00001000
00010000
00000100
00010000
00001000
02000000
,
00002000
03003000
00000000
00000000
00000000
00000000
00000000
00000000
;

//---------------dance-single - J. Frederick----------------
#NOTES:
     dance-single:
     J. Frederick:
     Beginner:
     1:
     0.126,0.363,0.161,0.000,0.000,76.000,17.000,0.000,0.000,0.000,0.000,0.126,0.363,0.161,0.000,0.000,76.000,17.000,0.000,0.000,0.000,0.000:
0000
0000
0000
0000
,
0000
0000
0000
0000
,
0000
0000
0000
0000
,
0000
0000
0000
0000
,
1000
0000
0000
0000
,
0001
0000
0000
0000
,
0010
0000
0000
0000
,
0100
0000
0000
0000
,
1000
0000
0000
0000
,
0001
0000
0000
0000
,
0100
0000
0010
0000
,
0100
0000
0000
0000
,
0110
0000
0000
0000
,
1000
0000
0000
0000
,
0001
0000
0000
0000
,
0010
0000
0000
0000
,
0100
0000
0000
0000
,
1000
0000
0000
0000
,
0001
0000
0000
0000
,
0100
0000
0000
0000
,
0010
0000
0000
0000
,
0100
0000
0100
0000
,
0100
0000
0000
0000
,
1000
0000
0000
0000
,
0001
0000
0000
0000
,
1000
0000
0000
0000
,
0010
0000
0000
0000
,
0100
0000
0000
0000
,
1001
1001
1001
0000
,
1001
1001
1001
0000
,
1001
1001
1001
0000
,
1001
1001
1001
0000
,
0001
0000
1000
0000
,
0001
0000
1000
0000
,
0001
0000
1000
0000
,
1001
0000
0000
0000
,
0010
0000
0000
0000
,
0100
0000
0000
0000
,
1000
0000
0000
0000
,
0001
0000
0000
0000
,
0100
0000
0000
0000
,
0010
0000
0000
0000
,
1000
0000
0001
0000
,
1001
0000
0000
0000
,
0010
0000
0000
0000
,
0010
0000
0000
0000
,
0100
0000
0000
0000
,
0100
0000
0000
0000
,
1001
0000
0000
0000
,
0100
0000
0000
0000
,
0010
0000
0000
0000
,
1000
0000
0000
0000
,
0001
0000
0000
0000
,
0100
0000
0000
0000
,
0010
0000
0000
0000
,
1000
0000
0000
0000
,
0001
0000
0000
0000
,
0100
0000
0000
0000
,
0010
0000
0000
0000
,
1000
0000
0000
0000
,
0001
0000
0000
0000
,
0100
0000
0000
0000
,
1000
0000
0001
0000
,
1001
0000
0000
0000
,
0100
0000
0000
0000
;

//---------------dance-single - mDaWg----------------
#NOTES:
     dance-single:
     M. Calfin:
     Edit:
     10:
     -1.000,-1.000,-1.000,-1.000,-1.000:
0000
0000
0000
0000
,
0000
0000
0000
0000
,
0000
0000
0000
0000
,
1000
0000
0000
1000
0001
0000
0000
0001
0100
0000
0010
0000
1000
0000
0001
1000
,
0001
0000
0010
0000
0001
0000
0100
0001
0000
0001
0010
0000
0001
0000
0100
0000
,
0010
0000
1000
0000
0100
0000
0010
0100
0000
0100
1000
0000
0100
0010
0100
0000
,
1000
0000
0010
0000
1000
0000
0100
1000
0000
1000
0010
0000
1000
0000
0100
0000
,
0010
0001
0010
0000
0001
0100
0000
0100
0010
0000
0100
0000
0010
0100
0010
1000
,
0001
0000
0010
0000
0001
0100
0000
0100
0010
1000
0010
0000
1000
0000
0100
0000
,
1000
0000
0010
0000
1000
0100
0000
0100
0010
0001
0010
0000
0001
0000
0100
0000
,
0010
1000
0010
0001
0010
1000
0010
0001
,
0010
0100
0001
0010
0100
1000
0100
0010
0100
1000
0100
1000
,
0010
0000
1000
0000
0010
0000
1000
0000
0100
0000
0100
0010
0000
0010
0001
0000
,
0100
0000
0010
0000
0100
0000
0001
0000
0011
0000
0001
0010
0000
0100
0010
0000
,
0010
0000
0001
0000
0010
0000
0001
0000
0100
0000
0010
1000
0000
1000
0010
0000
,
2000
0000
0000
0000
3100
0000
0000
0000
1100
0000
0100
0010
0000
0010
0001
0000
,
0100
0000
0010
0000
1000
0000
0100
0000
0100
0000
0010
0001
0000
0001
0010
0000
,
0002
0000
0000
0000
0103
0000
0000
0000
0101
0000
0001
0010
0000
0010
0100
0000
,
0010
0000
0001
0000
0010
0000
0001
0000
0100
0000
0100
0010
0000
1000
0010
0000
,
2000
0000
0000
0000
3100
0000
0000
0000
1100
0000
0100
0010
0000
0010
0001
0000
,
0020
0000
0000
0000
0000
0000
0032
0000
0000
0203
0000
0000
0000
0000
0000
0310
0000
0000
1000
0000
0001
0000
0100
0000
,
0020
0030
0010
1001
0200
0000
0310
1001
,
0220
0000
0000
M33M
0000
0000
0220
0000
M33M
0000
0MM0
0000
0001
0000
1000
0000
0010
0000
0100
0000
0001
0000
1000
0000
,
0200
0000
0000
1300
0001
0100
0010
1000
0001
0020
0000
0000
,
0130
0000
1000
0000
1100
0000
0100
0000
0010
0000
0001
0100
0000
0010
1000
0000
,
1000
0000
0100
0000
0010
0000
0001
0000
0011
0000
0001
0100
0000
0010
1000
0000
,
0110
0000
0010
0000
0110
0000
0100
0000
0010
0000
0100
0001
0000
0010
0001
0000
,
0100
0000
0100
0000
0010
0000
1000
0000
1010
0000
1000
0100
0000
0010
0001
0000
,
0110
0000
0000
0000
0011
0000
0000
0000
0101
0000
0000
0000
0001
0100
0010
0000
,
0110
0000
0000
0000
1010
0000
0000
0000
1100
0000
0000
0000
1000
0100
0010
0000
,
0110
0000
0000
0000
1100
0000
0000
0000
1010
0000
0000
0000
1000
0010
0100
0000
,
0110
0000
0000
0000
0101
0000
0000
0000
0011
0000
0000
0000
0001
0010
0100
0000
,
0010
0001
0010
0100
1000
0100
0010
0001
0100
0010
1000
0001
,
0100
0010
1000
0001
0010
0100
1000
0100
0010
0001
0010
0100
,
1000
0100
0010
0001
0100
0010
1000
0100
0010
0100
1000
0100
,
0020
0000
0000
0000
0001
0000
0000
0000
0100
0000
0000
0000
0031
0100
0010
0000
,
0110
0000
0100
0000
0001
0000
1000
0100
0000
0010
0000
0001
0100
0000
0010
0000
,
1010
0000
1000
0000
0100
0000
0010
0001
0000
0100
0000
0010
1000
0000
0100
0000
,
0110
0010
0001
0100
0101
0001
1000
0100
,
0110
0000
0000
1001
0M00
00M0
0001
0010
0100
1000
0M00
00M0
,
1001
0000
0010
0000
1000
0000
0010
0100
0010
1000
0000
0001
0100
0000
0010
0000
,
1000
0000
0001
0000
1000
0000
0100
0010
0100
1000
0000
0001
0010
0000
0100
0000
,
1000
0000
0010
0000
0100
0000
0010
0100
0010
0000
0100
0000
0001
0000
0010
0100
,
0010
0000
0100
1000
0100
0000
0010
0001
0010
0100
0000
1000
0001
0000
0100
0010
,
0100
0101
0M01
0101
,
010M
0101
0M01
0101
,
1M01
1100
1M00
1100
,
M100
0000
0000
1M00
0000
0000
M100
0000
0000
10MM
0100
0010
,
1001
0000
0100
0000
0011
0000
0100
0000
0010
0000
1000
0010
0000
1000
0100
0000
,
2000
0000
0000
0000
3100
0000
0000
0000
0010
0000
0001
0010
0000
0010
0001
0000
,
0110
0000
0010
0000
1010
0000
0100
0000
0010
0000
0010
1000
0000
1000
0100
0000
,
0200
0000
0000
0000
0310
0000
0000
0000
0001
0000
0100
0010
0000
0010
0100
0000
,
0101
0000
0001
0000
0110
0000
1000
0000
0100
0000
1000
0100
0000
0010
0001
0000
,
0200
0000
0000
0000
0310
0000
0000
0000
0010
0000
1000
0100
0000
0010
0001
0000
,
0101
0000
1000
0000
0110
0000
0001
0000
0100
0000
0010
1000
0000
1000
0001
0000
,
0020
0000
0000
0000
0130
0000
0000
0000
1000
0000
0100
0010
0000
0010
0100
0000
,
0010
0000
0001
0010
0100
1000
0100
0010
0001
0000
0001
0100
0010
1000
0001
0100
,
0010
0000
1000
0100
0010
0001
0010
0100
1000
0000
1000
0100
0010
0100
1000
0100
,
0010
0000
0010
0001
0010
0100
0010
0001
0010
0000
0001
0100
0001
0010
0001
0100
,
0001
0000
0010
0100
0010
0100
1000
0100
0010
0000
0001
0100
0010
0100
0010
1000
,
0100
0000
0010
0100
1000
0100
0010
0100
1000
0000
0100
0010
0100
0010
0001
0010
,
0001
0000
0010
0100
0010
0100
1000
0100
1000
0000
0100
0010
0100
0010
0001
0010
,
0001
0000
0001
0010
0100
1000
0100
0010
0001
0000
0001
0010
0100
0010
0100
1000
,
0100
0010
0001
0100
0010
1000
0100
0010
0001
1000
0001
1000
,
0001
0020
0000
0000
0200
0000
0000
0330
;
