#TITLE:The Promised Land;
#SUBTITLE:;
#ARTIST:Lagoona;
#TITLETRANSLIT:Promised Land;
#SUBTITLETRANSLIT:;
#ARTISTTRANSLIT:;
#GENRE:;
#CREDIT:;
#BANNER:The Promised Land-bn.png;
#BACKGROUND:The Promised Land-bg.png;
#LYRICSPATH:;
#CDTITLE:;
#MUSIC:The Promised Land.ogg;
#OFFSET:-0.865;
#SAMPLESTART:39.260;
#SAMPLELENGTH:25.580;
#SELECTABLE:YES;
#BPMS:0.000=149.976;
#STOPS:;
#BGCHANGES:-1.721=The Promised Land.mpg=1.000=1=0=0=StretchNoLoop==CrossFade==,
99999=-nosongbg-=1.000=0=0=0 // don't automatically add -songbackground-;
#KEYSOUNDS:;

//---------------dance-single - D. D'Amato----------------
#NOTES:
     dance-single:
     D. D'Amato:
     Hard:
     8:
     0.599,0.608,0.385,0.054,0.054,420.000,43.000,6.000,0.000,0.000,0.000,0.599,0.608,0.385,0.054,0.054,420.000,43.000,6.000,0.000,0.000,0.000:
0000
0000
0000
0000
,
0000
0000
0000
0000
,
0000
0000
0000
0000
,
0000
0000
0000
0000
,
0001
0100
0010
0000
1000
0000
0100
0000
,
1000
0100
0010
0000
0001
0000
0100
0000
,
0010
1000
0100
0000
0010
0001
0100
0000
,
1010
0000
0110
0000
0101
0000
0000
0001
,
0100
0001
0100
0010
1010
1000
0010
0010
,
1000
0010
1000
0100
0110
0010
0010
0100
,
1000
0100
1000
0001
0101
0100
0100
0001
,
1000
0001
1000
0100
1100
1100
0100
1000
,
0100
1000
0100
0010
0011
0001
0010
0010
,
0001
0010
0001
0100
0110
0010
0010
0100
,
0001
0100
0001
1000
1100
0100
1000
1000
,
0001
1000
0001
0100
0101
0101
0100
0001
,
0010
0001
0010
0100
1100
1000
1100
0100
,
1000
0100
1000
0010
0110
0100
0110
0010
,
1000
0010
1000
0001
0011
0010
0011
0001
,
1000
0001
1000
0010
1010
1010
0010
1000
,
0010
1000
0010
0100
0101
0001
0101
0100
,
0001
0100
0001
0010
0110
0100
0110
0010
,
0001
0010
0001
1000
1010
0010
1010
1000
,
0001
1000
0001
0010
0011
0011
0010
0001
,
0100
0000
1010
0000
0001
0100
0010
1000
,
0001
0000
0100
0000
0010
0000
1000
0100
,
0010
0000
0100
0000
1000
0001
0100
0000
,
0001
1000
0100
0000
0010
0000
0001
0010
,
0100
0000
0011
0000
1000
0100
0010
0001
,
1000
0000
0100
0000
0010
0000
0001
0100
,
0010
0000
0100
0000
0001
1000
0100
0000
,
1000
0001
0100
0000
0010
0000
1000
0010
,
0100
0001
0010
1001
,
0100
0000
1001
0000
0010
0100
1000
0001
,
0100
0000
0010
0000
1000
0100
0010
0000
,
0001
0100
0010
1000
0001
0010
0100
1000
,
0001
0100
0000
0001
0000
0011
0000
0100
,
0000
1100
0000
0010
0000
0110
0000
0100
,
0002
0000
0000
0000
0000
0000
0000
2003
0000
0000
0000
0000
0000
0000
3200
0000
,
0000
0000
0000
0300
,
1001
0000
0001
0100
0001
0000
1000
0100
,
1000
0000
0010
0100
0010
0000
0100
0001
,
0100
0000
0010
1000
0010
0000
1000
0001
,
1000
0000
0001
0010
0001
0000
1000
0010
,
1000
0000
0001
0100
0001
0000
1000
0100
,
1000
0000
0010
0100
0010
0000
0100
0001
,
0100
0000
0010
1000
0010
0000
1000
0001
,
1000
0000
0001
0010
0001
0000
1000
0010
,
1000
0001
1000
0100
0010
0001
0100
0100
,
0001
1000
0001
0010
0100
1000
0010
0010
,
1000
0001
1000
0010
0100
0001
0010
0010
,
0001
1000
0001
0100
0010
1000
0100
0100
,
0010
0001
0010
0100
1000
0100
0010
0010
,
0100
1000
0010
0100
0001
0100
0010
0010
,
0100
0001
0100
0010
1000
0010
0100
0100
,
0010
1000
0100
0010
0001
0010
0100
0100
,
1000
0000
1000
0000
1000
0000
0010
0000
0100
0000
0000
0100
0001
0000
0000
0001
,
1000
0000
0000
1000
0100
0000
0000
0100
0010
0000
0001
0000
1000
0000
0010
0000
,
0100
0000
0001
0010
0100
1000
0010
1000
,
0001
0000
0001
0000
0001
0000
0010
0000
0100
0000
0000
0100
1000
0000
0000
1000
,
0010
0010
0010
0100
0101
0001
1001
1000
,
0100
0000
0100
0000
0100
0000
0010
0000
0001
0000
0000
0001
0100
0000
0000
0100
,
0010
0010
0010
1000
1100
0100
0110
0010
,
0100
0000
0100
0000
0100
0000
1000
0000
0001
0000
0000
0001
0100
0000
0000
0100
,
0010
0010
0010
1000
0100
0000
0110
0000
,
0010
0010
0010
0001
0100
0010
1000
0100
,
2000
0000
0000
0000
0000
0000
0000
3002
0000
0000
0000
0000
0000
0000
0203
0000
,
0000
0000
0000
0300
,
1001
0000
0000
0000
;

//---------------dance-single - D. D'Amato----------------
#NOTES:
     dance-single:
     D. D'Amato:
     Challenge:
     10:
     0.722,0.669,0.036,0.036,0.488,557.000,4.000,4.000,0.000,0.000,0.000,0.722,0.669,0.036,0.036,0.488,557.000,4.000,4.000,0.000,0.000,0.000: // measure 1
0000
0000
0000
0000
,  // measure 2
0000
0000
0000
0000
,  // measure 3
0000
0000
0000
0000
,  // measure 4
0000
0000
0000
0000
,  // measure 5
1000
0100
0010
0000
0001
0100
0010
0000
,  // measure 6
1000
0010
0100
0001
0010
0100
1000
0000
,  // measure 7
0001
0010
0100
0000
1000
0010
0100
0000
,  // measure 8
1010
0000
0000
0000
0011
0000
0000
0000
0120
0000
0000
0000
0000
0000
1030
0001
,  // measure 9
1000
0000
1000
0001
0010
0000
0100
0000
0010
0000
0010
0000
0001
0000
0001
1000
,  // measure 10
0001
0000
0001
1000
0010
0000
0100
0000
0010
0000
0010
0000
1000
0000
1000
0100
,  // measure 11
1000
0000
1000
0100
0010
0000
0001
0000
1000
0000
1000
0000
0001
0000
0001
0100
,  // measure 12
0001
0000
0001
0100
0010
0000
1000
0000
0001
0000
0001
0000
0010
0000
0010
0100
,  // measure 13
0010
0000
0010
0100
1000
0000
0001
0000
0100
0000
0100
0000
0010
0000
0010
0100
,  // measure 14
0010
0000
0010
0100
0001
0000
1000
0000
0100
0000
0100
0000
0010
0000
0010
0001
,  // measure 15
0010
0000
0010
0001
0100
0000
0010
0000
1000
0000
1000
0000
0010
0000
0010
1000
,  // measure 16
0010
0000
0010
1000
0100
0000
0010
0000
0001
0000
0001
0000
1000
0000
1000
0001
,  // measure 17
1000
0001
1000
0001
0100
0000
0010
0000
0100
0000
0100
0000
0001
0000
0001
1000
,  // measure 18
0001
1000
0001
1000
0100
0000
0010
0000
0100
0000
0100
0000
1000
0000
1000
0010
,  // measure 19
1000
0010
1000
0010
0100
0000
0001
0000
1000
0000
1000
0000
0001
0000
0001
0010
,  // measure 20
0001
0010
0001
0010
0100
0000
1000
0000
0001
0000
0001
0000
0100
0000
0100
0010
,  // measure 21
0100
0010
0100
0010
1000
0000
0001
0000
0010
0000
0010
0000
0100
0000
0100
0010
,  // measure 22
0100
0010
0100
0010
0001
0000
1000
0000
0010
0000
0010
0000
0100
0000
0100
0001
,  // measure 23
0100
0001
0100
0001
0010
0000
0100
0000
1000
0000
1000
0000
0100
0000
0100
1000
,  // measure 24
0100
1000
0100
1000
0010
0000
0100
0000
0001
0000
0001
0000
1000
0000
1000
0000
,  // measure 25
0100
0000
1000
0000
0001
0000
0000
0001
0100
0000
0001
0000
1000
0000
0000
1000
,  // measure 26
0010
0000
0100
0000
0001
0000
0000
0001
0010
0000
0100
0000
1000
0000
0000
1000
,  // measure 27
0001
0000
0100
0000
0010
0000
1000
0000
0010
0000
0100
0000
0001
0000
0000
0001
,  // measure 28
1000
0100
0010
0001
0010
0100
1000
0100
,  // measure 29
0010
0000
0100
0000
1000
0000
0000
1000
0100
0000
1000
0000
0001
0000
0000
0001
,  // measure 30
0010
0000
0100
0000
1000
0000
0000
1000
0010
0000
0100
0000
0001
0000
0000
0001
,  // measure 31
1000
0000
0100
0000
0010
0000
0001
0000
0010
0000
0100
0000
1000
0000
0000
1000
,  // measure 32
0001
0100
0010
1000
0010
0100
0001
0100
,  // measure 33
0010
0000
0100
0000
0001
0000
0000
0001
0100
0000
0010
0000
1000
0000
0100
0000
,  // measure 34
0010
0000
0100
0000
1000
0000
0000
1000
0100
0000
0010
0000
0001
0000
0100
0000
,  // measure 35
0010
0000
0100
0000
0001
0000
0000
0001
0010
0000
0001
0000
1000
0000
0000
1000
,  // measure 36
0010
1000
0001
0010
0100
1000
0001
0100
,  // measure 37
0020
1000
0000
0230
0000
0001
0000
0010
,  // measure 38
0000
0302
0000
1000
0000
0010
0000
0103
,  // measure 39
0010
0100
0000
0100
0010
0100
0000
0100
,  // measure 40
0010
0100
0001
0010
0100
1000
0010
0100
,  // measure 41
0001
0000
0000
0001
0010
0000
0000
0010
0100
0000
0000
0100
1000
0000
0000
1000
,  // measure 42
0001
0000
0000
0001
0100
0000
0000
0100
0010
0000
0000
0010
1000
0000
0000
1000
,  // measure 43
0001
0000
0000
0001
0010
0000
0000
0010
0001
0000
0000
0001
1000
0000
0000
1000
,  // measure 44
0010
0000
0000
0010
0100
0000
0000
0100
0001
0000
0000
0001
1000
0000
0000
1000
,  // measure 45
0100
0000
0000
0100
1000
0000
0000
1000
0001
0000
0000
0001
0100
0000
0000
0100
,  // measure 46
0010
0000
0000
0010
1000
0000
0000
1000
0001
0000
0000
0001
0100
0000
0000
0100
,  // measure 47
0001
0000
0000
0001
1000
0000
0000
1000
0010
0000
0000
0010
1000
0000
0000
1000
,  // measure 48
0100
0000
0000
0100
0010
0000
0000
0010
0100
0000
0000
0100
1000
0000
0001
0000
,  // measure 49
1000
0010
0100
0001
0100
0010
1000
0100
,  // measure 50
0010
0100
1000
0001
0010
0001
0100
0010
,  // measure 51
1000
0100
0010
0001
0100
0010
0100
0001
,  // measure 52
1000
0010
1000
0100
0010
0100
1000
0010
,  // measure 53
0100
0001
0100
0010
1000
0001
0010
0100
,  // measure 54
1000
0010
1000
0001
0100
0010
1000
0001
,  // measure 55
0010
0001
1000
0010
0100
0010
1000
0001
,  // measure 56
0100
0000
0010
0000
1000
0000
0100
0000
0010
0000
0001
0000
0100
0000
0001
1000
,  // measure 57
0001
0100
0001
1000
0010
0000
0100
0000
0010
0000
0100
0000
0010
0000
1000
0001
,  // measure 58
1000
0100
1000
0001
0010
0000
0100
0000
0010
0000
0100
0000
0010
0000
0001
0100
,  // measure 59
0001
1000
0001
0100
0010
0000
1000
0000
0001
0000
1000
0000
0001
0000
1000
0100
,  // measure 60
1000
0001
1000
0100
0010
0000
0001
0000
1000
0000
0001
0000
1000
0000
0010
0100
,  // measure 61
0010
1000
0010
0100
0001
0000
1000
0000
0100
0000
1000
0000
0100
0000
0010
0100
,  // measure 62
0010
0001
0010
0100
1000
0000
0001
0000
0100
0000
0001
0000
0100
0000
0010
1000
,  // measure 63
0010
0100
0010
1000
0100
0000
0010
0000
0001
0000
0010
0000
0001
0000
0010
0001
,  // measure 64
0010
0100
0010
0001
0100
0000
0010
0000
1000
0000
0010
0000
1000
0000
0001
0000
,  // measure 65
1000
0100
1000
0100
1000
1000
0001
0010
,  // measure 66
0001
0100
0001
0100
0001
0001
1000
0010
,  // measure 67
0100
0010
0000
0010
0100
0010
0000
0010
,  // measure 68
0100
0010
1000
0100
0010
0001
0100
0010
,  // measure 69
1001
0000
0000
0000
;

//---------------dance-single - D. D'Amato----------------
#NOTES:
     dance-single:
     D. D'Amato:
     Medium:
     6:
     0.433,0.456,0.188,0.224,0.000,293.000,21.000,25.000,0.000,0.000,0.000,0.433,0.456,0.188,0.224,0.000,293.000,21.000,25.000,0.000,0.000,0.000:
0000
0000
0000
0000
,
0000
0000
0000
0000
,
0000
0000
0000
0000
,
0000
0000
0000
0000
,
0000
0010
0000
1000
0000
0010
0000
0100
,
0000
0001
0000
0100
0000
0010
0000
1000
,
0000
0100
0000
0010
0000
0001
0000
0100
,
0010
1010
0100
0101
,
2001
0000
0010
0000
3100
0100
0100
0000
,
0021
0000
0100
0000
0031
0001
0001
0000
,
0210
0000
0001
0000
0310
0010
0010
0000
,
1001
0000
0001
1000
0010
0100
0010
1000
,
1002
0000
0010
0000
0103
0100
0100
0000
,
1020
0000
0100
0000
1030
1000
1000
0000
,
0210
0000
1000
0000
0310
0010
0010
0000
,
1001
0000
1000
0001
0010
0100
0010
0001
,
2001
0000
0100
0000
3010
0010
0010
0000
,
0201
0000
0010
0000
0301
0001
0001
0000
,
0120
0000
0001
0000
0130
0100
0100
0000
,
1001
0000
0001
1000
0100
0010
0100
1000
,
1002
0000
0100
0000
0013
0010
0010
0000
,
1200
0000
0010
0000
1300
1000
1000
0000
,
0120
0000
1000
0000
0130
0100
0100
0000
,
1001
0000
1000
0001
0100
0010
0100
0001
,
1001
0100
0010
1000
,
0100
0010
0001
0100
,
0010
1000
0010
0000
0010
1000
0010
0000
,
0010
1000
0010
0000
0010
1000
0001
0000
,
0010
0001
1000
0100
,
0010
0001
0010
0100
,
0010
0001
0010
0000
0010
0001
0010
0000
,
0010
0001
0010
0000
0010
0001
1000
0010
,
0000
0100
0000
0010
0000
1000
0000
0001
,
0000
0010
0000
0100
0000
0010
0000
0001
,
0000
1000
0000
0010
0000
0100
0000
0001
,
0000
1000
0000
0010
0000
0100
0001
1000
,
0100
0010
0000
0001
0000
0100
0000
0010
,
0000
1000
0000
0001
0000
0010
0000
0100
,
0020
0000
0000
0000
,
0000
0000
0000
0030
,
0100
0000
1000
0000
,
0001
0000
0100
0000
,
0010
0000
1000
0100
,
0010
0000
0001
1000
,
0010
0000
0100
0001
,
0010
0100
1000
0001
,
0100
0010
1000
0001
,
0010
0100
1000
0001
,
0100
0000
0010
0010
1000
0000
0100
0000
,
0010
0000
0001
0001
1000
0000
0100
0000
,
0010
0000
0100
0100
1000
0001
0100
0000
,
0010
0000
1000
1000
0001
0100
0010
1000
,
0100
0000
0010
0010
0001
0000
0100
0000
,
0010
0000
1000
1000
0001
0000
0100
0000
,
0010
0000
0100
0100
0001
1000
0100
0000
,
0010
0000
0001
0001
1000
0100
0010
0001
,
0100
0100
0200
0000
0010
0000
0010
0000
,
0010
0010
0320
0000
1000
0000
1000
0000
,
1000
1000
2030
0000
0001
0000
0001
0000
,
0001
0001
3002
0000
0010
0000
0010
0000
,
0010
0010
0023
0000
0100
0000
0100
0000
,
0100
0100
0230
0000
1000
0000
1000
0000
,
1000
1000
2300
0000
0010
0000
0010
0000
,
0010
0010
3020
0000
0100
0000
0100
0000
,
0130
0100
0200
0000
0000
0000
0310
0000
,
1000
1000
2000
0000
0000
0000
3100
0000
,
2002
0000
0000
0000
,
0000
0000
0000
3003
,
0110
0000
0000
0000
;

//---------------dance-single - D. D'Amato----------------
#NOTES:
     dance-single:
     D. D'Amato:
     Easy:
     3:
     0.231,0.304,0.170,0.036,0.000,158.000,19.000,4.000,0.000,0.000,0.000,0.231,0.304,0.170,0.036,0.000,158.000,19.000,4.000,0.000,0.000,0.000:
0000
0000
0000
0000
,
0000
0000
0000
0000
,
0000
0000
0000
0000
,
0000
0000
0000
0000
,
0100
0000
0000
0000
,
0001
0000
0000
0000
,
1000
0000
0000
0000
,
0100
0000
0100
0000
,
0100
0100
1000
1000
,
0001
0001
0100
0100
,
0010
0010
1000
1000
,
0001
0001
0010
0010
,
0100
0100
0010
0010
,
0001
0001
1000
1000
,
0010
0010
0100
0100
,
0001
0001
1000
1000
,
0100
1000
0100
1000
,
0001
0100
0001
0100
,
0010
1000
0010
1000
,
0001
0010
0001
0010
,
0001
1000
0001
1000
,
0010
0100
0010
0100
,
0001
1000
0001
1000
,
0100
0010
0100
0010
,
1001
0000
0000
0000
,
0010
0000
0000
0000
,
1000
0000
0001
0000
,
1000
0000
0100
0010
,
0100
0000
0000
0000
,
0010
0000
0000
0000
,
0001
0000
1000
0000
,
0001
0000
0100
0010
,
0100
0001
0000
1000
,
0000
0001
0000
0010
,
0000
0100
0000
0010
,
0000
0100
1000
0001
,
2000
0000
0000
0000
,
3002
0000
0000
0000
,
0203
0000
0000
0000
,
0000
0000
0000
0300
,
1001
0000
0000
0000
,
0000
0000
0000
0000
,
0010
0000
0000
0000
,
0000
0000
0000
0000
,
0010
0000
0000
0000
,
0000
0000
0000
0000
,
0010
0000
0000
0000
,
0000
0000
0000
0000
,
0010
0010
0010
0000
,
1000
1000
1000
0000
,
0100
0100
0100
0000
,
0001
0001
0001
0000
,
0010
0010
0010
0000
,
0001
0001
0001
0000
,
0100
0100
0100
0000
,
1000
1000
1000
0000
,
0010
0000
0101
0101
,
1000
0000
0011
0011
,
0100
0000
1010
1010
,
0001
0000
1100
1100
,
0010
0000
0101
0101
,
1000
0000
0011
0011
,
0100
0000
1010
1010
,
0001
0000
1100
1100
,
0010
0001
0100
0100
,
0010
1000
0100
0100
,
0020
0000
0000
0000
,
0000
0000
0000
0030
,
1001
0000
0000
0000
;

//---------------dance-single - S. Bauer----------------
#NOTES:
     dance-single:
     S. Bauer:
     Beginner:
     1:
     0.129,0.152,0.009,0.036,0.000: // measure 1
0000
0000
0000
0000
,  // measure 2
0000
0000
0000
0000
,  // measure 3
0000
0000
0000
0000
,  // measure 4
0000
0000
0000
0000
,  // measure 5
0100
0000
0000
0000
,  // measure 6
0001
0000
0000
0000
,  // measure 7
1000
0000
0000
0000
,  // measure 8
0100
0000
0000
0000
,  // measure 9
0100
0000
1000
0000
,  // measure 10
0001
0000
0000
0000
,  // measure 11
0010
0000
1000
0000
,  // measure 12
0001
0000
0000
0000
,  // measure 13
0100
0000
0000
0000
,  // measure 14
0001
0000
0000
0000
,  // measure 15
0010
0000
0010
0000
,  // measure 16
0001
0000
1000
0000
,  // measure 17
0100
0000
0100
0000
,  // measure 18
0001
0000
0001
0000
,  // measure 19
0010
0000
0010
0000
,  // measure 20
0100
0000
0100
0000
,  // measure 21
1000
0000
1000
0000
,  // measure 22
0010
0000
0010
0000
,  // measure 23
0001
0000
0001
0000
,  // measure 24
0100
0000
0100
0000
,  // measure 25
0100
0000
0000
0000
,  // measure 26
1000
0000
0000
0000
,  // measure 27
1000
0000
0100
0000
,  // measure 28
0100
0000
0010
0000
,  // measure 29
0010
0000
0000
0000
,  // measure 30
0010
0000
0000
0000
,  // measure 31
0001
0000
1000
0000
,  // measure 32
0001
0000
0100
0000
,  // measure 33
0100
0000
0000
1000
,  // measure 34
0000
0001
0000
0010
,  // measure 35
0000
0100
0000
0010
,  // measure 36
0000
0100
0000
0000
,  // measure 37
0200
0000
0000
0000
,  // measure 38
0320
0000
0000
0000
,  // measure 39
0230
0000
0000
0000
,  // measure 40
0000
0000
0000
0300
,  // measure 41
0100
0000
0000
0000
,  // measure 42
0000
0000
0000
0000
,  // measure 43
0010
0000
0000
0000
,  // measure 44
0000
0000
0000
0000
,  // measure 45
0010
0000
0000
0000
,  // measure 46
0000
0000
0000
0000
,  // measure 47
0010
0000
0000
0000
,  // measure 48
0000
0000
0000
0000
,  // measure 49
0010
0000
0010
0000
,  // measure 50
1000
0000
1000
0000
,  // measure 51
0100
0000
0100
0000
,  // measure 52
0001
0000
0001
0000
,  // measure 53
0010
0000
0010
0000
,  // measure 54
0001
0000
0001
0000
,  // measure 55
0100
0000
0100
0000
,  // measure 56
1000
0000
1000
0000
,  // measure 57
0100
0000
0001
0000
,  // measure 58
1000
0000
0001
0000
,  // measure 59
0100
0000
1000
0000
,  // measure 60
0001
0000
1000
0000
,  // measure 61
0010
0000
0001
0000
,  // measure 62
1000
0000
0001
0000
,  // measure 63
0100
0000
0010
0000
,  // measure 64
0001
0000
1000
0000
,  // measure 65
0010
0000
0100
0000
,  // measure 66
0010
0000
0100
0000
,  // measure 67
0020
0000
0000
0000
,  // measure 68
0000
0000
0000
0030
,  // measure 69
0110
0000
0000
0000
;

//---------------dance-double - D. Bernardone----------------
#NOTES:
     dance-double:
     D. Bernardone:
     Easy:
     2:
     0.216,0.274,0.072,0.394,0.000,117.000,8.000,44.000,0.000,0.000,0.000: // measure 1
00000000
00000000
00000000
00000000
,  // measure 2
00000000
00000000
00000000
00000000
,  // measure 3
00000000
00000000
00000000
00000000
,  // measure 4
00000000
00000000
00000000
00000000
,  // measure 5
10000000
00010000
00000000
01000000
,  // measure 6
00000000
01000000
00000000
00001000
,  // measure 7
00000000
00001000
00000000
00010000
,  // measure 8
00011000
00011000
00011000
00000000
,  // measure 9
00002000
00000000
00003000
00000000
,  // measure 10
02000000
00000000
03000000
00000000
,  // measure 11
00200000
00000000
00300000
00000000
,  // measure 12
20000000
30000000
02000000
03000000
,  // measure 13
00200000
00000000
00300000
00000000
,  // measure 14
00002000
00000000
00003000
00000000
,  // measure 15
00020000
00000000
00030000
00000000
,  // measure 16
00000020
00000030
00000200
00000300
,  // measure 17
00000001
00000001
00000000
00000000
,  // measure 18
00000010
00000010
00000000
00000000
,  // measure 19
00000100
00000100
00000000
00000000
,  // measure 20
00010000
00010000
00000000
00000000
,  // measure 21
00000010
00000010
00000000
00000000
,  // measure 22
00000100
00000100
00000000
00000000
,  // measure 23
00001000
00001000
00000000
00000000
,  // measure 24
00010000
00010000
00000000
00000000
,  // measure 25
00011000
00000000
00001000
00000000
,  // measure 26
01000000
00000000
00010000
00000000
,  // measure 27
00200000
00000000
00300000
00000000
,  // measure 28
20020000
00000000
30030000
00000000
,  // measure 29
02000000
00000000
13000000
00000000
,  // measure 30
00100000
00000000
00010000
00000000
,  // measure 31
00002000
00000000
00003000
00000000
,  // measure 32
00000220
00000000
00000330
00000000
,  // measure 33
00000002
00000000
00000103
00000000
,  // measure 34
00001000
00000000
00010000
00000000
,  // measure 35
00002000
00000000
00003000
00000000
,  // measure 36
00000000
00000000
00100000
00100000
,  // measure 37
00020000
00000000
00000000
00000000
,  // measure 38
00030000
00000000
10000000
10000000
,  // measure 39
02000000
00000000
00000000
00000000
,  // measure 40
00000000
00000000
00000000
03000000
,  // measure 41
20020000
00000000
00000000
00000000
,  // measure 42
00000000
00000000
30030000
00000000
,  // measure 43
10000000
00000000
01000000
00000000
,  // measure 44
00010000
00000000
00001000
00000000
,  // measure 45
00000100
00000000
00000001
00000000
,  // measure 46
00000010
00000000
00001000
00000000
,  // measure 47
00010000
00000000
00100000
00000000
,  // measure 48
20000000
00000000
00000000
00000000
,  // measure 49
31000000
02000000
03000000
00000000
,  // measure 50
00100000
00200000
00300000
00000000
,  // measure 51
00001000
00002000
00003000
00000000
,  // measure 52
00010000
00020000
00030000
00000010
,  // measure 53
00001000
00002000
00003000
00000000
,  // measure 54
00000100
00000200
00000300
00000000
,  // measure 55
00000010
00000020
00000030
00000000
,  // measure 56
00000001
00000002
00000003
00000000
,  // measure 57
00000100
00000200
00000300
00000001
,  // measure 58
00001000
00000200
00000300
00000000
,  // measure 59
00000100
00020000
00030000
00000000
,  // measure 60
00001000
00020000
00030000
00000000
,  // measure 61
00002000
01000000
01003000
00000000
,  // measure 62
00020000
01000000
01030000
00000000
,  // measure 63
00200000
01000000
01300000
00000000
,  // measure 64
00020000
10000000
10030000
00010000
,  // measure 65
00200000
00000000
00000000
00000000
,  // measure 66
00300000
00000000
00010000
00010000
,  // measure 67
02000000
00000000
03000000
00000000
,  // measure 68
00002000
00000000
00020000
00033000
,  // measure 69
00011000
00000000
00000000
00000000
;

//---------------dance-double - D. Bernardone----------------
#NOTES:
     dance-double:
     D. Bernardone:
     Challenge:
     9:
     0.633,0.669,0.089,0.045,0.268,480.000,10.000,5.000,0.000,0.000,0.000:
00000000
00000000
00000000
00000000
,
00000000
00000000
00000000
00000000
,
00000000
00000000
00000000
00000000
,
00000000
00000000
00000000
00000000
,
10000000
00000000
00000000
00010000
01000000
00000000
00000000
00000000
00001000
00000000
00000000
00010000
00000100
00000000
00000000
00000000
,
00001000
00000000
00000000
00000001
00000100
00000000
00000000
00000000
00000010
00000000
00000000
00010000
00001000
00000000
00000000
00000000
,
01000000
00100000
10000000
01000000
00010000
00001000
00010000
00000010
,
00001010
00000000
00001100
00000000
00010100
00000000
00010010
00000010
,
00000010
00000100
00000001
00000010
00000100
00001000
00000010
00000100
,
00000100
00000100
00001000
00010000
01000000
00010000
00001000
00100000
,
00100000
00100000
01000000
00010000
00001000
00010000
00000100
00000010
,
00000010
00000010
00001000
00010000
01000000
00100000
01000000
10000000
,
10000000
10000000
00100000
00010000
00001000
00010000
00100000
01000000
,
01000000
01000000
00001000
00010000
00000100
00000010
00000001
00000100
,
00000100
00000100
00001000
00010000
00001000
00000010
00000001
00000100
,
00000100
00000000
00000100
00000000
00000010
00000000
00010000
00000000
00000100
00000000
00001000
00000000
00000010
00000000
00000100
00000001
,
00000100
00000001
00000100
00000001
00001000
00000000
00000100
00000000
00010000
00000000
00001000
00000000
00100000
00000000
00010000
10000000
,
00010000
10000000
00010000
10000000
01000000
00000000
00100000
00000000
00010000
00000000
01000000
00000000
10000000
00000000
01000000
00010000
,
01000000
00010000
01000000
00010000
00100000
00000000
00001000
00000000
00010000
00000000
00000100
00000000
00000010
00000000
00000001
00001000
,
00000001
00001000
00000001
00001000
00000010
00000000
00000100
00000000
00001000
00000000
00010000
00000000
00001000
00000000
00100000
00010000
,
00100000
00010000
00100000
00010000
10000000
00000000
00100000
00000000
01000000
00000000
00100000
00000000
10000000
00000000
01000000
00100000
,
01000000
00100000
01000000
00100000
00010000
00000000
01000000
00000000
00001000
00000000
00010000
00000000
00000100
00000000
00001000
00000010
,
00001000
00000010
00001000
00000010
00000100
00000000
00001000
00000000
00010000
00000000
01000000
00000000
10000000
00000000
00100000
01000000
,
00100000
01000000
00100000
01000000
00001000
00000000
00010000
00000000
00000100
00000000
00000000
00010000
00001000
00000000
00010000
00000000
,
00011000
00000010
00000100
00000001
,
00000010
00001000
00010000
00001000
,
01000000
00010000
00100000
00010000
,
10000000
01000000
00010000
00000000
00001000
00000100
00001000
00010000
,
00010000
00100000
10000000
01000000
,
00010000
00000100
00001000
00000010
,
00000100
00000001
00000010
00000001
00000100
00001000
00010000
00000000
,
00001000
01000000
00010000
00100000
00001000
01000000
10000000
01000000
,
00010000
00100000
01000000
00010000
,
00001000
00000100
00001000
00010000
,
00000100
00000010
00000001
00000000
00000010
00000100
00010000
00000000
,
00001000
01000000
00100000
00000000
01000000
00010000
10000000
01000000
,
01200000
00000000
10000000
00000000
,
00010000
00000000
00001000
00010000
,
02300000
00000000
10000000
00000000
,
00010000
00000000
13000000
00000000
,
10010000
00000000
00010000
01000000
00001000
00000000
00010000
01000000
,
00001000
00000000
00010000
01000000
00001000
00000000
00010000
00001000
,
00010000
00000000
00000100
00010000
00001000
00000000
00000100
00010000
,
00001000
00000000
00000100
00010000
00001000
00000000
00010000
00000010
,
00000100
00000000
00000000
00000001
00000010
00000000
00000100
00000000
00000010
00000000
00000000
00001000
00000010
00000000
00001000
00000000
,
00010000
00000000
00000000
00001000
00010000
00000000
00001000
00000000
00000100
00000000
00000000
00001000
00000100
00000000
00001000
00000000
,
00010000
00000000
00000000
00001000
00010000
00000000
01000000
00000000
00010000
00000000
00000000
00010000
00001000
00000000
00010000
00000000
,
00100000
00000000
00000000
00100000
01000000
00000000
00010000
00000000
00100000
00000000
00000000
00000000
10010000
00000000
00000000
00000000
,
10000000
01000000
00010000
00001000
00000100
00000010
00010000
00001000
,
00100000
00001000
00000010
00000100
00001000
00000001
00000010
00000100
,
00010000
01000000
00100000
00010000
01000000
00100000
10000000
01000000
,
00001000
00000100
00000010
00000001
00000100
00000001
00001000
00000001
,
00000100
00001000
00010000
01000000
00100000
00010000
01000000
00100000
,
00010000
00001000
00000100
00000010
00001000
00000100
00000010
00000100
,
00000001
00000100
00010000
00001000
00100000
01000000
00100000
00010000
,
01000000
00000000
00001000
00000000
00000010
00000000
00000001
00000000
00001000
00000000
00000020
00000000
00000100
00000000
00000130
00000001
,
00000100
00000001
00000100
00000001
00001000
00000000
00000100
00000000
00000010
00000000
00001000
00000000
00000010
00000000
00000100
00010000
,
00000100
00010000
00000100
00010000
00001000
00000000
01000000
00000000
00100000
00000000
00010000
00000000
00100000
00000000
01000000
00010000
,
01000000
00010000
01000000
00010000
00100000
00000000
01000000
00000000
00010000
00000000
00001000
00000000
00010000
00000000
01000000
00100000
,
01000000
00100000
01000000
00100000
00001000
00000000
00010000
00000000
00000010
00000000
00000100
00000000
00000001
00000000
00000010
00000100
,
00000010
00000100
00000010
00000100
00001000
00000000
00000001
00000000
00000100
00000000
00001000
00000000
00010000
00000000
00001000
00100000
,
00001000
00010000
00001000
00100000
00010000
00000000
01000000
00000000
00001000
00000000
00100000
00000000
00001000
00000000
00010000
00000010
,
00010000
00001000
00010000
00000100
00001000
00000000
00000010
00000000
00000100
00000000
00001000
00000000
00010000
00000000
00001000
01000000
,
00010000
01000000
00001000
01000000
00100000
00000000
00010000
00000000
00001000
00000000
00000100
00000000
00001000
00000000
00010000
00000000
,
00021000
00100000
00001000
01000000
,
00032000
00000100
00010000
00000010
,
00013000
00000100
00000010
00000100
00010000
00001000
01000000
00100000
,
01000000
00001000
00010000
00100000
00010000
00001000
00000010
00001000
,
00011000
00000000
00000000
00000000
;

//---------------dance-double - D. Bernardone----------------
#NOTES:
     dance-double:
     D. Bernardone:
     Hard:
     8:
     0.559,0.578,0.089,0.233,0.143,401.000,10.000,26.000,0.000,0.000,0.000:
00000000
00000000
00000000
00000000
,
00000000
00000000
00000000
00000000
,
00000000
00000000
00000000
00000000
,
00000000
00000000
00000000
00000000
,
10000000
01000000
00010000
00000000
01000000
00010000
00001000
00000000
,
00010000
00001000
00000100
00000000
00000110
00000000
00000110
00000000
,
00010010
00010000
00001000
00010000
,
00011000
00000000
01001000
00000000
01100000
00000000
10000000
01000000
,
01000000
00010000
00002000
00000000
01000000
00000000
00013000
00000100
,
00000010
00000001
00000200
00000000
00001000
00000000
00000310
00010000
,
00001000
00000100
00000020
00000000
00000100
00000000
00001030
00000001
,
00000010
00001000
00020000
00000000
00000100
00000000
00031000
01000000
,
01000000
00100000
20000000
00000000
01000000
00000000
30010000
01000000
,
00100000
00010000
00002000
00000000
01000000
00000000
00013000
00000100
,
00000010
00001000
00000020
00000000
00000100
00000000
00000031
00000100
,
00001000
00000000
00010000
00000000
00001000
00000000
00000000
00000000
00100000
00000000
00001000
00000000
01000000
00000000
00100000
10000000
,
00000000
10000000
01000000
00000000
00100000
00000000
00010000
00000000
01000000
00000000
00000000
00000000
00001000
00000000
00010000
00000100
,
00000000
00000100
00001000
00000000
00000010
00000000
00000100
00000000
00000001
00000000
00000000
00000000
00000010
00000000
00000100
00001000
,
00000000
00001000
00000010
00000000
00000100
00000000
00001000
00000000
00010000
00000000
00000000
00000000
00001000
00000000
00100000
00010000
,
00000000
00010000
01000000
00000000
00100000
00000000
10000000
00000000
01000000
00000000
00000000
00000000
10000000
00000000
00010000
10000000
,
00000000
10000000
01000000
00000000
00010000
00000000
01000000
00000000
10000000
00000000
00000000
00000000
00100000
00000000
01000000
00001000
,
00000000
00001000
00010000
00000000
00000100
00000000
00000010
00000000
00000001
00000000
00000100
00000000
00000010
00000000
00001000
00000100
,
00000000
00000100
00000010
00000000
00000100
00000000
00010000
00000000
00001000
00000000
01000000
00000000
00100000
00000000
10000000
00010000
,
00000000
00010000
10000000
00000000
01000000
00000000
00010000
00000000
00001000
00000000
00000000
00000000
00010000
00000000
00000100
00000000
,
00001001
00000000
00000001
00000000
00000100
00000000
00000010
00010000
,
00000000
00001000
01000000
00000000
00010000
00000000
00100000
00001000
,
00000000
00010000
00000100
00000000
00000010
00000000
00000001
00000000
,
00000100
00000000
00001000
00000000
00010000
00000000
00001000
01000000
,
00100000
00000000
10000000
00000000
01000000
00000000
00010000
00001000
,
00000000
00010000
01000000
00000000
10000000
00000000
00100000
01000000
,
00001000
00000000
00001000
00100000
01000000
00000000
00100000
00000000
,
00001000
00000000
00010000
00000000
00000010
00000100
00000001
00000100
,
00000010
00001000
00000200
00000320
,
00000032
00000000
00000203
00000000
00000320
00000000
00000130
00001000
,
00010000
00000000
00010000
00001000
00000100
00000000
00000010
00000000
,
00001000
00000100
00020000
00031000
,
01100000
00000000
00001000
00000000
,
00001000
00000000
00000000
00000000
00010000
00000000
00000010
00001000
,
00000000
00000001
00000100
00000010
00000100
00001000
00000100
00000000
,
00000010
00010000
00001000
00000100
00001000
00010000
00000010
00010000
,
00011000
01000000
00100000
10000000
,
00010000
01000000
00100000
10000000
,
00010000
00000000
01000000
00001000
00010000
00000000
00001000
00010000
,
00000100
00000000
00000020
00000000
00000031
00000000
00000100
00001000
,
00010000
00000000
00200000
00000000
01300000
00000000
10000000
01000000
,
00010000
00000000
00100000
01000000
00100000
00000000
01000000
00010000
,
00001000
00000000
00010000
00100000
01000000
00000000
00100000
00010000
,
00001000
00000000
00000010
00000100
00002000
00000000
00003001
00000000
,
00000100
00001000
00010000
00002000
01000000
00000000
00103000
00010000
,
01000000
00200000
10000000
00000000
00010000
00000000
10300000
01000000
,
00010000
00002000
00000100
00000000
00010000
00000000
00003010
00000001
,
00000100
00000020
00000001
00000000
00000130
00000001
00000010
00000100
,
00010000
00002000
01000000
00000000
00100000
00000000
00013000
01000000
,
00100000
00020000
01000000
00000000
00100000
00000000
10030000
00100000
,
00010000
00200000
01000000
00000000
00010000
00000000
10300000
01000000
,
00100000
00000000
00002000
00000000
00010000
00000000
00000000
00000000
00003100
00000000
00000010
00000000
00000010
00000000
00001000
00000100
,
00000000
00000100
00000010
00000000
00000001
00000000
00000100
00000000
00001000
00000000
00010000
00000000
00001000
00000000
00000100
00000010
,
00000000
00000010
00010000
00000000
00001000
00000000
00100000
00000000
01000000
00000000
00100000
00000000
00010000
00000000
01000000
00100000
,
00000000
00100000
10000000
00000000
01000000
00000000
00100000
00000000
01000000
00000000
00010000
00000000
00001000
00000000
01000000
00010000
,
00000000
00010000
00100000
00000000
00001000
00000000
00010000
00000000
00000010
00000000
00000100
00000000
00000001
00000000
00000010
00000100
,
00000000
00000100
00001000
00000000
00000010
00000000
00000100
00000000
00000001
00000000
00001000
00000000
00000100
00000000
00010000
00001000
,
00010000
00001000
00010000
00000000
00000010
00000000
00000100
00000000
00000010
00000000
00010000
00000000
00001000
00000000
01000000
00010000
,
01000000
00010000
01000000
00000000
00100000
00000000
10000000
00000000
01000000
00000000
00010000
00000000
00001000
00000000
00010000
00000010
,
00010000
00000010
00010000
00000000
00000100
00000000
00001000
00000000
00000001
00000000
00000100
00000000
00001000
00000000
00010000
00000000
,
00002000
00000000
00100000
01000000
,
00023000
00000000
00000100
00000010
,
00030010
00000100
00000001
00000100
00000010
00010000
00001000
00000000
,
00100000
01000000
10000000
01000000
00100000
00001000
00010000
00000000
,
00011000
00000000
00000000
00000000
;

//---------------dance-double - D. Bernardone----------------
#NOTES:
     dance-double:
     D. Bernardone:
     Medium:
     5:
     0.346,0.365,0.018,0.081,0.000,260.000,2.000,9.000,0.000,0.000,0.000:
00000000
00000000
00000000
00000000
,
00000000
00000000
00000000
00000000
,
00000000
00000000
00000000
00000000
,
00000000
00000000
00000000
00000000
,
10000000
01000000
00010000
01000000
,
10000000
00000000
00001000
00010000
,
00000020
00000000
00000100
00000000
,
00001000
00000001
00001030
00000000
,
00000001
00000100
00001000
00010000
,
00001000
00000100
00000010
00010000
,
00001000
00100000
00001000
01000000
,
00010000
00000000
00100000
00000000
01000000
00000000
00100000
00010000
,
00010000
01000000
00100000
00010000
,
00001000
00000100
00000010
00001000
,
00000100
00010000
00001000
01000000
,
00100000
00000000
00010000
00000000
00100000
10000000
01000000
00000000
,
00100000
00000000
00001000
00000000
00010000
00000000
00000100
00001000
,
00000000
00001000
00000010
00000000
00000100
00000000
00000001
00000010
,
00000000
00000010
00001000
00000000
00010000
00000000
00001000
01000000
,
00000000
01000000
00010000
00000000
00100000
00000000
01000000
10000000
,
00000000
00010000
01000000
00000000
00010000
00000000
00100000
00001000
,
00000000
00010000
00000010
00000000
00001000
00000000
00000100
00000010
,
00000001
00000010
00000001
00000000
00000100
00000000
00000010
00010000
,
00001000
00010000
00001000
00000000
01000000
00000000
01000000
00000000
,
00010000
00000000
00100000
01000000
,
10000000
00100000
00010000
00001000
,
00010000
00000000
00000100
00000000
,
00000010
00000001
00000100
00000100
,
00000001
00000000
00000010
00000100
,
00001000
00000010
00000100
00001000
,
00010000
00000000
01000000
00000000
,
10000000
00010000
01000000
01000000
,
00001000
00000000
00010000
00000100
,
00000010
00000100
00001000
00000001
,
00000010
00000000
00001000
00000000
,
00010000
00000000
00001000
00010000
,
00022000
00003000
00002000
00030000
,
00020000
00003000
00032000
01000000
,
02003000
00000000
00100000
00000000
,
00100000
00000000
03100000
00000000
,
10000000
01000000
00000000
01000000
,
00010000
00001000
00000000
00010000
,
00100000
10000000
00000000
01000000
,
00010000
00001000
00000000
00010000
,
00001000
00000100
00000001
00000010
,
00001000
00010000
00001000
00000100
,
00000001
00000010
00001000
00010000
,
00000100
00100000
00002000
01000000
,
00013000
00000100
00010000
00000000
00000010
00000000
00000100
00000000
,
00000001
00001000
00000001
00000000
00000100
00000000
00000010
00000000
,
00010000
00001000
00010000
00000000
01000000
00000000
00100000
00000000
,
00010000
10000000
00010000
00000000
00100000
00000000
00010000
00000000
,
01000000
00001000
01000000
00000000
00010000
00000000
00100000
00000000
,
00001000
00010000
00001000
00000000
00000100
00000000
00000010
00000000
,
00001000
00000001
00001000
00000000
00000010
00000000
00010000
00000000
,
00001000
00100000
00001000
00000000
01000000
00000000
00001000
00000000
,
00010000
00000010
00010000
00000000
00001000
00000000
00000100
00000010
,
00001000
00000010
00001000
00000000
00000100
00000000
00010000
00001000
,
01000000
00001000
01000000
00000000
00010000
00000000
00100000
01000000
,
10000000
01000000
10000000
00000000
00100000
00000000
01000000
00010000
,
00100000
00010000
10000000
00000000
01000000
00000000
00100000
00010000
,
01000000
00001000
00010000
00000000
00000100
00000000
00000010
00000001
,
00000100
00000010
00001000
00000000
00000100
00000000
00010000
00001000
,
00010000
00100000
01000000
00000000
00010000
00000000
00100000
00000000
,
02000000
00000000
00010000
00000000
,
13000000
00000000
00100000
00010000
,
00001000
00000000
00000100
00000000
,
00000100
00000000
00000010
00000010
,
00001001
00000000
00000000
00000000
;

//---------------dance-double - M. Cerna----------------
#NOTES:
     dance-double:
     M. Cerna:
     Edit:
     11:
     0.796,0.794,0.098,0.036,0.555,608.000,11.000,4.000,7.000,0.000,0.000: // measure 1
00000000
00000000
00000000
00000000
,  // measure 2
00000000
00000000
00000000
00000000
,  // measure 3
00000000
00000000
00000000
00000000
,  // measure 4
00000000
00000000
00000000
00000000
,  // measure 5
00010000
00000000
00001000
00000000
00100000
00010000
00100000
00000000
00001000
00000000
00010000
00000000
00000010
00001000
00000010
00000000
,  // measure 6
00010000
00000000
00001000
00000000
01000000
00010000
01000000
00000000
00001000
00000000
00010000
00000000
00000100
00001000
00000100
00000000
,  // measure 7
00001000
00000000
00000010
00000000
00000100
00000010
00000100
00000000
00001000
00000000
00010000
00000000
00001000
00010000
00001000
00000000
,  // measure 8
00011000
0000MM00
01010000
000MM000
10100000
0MM00000
10002000
0M000000
,  // measure 9
00013000
00000100
00010000
00000100
00010000
00000000
00001000
00000000
00010000
00000000
01000000
00000000
00100000
00000000
00010000
00000000
,  // measure 10
01000000
00100000
01000000
00100000
01000000
00000000
00100000
00000000
10000000
00000000
00010000
00000000
00100000
00000000
00001000
00000000
,  // measure 11
00010000
00000100
00010000
00000100
00010000
00000000
00001000
00000000
00010000
00000000
01000000
00000000
00010000
00000000
00001000
00000000
,  // measure 12
00000100
00000010
00000100
00000010
00000100
00000000
00000010
00000000
00001000
00000000
00000100
00000000
00010000
00000000
00001000
00000000
,  // measure 13
00010000
00000100
00010000
00000100
00001000
00000000
00000100
00000000
00010000
00000000
00001000
00000000
00000100
00000000
00000010
00000000
,  // measure 14
00010000
00001000
00010000
00000100
00010000
00000000
00001000
00000000
00100000
00000000
00010000
00000000
01000000
00000000
00100000
00000000
,  // measure 15
01000000
00010000
01000000
00100000
10000000
00000000
01000000
00000000
00100000
00000000
00001000
00000000
00010000
00000000
00000100
00000000
,  // measure 16
00000010
00000100
00000010
00000001
00000010
00000000
00000001
00000000
00000100
00000000
00001000
00000000
00010000
00000000
00001000
00010000
,  // measure 17
00001000
00010000
00001000
00010000
00001000
00000000
00100000
00000000
00010000
00000000
01000000
00000000
00100000
00000000
01000000
00100000
,  // measure 18
01000000
00010000
00100000
01000000
00100000
00000000
01000000
00000000
00010000
00000000
00001000
00000000
00000100
00000000
00001000
00000100
,  // measure 19
00000010
00000100
00001000
00000100
00000010
00000000
00001000
00000000
00000100
00000000
00000010
00000000
00000001
00000000
00000010
00000100
,  // measure 20
00001000
00000100
00000010
00000001
00000010
00000000
00000001
00000000
00001010
00000000
00000100
00000000
00001001
00000000
00000001
00001000
,  // measure 21
00000100
00010000
00001000
00010000
00000010
00000000
00010000
00000000
00000100
00000000
00010000
00000000
00001000
00000000
00010000
00001000
,  // measure 22
00010000
00001000
01000000
00100000
10000000
00000000
00010000
00000000
01000000
00000000
00100000
00000000
10000000
00000000
00010000
00100000
,  // measure 23
00001000
00010000
00001000
00000100
00000010
00000000
00001000
00000000
00000010
00000000
00000100
00000000
00001000
00000000
00010000
00001000
,  // measure 24
00010000
00001000
00010000
00001000
00010000
00000000
00001000
00000000
00010000
00000000
00001000
00000000
00010000
00000000
00001000
00000000
,  // measure 25
00011000
00000100
00010000
00001000
00100000
00010000
01000000
00100000
,  // measure 26
01000000
00001000
00010000
00000100
00000010
00000100
00000010
00000001
,  // measure 27
00000010
00000100
00010000
00001000
00100000
01000000
10000000
01000000
,  // measure 28
00100000
00001000
00010000
00001000
00000100
00000010
00010000
00000100
,  // measure 29
00010100
00010000
00001000
00100000
00010000
01000000
00100000
01000000
,  // measure 30
00001000
00010000
00000010
00000100
00000010
00000001
00000010
00001000
,  // measure 31
00000100
00000010
00000001
00000100
00001000
00010000
00100000
10000000
,  // measure 32
00100000
00000000
00010000
00000000
00100000
00000000
10000000
00000000
01000000
00000000
00100000
00000000
00010000
00000000
00100000
00010000
,  // measure 33
10000000
01000000
00010000
00001000
00010000
01000000
00100000
00010000
,  // measure 34
01000000
00100000
00010000
00001000
00010000
00000100
00001000
00000100
,  // measure 35
00000010
00000001
00000100
00001000
00010000
00001000
00000100
00000010
,  // measure 36
00001000
00000100
00000010
00000001
00000010
00000100
00010000
00001000
,  // measure 37
00012000
00010000
00000000
00000100
00000000
00013000
00001000
00100000
,  // measure 38
00201000
00001000
00000000
00000100
00000000
00301000
10000000
00010000
,  // measure 39
10010000
10000000
00000000
00001000
00000000
00010000
00000000
00000010
,  // measure 40
00000000
00000000
00010000
00000000
00000000
00000000
00000010
00000000
00000100
00000010
00000100
00001000
00010000
00001000
00100000
00010000
,  // measure 41
10000000
00000000
00000000
00010000
01000000
00000000
00100000
00000000
10000000
00000000
00000000
01000000
00100000
00000000
00010000
00000000
,  // measure 42
00100000
00000000
00000000
00001000
00010000
00000000
00000100
00000000
00001000
00000000
00000000
00000010
00000100
00000000
00001000
00000000
,  // measure 43
00010000
00000000
00000000
00000100
00001000
00000000
00000010
00000000
00000100
00000000
00000000
00000001
00000010
00000000
00000100
00000000
,  // measure 44
00001000
00000000
00000000
00000100
00010000
00000000
00001000
00000000
00010000
00000000
00000000
00001000
00100000
00000000
00010000
00000000
,  // measure 45
01000000
00000000
00000000
00100000
10000000
00000000
01000000
00000000
10000000
00000000
00000000
01000000
00100000
00000000
01000000
00000000
,  // measure 46
00010000
00000000
00000000
00001000
00010000
00000000
00000100
00000000
00001000
00000000
00000000
00000010
00000100
00000000
00001000
00000000
,  // measure 47
00010000
00000000
00000000
00000100
00010000
00000000
00001000
00000000
00010000
00000000
00000000
00001000
00100000
00000000
00010000
00000000
,  // measure 48
00100000
00000000
00000000
01000000
10000000
00000000
01000000
00000000
00010000
00000000
00000000
00001000
00010000
00000000
00001000
00000000
,  // measure 49
00010000
00000100
00010000
00001000
00010000
00000000
00000010
00000000
00000100
00000000
00001000
00000000
00000100
00000000
00000010
00000000
,  // measure 50
00001000
00000100
00001000
00000100
00001000
00000000
00000010
00000000
00000100
00000000
00001000
00000000
00010000
00000000
00001000
00000000
,  // measure 51
00100000
00001000
00010000
00001000
00010000
00000000
00000100
00000000
00001000
00000000
00000010
00000000
00000100
00000000
00001000
00000000
,  // measure 52
00000100
00000010
00001000
00000100
00010000
00000000
00001000
00000000
00100000
00000000
00010000
00000000
01000000
00000000
00100000
00000000
,  // measure 53
01000000
00010000
00100000
00010000
01000000
00000000
00100000
00000000
10000000
00000000
01000000
00000000
00010000
00000000
01000000
00000000
,  // measure 54
00100000
00010000
00100000
00001000
00010000
00000000
00001000
00000000
00010000
00000000
00000100
00000000
00001000
00000000
00000010
00000000
,  // measure 55
00000100
00000010
00000100
00000001
00000100
00000000
00000010
00000000
00001000
00000000
00000100
00000000
00001000
00000000
00000010
00000000
,  // measure 56
00000100
00001000
00010000
00001000
00010000
00000000
00000010
00000000
00001000
00000000
00000100
00000000
00010000
00000000
00001000
00010000
,  // measure 57
00001000
00000100
00001000
00000100
00000010
00000000
00000100
00000000
00001000
00000000
00010000
00000000
00001000
00000000
00100000
00010000
,  // measure 58
00100000
01000000
00010000
00001000
00010000
00000000
00001000
00000000
00100000
00000000
00010000
00000000
01000000
00000000
00100000
01000000
,  // measure 59
00010000
00100000
01000000
00100000
00010000
00000000
00100000
00000000
00001000
00000000
00010000
00000000
00000100
00000000
00001000
00000010
,  // measure 60
00000100
00000010
00001000
00000010
00000100
00000000
00000010
00000000
00001000
00000000
00000100
00000000
00010000
00000000
00001000
00100000
,  // measure 61
00010000
00100000
00001000
00010000
00001000
00000000
00010000
00000000
01000000
00000000
00100000
00000000
00010000
00000000
01000000
00100000
,  // measure 62
00010000
00001000
00010000
00100000
01000000
00000000
00100000
00000000
01000000
00000000
00001000
00000000
00010000
00000000
00001000
00000100
,  // measure 63
00000010
00001000
00000100
00000010
00000001
00000000
00001000
00000000
00000100
00000000
00010000
00000000
00001000
00000000
00100000
00001000
,  // measure 64
00010000
00001000
00000100
00001000
00010000
00000000
00001000
00000000
00010000
00000000
00000100
00000000
00001000
00000000
00000010
00000100
,  // measure 65
00000010
00001000
00000100
00000010
00000001
00000000
00001000
00000000
00000001
00000000
00010000
00000000
00001000
00000000
00010000
00001000
,  // measure 66
00010000
01000000
00100000
00010000
10000000
00000000
00010000
00000000
10000000
00000000
00001000
00000000
00010000
00000000
00001000
00010000
,  // measure 67
00001000
00010000
00001000
00010000
00001000
00000000
00010000
00000000
00001000
00000000
00010000
00000000
00001000
00000000
00010000
00000000
,  // measure 68
00001000
00010000
00001000
00010000
00000100
00001000
00000010
00000100
00001000
00010000
00100000
01000000
00100000
00010000
00001000
00010000
,  // measure 69
00002000
00003000
00000000
00000000
;
