#TITLE:The Deep Unknown;
#SUBTITLE:;
#ARTIST:Adam Vox;
#TITLETRANSLIT:Deep Unknown;
#SUBTITLETRANSLIT:;
#ARTISTTRANSLIT:;
#GENRE:Trance;
#CREDIT:;
#BANNER:The Deep Unknown-bn.png;
#BACKGROUND:The Deep Unknown-bg.png;
#LYRICSPATH:;
#CDTITLE:;
#MUSIC:The Deep Unknown.ogg;
#OFFSET:-0.025;
#SAMPLESTART:13.900;
#SAMPLELENGTH:11.860;
#SELECTABLE:YES;
#BPMS:0.000=138.000;
#STOPS:;
#BGCHANGES:-0.009=The Deep Unknown.mpg=1.000=1=0=0=StretchNoLoop==CrossFade==,
99999=-nosongbg-=1.000=0=0=0 // don't automatically add -songbackground-;
#KEYSOUNDS:;

//---------------dance-single - D. D'Amato----------------
#NOTES:
     dance-single:
     D. D'Amato:
     Challenge:
     9:
     0.608,0.547,0.365,0.000,0.410,427.000,40.000,0.000,77.000,0.000,0.000:
0000
0000
0000
0000
,
0000
0000
0000
0000
,
0000
0000
0000
0000
,
0000
0000
0000
0000
,
0100
0000
0000
0000
0010
0000
1000
0000
0000
0000
0001
0000
0000
0000
1000
0001
,
1000
0000
0100
0000
0010
0000
0001
0000
0000
0000
1000
0000
0000
0000
0001
1000
,
0001
0000
0000
0001
0100
0000
0000
0100
0010
0000
0000
0010
1000
0000
0000
1000
,
0100
0010
0001
1000
1010
0110
0101
1001
,
1000
0000
0100
0000
0010
0000
0100
0000
1000
0000
0101
0000
0000
0000
0000
1000
,
0010
0100
0001
1000
0100
0011
0000
0000
,
1100
0000
0010
0000
0001
0000
0100
0000
0001
0000
0010
0000
0100
0000
0000
1000
,
0001
0010
0001
0110
0000
1000
0100
1000
,
0001
0000
0100
0000
0010
0000
0100
0000
0001
0000
1100
0000
0000
0000
0000
0001
,
0010
0100
1000
0001
0100
1010
0000
0000
,
0101
0000
0010
0000
1000
0000
0100
0000
1000
0000
0010
0000
0100
0000
0000
0001
,
1000
0010
1000
0110
0000
0001
0100
0001
,
1010
0000
0100
0000
0001
0000
1010
0000
0001
0000
0110
0000
0000
0000
0000
0010
,
0001
1000
0100
0011
0000
1001
0000
0000
,
1010
0000
0001
0000
0100
0000
1010
0000
0001
0000
0100
0000
1001
0000
0000
0010
,
0100
0001
0100
1001
0000
0110
1000
0000
,
0011
0000
0100
0000
1000
0000
0011
0000
1000
0000
0110
0000
0000
0000
0000
0010
,
1000
0001
0100
1010
0000
1001
0000
0000
,
0011
0000
1000
0000
0100
0000
0011
0000
1000
0000
0100
0000
1001
0000
0000
0010
,
0100
1000
0100
1001
0000
0110
1000
0000
,
1001
0000
0100
0000
0010
0000
0000
0010
0000
1000
0010
0000
0100
0000
0000
0010
,
0000
1000
0010
0000
0100
0000
0000
0010
0000
1000
0010
0000
0100
0000
0000
0001
,
0000
0010
0100
0000
0010
0000
0000
0001
0000
0010
0100
0000
0010
0000
0000
0100
,
0000
1000
0100
0000
0010
0000
0000
0100
0000
1000
0100
0000
0010
0000
0100
0010
,
0000
0001
0010
0000
0100
0000
0000
0010
0000
0001
0010
0000
0100
0000
0000
0010
,
0000
0001
0010
0000
0100
0000
0000
0010
0000
0001
0010
0000
0100
0000
0000
1000
,
0000
0010
0100
0000
0010
0000
0000
1000
0000
0010
0100
0000
0010
0000
0000
0100
,
0000
0001
0100
0000
0010
0000
0000
0100
0000
0001
0100
0000
0010
0000
0100
0000
,
0001
0000
0000
0000
1000
0000
0001
0000
0000
0000
1010
0000
0000
0000
0000
000M
,
0M10
0000
10M0
0000
M100
0000
001M
0000
0000
0000
M100
0000
0010
0100
1000
0000
,
0001
0000
0000
0000
1000
0000
0010
0000
0000
0000
0100
0000
0010
0000
0000
M000
,
001M
0000
1M00
0000
010M
0000
10M0
0000
0001
0000
0M10
0000
00M1
0100
0010
0000
,
1000
0000
0000
0000
0001
0000
1000
0000
0000
0000
0011
0000
0000
0000
0000
M000
,
0M10
0000
00M1
0000
010M
0000
M010
0000
0000
0000
010M
0000
0010
0100
0001
0000
,
1000
0000
0000
0000
0001
0000
0010
0000
0000
0000
0100
0000
0010
0000
0000
000M
,
M010
0000
0M01
0000
M100
0000
00M1
0000
1000
0000
0M10
0000
10M0
0100
0010
0000
,
0100
0000
0000
0000
0010
0000
0001
0000
0000
0000
1000
0000
0000
0000
0001
1000
,
0001
0000
0100
0000
0010
0000
1000
0000
0000
0000
0001
0000
0000
0000
1000
0001
,
1000
0000
0000
1000
0100
0000
0000
0100
0010
0000
0000
0010
0001
0000
0000
0001
,
0100
0010
1000
0001
0011
0110
1100
1001
,
0M01
0010
0001
0000
1000
0000
0M01
0010
0001
0000
010M
0000
M0M0
0000
0000
0100
,
0001
0000
0010
0000
0100
0000
100M
0010
1000
0000
0100
0000
00MM
0000
0000
0000
,
1M00
0010
1000
0000
0001
0000
1M00
0010
1000
0000
M100
0000
0010
0000
0000
0010
,
0001
0000
0100
0000
0010
0000
100M
0100
1000
0000
0001
0000
1000
0000
0MM0
0000
,
1M00
0010
1000
0000
0001
0000
1M00
0010
1000
0000
M100
0000
00MM
0000
0000
0100
,
1000
0000
0010
0000
0100
0000
M001
0010
0001
0000
0100
0000
M0M0
0000
0000
0000
,
0M01
0010
0001
0000
1000
0000
0M01
0010
0001
0000
010M
0000
0010
0000
0000
0010
,
1000
0000
0100
0000
0010
0000
M001
0100
0001
0000
1000
0000
0001
0000
0MM0
0000
,
0M01
0010
0001
0000
1000
0000
0M01
0010
0001
0000
010M
0000
M010
0000
0000
0100
,
0001
0000
0010
0000
0100
0000
100M
0010
1000
0000
0100
0000
0010
0000
0001
0000
,
1M00
0010
1000
0000
0001
0000
1M00
0010
1000
0000
M100
0000
001M
0000
0000
0010
,
0001
0000
0100
0000
0010
0000
100M
0100
1000
0000
0001
0000
1000
0000
01M0
0000
,
1M00
0010
1000
0000
0001
0000
1M00
0010
1000
0000
M100
0000
001M
0000
0000
0100
,
1000
0000
0010
0000
0100
0000
M001
0010
0001
0000
0100
0000
0010
0000
1000
0000
,
0M01
0010
0001
0000
1000
0000
0M01
0010
0001
0000
010M
0000
M010
0000
0000
0010
,
1000
0000
0100
0000
0010
0000
M001
0100
0001
0000
1000
0000
0001
0000
0MM0
0000
,
1001
0000
0000
0000
;

//---------------dance-single - D. D'Amato----------------
#NOTES:
     dance-single:
     D. D'Amato:
     Hard:
     7:
     0.423,0.383,0.046,0.182,0.109,300.000,5.000,20.000,12.000,0.000,0.000:
0000
0000
0000
0000
,
0000
0000
0000
0000
,
0000
0000
0000
0000
,
0000
0000
0000
0000
,
0100
0000
0001
1000
0000
0100
0000
1000
,
0010
0000
1000
0001
0000
0100
0000
0001
,
1000
0100
0010
0001
,
1000
0100
0010
0001
0100
0010
0100
0010
,
1000
0000
1000
0100
0000
1000
0000
0100
,
0010
0001
0010
0001
0000
0001
0000
0000
,
0100
0000
0010
1000
0000
1000
0100
0000
,
1000
0100
1000
0001
0000
0001
0100
0000
,
0001
0000
0001
0100
0000
0001
0000
0100
,
0010
1000
0010
1000
0000
1000
0000
0000
,
0100
0000
0010
0001
0000
0001
0100
0000
,
0001
0100
0001
1000
0000
1000
0100
0000
,
1000
0000
1000
0010
0000
1000
0000
0010
,
0100
0001
0100
0001
0000
0001
0000
0000
,
0010
0000
0100
1000
0000
1000
0010
0000
,
1000
0010
1000
0001
0000
0001
0010
0000
,
0001
0000
0001
0010
0000
0001
0000
0010
,
0100
1000
0100
1000
0000
1000
0000
0000
,
0010
0000
0100
0001
0000
0001
0010
0000
,
0001
0010
0001
1000
0000
1000
0010
0000
,
0100
0000
0000
0000
1020
0000
0000
1000
0000
1000
0000
0000
0100
0000
0000
0100
,
0000
0100
0000
0000
1000
0000
0000
1000
0000
1000
0000
0000
0130
0000
0000
0000
,
0001
0000
0000
0000
0201
0000
0000
0001
0000
0001
0000
0000
0010
0000
0000
0010
,
0000
0010
0000
0000
0001
0000
0000
0001
0000
0001
0000
0000
0310
0000
1000
0000
,
0100
0000
0000
0000
0021
0000
0000
0001
0000
0001
0000
0000
0100
0000
0000
0100
,
0000
0100
0000
0000
0001
0000
0000
0001
0000
0001
0000
0000
0130
0000
0000
0000
,
1000
0000
0000
0000
1200
0000
0000
1000
0000
1000
0000
0000
0010
0000
0000
0010
,
0000
0010
0000
0000
1000
0000
0000
1000
0000
1000
0000
0000
0310
0000
0001
0000
,
1000
0000
1000
0100
0000
1000
0000
0000
,
0M00
0010
M000
0100
000M
0010
0100
0010
,
0100
0000
0010
1000
0000
1000
0100
0000
,
M000
0010
0M00
0001
00M0
1000
0001
1000
,
0001
0000
0001
0100
0000
0001
0000
0000
,
0M00
0010
000M
0100
M000
0010
0100
0010
,
0100
0000
0010
0001
0000
0001
0100
0000
,
000M
0010
0M00
1000
00M0
0001
1000
0001
,
0010
0000
0001
1000
0000
0010
0000
1000
,
0100
0000
1000
0001
0000
0010
0000
0001
,
1000
0010
0100
0001
,
1000
0010
0100
0001
0010
0100
0010
0100
,
2000
0000
0100
0100
0000
3100
0000
0100
,
0010
0002
0100
0100
0000
0103
0000
0000
,
0020
0000
0100
0100
0000
0100
0130
0000
,
0001
0200
0010
0010
0000
0010
0310
1000
,
0002
0000
0100
0100
0000
0103
0000
0100
,
0010
2000
0100
0100
0000
3100
0000
0000
,
0020
0000
0100
0100
0000
0100
0130
0000
,
1000
0200
0010
0010
0000
0010
0310
0001
,
2000
0000
0100
0100
0000
3010
0000
0100
,
0010
0002
0100
0100
0000
1003
0000
0000
,
0020
0000
0100
0100
0000
1000
1030
0000
,
0001
0200
0010
0010
0000
0001
0301
1000
,
0002
0000
0100
0100
0000
0013
0000
0100
,
0010
2000
0100
0100
0000
3001
0000
0000
,
0020
0000
0100
0100
0000
0001
0031
0000
,
1000
0200
0010
0010
0000
1000
1300
0000
,
1001
0000
0000
0000
;

//---------------dance-single - D. D'Amato----------------
#NOTES:
     dance-single:
     D. D'Amato:
     Medium:
     5:
     0.310,0.328,0.009,0.000,0.000,237.000,1.000,0.000,18.000,0.000,0.000:
0000
0000
0000
0000
,
0000
0000
0000
0000
,
0000
0000
0000
0000
,
0000
0000
0000
0000
,
0010
0000
0000
0001
0000
0100
0000
0000
,
0010
0000
0000
1000
0000
0100
0000
0000
,
0010
0001
0010
0001
,
1000
0010
1000
0010
0100
0001
0100
0001
,
1000
0000
0001
0100
0000
0001
0000
0000
,
0010
0000
0001
1000
0000
0100
0000
0000
,
1000
0000
0010
0100
0000
0001
0100
0000
,
0010
0000
1000
0000
0000
0001
0100
0000
,
0001
0000
1000
0100
0000
1000
0000
0000
,
0010
0000
1000
0001
0000
0100
0000
0000
,
0001
0000
0010
0100
0000
1000
0100
0000
,
0010
0000
0001
0000
0000
1000
0100
0000
,
1000
0000
0001
0010
0000
0001
0000
0000
,
0100
0000
0001
1000
0000
0010
0000
0000
,
1000
0000
0100
0010
0000
0001
0010
0000
,
0100
0000
1000
0000
0000
0001
0010
0000
,
0001
0000
1000
0010
0000
1000
0000
0000
,
0100
0000
1000
0001
0000
0010
0000
0000
,
0001
0000
0100
0010
0000
1000
0010
0000
,
0100
0000
0001
0000
0000
1000
0010
0000
,
0100
0010
1000
0000
0000
1000
0100
0000
,
0000
0100
0010
0000
0000
0010
0001
0000
,
0000
0001
0100
0000
0000
0100
0010
0000
,
0000
0010
1000
0000
0000
1000
0001
0000
,
0010
0001
0100
0000
0000
0001
1000
0000
,
0000
1000
0100
0000
0000
0100
0010
0000
,
0000
0010
0001
0000
0000
0001
0100
0000
,
0000
0100
0001
0000
0000
0001
1000
0000
,
0010
0000
1000
0100
0000
0010
0000
000M
,
0000
M000
0000
000M
0000
M000
0000
000M
,
0010
0000
0001
0100
0000
0010
0100
0000
,
000M
M000
000M
M000
,
0010
0000
0001
0100
0000
0010
0000
M000
,
0000
000M
0000
M000
0000
000M
0000
M000
,
0010
0000
1000
0100
0000
0010
0100
0000
,
M000
000M
M000
000M
,
0010
0000
0000
1000
0000
0100
0000
0000
,
0010
0000
0000
0001
0000
0100
0000
0000
,
0010
1000
0010
1000
,
0001
0010
0001
0010
0100
1000
0100
1000
,
0001
0000
1000
0100
0000
1000
0000
0000
,
0001
0100
0010
0100
0000
0001
0000
0000
,
0001
0000
1000
0010
0000
0100
0001
0000
,
1000
0010
0100
0010
0000
1000
0100
0000
,
1000
0000
0001
0100
0000
0001
0000
0000
,
1000
0100
0010
0100
0000
1000
0000
0000
,
1000
0000
0001
0010
0000
0100
1000
0000
,
0001
0010
0100
0010
0000
0001
0100
0000
,
0001
0000
1000
0010
0000
1000
0000
0000
,
0001
0010
0100
0010
0000
0001
0000
0000
,
0001
0000
1000
0100
0000
0010
0001
0000
,
1000
0100
0010
0100
0000
1000
0010
0000
,
1000
0000
0001
0010
0000
0001
0000
0000
,
1000
0010
0100
0010
0000
1000
0000
0000
,
1000
0000
0001
0100
0000
0010
1000
0000
,
0001
0100
0010
0100
0000
0001
0010
0000
,
1001
0000
0000
0000
;

//---------------dance-single - D. D'Amato----------------
#NOTES:
     dance-single:
     D. D'Amato:
     Easy:
     2:
     0.167,0.164,0.009,0.000,0.000,127.000,1.000,0.000,0.000,0.000,0.000:
0000
0000
0000
0000
,
0000
0000
0000
0000
,
0000
0000
0000
0000
,
0000
0000
0000
0000
,
0010
0000
0000
0000
,
0010
0000
0000
0000
,
0010
0000
0010
0000
,
0010
0010
0010
0010
,
0001
0100
0000
0000
,
0010
1000
0000
0000
,
0100
0010
0000
0001
,
0100
0001
0000
0001
,
1000
0100
0000
0000
,
0010
0001
0000
0000
,
0100
0010
0000
1000
,
0100
1000
0000
1000
,
0001
0010
0000
0000
,
0100
1000
0000
0000
,
0010
0100
0000
0001
,
0010
0001
0000
0001
,
1000
0010
0000
0000
,
0100
0001
0000
0000
,
0010
0100
0000
1000
,
0010
1000
0000
1000
,
0010
1000
0000
0100
,
0000
0010
0000
0001
,
0000
0100
0000
0010
,
0000
1000
0000
0001
,
0010
0100
0000
1000
,
0000
0100
0000
0010
,
0000
0001
0000
0100
,
0000
0010
0100
0010
,
1000
0100
0000
0000
,
0000
0000
0000
0000
,
0010
0001
0000
0100
,
0000
0000
0000
0010
,
0001
0100
0000
0000
,
0000
0000
0000
0000
,
0010
1000
0000
0100
,
0000
0000
0000
0000
,
0010
0000
0000
0000
,
0010
0000
0000
0000
,
0010
0000
0010
0000
,
0010
0010
0010
0010
,
0001
0100
0000
0000
,
0010
1000
0000
0000
,
0100
0010
0000
0001
,
0100
0001
0000
0001
,
1000
0100
0000
0000
,
0010
0001
0000
0000
,
0100
0010
0000
1000
,
0100
1000
0000
1000
,
0001
0010
0000
0000
,
0100
1000
0000
0000
,
0010
0100
0000
0001
,
0010
0001
0000
0001
,
1000
0010
0000
0000
,
0100
0001
0000
0000
,
0010
0100
0000
1000
,
0010
1000
0000
0001
,
1001
0000
0000
0000
;

//---------------dance-single - J. Frederick----------------
#NOTES:
     dance-single:
     J. Frederick:
     Beginner:
     1:
     0.076,0.082,0.018,0.000,0.000,56.000,2.000,0.000,0.000,0.000,0.000:
0000
0000
0000
0000
,
0000
0000
0000
0000
,
0000
0000
0000
0000
,
0000
0000
0000
0000
,
1000
0000
0000
0000
,
0000
0000
0000
0000
,
0001
0000
0000
0000
,
0100
0000
0000
0000
,
0010
0000
0000
0000
,
0100
0000
0000
0000
,
1000
0000
0000
0000
,
0001
0000
0000
0000
,
0010
0000
0000
0000
,
0100
0000
0000
0000
,
1000
0000
0000
0000
,
0001
0000
0000
0000
,
0100
0000
0000
0000
,
0010
0000
0000
0000
,
1000
0000
0000
0000
,
0001
0000
0000
0000
,
0010
0000
0000
0000
,
0100
0000
0000
0000
,
1000
0000
0000
0000
,
0001
0000
0000
0000
,
0100
0000
0000
0000
,
0010
0000
0000
0000
,
1000
0000
0000
0000
,
0010
0000
0000
0000
,
0001
0000
0000
0000
,
1000
0000
0000
0000
,
0100
0000
0000
0000
,
0010
0000
0000
0000
,
1000
0000
0000
0000
,
0001
0000
0000
0000
,
0010
0000
0000
0000
,
0100
0000
0000
0000
,
1000
0000
0000
0000
,
0001
0000
0000
0000
,
0100
0000
0000
0000
,
0010
0000
0000
0000
,
1000
0000
0000
0000
,
0001
0000
0000
0000
,
0100
0000
0000
0000
,
0010
0000
0000
0000
,
1001
0000
0000
0000
,
0010
0000
0000
0000
,
0100
0000
0000
0000
,
1000
0000
0000
0000
,
0001
0000
0000
0000
,
0010
0000
0000
0000
,
0100
0000
0000
0000
,
0001
0000
0000
0000
,
1000
0000
0000
0000
,
0010
0000
0000
0000
,
0100
0000
0000
0000
,
1000
0000
0000
0000
,
0001
0000
0000
0000
,
0010
0000
0000
0000
,
0100
0000
0000
0000
,
1000
0000
0000
0000
,
1001
0000
0000
0000
;

//---------------dance-double - J. Frederick----------------
#NOTES:
     dance-double:
     J. Frederick:
     Easy:
     3:
     0.177,0.219,0.100,0.036,0.000,121.000,11.000,4.000,0.000,0.000,0.000:
00000000
00000000
00000000
00000000
,
00000000
00000000
00000000
00000000
,
00000000
00000000
00000000
00000000
,
00000000
00000000
00000000
00000000
,
00000010
00000000
00000000
00000000
,
00001000
00000000
00000000
00000000
,
00000001
00000000
00000100
00000000
,
00000010
00001000
00010000
00100000
,
01000000
00000000
10000000
00000000
,
01000000
10000000
00000000
00000000
,
01000000
00000000
00100000
00000000
,
00010000
00000000
01000000
00000000
,
10000000
00000000
00100000
00000000
,
00100000
00010000
00000000
00000000
,
00001000
00000000
00000010
00000000
,
00000100
00000000
00000001
00000000
,
00001001
00000000
00000001
00000000
,
00000100
00000010
00000000
00000000
,
00001000
00000000
00000100
00000000
,
00000001
00001000
00000000
00000000
,
00000010
00000000
00000000
00000000
,
00000100
00000000
00000000
00000000
,
00001000
00000000
00010000
00000000
,
00100000
01000000
10000000
01000000
,
00100000
00000000
00100000
00000000
,
01000000
00000000
01000000
00000000
,
10000000
00000000
10000000
00000000
,
01000000
00000000
01000000
00000000
,
00010000
00000000
00010000
00000000
,
00001000
00000000
00001000
00000000
,
00000010
00000000
00000010
00000000
,
00000001
00000000
00000001
00000000
,
00000100
00000101
00000001
00000011
,
00000001
00000000
00001000
00000000
,
00000010
00001010
00001000
00001100
,
00001000
00000000
00010000
00000000
,
00100000
00110000
01000000
11000000
,
01000000
00000000
00100000
00000000
,
00010000
10010000
01000000
01100000
,
00100000
00000000
00010000
00000000
,
00002000
00000000
00000000
00003000
,
00000200
00000000
00000000
00000300
,
00000002
00000003
00000020
00000030
,
00001000
00000010
00001000
00010000
,
00110000
00000000
00100000
00000000
,
01000000
10000000
00000000
00000000
,
01000000
00000000
00100000
00000000
,
00010000
00000000
00001000
00000000
,
00000010
00000000
00000100
00000000
,
00000001
00000100
00000000
00000000
,
00000010
00000000
00001000
00000000
,
00000100
00000000
00010000
00000000
,
00100000
00000000
01000000
00000000
,
10000000
01000000
00000000
00000000
,
00100000
00000000
00010000
00000000
,
01000000
00000000
10000000
00000000
,
01000000
00000000
00010000
00000000
,
00001000
00000010
00000000
00000000
,
00000100
00000000
00000001
00000000
,
00001000
00000000
00000010
00000000
,
00000110
00000000
00000000
00000000
;

//---------------dance-double - M. Cerna----------------
#NOTES:
     dance-double:
     M. Cerna:
     Challenge:
     9:
     0.565,0.492,0.137,0.000,0.278,419.000,15.000,0.000,2.000,0.000,0.000: // measure 1
00000000
00000000
00000000
00000000
,  // measure 2
00000000
00000000
00000000
00000000
,  // measure 3
00000000
00000000
00000000
00000000
,  // measure 4
00000000
00000000
00000000
00000000
,  // measure 5
10010000
00000000
00010000
00000000
00100000
00000000
00001000
00000000
00000000
00000000
00010000
00000000
00000100
00000000
00001000
00000100
,  // measure 6
00010000
00000000
00000100
00000000
00001000
00000010
00000100
00000000
00000010
00000000
00001000
00000000
00000000
00000000
00000001
00001000
,  // measure 7
00000001
00001000
00000100
00010000
00001000
00100000
00010000
01000000
,  // measure 8
00100000
00100000
10000000
10000000
01000000
01000000
00010000
00010000
,  // measure 9
00011000
00000000
00010000
00000000
00000010
00000000
00000100
00000000
00000010
00000000
00001000
00000000
00000000
00000000
00000100
00010000
,  // measure 10
00001000
00000000
00100000
00000000
00010000
00000000
01000000
00000000
00000000
00000000
00010000
00000000
00000000
00000000
00100000
00010000
,  // measure 11
10000000
00000000
01000000
00000000
00010000
00000000
00001000
00000000
00000000
00000000
00001000
00000000
00000100
00000000
00000010
00001000
,  // measure 12
00000100
00000000
00001000
00000000
00000010
00000000
00000100
00000000
00000000
00000000
00000001
00000000
00000010
00000000
00000001
00001000
,  // measure 13
00000100
00000000
00000000
00000000
00010000
00000000
00001000
00000000
00000000
00000000
00100000
00000000
00000000
00000000
00010000
10000000
,  // measure 14
00100000
01000000
00010000
00100000
00000000
00010000
00000000
01000000
,  // measure 15
10010000
00000000
00000000
00000000
10000000
00000000
00001000
00000000
00000000
00000000
00010000
00000000
00000100
00000000
00001000
00000010
,  // measure 16
00000100
00000000
00000010
00000000
00001000
00000000
00000100
00000000
00000000
00000000
00010000
00000000
00001000
00000000
00100000
00010000
,  // measure 17
10000000
00000000
01000000
00000000
00010000
00000000
00001000
00000000
00000000
00000000
00010000
00000000
00000000
00000000
00000010
00001000
,  // measure 18
00000100
00000010
00000001
00000100
00000000
00001000
00000000
00010000
,  // measure 19
00011000
00000000
00000000
00000000
00001000
00000000
00100000
00000000
00000000
00000000
01000000
00000000
00010000
00000000
00001000
00010000
,  // measure 20
00001000
00000100
00000010
00000100
00000000
00000010
00010000
00001000
,  // measure 21
00011000
00000000
00000000
00000000
00001000
00000000
00100000
00000000
00000000
00000000
00010000
00000000
00000000
00000000
10000000
01000000
,  // measure 22
00100000
01000000
10000000
00100000
00000000
10000000
00000000
01000000
,  // measure 23
10010000
00000000
00000000
00000000
10000000
00000000
00010000
00000000
00000000
00000000
00100000
00000000
00001000
00000000
00010000
00000100
,  // measure 24
00001000
00000010
00000100
00000010
00000000
00001000
00000100
00010000
,  // measure 25
00011000
00000000
00001000
00000000
00100000
00000000
00000000
00001000
00000000
00001000
00000000
00000000
01000000
00000000
00000000
00010000
,  // measure 26
00000000
00010000
00000000
00000000
00100000
00000000
00000000
00001000
00000000
00001000
00000000
00000000
00010000
00000000
00000000
00000100
,  // measure 27
00000000
00000100
00001000
00000000
00000001
00000000
00000000
00000100
00000000
00000100
00000010
00000000
00001000
00000000
00000000
00000100
,  // measure 28
00000000
00000100
00010000
00000000
00001000
00000000
00000000
00100000
00000000
00100000
01000000
00000000
00100000
00000000
00000000
00010000
,  // measure 29
00000000
10000000
00010000
00000000
00100000
00000000
00000000
01000000
00000000
10000000
01000000
00000000
00100000
00000000
00000000
01000000
,  // measure 30
00000000
00010000
00001000
00000000
00010000
00000000
00000000
00000100
00000000
00001000
00000010
00000000
00000100
00000000
00000000
00000010
,  // measure 31
00000000
00000010
00001000
00000000
00000100
00000000
00000000
00010000
00000000
00010000
00001000
00000000
00100000
00000000
00000000
00010000
,  // measure 32
00000000
00010000
10000000
00000000
01000000
00000000
00000000
00100000
00000000
00100000
01000000
00000000
00100000
00000000
00010000
10000000
,  // measure 33
00010000
10000000
01000000
00010000
00000000
00001000
00000000
00010000
,  // measure 34
00000010
00000000
00000100
00000000
00000010
00000000
00001000
00000000
00000100
00000000
00010000
00000000
00001000
00010000
00001000
00000000
,  // measure 35
00010000
00100000
01000000
00010000
00000000
00100000
00010000
00000000
,  // measure 36
00100000
00000000
00001000
00000000
00010000
00000000
00001000
00000000
00000100
00000000
00001000
00000000
00010000
00001000
00010000
00000000
,  // measure 37
01000000
00100000
00010000
00100000
00000000
00010000
00000000
10000000
,  // measure 38
01000000
00000000
00100000
00000000
00010000
00000000
00100000
00000000
01000000
00000000
00100000
00000000
00001000
00010000
00001000
00000000
,  // measure 39
00000100
00000010
00001000
00000100
00000000
00000010
00000001
00000000
,  // measure 40
00000010
00000000
00000100
00000000
00001000
00000000
00000010
00000000
00000100
00000000
00001000
00000000
00010000
00001000
00010000
00000000
,  // measure 41
00011000
00000000
00001000
00000000
00000100
00000000
00000010
00000000
00000000
00000000
00010000
00000000
00000000
00000000
00001000
10000000
,  // measure 42
00001000
00000000
00000000
00000000
01000000
00000000
10010000
00000000
00000000
00000000
00011000
00000000
00000000
00000000
00001000
00010000
,  // measure 43
00000010
00001000
00000100
00001000
00000010
00000100
00001000
00010000
,  // measure 44
00000100
00000000
00000100
00000000
00010000
00000000
00010000
00000000
00001000
00000000
00001000
00000000
00010000
00001000
00010000
00001000
,  // measure 45
00010000
00000000
01000000
00000000
00100000
00000000
00010000
00000000
00000000
00000000
00100000
00000000
00000000
00000000
01000000
00100000
,  // measure 46
00010000
00100000
00001000
00010000
00000000
00001000
00000000
00010000
,  // measure 47
00010100
00000000
00000100
00000000
00010000
00000000
00000010
00000000
00000000
00000000
00001000
00000000
00000010
00000000
00000100
00000001
,  // measure 48
00000010
00000100
00001000
00000100
00000000
00010000
00001000
00100000
,  // measure 49
00101000
00000000
00001000
00000000
01000000
00000000
00100000
00000000
00000000
00000000
10000000
00000000
00000000
00000000
01000000
00100000
,  // measure 50
00010000
00100000
00010000
01000000
00000000
00100000
00000000
01000000
,  // measure 51
01010000
00000000
00000000
00000000
01000000
00000000
00010000
00000000
00000000
00000000
00100000
00000000
00001000
00000000
00010000
00001000
,  // measure 52
00000100
00000010
00001000
00000100
00000000
00010000
00000100
00010000
,  // measure 53
00010010
00000000
00000010
00000000
00001000
00000000
00000100
00000000
00010000
00000000
00001000
00000000
00100000
00000000
00001000
00010000
,  // measure 54
00100000
01000000
00100000
10000000
01000000
00100000
01000000
00010000
,  // measure 55
00001000
00000000
00010000
00000000
00000010
00000000
00000100
00000000
00000010
00000000
00001000
00000000
00000100
00000000
00001000
00000010
,  // measure 56
00000100
00001000
00010000
00100000
01000000
00100000
00010000
00001000
,  // measure 57
00000100
00000000
00000010
00000000
00000100
00000000
00000001
00000000
00000010
00000000
00000100
00000000
00001000
00000000
00000010
00001000
,  // measure 58
00000100
00010000
00001000
00100000
01000000
00010000
00001000
00000100
,  // measure 59
00000010
00000000
00000100
00000000
00001000
00000000
00010000
00000000
01000000
00000000
00100000
00000000
01000000
00000000
10000000
01000000
,  // measure 60
00100000
01000000
00010000
00001000
00000000
0010M000
00001000
00M00000
,  // measure 61
00011000
00000000
00000000
00000000
;

//---------------dance-double - M. Cerna----------------
#NOTES:
     dance-double:
     M. Cerna:
     Hard:
     7:
     0.460,0.441,0.128,0.018,0.046,337.000,14.000,2.000,0.000,0.000,0.000:
00000000
00000000
00000000
00000000
,
00000000
00000000
00000000
00000000
,
00000000
00000000
00000000
00000000
,
00000000
00000000
00000000
00000000
,
00001000
00000000
00010000
00000100
00000000
00010000
00000000
00000000
,
00001000
00000000
00100000
00001000
00000000
00010000
00000000
00000000
,
00000100
00000000
00000000
00001000
00000010
00000000
00000000
00000100
00000001
00000000
00000000
00000100
00000010
00000000
00000000
00000010
,
00001000
00000100
00010000
00001000
00100000
00010000
10000000
00010000
,
10000000
00000000
00010000
01000000
00000000
00100000
00000000
01000000
,
00001000
00010000
00001000
00000100
00000000
00000010
00000000
00000000
,
00001000
00000000
00000001
00001000
00000000
00000010
00001000
00000100
,
00001000
00000010
00000100
00000010
00000000
00001000
00000100
00010000
,
00011000
00000000
00001000
00100000
00000000
01000000
00000000
00100000
,
00010000
00001000
00000100
00000010
00000000
00000001
00000000
00000000
,
00000011
00000000
00000001
00000010
00000000
00000100
00001000
00000010
,
00000100
00000010
00001000
00000100
00000000
00010000
00001000
00100000
,
00110000
00000000
00010000
10000000
00000000
10000000
00010000
10000000
,
01000000
00010000
00001000
00010000
00000000
00000010
00000000
00000100
,
00000001
00000000
00000001
00000100
00000000
00000010
00001000
00000100
,
00010000
00001000
00100000
00010000
00000000
10000000
01000000
00100000
,
00010000
00000000
10000000
00010000
00000000
00010000
00100000
00000000
,
00001000
00010000
00000100
00001000
00000000
00000010
00000000
00000100
,
00001001
00000000
00000100
00000010
00000000
00000010
00000100
00000001
,
00000010
00000100
00010000
00001000
00000000
00010000
00100000
01000000
,
10010000
00000000
01000000
00000000
10000000
01000000
00010000
00000000
,
00010000
01000000
10000000
00000000
00100000
01000000
00010000
10000000
,
00010000
01000000
00100000
00000000
10000000
01000000
00010000
00000000
,
00010000
00001000
00000100
00000000
00000100
00000010
00000001
00000010
,
00000100
00001000
00010000
00000000
00010000
00001000
00010000
00000000
,
00010000
01000000
00100000
00000000
00100000
01000000
00010000
00001000
,
00010000
01000000
00100000
00000000
00100000
00010000
01000000
00000000
,
01000000
00000000
00010000
00000000
00100000
00000000
00001000
00000000
00010000
00000000
00000100
00000000
00001000
00000100
00001000
00000100
,
00001000
00000100
00001000
00000010
00000000
00000100
00000001
00000010
,
00000100
00010000
00001000
00100000
,
00010000
10000000
01000000
10000000
00000000
01000000
00100000
00001000
,
00010000
00000000
00000100
00000000
00001000
00000000
00000010
00000100
,
00000001
00001000
00000100
00001000
00000000
00000100
00010000
00001000
,
00010000
00001000
00100000
01000000
,
00100000
00001000
00010000
00000100
00000000
00000010
00000100
00001000
,
00000010
00000100
00001000
00010000
,
00001000
00010000
00001000
00010000
00000000
00001000
00000000
00000000
,
01100000
00000000
01000000
10010000
00000000
00100000
00000000
10000000
,
00010000
00000000
00000000
10000000
01000000
00000000
00000000
01000000
00100000
00000000
00000000
00100000
00010000
00000000
00000000
00010000
,
00100000
00001000
00010000
00000100
00001000
00000100
00010000
00001000
,
00011000
00001000
00000100
00000010
00000000
00000100
00000000
00000010
,
00010000
00001000
00100000
00010000
00000000
10000000
00000000
00010000
,
10000000
00000000
01000000
00100000
00000000
00100000
01000000
10000000
,
00100000
01000000
00010000
00100000
00000000
00001000
00010000
00000000
,
00011000
00000000
00010000
00000010
00000000
00001000
00000000
00000100
,
00010000
00001000
00100000
01000000
00000000
00100000
00000000
00010000
,
10010000
00000000
10000000
00010000
00000000
00010000
10000000
00100000
,
01000000
00010000
00100000
00001000
00000000
00010000
00000100
00000000
,
00001001
00000000
00000001
00000100
00000000
00000010
00000000
00010000
,
00001000
00100000
00010000
00100000
00000000
00001000
00000000
00100000
,
00010000
00000000
01000000
00010000
00000000
00100000
00001000
00010000
,
00000100
00001000
00000010
00000100
00000000
00000010
00001000
00000000
,
00010100
00000000
00000100
00010000
00000000
00001000
00000000
00100000
,
00010000
00100000
01000000
10000000
00000000
00100000
00000000
00000000
,
10010000
00000000
10000000
00010000
00000000
00010000
10000000
01000000
,
00010000
00001000
00010000
00000100
00000000
00001000
00000010
00000000
,
00022000
00000000
00033000
00000000
;

//---------------dance-double - M. Cerna----------------
#NOTES:
     dance-double:
     M. Cerna:
     Medium:
     6:
     0.350,0.383,0.100,0.009,0.000,257.000,11.000,1.000,0.000,0.000,0.000:
00000000
00000000
00000000
00000000
,
00000000
00000000
00000000
00000000
,
00000000
00000000
00000000
00000000
,
00000000
00000000
00000000
00000000
,
10000000
00000000
00010000
00010000
00000000
00100000
00000000
00000000
,
00001000
00000000
00000000
00010000
00000000
00011000
00000000
00000000
,
00001000
00001000
00010000
00010000
,
00000100
00000000
00000100
00000000
00001000
00000010
00001000
00000100
,
00000010
00000001
00000100
00000010
,
00001000
00000100
00010000
00001000
00000000
00100000
00000000
00000000
,
00010000
10000000
01000000
10000000
,
00100000
01000000
00100000
01000000
00000000
00010000
00100000
00000000
,
00010000
10000000
01000000
00010000
,
00001000
00010000
00001000
00010000
00000000
00001000
00000000
00000000
,
00010000
00000100
00001000
00000010
,
00000100
00000001
00000010
00000100
00000000
00001000
00001000
00000000
,
00001001
00001000
00000100
00010000
,
00001000
00000000
00100000
00000000
01000000
10000000
00100000
00000000
,
01000000
00010000
00100000
00001000
,
00010000
00000100
00001000
00000100
00000000
00001000
00000001
00000000
,
00000100
00001000
00010000
00001000
,
00100000
00000000
00010000
00000000
10000000
01000000
10000000
00000000
,
00010000
00100000
00001000
00010000
,
00000100
00001000
00000010
00000100
00000000
00000001
00000001
00000000
,
00001000
00000000
00001000
00000100
,
00010000
00000000
00010000
00001000
,
00100000
00000000
00100000
00010000
,
00100000
00000000
00001000
00010000
,
00001000
00010000
00000100
00000000
00001000
00000000
00000010
00000000
,
00000100
00000001
00000010
00000000
00000100
00000000
00010000
00000000
,
00001000
00010000
00001000
00000000
00100000
00000000
00010000
00000000
,
01000000
00010000
00100000
00000000
00010000
10000000
01000000
10000000
,
10010000
10000000
01000000
10000000
,
00010000
00100000
00001000
00000000
00010000
00000000
00000100
00000000
,
00001000
00000010
00000100
00001000
,
00010000
00001000
00100000
00000000
01000000
00000000
00100000
00000000
,
00010000
00100000
01000000
10000000
,
00010000
01000000
00100000
00000000
01000000
00000000
00001000
00000000
,
00010000
00001000
00000100
00000010
,
00000100
00000001
00000100
00000000
00000001
00000000
00000010
00000000
,
00000200
00000000
00001000
00001300
00000000
00000100
00000000
00000000
,
00011000
00000000
00000000
00001000
00000000
00101000
00000000
00000000
,
01100000
01000000
10010000
00100000
,
00110000
00000000
00100000
00000000
11000000
01000000
10000000
00100000
,
01000000
00010000
00100000
00001000
,
00010000
00000100
00001000
00000010
00000000
00000100
00000000
00000000
,
00000010
00001000
00000100
00010000
,
00001000
00010000
00001000
00000100
00000000
00000010
00000010
00000000
,
00010000
00001000
00100000
01000000
,
00100000
00010000
00100000
00010000
00000000
10000000
00000000
00000000
,
01000000
00100000
01000000
00010000
,
00001000
00010000
00001000
00100000
00000000
00001000
00001000
00000000
,
00011000
00010000
00000100
00001000
,
00000010
00000000
00000100
00000000
00001000
00010000
00001000
00000000
,
00100000
01000000
00010000
00001000
,
00010000
00000100
00001000
00000100
00000000
00001000
00000010
00000000
,
00000100
00001000
00010000
00100000
,
10000000
00000000
00100000
00000000
01000000
00010000
01000000
00000000
,
00010000
10000000
01000000
00010000
,
00001000
00010000
00001000
00010000
00000000
00000100
00000100
00000000
,
00001001
00000000
00000000
00000000
;
