#TITLE:That Is Fair;
#SUBTITLE:;
#ARTIST:Vospi;
#TITLETRANSLIT:;
#SUBTITLETRANSLIT:;
#ARTISTTRANSLIT:;
#GENRE:Big Beat;
#CREDIT:;
#BANNER:That is Fair-bn.png;
#BACKGROUND:That is Fair-bg.png;
#LYRICSPATH:;
#CDTITLE:;
#MUSIC:That is Fair.ogg;
#OFFSET:-0.091;
#SAMPLESTART:48.026;
#SAMPLELENGTH:11.840;
#SELECTABLE:YES;
#BPMS:0.000=125.003;
#STOPS:;
#BGCHANGES:0.005=That is Fair.mpg=1.000=1=0=0=StretchNoLoop==CrossFade==,
99999=-nosongbg-=1.000=0=0=0 // don't automatically add -songbackground-;
#KEYSOUNDS:;

//---------------dance-double - M.Emirzian----------------
#NOTES:
     dance-double:
     M.Emirzian:
     Easy:
     4:
     0.268,0.207,0.316,0.000,0.005,168.000,34.000,0.000,0.000,0.000,0.000,0.268,0.207,0.316,0.000,0.005,168.000,34.000,0.000,0.000,0.000,0.000:
00000000
00000000
00000000
00000000
,
00000000
00000000
00000000
00000000
,
00000000
00000000
00000000
00000000
,
00000000
00000000
00000000
00000000
,
10000000
01000000
10000000
00100000
,
01000000
00010000
00100000
00010000
,
01000000
00001000
00010000
00001000
,
00100000
00001000
00010000
00000100
,
00001000
00000010
00001000
00000100
,
00000010
00000001
00000100
00000001
,
00000010
00000100
00001000
00000010
,
00001000
00000100
00011000
00000000
,
00011000
00000000
01001000
00000000
,
01010000
00000000
10000000
00100000
,
10010000
00000000
01001000
00000000
,
00011000
00000000
00010000
00000100
,
00001100
00000000
00001010
00000000
,
00000101
00000000
00001000
00000100
,
00010100
00000000
00011000
00000000
,
01001000
00000000
00010000
00001000
,
01000000
00010000
00100000
00010000
,
01010000
00000000
00100000
10000000
,
11000000
00000000
00100000
00001000
,
00011000
00000000
00010000
00001000
,
00010100
00000000
00000100
00001000
,
00001010
00000000
00000001
00000100
,
00001001
00000000
00000010
00001000
,
00001100
00000000
00001000
00010000
,
01001000
00000000
00010000
01000000
,
10010000
00000000
00100000
10000000
,
01000000
00000000
00010000
00001000
,
01000000
00000000
00010000
00001000
,
00010100
00000000
00001100
00000000
,
00001001
00000000
00000010
00001000
,
00001010
00000000
00011000
00000000
,
01010000
00000000
00100000
10000000
,
01000000
10000000
00100000
01000000
,
00010000
00000000
00100000
00001000
,
00011000
00000000
00000100
00001000
,
00010100
00000000
00000010
00001000
,
00001100
00000000
00000001
00000100
,
00001010
00000000
00000001
00001000
,
00001100
00000000
00010000
00001000
,
01001000
00000000
00010000
00001000
,
00100000
00010000
01000000
00010000
,
00100000
01000000
10000000
00100000
,
10000000
01000000
00100000
00001000
,
00010000
00000100
00001000
00000010
,
00001000
00000100
00000010
00000001
,
00000100
00000001
00000010
00000100
,
00001000
00000010
00010000
00001000
,
01000000
00001000
00010000
00001000
,
00100000
00000000
01000000
01000000
,
01000000
00000000
00000100
00000100
,
00000100
00000000
00000001
00001000
,
00000100
00000000
00000000
00000000
00010000
00000000
00000000
00000000
00001000
00000000
00000000
01000000
00000000
00000000
00000000
00000000
;

//---------------dance-double - M.Emirzian----------------
#NOTES:
     dance-double:
     M.Emirzian:
     Medium:
     5:
     0.376,0.311,0.270,0.056,0.000,248.000,29.000,6.000,0.000,0.000,0.000,0.376,0.311,0.270,0.056,0.000,248.000,29.000,6.000,0.000,0.000,0.000:
00000000
00000000
00000000
00000000
,
00000000
00000000
00000000
00000000
,
00000000
00000000
00000000
00000000
,
00000000
00000000
00000000
00000000
,
00100000
01000000
10000000
00000000
00010000
00000000
01000000
00100000
,
10000000
00000000
01000000
00000000
00100000
00001000
00010000
00000000
,
00000100
00010000
00001000
00000000
00000100
00000000
00000001
00001000
,
00000100
00000000
00000010
00000000
00000100
00001000
00000010
00000000
,
00000100
00000101
00001000
00010100
,
00001000
00000000
00011000
00000000
00000100
00010000
00001000
00000000
,
00000100
00011000
01000000
01010000
,
00100000
00000000
10100000
00000000
01000000
00010000
00100000
00000000
,
01000000
10000000
01010000
00110000
,
00002000
01000000
00010000
00103000
,
00010000
00000100
00010100
00001100
,
00000020
00010000
00001000
00000130
,
00000001
00000010
00001100
00001010
,
00020000
00000010
00000100
00031000
,
00010000
00001000
01001000
01010000
,
20000000
01000000
00010000
30100000
,
01000000
10000000
00010000
00000000
00100000
00000000
00001000
00000000
,
00010000
00000100
00001000
00000000
00000010
00000000
00010000
00001000
,
00000100
00000000
00000001
00000000
00000010
00001000
00000001
00000000
,
00000010
00000100
00001000
00000000
00000010
00000000
00010000
00000000
,
00000100
00001000
00010000
00000000
01000000
00000000
00001000
00000000
,
00010000
00100000
01000000
00000000
00001000
00000000
01000000
10000000
,
00010000
00000000
00100000
00000000
00001000
00100000
00010000
00000000
,
00000100
00001000
00010000
00000000
00001000
00000000
00000010
00001000
,
00000100
00000000
00000010
00000000
00000001
00000000
00001000
00000010
,
00000100
00000000
00010000
00000000
00001000
00000000
01000000
00010000
,
00001000
00000000
01000000
00000000
00100000
00000000
10000000
00010000
,
01000000
00000000
00100000
00000000
10000000
00000000
01000000
00100000
,
00010000
00001000
00011000
00010100
,
00002000
01000000
00010000
00103000
,
00010000
01000000
10100000
10010000
,
00200000
10000000
01000000
00310000
,
01000000
00100000
00010000
00000000
00100000
00000000
00001000
00000000
,
00010000
00000100
00001000
00000000
00010000
00000000
01000000
00010000
,
00001000
00000000
00000010
00000000
00001000
00010000
00000100
00000000
,
00000010
00000100
00001000
00000000
00000001
00000000
00000100
00000000
,
00000010
00001000
00000100
00000000
00010000
00000000
00000100
00000000
,
00001000
00000100
00010000
00000000
00001000
00000000
01000000
00010000
,
00001000
00000000
01000000
00000000
00010000
00100000
01000000
00000000
,
10000000
00010000
01000000
00000000
00100000
00000000
01000000
00010000
,
10000000
00100000
00110000
00101000
,
00010000
00000000
00001000
00000000
00000100
00010000
00001000
00000000
,
00000010
00000100
00000101
00001001
,
00000010
00000000
00000100
00000000
00010000
00000100
00001000
00000000
,
00010000
00001000
01001000
01010000
,
00100000
00000000
01000000
00000000
00001000
00010000
01000000
00000000
,
10000000
00100000
01010000
01001000
,
00010000
00000000
00001000
00000000
00000100
00010000
00001000
00000000
,
00010000
00000000
00000010
00000000
00010000
00000000
00000100
00000010
,
00000001
00000000
00000010
00000000
00000100
00010000
00001000
00000000
,
00010000
00001000
01000000
00010000
,
00100000
10100000
01010000
01001000
;

//---------------dance-double - M.Emirzian----------------
#NOTES:
     dance-double:
     M.Emirzian:
     Hard:
     9:
     0.651,0.544,0.576,0.000,0.381,428.000,62.000,0.000,10.000,0.000,0.000,0.651,0.544,0.576,0.000,0.381,428.000,62.000,0.000,10.000,0.000,0.000:
00000000
00000000
00000000
00000000
,
00000000
00000000
00000000
00000000
,
01000000
00000000
00000000
00000000
00001000
00000000
00010000
00000000
00000100
00000000
00000000
00001000
00000000
00000000
00000010
00000000
,
00010000
00000000
00000000
00000000
00011000
00000000
00000000
00000000
00101000
00000000
00000000
00010100
00000000
00000000
00000010
00000000
,
00000100
00001000
00000000
00001000
00000010
00000000
00000100
00000000
00000001
00001000
00000000
00001000
00000000
00000000
0000M010
00000000
,
00001000
00000100
00001000
00000001
00000100
00000010
00010000
00001000
,
01000000
00010000
00000000
00010000
10000000
00000000
00100000
00000000
01000000
00010000
00000000
00010000
00000000
00000000
100M0000
00000000
,
01000000
00000000
00100000
00000000
00010000
00000000
00100000
00000000
01000000
00000000
00010000
00000000
00001000
00010000
00001000
00000000
,
00010000
00000100
00000000
00000100
00001000
00000000
00000010
00000000
00010000
00001000
00000000
00001000
00000000
00000000
000M1000
00000000
,
00010000
00000100
00010000
00000010
00001000
00000100
00000010
00000001
,
00001000
00000010
00000000
00000010
00000100
00000000
00000001
00000000
00001000
00000100
00000000
00000100
00000000
00000000
00010M00
00000000
,
00001000
01000000
00000000
00100000
00000000
00000000
10000000
00000000
11000000
00000000
00000000
00110000
00000000
00000000
10010000
00000000
,
01000000
00000000
00000000
00000000
00110000
00000000
00000000
00101000
00000000
00000000
00010000
00000000
00001000
00000000
00000100
00000000
,
00001000
00000000
00010000
00000000
00001000
00010000
00000000
00010000
00001000
00010000
00000000
00010000
00001000
00000000
01000000
00000000
,
01000000
00000000
0M000000
00000000
00110000
00000000
00000000
10010000
00000000
00000000
01000000
00000000
00100000
00000000
00001000
00000000
,
00010000
00000000
00000010
00000000
00001000
00000100
00000000
00000100
00001000
00000100
00000000
00000100
00001000
00000000
00000001
00000000
,
00000001
00000000
0000000M
00000000
00001100
00000000
00000000
01010000
00000000
00000000
00000100
00000000
00010000
00000000
00001000
00000000
,
01000000
00000000
00100000
00000000
01000000
00010000
00000000
00010000
01000000
00010000
00000000
00010000
10000000
00000000
01000000
00000000
,
01000000
00000000
0M000000
00000000
00110000
00000000
00000000
00001100
00000000
00000000
00000010
00000000
00001000
00000000
00000001
00000000
,
00000100
00000000
00000010
00000000
00010000
00000000
00001000
00000000
00011000
00000000
00000000
01001000
00000000
00000000
00010100
00000000
,
00010000
00000000
00001000
00000000
00010000
00000000
00010000
00000000
00100000
00000000
00100000
00000000
01000000
00010000
01000000
00000000
,
00100000
00000000
10000000
00000000
01000000
00000000
01000000
00000000
00100000
00000000
00100000
00000000
00010000
00100000
00010000
00000000
,
01000000
00000000
00001000
00000000
00010000
00000000
00010000
00000000
00000100
00000000
00000100
00000000
00001000
00000001
00001000
00000000
,
00000100
00000000
00000010
00000000
00000001
00000000
00000001
00000000
00000100
00000000
00000100
00000000
00000010
00001000
00000010
00000000
,
00010000
00001000
00011000
00010000
00001000
01000000
01010000
00010000
,
01000000
00100000
10100000
10000000
01000000
00100000
01100000
01000000
,
00010000
00001000
00011000
00010000
00000100
00001000
00001100
00000100
,
00000010
00000000
00000001
00000000
00000011
00000000
00000010
00000000
00000110
00000000
00000000
00001100
00000000
00000000
00010100
00000000
,
00001000
00010000
00000000
00010000
00001000
00000000
01000000
00000000
00100000
00000000
10000000
00000000
01000000
00000000
00100000
00000000
,
00100000
00010000
00000000
00010000
10000000
00000000
01000000
00000000
00100000
00000000
00001000
00000000
00010000
00000000
00000010
00000000
,
00001000
00000100
00000000
00000100
00000010
00000000
00000100
00000000
00001000
00000000
00000001
00000000
00000100
00000000
00000010
00000000
,
00001000
00000100
00000000
00000100
00000000
00000000
00010000
00000000
00011000
00000000
00000000
01010000
00000000
00000000
00001100
00000000
,
00010000
00000000
00000000
00000000
00010100
00000000
00000000
01001000
00000000
00000000
01000000
00000000
00100000
00000000
10000000
00000000
,
01000000
00000000
00100000
00000000
00010000
01000000
00000000
01000000
00001000
01000000
00000000
01000000
00010000
00000000
00100000
00000000
,
00001000
00000000
00000000
00000000
00010100
00000000
00000000
00000110
00000000
00000000
00000010
00000000
00000001
00000000
00001000
00000000
,
00000010
00000000
00010000
00000000
00001000
00000000
01000000
00000000
00010000
00000000
00000000
11000000
00000000
00000000
00110000
00000000
,
10000000
00000000
00100000
00000000
01000000
00000000
00010000
00000000
10000000
00000000
01000000
00000000
00100000
00010000
00100000
00000000
,
01000000
00000000
00010000
00000000
00001000
00000000
01000000
00000000
00001000
00000000
00010000
00000000
00000100
00001000
00000100
00000000
,
00000010
00000000
00000001
00000000
00001000
00000000
00000010
00000000
00000100
00000000
00000001
00000000
00001000
00000100
00001000
00000000
,
00000010
00000000
00001000
00000000
00000100
00000000
00010000
00000000
00001000
00000000
01000000
00000000
00100000
01000000
00100000
00000000
,
10000000
01000000
11000000
10000000
00100000
01000000
01100000
00100000
,
01000000
00001000
01001000
01000000
00001000
00010000
00011000
00001000
,
00010000
00000010
00010010
00010000
00000100
00001000
00001100
00000100
,
00000010
00000000
00000001
00000000
00000011
00000000
00000010
00000000
00000110
00000000
00000000
00001100
00000000
00000000
00010100
00000000
,
00000100
00000000
00010000
00000000
00001000
00000000
01000000
00000000
00011000
00000000
00000000
01010000
00000000
00000000
00001100
00000000
,
00001000
00000100
00010000
00001000
01000000
00010000
00100000
00001000
,
00010000
00000000
00000010
00000000
00010000
00000000
00001000
00000000
00011000
00000000
00000000
01001000
00000000
00000000
00010100
00000000
,
00001000
00000100
00010000
00001000
01000000
00100000
10000000
01000000
,
00100000
00000000
00001000
00000000
00010000
00000000
00000100
00000000
00011000
00000000
00000000
01010000
00000000
00000000
00001100
00000000
,
00000100
00000010
00000001
00000100
00000010
00010000
00001000
01000000
,
00001000
00000000
00010000
00000000
01000000
00000000
10000000
00000000
10100000
00000000
00000000
01010000
00000000
00000000
01001000
00000000
,
01000000
00000000
00001000
00000000
00010000
00000000
00000100
00000000
00010100
00000000
00000000
00001100
00000000
00000000
00000011
00000000
,
00000001
00000000
00001000
00000000
00000010
00000000
00000100
00000000
00000010
00001000
00000000
000010M0
00000000
00001000
00000000
00000000
,
00000010
00000000
00010000
00000000
00001000
00000000
00000100
00000000
00001000
00010000
00000000
0001M000
00000000
00010000
00000000
00000000
,
00001000
00000000
00010000
00000000
01000000
00000000
10000000
00000000
00100000
01000000
00000000
01M00000
00000000
01000000
00000000
00000000
,
00010000
00000000
10000000
00000000
01000000
00100000
01000000
00100000
01000000
00000000
00000000
10010000
00000000
00000000
00000000
00000000
;

//---------------dance-double - M.Emirzian----------------
#NOTES:
     dance-double:
     M.Emirzian:
     Challenge:
     11:
     0.861,0.958,0.242,0.112,1.000,610.000,26.000,12.000,0.000,6.000,0.000,0.861,0.958,0.242,0.112,1.000,610.000,26.000,12.000,0.000,6.000,0.000:
00000000
00000000
00000000
00000000
,
00000000
00000000
00000000
00000000
,
00011000
00000000
00000000
00000000
00010100
00000000
00001000
00000100
00010000
00000000
00000000
00000010
00000000
00000000
00001000
00000000
,
00000001
00000000
00000000
00000000
00000110
00000000
00001000
00000000
00001001
00000000
00000000
00000110
00000000
00000000
00001001
00000000
,
00000010
00000100
00000000
00000100
00001000
00000001
00000100
00000000
00000010
00001000
00000000
00001000
00000100
00000000
00010000
00000000
,
00001000
00010000
00001000
00000000
01000000
00010000
00100000
00010000
00100000
01000000
00000000
01000000
10000000
00100000
10000000
00000000
,
00010000
01000000
00000000
01000000
00100000
01000000
00001000
01000000
00001000
00010000
00001000
00000000
00010000
00000000
00010000
00000000
,
00000100
00000010
00000100
00001000
00000100
00000010
00000000
00000010
00000001
00001000
00000001
00000000
00000100
00000010
00001000
00000000
,
00000100
00001000
00000000
00001000
00000100
00010000
00001000
00000000
00001000
01000000
00000000
01000000
00010000
00000000
00100000
00000000
,
01000000
10000000
00100000
00000000
10000000
00010000
10000000
01000000
10000000
00100000
00000000
00100000
01000000
00001000
00010000
00000000
,
00001000
01000000
00000000
01000000
00001000
00010000
00001000
00100000
00001000
00010000
00000100
00000000
00001000
00000000
00001000
00000000
,
00000100
00001000
00000000
00000010
00000000
00000000
00001000
00000000
00000110
00000000
00000000
00000101
00000000
00000000
00001001
00000000
,
00000200
00000000
00000000
00000000
00000000
00000000
00000000
00020000
00000000
00000000
00000000
00000000
00000000
00000000
00000000
00000000
,
00031300
00000000
00000000
00000000
00000000
00000000
00001000
00000000
00010000
00001000
00000000
00001000
01000000
00000000
00100000
01000000
,
00002000
00000000
00000000
00000000
00000000
00000000
00000000
02000000
00000000
00000000
00000000
00000000
00000000
00000000
00000000
00000000
,
03013000
00000000
00000000
00000000
00000000
00000000
01000000
00000000
00010000
10000000
00000000
10000000
01000000
00000000
01000000
00100000
,
00020000
00000000
00000000
00000000
00000000
00000000
00000000
02000000
00000000
00000000
00000000
00000000
00000000
00000000
00000000
00000000
,
13030000
00000000
00000000
00000000
00000000
00010000
10000000
00000000
10000000
01000000
00000000
01000000
00100000
00000000
00001000
00010000
,
00000200
00000000
00000000
00000000
00000000
00000000
00000000
00020000
00000000
00000000
00000000
00000000
00000000
00000000
00000000
00000000
,
00031300
00000000
00000000
00000000
00000000
00000000
00000000
00000000
00101000
00000000
00000000
00011000
00000000
00000000
01001000
00000000
,
01000000
00000000
00010000
00000000
01000000
00000000
00010000
00000000
01000000
00000000
00100000
00000000
01000000
00100000
01000000
00000000
00100000
00000000
10000000
00000000
00010000
00000000
10000000
00000000
00010000
00000000
10000000
00000000
01000000
00000000
10000000
00000000
,
01000000
00000000
10000000
00000000
01000000
00000000
00100000
00000000
00010000
00000000
00100000
00000000
00010000
00100000
00010000
00000000
00100000
00000000
00001000
00000000
00100000
00000000
00001000
00000000
00010000
00000000
00001000
00000000
00010000
00000000
00000100
00000000
,
00001000
00000000
00000010
00000000
00001000
00000000
00000010
00000000
00000100
00000000
00000001
00000000
00000100
00000000
00000010
00000000
00000100
00000010
00000100
00000000
00000001
00000000
00001000
00000000
00000100
00000000
00001000
00000000
00000100
00000000
00010000
00000000
,
00001000
00000000
01000000
00000000
00001000
00000000
01000000
00000000
00010000
00000000
01000000
00000000
00100000
00000000
10000000
00000000
00100000
10000000
00100000
00000000
10000000
00000000
00100000
00000000
01000000
00000000
00010000
00000000
10000000
00000000
01000000
00000000
,
00100000
00000000
00010000
00000000
00100000
00000000
00001000
00000000
00100000
00001000
00100000
00000000
00001000
00000000
00010000
00000000
00001000
00000000
00010000
00000000
00000010
00000000
00001000
00000000
00000010
00001000
00000010
00000000
00001000
00000000
00000100
00000000
,
00000010
00000000
00000001
00000000
00001000
00000000
00000100
00000000
00000010
00000000
00000001
00000000
00000010
00000001
00000010
00000000
00000001
00000000
00001000
00000000
00000001
00001000
00000001
00000000
00001000
00000000
00000010
00000000
00001000
00000010
00001000
00000000
,
00000010
00000000
00000100
00000000
00000010
00000000
00001000
00000000
00000010
00000000
00010000
00000000
00000010
00000000
00010000
00000000
00001000
00000000
00010000
00000000
00001000
00000000
01000000
00000000
00001000
01000000
00001000
00000000
01000000
00000000
00010000
00000000
,
01000000
00000000
00100000
00000000
10000000
00000000
00010000
00000000
10000000
00010000
10000000
00000000
00010000
00000000
10000000
00000000
01000000
00000000
00000000
00000000
01000000
00000000
00100000
00000000
00000000
00000000
00100000
00000000
00001000
00000000
00000000
00000000
,
00001000
00010000
00000000
00010000
00000100
00001000
00000100
00000000
00000010
00000001
00000000
00000001
00001000
00000000
00000100
00000000
,
00000100
00001000
00000100
00000000
00000100
00010000
00001000
00010000
00000010
00001000
00000000
00001000
00000100
00010000
00001000
00000000
,
01000000
00100000
00000000
00100000
01000000
00001000
01000000
00010000
01000000
00100000
01000000
00000000
00010000
00000000
00010000
00000000
,
00100000
00010000
00000000
00010000
01000000
00000000
00001000
00000000
01001000
00000000
00000000
00011000
00000000
00000000
00010010
00000000
,
00002000
00000000
00000000
00000000
00000000
00000000
00000000
00020000
00000000
00000000
00000000
00000000
00000000
00000000
00000000
00000000
,
00133000
00000000
00000000
00000000
00000000
00000000
01000000
00000000
01000000
00100000
00000000
00100000
10000000
00000000
01000000
00100000
,
02000000
00000000
00000000
00000000
00000000
00000000
00000000
20000000
00000000
00000000
00000000
00000000
00000000
00000000
00000000
00000000
,
33110000
00000000
00000000
00000000
00000000
00000000
00000000
00000000
00110000
00000000
00000000
00101000
00000000
00000000
01001000
00000000
,
00001000
00000000
00010000
00000000
00001000
00000000
00010000
00000000
00001000
00000000
01000000
00000000
00001000
01000000
00001000
00000000
01000000
00000000
00010000
00000000
01000000
00000000
00100000
00000000
01000000
00000000
00100000
00000000
10000000
00000000
00100000
00000000
,
10000000
00000000
01000000
00000000
00100000
00000000
01000000
00000000
00100000
00000000
00010000
00000000
00100000
00010000
00100000
00000000
00010000
00000000
01000000
00000000
00001000
00000000
01000000
00000000
00001000
00000000
00010000
00000000
00000100
00000000
00010000
00000000
,
00000100
00000000
00001000
00000000
00000001
00000000
00001000
00000000
00000100
00000000
00000010
00000000
00000001
00000000
00001000
00000000
00000001
00001000
00000001
00000000
00001000
00000000
00000001
00000000
00000100
00000000
00000010
00000000
00000100
00000000
00000010
00000000
,
00001000
00000000
00000100
00000000
00001000
00000000
00000100
00000000
00010000
00000000
00001000
00000000
01000000
00000000
00001000
00000000
00010000
00001000
00010000
00000000
00001000
00000000
01000000
00000000
00010000
00000000
01000000
00000000
00100000
00000000
01000000
00000000
,
00100000
00000000
10000000
00000000
00010000
00000000
00100000
00000000
00010000
00100000
00010000
00000000
00100000
00000000
00001000
00000000
01000000
00000000
00001000
00000000
00010000
00000000
00000100
00000000
00010000
00000100
00010000
00000000
00000100
00000000
00001000
00000000
,
00000010
00000000
00001000
00000000
00000010
00000000
00000100
00000000
00000001
00000000
00000100
00000000
00000001
00000100
00000001
00000000
00000100
00000000
00000010
00000000
00000100
00000010
00000100
00000000
00000010
00000000
00001000
00000000
00000010
00001000
00000010
00000000
,
00001000
00000000
00000100
00000000
00010000
00000000
00001000
00000000
00010000
00000000
00001000
00000000
00100000
00000000
00010000
00000000
00100000
00000000
01000000
00000000
00100000
00000000
00010000
00000000
00100000
00010000
00100000
00000000
00010000
00000000
10000000
00000000
,
00100000
00000000
01000000
00000000
00010000
00000000
01000000
00000000
00010000
01000000
00010000
00000000
01000000
00000000
00001000
00000000
00010000
00000000
00000000
00000000
00010000
00000000
00000100
00000000
00000000
00000000
00000100
00000000
00001000
00000000
00000000
00000000
,
00000010
00001000
00000010
00000100
00000001
00000100
00000010
00001000
00000100
00000000
00000100
00010000
00000000
00010000
00100000
00000000
,
01000000
00001000
01000000
00010000
01000000
00100000
01000000
00010000
10000000
00000000
01000000
00000000
10010000
00000000
00010000
00000000
,
00100000
00001000
00100000
00001000
00010000
00001000
01000000
00001000
00010000
00000000
00010000
00000100
00000000
00000100
00000010
00000000
,
00000100
00001000
00000100
00010000
00000100
00001000
00000100
00000010
00000100
00000000
00001000
00000000
00010100
00000000
00001000
00000000
,
00000010
00001000
00000100
00001000
00000010
00000000
00000100
00000001
00000010
00000001
00000100
00000000
00000010
00010000
00001000
00010000
,
00001000
00000000
00100000
00001000
00010000
00000010
00001000
00000000
00000100
00000000
00000100
00010000
00000000
00010000
00001000
00000000
,
00100000
00010000
00100000
00001000
00100000
00010000
00100000
01000000
00100000
00000000
00100000
00001000
00000000
00001000
00010000
00000000
,
00000010
00001000
00000010
00010000
00000010
00001000
00000010
00000100
00000110
00000000
00000000
00001001
00000000
00000000
00001100
00000000
,
00001000
00000100
00010000
00001000
00000000
00000000
00000000
00001000
01000000
00010000
00000000
00010000
00000000
00010000
00000000
00000000
,
10000000
01000000
00100000
00010000
00000000
00000000
00000000
00010000
00100000
00001000
00000000
00001000
00000000
00001000
00000000
00000000
,
00010000
00000100
00001000
00000010
00000000
00000000
00000000
00000010
00000100
00000001
00000000
00000001
00000000
00000001
00000000
00000000
,
00000100
00000010
00001000
00000010
00010000
00001000
01000000
00001000
01001000
00000000
00000000
01010000
00000000
00000000
00000000
00000000
;

//---------------dance-single - D. D'Amato----------------
#NOTES:
     dance-single:
     D. D'Amato:
     Edit:
     9:
     0.000,0.000,0.000,0.000,0.000,0.000,0.000,0.000,0.000,0.000,0.000,0.000,0.000,0.000,0.000,0.000,0.000,0.000,0.000,0.000,0.000,0.000:
;

//---------------dance-single - J. Frederick----------------
#NOTES:
     dance-single:
     J. Frederick:
     Beginner:
     1:
     0.066,0.077,0.009,0.000,0.000,49.000,1.000,0.000,0.000,0.000,0.000,0.066,0.077,0.009,0.000,0.000,49.000,1.000,0.000,0.000,0.000,0.000:
0000
0000
0000
0000
,
0000
0000
0000
0000
,
1000
0000
0000
0000
,
0001
0000
0000
0000
,
0010
0000
0000
0000
,
0100
0000
0000
0000
,
1000
0000
0000
0000
,
0001
0000
0000
0000
,
0100
0000
0000
0000
,
0010
0000
0000
0000
,
1000
0000
0000
0000
,
0001
0000
0000
0000
,
0110
0000
0000
0000
,
0000
0000
0000
0000
,
1000
0000
0000
0000
,
0000
0000
0000
0000
,
0001
0000
0000
0000
,
0000
0000
0000
0000
,
0010
0000
0000
0000
,
0000
0000
0000
0000
,
0100
0000
0000
0000
,
1000
0000
0000
0000
,
0001
0000
0000
0000
,
0010
0000
0000
0000
,
0100
0000
0000
0000
,
0001
0000
0000
0000
,
1000
0000
0000
0000
,
0010
0000
0000
0000
,
0100
0000
0000
0000
,
0001
0000
0000
0000
,
1000
0000
0000
0000
,
0010
0000
0000
0000
,
0100
0000
0000
0000
,
0000
0000
0000
0000
,
1000
0000
0000
0000
,
0000
0000
0000
0000
,
0001
0000
0000
0000
,
0010
0000
0000
0000
,
0100
0000
0000
0000
,
1000
0000
0000
0000
,
0001
0000
0000
0000
,
0100
0000
0000
0000
,
0010
0000
0000
0000
,
1000
0000
0000
0000
,
0001
0000
0000
0000
,
0100
0000
0000
0000
,
0010
0000
0000
0000
,
1000
0000
0000
0000
,
0100
0000
0000
0000
,
0001
0000
0000
0000
,
0010
0000
0000
0000
,
1000
0000
0000
0000
,
0100
0000
0000
0000
,
0001
0000
0000
0000
,
0010
0000
0000
0000
,
0100
0000
0010
0000
;

//---------------dance-single - J. Frederick----------------
#NOTES:
     dance-single:
     J. Frederick:
     Easy:
     4:
     0.230,0.259,0.065,0.223,0.005,142.000,7.000,24.000,0.000,0.000,0.000,0.230,0.259,0.065,0.223,0.005,142.000,7.000,24.000,0.000,0.000,0.000:
0000
0000
0000
0000
,
0000
0000
0000
0000
,
1000
0000
0000
0000
,
0001
0000
0110
0110
,
1000
0010
0100
0000
,
0001
0010
0100
0000
,
1000
0010
0100
0000
,
0001
0010
0100
0000
,
1000
0001
0100
0000
,
0010
1000
0100
0000
,
0010
0001
0100
0000
,
0010
1000
0010
0000
,
0200
0000
0000
0300
,
0020
0000
0030
0000
,
2000
0000
0000
3000
,
0002
0000
0003
0000
,
0020
0000
0000
0030
,
0200
0000
0300
0000
,
2000
0000
0000
3000
,
0020
0000
0030
0000
,
1000
0010
1000
0010
,
0100
0001
0100
0001
,
0010
0001
0010
0001
,
0010
0100
0010
0000
,
0100
1000
0100
1000
,
0100
0010
0100
0010
,
0001
0010
0001
0010
,
0001
1000
0001
0000
,
1000
0010
0100
0000
,
0001
0010
0100
0000
,
1000
0010
0100
0000
,
0001
0010
0001
0000
,
2000
0000
0000
3000
,
0020
0000
0030
0000
,
0200
0000
0000
0300
,
0002
0000
0003
0000
,
0020
0030
0100
0000
,
2000
3000
0010
0000
,
0200
0300
0001
0000
,
0020
0030
0220
0330
,
2000
3000
0001
0000
,
0200
0300
0010
0000
,
0002
0003
0010
0000
,
0200
0300
1100
0000
,
1000
0010
0100
0100
,
0001
0010
0001
0001
,
1000
0010
0100
0100
,
0001
0010
1001
1001
,
0100
0010
1000
1000
,
0100
0010
0001
0001
,
0100
0010
1000
1000
,
0001
0010
0220
0330
,
1000
0010
0100
0000
,
0001
0010
0100
0000
,
1000
0010
0001
0010
,
1000
0000
0000
0000
0000
0000
0000
0000
0010
0000
0000
0100
0000
0000
0000
0000
;

//---------------dance-single - J. Frederick----------------
#NOTES:
     dance-single:
     J. Frederick:
     Medium:
     6:
     0.420,0.362,0.121,0.019,0.005,301.000,13.000,2.000,0.000,0.000,0.000,0.420,0.362,0.121,0.019,0.005,301.000,13.000,2.000,0.000,0.000,0.000:
0000
0000
0000
0000
,
0000
0000
0000
0000
,
1000
0000
0010
0100
0010
0000
0100
0000
,
0001
0010
0220
0330
,
1000
0010
0100
0000
0001
0000
0001
0000
,
0010
0100
1000
0000
0010
0000
0010
0000
,
0100
0001
0010
0000
0001
0000
0001
0000
,
1000
0010
0001
0000
0010
0000
0010
0000
,
1000
0001
0010
0000
0100
0000
0100
0000
,
1000
0010
0100
0000
0001
0000
0001
0000
,
0010
0001
1000
0000
0010
0000
0010
0000
,
0100
0001
0010
0000
0110
0000
0110
0000
,
1000
0010
0100
0001
0010
0000
0010
0000
,
0001
0010
0100
1000
0100
0000
0000
0000
,
1000
0010
0100
0001
0010
0000
0010
0000
,
0001
0010
0100
1000
0100
0000
0000
0000
,
1000
0010
0100
0001
0010
0000
0010
0000
,
0001
1000
0010
0001
0010
0000
0000
0000
,
1000
0010
0001
0010
1000
0000
1000
0000
,
0100
0010
0001
0100
0001
0000
1000
0000
,
0001
0100
0010
1000
0100
0000
0010
0000
,
0001
0010
0100
1000
0010
0000
0100
0000
,
0010
1000
0001
0100
0001
0000
0010
0000
,
0001
0010
0100
1000
1100
0000
0011
0000
,
0100
0010
1000
0010
0100
0000
0001
0000
,
0010
0001
0010
0100
1000
0000
0010
0000
,
0100
0010
1000
0001
0010
0000
0100
0000
,
1000
0100
0010
0001
0011
0000
0101
0000
,
1000
0000
0010
0000
0100
0001
0010
0000
,
0100
0000
1000
0000
0010
0100
0001
0000
,
0010
0001
1000
0010
0100
0000
0010
0000
,
1000
0001
0010
0100
1000
0000
1000
0000
,
0100
0010
0001
0100
0010
0000
0010
0000
,
1000
0010
0001
0010
1000
0000
0000
0000
,
0100
0010
0001
0100
0001
0000
0001
0000
,
1000
0001
0010
1000
0010
0000
0000
0000
,
1000
0010
0001
0010
1000
0000
1000
0000
,
0100
0010
0001
0100
0001
0000
1000
0000
,
0010
0100
0001
0010
0100
0000
1000
0000
,
0100
0010
0001
0100
0101
0000
1010
0000
,
0100
0001
0010
0000
0100
0000
1000
0000
,
0010
0100
0001
0010
0001
0000
1000
0000
,
0010
0001
0010
1000
0100
0000
0010
0000
,
0001
0100
0001
1000
1001
0000
1010
0000
,
0100
0000
0001
0010
0100
0000
1000
0010
,
0100
0000
0001
0010
0100
0000
1000
0100
,
0010
0000
0001
0100
0001
0000
1000
0010
,
1000
0000
0010
0100
0001
0000
0010
0100
,
1000
0000
0100
0010
0001
0000
0100
0010
,
1000
0000
1000
0010
0001
0000
0001
0010
,
1000
0000
1000
0100
0010
0000
0010
0001
,
0100
0000
0100
0010
0110
0000
1001
0000
,
0010
0001
0100
0001
1000
0000
0010
0000
,
0100
0001
0010
0100
1000
0000
0010
0000
,
0100
0010
0001
0010
1000
0000
0100
0000
,
0010
0000
0001
0000
0000
0000
0000
0000
0010
0000
0000
0100
0000
0000
0000
0000
;

//---------------dance-single - J. Frederick----------------
#NOTES:
     dance-single:
     J. Frederick:
     Hard:
     9:
     0.615,0.518,0.130,0.000,0.474,449.000,14.000,0.000,3.000,0.000,0.000,0.615,0.518,0.130,0.000,0.474,449.000,14.000,0.000,3.000,0.000,0.000:
0000
0000
0000
0000
,
0000
0000
0000
0000
,
1010
0000
0000
0000
0100
0000
0001
0000
0010
0000
0000
0100
0000
0000
1000
0000
,
0100
0000
0000
0000
0010
0000
0001
0000
0100
0000
0010
1000
0000
1000
0010
0000
,
0100
0001
0000
0001
0010
0000
0100
0000
1000
0000
0100
0000
0010
0000
0001
0000
,
0100
0001
0000
0001
1000
0000
0001
0000
0100
0000
0010
0000
1000
0000
0010
0000
,
0100
0001
0000
0001
0010
0000
0100
0000
1000
0000
0100
0000
0010
0000
0001
0000
,
0100
0010
0000
0010
1000
0000
0010
0000
0100
0000
0001
0000
0010
0000
0100
0000
,
1000
0100
0000
0100
0010
0000
0001
0000
0100
0000
0010
0000
1000
0000
0010
0000
,
0010
0001
0000
0010
1000
0000
0100
0000
0010
0000
0001
0000
1000
0000
0100
0000
,
0010
0001
0000
0001
0100
0000
0001
0000
1000
0000
0010
0000
0100
0000
0010
0000
,
1000
0100
0000
0100
0010
0000
0001
0000
0011
0000
0000
1100
0000
0000
0011
0000
,
1000
0000
0010
0000
0100
0000
0001
0000
0010
0100
0000
0100
0000
0100
0000
0000
,
1000
0000
0010
0000
0100
0000
0010
0000
1000
0001
0000
1000
0000
0000
M000
0000
,
0010
0000
0100
0000
1000
0000
0100
0000
0010
0001
0000
0001
0000
0001
0000
0000
,
0100
0010
1000
0010
0100
0010
1000
0000
,
0100
0000
0010
0000
0001
0000
0100
0000
0001
1000
0000
1000
0000
1000
0000
0000
,
0010
0000
0100
0000
0010
0000
1000
0000
0001
0010
0000
0010
0000
0000
00M0
0000
,
1000
0000
0100
0000
0010
0000
0001
0000
0100
0001
0000
0001
0000
0001
0000
0000
,
1000
0000
0010
0000
0100
0000
0010
0000
1000
0000
0010
0100
0000
0001
0010
0000
,
1000
0010
0100
0001
0010
0100
1000
0100
,
0010
0000
0001
0000
0100
0000
0010
0000
1000
0010
1000
0000
0010
0000
0100
0000
,
0001
0000
0010
0000
0100
0000
1000
0000
0100
0010
0001
0000
0010
0000
0001
0000
,
0100
0000
0010
0000
1000
0000
0010
0000
0100
0001
0010
0000
0100
0000
1000
0000
,
0010
0100
0010
0000
0100
0000
0001
0000
1000
0000
0010
0000
0100
0000
0010
0000
,
1000
0010
1000
0000
0001
0000
0010
0000
0100
0000
1000
0000
0100
0000
0010
0000
,
0001
0010
0001
0000
0100
0000
0001
0000
1000
0000
0010
0000
0100
0000
0010
0000
,
1000
0100
1000
0000
0100
0000
0010
0000
0011
0000
0000
1100
0000
0000
0011
0000
,
1000
0100
0000
0010
0100
0000
0001
0000
0010
0000
0100
0000
1000
0000
0100
0000
,
0010
0001
0000
0001
0010
0000
0001
0000
0100
0000
0010
0000
1000
0000
0010
0000
,
0100
0001
0000
0001
0010
0000
0100
0000
1000
0000
0010
0000
0001
0000
0010
0000
,
0100
0010
0000
0010
1000
0000
0100
0000
0010
0000
0000
0100
1000
0000
0100
0000
,
1000
0000
0010
0000
0100
0000
0001
0000
0010
0100
0000
0100
0000
0100
0000
0000
,
1000
0000
0010
0000
0100
0000
0010
0000
1000
0001
0000
1000
0000
0000
M000
0000
,
0010
0000
0100
0000
1000
0000
0100
0000
0010
0001
0000
0001
0000
0001
0000
0000
,
0100
0000
0010
0000
1000
0000
0010
0000
0110
0000
0000
1010
0000
0000
0110
0000
,
1000
0010
0100
0001
0010
0100
1000
0100
,
0010
0001
0010
0000
0001
0000
0100
0000
0010
0000
1000
0000
0010
0000
0100
0000
,
0001
0010
0001
0000
0010
0000
0000
0100
1000
0000
0010
0000
0100
0000
0010
0000
,
1000
0010
1000
0000
0010
0000
0100
0000
0001
0010
0001
0000
0010
0000
0100
0000
,
1000
0100
1000
0000
0010
0000
0100
0000
0010
0100
0010
0000
1000
0000
0010
0000
,
0100
0001
0100
0000
0001
0000
0010
0000
0100
0010
0100
0000
1000
0000
0010
0000
,
0100
0010
0100
0000
0001
0000
0010
0000
0100
0000
1000
0000
0100
0000
0010
0000
,
0001
0010
0001
0000
0010
0000
0100
0000
1100
0000
0000
0011
0000
0000
0110
0000
,
1000
0000
0000
0000
0010
0000
0100
0010
0001
0000
0000
0100
0000
0000
1000
0000
,
0010
0000
0000
0000
0100
0010
0100
0000
0010
0000
0000
1000
0000
0000
0100
0000
,
0010
0000
0000
0000
0001
0010
0001
0000
0100
0000
0000
0010
0000
0000
1000
0000
,
0010
0000
0000
0000
0100
0001
0010
0000
0001
0000
0000
0000
1000
0000
0001
0000
,
0010
0000
0000
0000
0100
1000
0100
0000
0010
0000
0000
0001
0000
0000
0100
0000
,
0010
0000
0000
0000
1000
0010
0100
0000
0001
0000
0000
0010
0000
0000
0001
0000
,
1000
0000
0000
0000
0010
0000
0001
0010
1000
0000
0000
0100
0000
0000
0010
0000
,
0001
0000
0000
0000
1000
0001
0000
0100
0010
0100
0000
1000
0010
0000
0100
0001
,
1000
0010
0100
0001
0010
0100
1000
0100
,
0010
0001
0000
0001
0010
0000
0001
0000
0100
0000
0000
0010
1000
0000
0010
0000
,
0100
0001
0000
0001
0010
0000
0100
0000
1000
0000
0010
0000
0100
0000
0010
0000
,
0100
0000
0010
0000
0010
0100
0010
0100
0010
0000
0000
0110
0000
0000
0000
0000
;

//---------------dance-single - M. Emirzian----------------
#NOTES:
     dance-single:
     M. Emirzian:
     Challenge:
     11:
     0.942,0.958,0.363,0.000,1.000,670.000,39.000,0.000,8.000,0.000,0.000,0.942,0.958,0.363,0.000,1.000,670.000,39.000,0.000,8.000,0.000,0.000: // measure 1
0000
0000
0000
0000
,  // measure 2
0000
0000
0000
0000
,  // measure 3
1001
0000
0000
0000
0110
0000
1000
0001
0100
0000
0000
0110
0000
0000
1000
0000
,  // measure 4
0110
0000
0000
0000
0011
0000
1000
0000
0101
0000
0000
1010
0000
0000
0101
0000
,  // measure 5
0010
1000
0000
1000
0100
0010
0001
0000
0010
0100
0000
0100
1000
0000
0001
0000
,  // measure 6
0100
0010
1000
0000
0100
0010
0001
0100
0010
1000
0000
1000
0100
0010
0001
0000
,  // measure 7
0010
0100
0000
0100
1000
0010
0100
0001
0010
0100
1000
0000
1001
0000
0001
0000
,  // measure 8
0100
0010
1000
0100
0010
0001
0010
0001
0100
0010
1000
0000
0001
0100
0010
0000
,  // measure 9
1000
0100
0000
0100
0010
0001
0100
0000
0010
1000
0000
1000
0100
0000
0010
0000
,  // measure 10
0001
0100
0010
0000
1000
0100
0010
0001
0100
0010
0000
0010
0100
0001
0010
0000
,  // measure 11
0010
0100
0000
0100
1000
0010
1000
0100
0010
0001
0100
0000
0010
0000
1001
0000
,  // measure 12
1000
0100
0000
0011
0000
0000
0010
0000
0101
0000
0000
1100
0000
0000
0101
0000
,  // measure 13
0100
0000
1000
0000
0100
0000
1000
0100
0010
0100
0000
0001
0000
0110
0000
0000
,  // measure 14
0010
0000
1000
0000
0100
0010
0000
0010
0001
0100
0000
0010
1000
0000
0100
0010
,  // measure 15
0001
0000
1000
0000
0010
0000
0100
0001
1000
0100
0000
0010
0000
1001
0000
0000
,  // measure 16
0100
0000
0010
0000
1000
0100
0000
0010
0001
0100
0000
0010
1000
0000
0100
0010
,  // measure 17
0001
0000
0010
0000
0100
0000
1000
0001
0100
0010
0000
0100
0000
1001
0000
0000
,  // measure 18
0100
0000
0010
0000
1000
0100
0000
0100
0010
0001
0000
0001
0100
0000
0010
1000
,  // measure 19
0100
0000
0010
0000
0001
0000
0100
0010
1000
0100
0000
0010
0000
1100
0000
0000
,  // measure 20
1000
0001
0000
0010
0000
0000
0100
0000
0011
0000
0000
1100
0000
0000
0011
0000
,  // measure 21
1000
0000
0100
0000
1000
0000
0100
0000
0010
0000
0001
0000
0010
0001
0010
0000
0001
0000
0100
0000
0010
0000
1000
0000
0010
0000
1000
0000
0100
0000
0010
0000
,  // measure 22
0100
0000
0010
0000
0001
0000
1000
0000
0010
0000
0100
0000
0010
0100
0010
0000
0100
0000
0001
0000
0100
0000
0010
0000
1000
0000
0100
0000
0010
0000
0001
0000
,  // measure 23
0010
0000
0001
0000
1000
0000
0100
0000
1000
0000
0100
0000
0010
0000
0001
0000
0010
0001
0010
0000
0001
0000
0100
0000
0010
0000
0100
0000
0010
0000
1000
0000
,  // measure 24
0100
0000
1000
0000
0100
0000
0010
0000
0001
0000
0010
0000
0001
0000
1000
0000
0001
1000
0001
0000
1000
0000
0100
0000
1000
0000
0100
0000
0010
0000
0001
0000
,  // measure 25
0010
0000
0001
0000
0100
0000
0010
0000
0100
0010
0100
0000
0010
0000
1000
0000
0100
0000
0010
0000
0001
0000
1000
0000
0001
1000
0001
0000
1000
0000
0100
0000
,  // measure 26
0010
0000
0001
0000
0100
0000
0010
0000
1000
0000
0001
0000
1000
0001
1000
0000
0100
0000
0010
0000
0100
0010
0100
0000
0010
0000
0001
0000
0010
0001
0010
0000
,  // measure 27
0001
0000
0010
0000
0100
0000
1000
0000
0010
0000
0100
0000
0010
0000
0100
0000
0001
0000
0100
0000
0010
0000
1000
0000
0010
1000
0010
0000
1000
0000
0100
0000
,  // measure 28
0010
0000
0001
0000
1000
0000
0001
0000
1000
0001
1000
0000
1000
0000
0100
0000
0010
0000
0000
0000
0010
0000
0001
0000
0000
0000
0001
0000
0100
0000
0000
0000
,  // measure 29
0010
1000
0000
1000
0100
0010
0001
0000
0001
0100
0000
0100
0010
0000
1000
0000
,  // measure 30
0100
0010
0001
0000
0001
0100
0010
1000
0100
0010
0000
0010
0001
0100
0010
0000
,  // measure 31
1000
0001
0000
0001
0100
0010
1000
0100
0010
0001
0010
0000
0100
0000
1001
0000
,  // measure 32
0010
1000
0000
1000
0100
0000
0010
0000
0011
0000
0000
1100
0000
0000
0011
0000
,  // measure 33
1000
0000
0100
0000
0010
0000
0001
1000
0100
0010
0000
0001
0000
0110
0000
0000
,  // measure 34
0100
0000
1000
0000
0001
0100
0000
0100
0010
1000
0000
1000
0100
0000
0010
0001
,  // measure 35
0010
0000
0100
0000
1000
0000
0001
0100
0010
1000
0000
0100
0000
0110
0000
0000
,  // measure 36
0100
1000
0000
1001
0000
0000
0100
0000
1010
0000
0000
0101
0000
0000
1010
0000
,  // measure 37
1000
0000
0001
0000
0100
0000
0001
0000
0100
0000
0010
0000
0100
0010
0100
0000
0010
0000
1000
0000
0100
0000
1000
0000
0100
0000
0010
0000
0100
0000
1000
0000
,  // measure 38
0001
0000
0100
0000
0001
0000
0100
0000
0010
0000
1000
0000
0010
1000
0010
0000
1000
0000
0010
0000
0100
0000
0001
0000
0100
0000
0010
0000
0100
0000
0001
0000
,  // measure 39
1000
0000
0100
0000
0010
0000
0100
0000
0010
0000
0001
0000
1000
0000
0001
0000
1000
0001
1000
0000
0001
0000
0100
0000
0010
0000
1000
0000
0001
0000
1000
0000
,  // measure 40
0100
0000
0010
0000
0001
0000
0010
0000
0100
0000
1000
0000
0001
0000
0100
0000
0001
0100
0001
0000
0100
0000
0010
0000
1000
0000
0010
0000
1000
0000
0100
0000
,  // measure 41
0010
0000
0001
0000
0010
0000
0100
0000
0010
0100
0010
0000
0100
0000
1000
0000
0001
0000
0100
0000
0010
0000
1000
0000
0001
1000
0001
0000
0100
0000
0010
0000
,  // measure 42
1000
0000
0010
0000
0100
0000
0001
0000
0100
0000
0001
0000
0100
0001
0100
0000
0001
0000
0010
0000
0001
0010
0001
0000
0010
0000
0100
0000
0010
0100
0010
0000
,  // measure 43
0100
0000
1000
0000
0001
0000
1000
0000
0100
0000
0010
0000
0001
0000
0010
0000
0001
0000
1000
0000
0100
0000
1000
0000
0100
1000
0100
0000
1000
0000
0001
0000
,  // measure 44
0010
0000
0100
0000
1000
0000
0001
0000
1000
0001
1000
0000
0001
0000
0100
0000
0010
0000
0000
0000
0010
0000
1000
0000
0000
0000
1000
0000
0100
0000
0000
0000
,  // measure 45
0010
0001
0100
0010
1000
0100
0010
0001
0100
0000
0100
0010
0000
0010
1000
0000
,  // measure 46
1000
0001
0010
0100
1000
0001
0100
0010
1000
0000
0001
0000
0110
0000
1000
0000
,  // measure 47
0001
0100
0010
1000
0100
0010
0100
1000
0001
0000
0100
0010
0000
1000
0100
0000
,  // measure 48
0010
0001
0010
0100
1000
0001
0100
0010
1000
0000
0001
0000
0110
0000
1000
0000
,  // measure 49
0010
1000
0100
1000
0010
0000
0100
0001
0010
0001
0100
0000
0010
1000
0010
0001
,  // measure 50
0010
0000
1000
0010
0100
0001
0100
0000
1010
0000
1000
0100
0000
0100
0010
0000
,  // measure 51
0001
0100
0010
1000
0100
0010
0001
0100
0010
0000
0010
1000
0000
1000
0100
0000
,  // measure 52
0010
0100
1000
0001
0100
0010
1000
0100
1001
0000
0000
1100
0000
0000
0011
0000
,  // measure 53
1000
0100
0010
0001
0000
00MM
0000
1000
0001
1000
0000
0100
0000
0010
0000
0000
,  // measure 54
0001
0100
0010
1000
0000
M0M0
0000
0001
0100
0001
0000
1000
0000
0010
0000
0000
,  // measure 55
0100
0001
1000
0010
0000
M0M0
0000
0100
0010
0100
0000
1000
0000
0001
0000
M00M
,  // measure 56
0010
1000
0100
0010
0001
0100
0010
1000
1100
0000
0000
0011
0000
0000
0000
0000
;
