#TITLE:Temple of Love;
#SUBTITLE:;
#ARTIST:E-Rotic;
#TITLETRANSLIT:;
#SUBTITLETRANSLIT:;
#ARTISTTRANSLIT:;
#GENRE:Eurobeat;
#CREDIT:;
#BANNER:Temple of Love-bn.png;
#BACKGROUND:Temple of Love-bg.png;
#LYRICSPATH:;
#CDTITLE:;
#MUSIC:Temple of Love.ogg;
#OFFSET:-0.025;
#SAMPLESTART:35.420;
#SAMPLELENGTH:11.840;
#SELECTABLE:YES;
#BPMS:0.000=142.000;
#STOPS:;
#BGCHANGES:0.139=Temple of Love.mpg=1.000=1=0=0=StretchNoLoop==CrossFade==,
99999=-nosongbg-=1.000=0=0=0 // don't automatically add -songbackground-;
#KEYSOUNDS:;

//---------------dance-double - J.Casarino----------------
#NOTES:
     dance-double:
     J.Casarino:
     Challenge:
     9:
     0.699,0.821,0.000,0.628,0.359,469.000,0.000,69.000,69.000,0.000,0.000,0.699,0.821,0.000,0.628,0.359,469.000,0.000,69.000,69.000,0.000,0.000:
00000000
00000000
00000000
00000000
,
00000000
00000000
00000000
00000000
,
00000000
00000000
00000000
00000000
,
00000020
00000000
00020000
00030030
000M00M0
00000000
00000000
00000000
,
00000100
00000000
00001000
00000000
00000100
00010000
00000000
00010000
00001000
00000000
01000000
00000000
00010000
00100000
00000000
00100000
,
01000000
00000000
10000000
00000000
00100000
10000000
00000000
10000000
00010000
00000000
01000000
00000000
00001000
00010000
00000000
00010000
,
00000010
00000000
00001000
00000000
00000100
00000010
00000000
00000010
00000001
00000000
00000100
00000000
00000010
00001000
00000000
00001000
,
00000010
00000000
00000100
00000000
00001000
00010000
00000000
00010000
00001000
00000000
01000000
00000000
00010000
00100000
00000000
00100000
,
00001000
00000000
00010000
00000000
00000010
00001000
00000000
00001000
00000100
00000000
00000010
00000000
00001000
00000010
00000000
00000010
,
00000001
00000000
00001000
00000000
00000010
00000100
00000000
00000100
00001000
00000000
00010000
00000000
00001000
01000000
00000000
01000000
,
00010000
00000000
10000000
00000000
01000000
10000000
00000000
10000000
00100000
00000000
01000000
00000000
00010000
00100000
00000000
00100000
,
00001000
00000000
00010000
00000100
00010000
00000100
00000000
00001000
00000001
00000000
00000100
00000010
00000100
00000010
00000000
00001000
,
00000100
00000000
00000010
00000000
00000001
00000000
00000100
00000000
00000010
00000000
00010000
00000100
00000000
000M0M00
00000000
01000000
,
00001000
00000000
00100000
00010000
00000000
00000000
01000000
00100000
10000000
00000000
01000000
00100000
00000000
00000000
01000000
00100000
,
00010000
00000000
00100000
00000000
00001000
00000000
00010000
00000000
00000010
00000000
00010000
00000100
00000000
00000000
000M0M00
00000000
,
00002000
00000000
00000200
00003000
00200000
00000300
00000200
00300000
00002000
00000300
00000002
00003000
00000020
00000003
00000000
00000030
,
00000001
00000000
00000010
00000100
00000010
00000000
00000100
00001000
00000100
00000000
00010000
00001000
00010000
00000000
00000100
00000000
,
01000000
00000000
00010000
00100000
00010000
00000000
10000000
01000000
10000000
00000000
00010000
00100000
00010000
00000000
10000000
00000000
,
00100000
00000000
01000000
00010000
01000000
00000000
00001000
00010000
00001000
00000000
00010000
00000100
00010000
00000000
00001000
00000000
,
00000010
00000000
00000001
00000010
00000100
00000000
00001000
00000000
00000100
00010000
00001000
00000000
00010000
00000000
00002000
00000000
,
02000000
00000000
00000000
00003000
00020000
00000000
03030000
00000000
0M0M0000
00000000
00000000
00000000
00000000
00000000
00000000
00000000
,
00001000
00010000
00000010
00000100
00001000
00000100
00000010
00001000
,
0000M0M0
00001000
00010000
00000100
01000000
00001000
00010000
000MM000
,
00020000
00000000
02000000
00030000
00200000
03000000
00020000
00300000
00002000
00030000
00000200
00003000
00000020
00000300
00002000
00000030
,
00020000
00003000
02000000
00030000
00200000
03000000
20000000
00300000
02000000
30000000
00200000
03000000
00001000
00300000
00M0M000
00000000
,
00001000
00000010
00000100
00000001
00001000
00000100
00010000
00001000
,
000MM000
00001000
00000100
00010000
00000001
00001000
00000100
0000MM00
,
00000100
00000001
00000010
00000100
00001000
00000010
00000001
00000010
,
00001000
00000100
00000010
00001000
00010000
01000000
00100000
0MM00000
,
00100000
10000000
01000000
00100000
00010000
01000000
00100000
0M010000
,
00M10000
01000000
00001000
00010000
00000010
00001000
00000001
0000M010
,
0000001M
00001000
00000100
00000010
00000001
00000100
00000010
00001M00
,
000010M0
00010000
00100000
10000000
01000000
00100000
00010000
01M00000
,
010M0000
10000000
00100000
01000000
00010000
00100000
00001000
00M10000
,
0001M000
10000000
01000000
00100000
00001000
00010000
00000100
000M1000
,
00001M00
01000000
00100000
10000000
00100000
01000000
00001000
0M010000
,
0001M000
00000000
00100000
00000000
00000010
00000000
00010000
00000000
00001000
00010000
00001000
00000000
00100000
00010000
00100000
00000000
,
00002000
00000000
00000000
02000000
00000000
00003000
00020000
00000000
03000000
02000000
00000000
00030000
20000000
03000000
00020000
30000000
,
00200000
00000000
00030000
00020000
00000000
00300000
00002000
00000000
00030000
00020000
00000000
00003000
00000200
00030000
00002000
00000300
,
00000020
00000000
00003000
00000002
00000000
00000030
00002000
00000000
00000003
00000200
00000000
00003000
00000020
00000300
00020000
00000030
,
00000200
00000000
00030000
02000000
00000000
00000300
00002000
00000000
03000000
00020000
00000000
00003000
00200000
00030000
20000000
00300000
,
31000000
00000000
10000000
00010000
00000000
10000000
00100000
00000000
00000000
02000000
00000000
00000000
00100000
00000000
00100000
00000000
,
03100000
00000000
0M010000
00M01000
00000000
00010000
00000100
00000000
00000000
00002000
00000000
00000000
00000010
00000000
00000010
00000000
,
00003010
00000000
0000M100
000000M1
00000000
00000100
00000010
00000000
00000000
00002000
00000000
00000000
00010000
00000000
00010000
00000000
,
00013000
00000000
0100M000
00010000
00000000
01000000
00100000
00000000
00000000
20000000
00000000
00000000
01000000
00000000
01000000
00000000
,
01000000
30010000
M00M0000
00000000
,
00010000
00000100
00001000
00000100
00000001
00000100
00010000
00001000
,
000MM000
00001000
00000100
00010000
00001000
10000000
01000000
MM000000
,
02000000
00000000
00002000
03000000
00000200
00003000
00000020
00000300
00020000
00000030
00200000
00030000
02000000
00300000
00002000
03000000
,
00000200
00003000
00000020
00000300
00020000
00000030
00200000
00030000
20000000
00300000
02000000
30000000
00100000
03000000
0MM00000
00000000
,
00100000
10000000
00010000
01000000
00001000
00010000
00000010
00001000
,
0000M0M0
00001000
01000000
00001000
00000100
00000010
00001000
0000M0M0
,
00001000
00010000
00000100
00001000
00000001
00000010
00001000
00010000
,
00000100
00100000
00001000
10000000
00010000
01000000
00001000
0M00M000
,
00001000
00000100
00010000
00000010
00000100
00000001
00000100
0000100M
,
00001M00
00000010
00010000
00001000
01000000
00010000
10000000
010M0000
,
M1000000
00001000
00010000
00100000
00010000
00001000
00010000
0000M100
,
000M0100
00000001
00000010
00001000
00000010
00000001
00001000
0000001M
,
0000M010
00000001
00000100
00001000
00010000
00001000
00000100
0000M010
,
00000M10
00000001
00001000
00000100
00010000
00001000
00100000
0001M000
,
00M10000
00001000
00010000
00000100
00000010
00001000
00010000
0000M100
,
000M0100
00000000
00000001
00000000
00001000
00000100
00001000
00000000
00000001
00000010
00000001
00000000
00001000
00000100
00000010
00000000
,
00000002
00000000
00000000
00000000
00000000
00000000
00000000
00000000
000000M0
00000003
00000000
00000000
0000000M
00000000
00000000
00000000
00000000
00000000
00000000
00000000
00000000
00000000
00000000
00000000
00000000
00000000
00000000
00000000
00000000
00000000
00000000
00000000
00000000
00000000
00000000
00000000
00000000
00000000
00000000
00000000
00000000
00000000
00000000
00000000
00000000
00000000
00000000
00000000
;

//---------------dance-double - J.Casarino----------------
#NOTES:
     dance-double:
     J.Casarino:
     Hard:
     8:
     0.512,0.453,0.000,0.227,0.146,369.000,0.000,25.000,6.000,0.000,0.000,0.512,0.453,0.000,0.227,0.146,369.000,0.000,25.000,6.000,0.000,0.000:
00000000
00000000
00000000
00000000
,
00000000
00000000
00000000
00000000
,
00000000
00000000
00000000
00000000
,
00000200
00000000
00020000
00030300
000M0M00
00000000
00000000
00000000
,
00001000
00000000
00100000
00000000
00010000
00100000
00000000
00010000
00000000
00000000
01000000
00000000
00100000
00000000
00000000
00000000
,
10000000
00000000
00100000
00000000
01000000
00010000
00000000
01000000
00000000
00000000
00001000
00000000
00010000
00000000
00000000
00000000
,
00000010
00000000
00001000
00000000
00000001
00001000
00000000
00000001
00000000
00000000
00000100
00000000
00000010
00001000
00000000
00000010
,
00000000
00000000
00010000
00000000
00001000
00010000
00000000
00001000
00000000
00000000
00100000
00000000
00010000
00000000
00000000
00000000
,
10000000
00000000
00010000
00000000
10000000
01000000
00000000
01000000
00000000
00000000
00010000
00000000
00001000
00000000
00000000
00000000
,
01000000
00000000
00010000
00000000
10000000
00100000
00000000
00100000
00000000
00000000
00010000
00000000
00001000
00000000
00000000
00000000
,
00000100
00000000
00001000
00000000
00010000
00001000
00000000
00001000
00000000
00000000
00010000
00000000
00000010
00001000
00000000
00001000
,
00000000
00000001
00000100
00000000
00000001
00000010
00000001
00000000
,
00000200
00000000
00000000
00000300
00000010
00000100
00001000
00000000
,
00001000
00010000
00001000
00000000
01000000
00010000
00100000
00000000
,
00200000
00000000
02300000
00000000
03010000
00001000
00010000
00000000
,
00100000
01000000
00100000
01000000
00100000
01000000
00100000
00000000
,
00010000
00000000
00000000
00010000
10000000
00000000
00000000
10000000
02000000
00000000
00000000
00000000
03200000
00000000
00000000
00000000
,
00301000
00000000
00000000
00001000
00010000
00000000
00000000
00010000
00000200
00000000
00000000
00000000
00002300
00000000
00000000
00000000
,
00003001
00000000
00000000
00000001
00000100
00000000
00000000
00000100
00000020
00000000
00000000
00000000
00000230
00000000
00000000
00000000
,
00002300
00000000
00013000
00000000
00001000
00100000
00010000
00000000
,
00200000
00000000
00002000
00303000
00M0M000
00000000
00000000
00000000
,
00010000
00000010
00010000
00001000
00010000
00000100
00010000
00001000
,
00000000
00100000
00010000
10000000
01000000
10000000
00100000
00000000
,
01000000
00010000
01000000
00001000
00010000
00001000
00100000
00010000
,
00100000
00001000
00010000
00001000
01000000
00010000
01000000
00000000
,
00100000
10000000
01000000
10000000
00100000
00010000
00001000
00010000
,
00000000
00000010
00001000
00000001
00000100
00000001
00001000
00000000
,
00000010
00000100
00000010
00001000
00000100
00010000
00001000
00000100
,
00001000
00010000
00000100
00001000
00000010
00001000
00000100
00000000
,
00000010
00000001
00000100
00001000
00000100
00000001
00000010
00000000
,
00000100
00001000
00000010
00010000
00000010
00001000
00000100
00000000
,
00000010
00001000
00010000
00001000
01000000
00010000
10000000
00000000
,
01000000
00010000
00010000
00000000
01000000
10000000
10000000
00000000
,
00100000
01000000
00001000
00010000
00001000
01000000
00100000
00000000
,
00010000
00001000
00000100
00000010
00000100
00001000
00010000
00000000
,
00000010
00001000
00000001
00000100
00001000
00010000
01000000
00000000
,
00200000
00001000
00301000
00000000
00000020
00010000
00010030
00000000
,
00002000
00000000
00000000
00100000
00000000
00000000
00013000
00000000
,
00200000
00000000
00000000
00010000
00000000
00000000
01300000
00000000
,
00020000
00000000
00000000
00100000
00000000
00000000
10030000
00000000
,
02000000
00000000
00000000
00010000
00000000
00000000
03001000
00000000
,
00000100
00000000
00000000
00010000
00000000
00000000
00000100
00000000
00000000
00001000
00000000
00000000
00000100
00000000
00000010
00000000
,
00000001
00000000
00000000
00000100
00000000
00000000
00000010
00000000
00000000
00000100
00000000
00000000
00001000
00000000
00010000
00000000
,
01000000
00000000
00000000
00010000
00000000
00000000
01000000
00000000
00000000
00100000
00000000
00000000
01000000
00000000
10000000
00000000
,
00010000
00000000
00000000
01000000
00000000
00000000
00100000
00000000
00000000
01000000
00000000
00000000
00001000
00000000
01000000
00000000
,
00020000
00000000
00200000
00330000
00MM0000
00000000
00000000
00000000
,
00001000
01000000
00001000
00100000
00001000
01000000
00001000
00100000
,
00000000
00010000
10000000
01000000
10000000
00010000
00100000
00000000
,
00001000
00010000
00000010
00001000
00000010
00000100
00000010
00001000
,
00000010
00010000
00001000
00010000
00000100
00001000
00000100
00000000
,
00000010
00000001
00000100
00000010
00000001
00000010
00000100
00000001
,
00000000
00001000
00000010
00010000
00001000
01000000
00010000
00000000
,
00100000
00001000
00010000
00100000
00010000
00001000
00100000
00010000
,
01000000
00010000
00100000
00001000
00010000
00100000
00010000
00000000
,
00100000
10000000
01000000
00010000
01000000
10000000
00010000
00000000
,
00100000
00001000
00010000
00001000
01000000
00010000
00100000
00000000
,
00001000
00010000
00000100
00000010
00000100
00010000
00001000
00000000
,
00100000
00010000
00010000
00000000
00001000
00010000
00010000
00000000
,
00100000
00010000
01000000
00100000
00010000
00001000
00010000
00000000
,
00001000
00000010
00000100
00001000
00000010
00000100
00001000
00000000
,
00010000
00100000
10000000
01000000
00100000
01000000
00010000
00000000
,
00000200
00010000
00010300
00000000
02000000
00001000
03001000
00000000
,
00000200
00000300
00000000
00000000
;

//---------------dance-single - D. Runberg----------------
#NOTES:
     dance-single:
     D. Runberg:
     Challenge:
     10:
     0.772,0.932,0.209,0.191,0.714,550.000,23.000,21.000,38.000,5.000,0.000,0.772,0.932,0.209,0.191,0.714,550.000,23.000,21.000,38.000,5.000,0.000: // measure 1
0000
0000
0000
0000
,  // measure 2
0000
0000
0000
0000
,  // measure 3
0000
0000
0000
0000
,  // measure 4
2002
0000
0010
0000
3003
0001
0100
0000
,  // measure 5
0001
0100
0001
0000
0100
0010
0000
1000
0100
0010
0001
1000
0001
0100
0000
0001
,  // measure 6
0100
0010
1000
0000
0010
0100
0000
0100
0001
0000
0100
0001
0010
0100
0000
1000
,  // measure 7
0010
0100
0001
0000
0100
0010
0000
0010
1000
0000
0010
0100
0001
0010
0000
0100
,  // measure 8
1000
0000
0100
0010
0001
1000
0000
0001
0100
0000
0001
0100
0010
1000
0000
0001
,  // measure 9
0010
0100
0010
0001
1000
0010
0000
0100
0001
0000
0100
0001
0010
0100
0000
1000
,  // measure 10
0100
0010
0001
0000
1000
0001
0000
0001
0010
0000
0001
0010
0001
0100
0000
0001
,  // measure 11
0100
0001
0010
0000
0100
1000
0000
1000
0010
0000
0100
0010
0100
0001
0000
0100
,  // measure 12
0001
0000
1000
0001
1000
0001
0000
1000
0010
0000
0100
0010
0100
0010
0000
1000
,  // measure 13
0001
0000
1000
0000
0100
0000
0010
0000
0001
0000
1000
0010
0000
0010
0100
0000
,  // measure 14
0010
0000
1000
0000
0100
0000
0010
0000
0100
0000
1000
0001
0000
0001
0100
0000
,  // measure 15
0010
0000
0100
0000
0001
0000
0010
0000
0100
0000
1000
0100
0000
0100
0010
0000
,  // measure 16
0001
0000
0100
0000
1000
0000
0100
0000
0001
0000
0100
0010
0000
1000
0100
0000
,  // measure 17
0010
0000
0001
0000
0010
0000
0100
0000
1000
0000
0001
0100
0000
0010
1000
0000
,  // measure 18
0010
1000
0001
1000
0100
0000
1000
0000
0001
0000
0010
0100
0000
0010
0001
0000
,  // measure 19
1000
0010
1000
0100
1000
0001
1000
0010
0100
0001
0010
0100
1000
0100
0010
0001
,  // measure 20
1000
0010
0100
0001
0100
0010
1000
0100
0010
0001
0100
0010
1000
0001
0010
0100
,  // measure 21
2200
0001
3300
MMMM
,  // measure 22
1001
0100
0010
1000
1100
0100
1000
0010
,  // measure 23
M0MM
0001
0010
0100
1000
0100
0010
0001
,  // measure 24
0100
MM0M
1000
0010
1000
0100
0010
0002
,  // measure 25
0100
0200
0000
0010
0303
0101
1001
0000
,  // measure 26
1001
1000
0100
0010
0001
0100
0001
0010
,  // measure 27
M0MM
1000
1000
0200
0010
0310
0001
0100
,  // measure 28
0110
0010
1000
0010
0100
0001
0010
0100
,  // measure 29
1000
0100
1000
0000
0001
0010
0001
0000
1000
0010
1000
0000
0101
0000
0000
0000
,  // measure 30
0001
0100
1000
0100
0001
0010
0100
1000
,  // measure 31
0100
0001
0100
0010
0100
1000
0010
M0MM
,  // measure 32
0001
1000
0010
0100
0001
0010
1000
0010
,  // measure 33
0001
0100
1000
0100
0010
0100
0001
MM0M
,  // measure 34
0100
1000
0001
1000
0010
0100
0001
0010
,  // measure 35
1000
0010
0001
0100
0010
1000
0100
MM0M
,  // measure 36
0001
1000
0100
0001
0100
1000
0001
0202
,  // measure 37
0000
0303
2200
0000
0000
3300
1010
0000
1000
0001
1000
0000
0100
0010
0100
0000
,  // measure 38
1002
0000
0000
0100
0000
0000
0010
0000
0000
0100
0000
0000
0103
0000
0010
0000
,  // measure 39
2000
0000
0000
0001
0000
0000
0100
0000
0000
0001
0000
0000
3001
0000
0100
0010
,  // measure 40
2000
0000
0000
0100
0000
0000
0001
0000
0000
0100
0000
0000
3100
0000
0010
0001
,  // measure 41
0200
0000
0000
0010
0000
0000
0001
0000
0000
0010
0000
0000
0310
1000
0010
1000
,  // measure 42
0100
0000
1000
0100
0000
0100
0010
0000
0010
0001
0000
0001
0100
0010
0100
0010
,  // measure 43
1000
0000
1000
0010
0000
0010
0100
0000
0100
0001
0000
0001
1000
0001
1000
0010
,  // measure 44
0100
0000
0100
0001
0000
0001
0010
0000
0010
0100
0000
0100
1000
0001
1000
0001
,  // measure 45
0100
0000
0100
0010
0000
0010
1000
0100
0010
0001
1000
0010
0100
0001
0010
0001
,  // measure 46
0202
0000
0010
0000
0303
MMMM
0000
0000
,  // measure 47
1001
0010
1000
0100
0110
0010
0001
0100
,  // measure 48
MM0M
1000
0100
0010
0001
0100
0010
0100
,  // measure 49
0001
MM0M
0100
1000
0010
0100
0010
2000
,  // measure 50
0100
0200
0000
0001
3300
1100
1001
0000
,  // measure 51
0101
0001
0100
1000
0100
0001
0010
0001
,  // measure 52
MM0M
0100
1000
0100
0001
0100
1000
0010
,  // measure 53
0100
MM0M
1000
0100
1000
0010
0100
0001
,  // measure 54
0010
0100
1000
0100
0010
0001
1000
0010
0100
0001
0100
0010
1000
0100
0010
0001
,  // measure 55
0100
0000
0010
1000
0010
0000
1000
0100
1000
0000
0100
0010
0100
0000
0010
0001
,  // measure 56
0010
0000
0001
0100
0001
0000
0100
0010
0100
0000
0010
0000
1000
0000
1001
0000
,  // measure 57
0001
0000
1000
0100
0010
0000
0100
1000
0010
0000
1000
0001
0100
0000
0001
0100
,  // measure 58
0010
0000
0100
0001
0010
0000
0001
0010
0100
0000
1000
0000
0010
0000
0110
0000
,  // measure 59
0100
0000
0001
0100
0010
0000
1000
0010
0100
0000
0001
0010
0100
0000
1000
0100
,  // measure 60
0010
0000
0100
1000
0010
0000
1000
0001
0100
0000
0001
0000
1000
0000
1100
0000
,  // measure 61
0100
0000
0010
0001
0100
0000
0001
1000
0010
0000
1000
0100
0010
0000
0100
1000
,  // measure 62
0010
0000
0100
0000
0001
0010
0100
1000
0100
0010
0001
1000
0010
1000
0100
0000
,  // measure 63
2002
0000
0000
0000
,  // measure 64
0000
0000
0000
0000
,  // measure 65
3003
0000
0000
0000
;

//---------------dance-single - J. Frederick----------------
#NOTES:
     dance-single:
     J. Frederick:
     Beginner:
     1:
     0.070,0.085,0.045,0.000,0.000,49.000,5.000,0.000,0.000,0.000,0.000,0.070,0.085,0.045,0.000,0.000,49.000,5.000,0.000,0.000,0.000,0.000:
0000
0000
0000
0000
,
0000
0000
0000
0000
,
0000
0000
0000
0000
,
1001
0000
0000
0000
,
0100
0000
0000
0000
,
0010
0000
0000
0000
,
1000
0000
0000
0000
,
0001
0000
0000
0000
,
0010
0000
0000
0000
,
0100
0000
0000
0000
,
1000
0000
0000
0000
,
1001
0000
0000
0000
,
0010
0000
0000
0000
,
0000
0000
0000
0000
,
0100
0000
0000
0000
,
0000
0000
0000
0000
,
1000
0000
0000
0000
,
0000
0000
0000
0000
,
0001
0000
0000
0000
,
1000
0000
0000
0000
,
1001
0000
0000
0000
,
0010
0000
0000
0000
,
0100
0000
0000
0000
,
1000
0000
0000
0000
,
0001
0000
0000
0000
,
0100
0000
0000
0000
,
0010
0000
0000
0000
,
1000
0000
0000
0000
,
0001
0000
0000
0000
,
0100
0000
0000
0000
,
0000
0000
0000
0000
,
0010
0000
0000
0000
,
0000
0000
0000
0000
,
1000
0000
0000
0000
,
0000
0000
0000
0000
,
0001
0000
0000
0000
,
0000
0000
0000
0000
,
0100
0000
0000
0000
,
1000
0000
0000
0000
,
0001
0000
0000
0000
,
0010
0000
0000
0000
,
0100
0000
0000
0000
,
1000
0000
0000
0000
,
0001
0000
0000
0000
,
0110
0000
0000
0000
,
1000
0000
0000
0000
,
0001
0000
0000
0000
,
0010
0000
0000
0000
,
0100
0000
0000
0000
,
1000
0000
0000
0000
,
0001
0000
0000
0000
,
0010
0000
0000
0000
,
0100
0000
0000
0000
,
1000
0000
0000
0000
,
0001
0000
0000
0000
,
0000
0000
0000
0000
,
1000
0000
0000
0000
,
0000
0000
0000
0000
,
0010
0000
0000
0000
,
0000
0000
0000
0000
,
0100
0000
0000
0000
,
0000
0000
0000
0000
,
1001
0000
0000
0000
;

//---------------dance-single - J. Frederick----------------
#NOTES:
     dance-single:
     J. Frederick:
     Easy:
     4:
     0.234,0.232,0.055,0.318,0.000,139.000,6.000,35.000,0.000,0.000,0.000,0.234,0.232,0.055,0.318,0.000,139.000,6.000,35.000,0.000,0.000,0.000:
0000
0000
0000
0000
,
0000
0000
0000
0000
,
0000
0000
0000
0000
,
2002
0000
0000
3003
,
1000
0010
1000
0010
,
0100
0001
0100
0001
,
0010
0100
0010
0100
,
0010
0100
0010
0100
,
1000
0001
1000
0001
,
0100
0001
0100
0001
,
1000
0010
1000
0010
,
0220
0000
0000
0330
,
1000
0000
0010
0000
,
0100
0010
0100
0010
,
1000
0000
0001
0000
,
0010
0000
0100
0000
,
1000
0001
1000
0001
,
0010
0100
0010
0100
,
1000
0000
0001
0000
,
0100
0010
1000
0010
,
0220
0000
0000
0330
,
1000
0010
0100
0010
,
2000
3000
0002
0003
,
0010
0100
1000
0010
,
0200
0000
0000
0300
,
0010
0100
0001
0010
,
0200
0300
1000
0010
,
0100
0001
0010
0100
,
2000
0000
0000
3000
,
0002
0000
0000
0003
,
0020
0000
0000
0030
,
0200
0000
0000
0300
,
1000
1000
1000
0000
,
0020
0000
0000
0030
,
0200
0000
0000
0300
,
2000
0000
0000
3000
,
0001
0001
0001
0000
,
0010
0000
0100
0000
,
1000
0000
0010
0000
,
0100
0000
0001
0000
,
0010
0000
0100
0000
,
1000
0000
0100
0000
,
0010
0000
0001
0000
,
0100
0000
0010
0000
,
1001
0000
0010
0100
,
0220
0000
0000
0330
,
1000
0100
0010
0001
,
0200
0300
0020
0030
,
1000
0010
0100
0001
,
0020
0000
0000
0030
,
0100
1000
0100
0010
,
0002
0003
0200
0300
,
0010
1000
0001
0010
,
0200
0000
0000
0300
,
2000
0000
0000
3000
,
0002
0000
0000
0003
,
0020
0000
0000
0030
,
0200
0000
0000
0300
,
2000
0000
0000
3000
,
0020
0000
0000
0030
,
0200
0000
0000
0300
,
0002
0000
0000
0003
,
2002
0000
0000
0000
,
0000
0000
0000
3003
;

//---------------dance-single - J. Frederick----------------
#NOTES:
     dance-single:
     J. Frederick:
     Medium:
     6:
     0.337,0.320,0.073,0.164,0.000,233.000,8.000,18.000,0.000,0.000,0.000,0.337,0.320,0.073,0.164,0.000,233.000,8.000,18.000,0.000,0.000,0.000:
0000
0000
0000
0000
,
0000
0000
0000
0000
,
0000
0000
0000
0000
,
0220
0000
0000
0330
,
1000
0010
1000
0000
0010
0000
0100
0000
,
0001
0010
0001
0000
0010
0000
0100
0000
,
1000
0100
1000
0000
0010
0000
0100
0000
,
0001
0010
0001
0000
1000
0100
1000
0000
,
0010
0100
0010
0000
1000
0000
0010
0000
,
0100
0001
0100
0000
0001
0000
0010
0000
,
0100
1000
0100
0000
0010
0000
0001
0000
,
2002
0000
0000
3003
,
0100
0000
0010
0000
1000
0010
1000
0000
,
0001
0100
0001
0000
0010
0100
0010
0000
,
0100
0000
1000
0000
0010
0100
0010
0000
,
0100
0001
0100
0000
0010
1000
0010
0000
,
0100
0000
0001
0000
0010
0100
0010
0000
,
0100
1000
0100
0000
0010
0001
0010
0000
,
0001
0000
1000
0000
0010
0100
0010
0000
,
1000
0000
0001
0000
0010
0100
0010
0000
,
2002
0000
0000
3003
,
0100
0000
0010
0000
1000
0010
1000
0010
,
0000
0000
0100
0001
0000
0010
0100
0000
,
1000
0000
0100
0000
0010
0001
0100
0001
,
0000
1000
0000
0001
0000
1000
0000
0000
,
0010
0000
0100
0010
1000
0010
0100
0001
,
0000
0010
0100
1000
0000
1000
0100
0000
,
0010
0000
0001
0000
0100
0001
1000
0001
,
0000
1000
0000
0001
0000
1000
0000
0000
,
0010
0000
0100
0010
0000
1000
0000
0010
,
0000
0100
0000
0001
0000
0000
0000
0000
,
1100
0000
0010
0001
0000
0100
0000
0001
,
0000
1000
0000
0010
0000
0100
0000
0000
,
0011
0000
0010
0100
0000
1000
0000
0100
,
0000
0010
0000
0001
0000
0000
0000
0000
,
1010
0000
0100
0010
0000
0100
0000
0001
,
0000
0010
0000
0100
0000
1000
0000
0000
,
0200
0000
0000
0000
0000
0000
0000
0300
,
0020
0000
0000
0000
0000
0000
0000
0030
,
0002
0000
0000
0000
0000
0000
0000
0003
,
2000
0000
0000
0000
0000
0000
0000
3000
,
0020
0000
0000
0000
0000
0000
0000
0030
,
0200
0000
0000
0000
0000
0000
0000
0300
,
0020
0000
0000
0000
0000
0000
0000
0030
,
2000
0000
0000
0000
0000
0000
0000
3000
,
2002
0000
0000
3003
,
1000
0000
0001
0010
0100
0000
1000
0100
,
0000
0010
0001
0100
0000
0010
1000
0000
,
0010
0000
0100
0001
0010
0000
0100
1000
,
0000
0100
0000
0010
0000
0001
0000
0000
,
1000
0000
0010
0100
0001
0000
0010
0100
,
0000
1000
0100
0010
0000
0001
0100
0000
,
0001
0000
1000
0010
0100
0000
0010
1000
,
0000
0100
0000
0010
0000
0001
0000
0000
,
0100
0000
0010
1000
0000
0010
0000
0100
,
0000
0001
0000
0010
0000
0000
0000
0000
,
0100
0000
1000
0100
0000
0010
0000
0001
,
0000
0100
0000
0001
0000
1000
0000
0000
,
0010
0000
0100
0010
0000
1000
0000
0010
,
0000
0100
0000
0001
0000
0000
0000
0000
,
0010
0000
0100
1000
0000
0100
0000
0010
,
0000
0001
0000
0100
0000
0010
0000
1000
,
2002
0000
0000
0000
,
0000
0000
0000
0000
,
3003
0000
0000
0000
;

//---------------dance-single - J. Frederick----------------
#NOTES:
     dance-single:
     J. Frederick:
     Hard:
     8:
     0.554,0.522,0.227,0.737,0.114,320.000,25.000,81.000,0.000,14.000,0.000,0.554,0.522,0.227,0.737,0.114,320.000,25.000,81.000,0.000,14.000,0.000:
0000
0000
0000
0000
,
0000
0000
0000
0000
,
0000
0000
0000
0000
,
1000
0000
0001
0000
0010
0100
0000
0000
1000
0000
0100
0000
0010
0000
0001
0000
,
0100
0000
0001
0000
1000
0001
0000
0000
0100
0000
0010
0000
1000
0010
0000
0000
,
0100
0000
0001
0000
0010
0100
0000
0000
1000
0000
0100
0000
0010
0001
0000
0000
,
0100
0000
0001
0000
1000
0010
0000
0000
0100
0000
0010
0000
1000
0010
0000
0000
,
0100
0000
0001
0000
0010
0001
0000
0000
1000
0000
0001
0000
0010
0100
0000
0000
,
1000
0000
0100
0000
0010
0001
0000
0000
0100
0000
0001
0000
1000
0010
0000
0000
,
0100
0000
0010
0000
1000
0001
0000
0000
0010
0000
0100
0000
1000
0100
0000
0000
,
0010
0000
0001
0000
0100
0001
0000
0000
1000
0000
0010
0000
0100
0010
0000
0000
,
0110
0000
0100
0000
0010
1000
0000
0000
0100
0000
0010
0000
0001
0010
0000
0000
,
2002
0000
3003
0000
0010
0100
1000
0100
,
0010
0001
0100
0010
1000
0010
0100
0000
,
0220
0000
0330
0000
1000
0010
0100
0001
,
0010
0100
1000
0100
0010
0001
1000
0000
,
2200
0000
3300
0000
0010
0001
0100
0001
,
1000
0010
0100
0001
0010
0100
1000
0000
,
2002
0000
3003
0000
0100
0010
0100
0010
,
1000
0001
0010
0100
1000
0100
0010
0000
,
0011
2000
0000
3000
,
0001
0000
0010
0100
1000
0010
0100
0010
,
0000
0010
0100
0001
0000
0001
0010
0000
,
0100
0000
1000
0100
0010
0001
0010
0011
,
0000
1100
0000
0110
0000
0220
0000
0330
,
1000
0000
0010
0100
0001
0010
0001
0100
,
0000
0100
0001
1000
0000
1000
0010
0000
,
0100
0000
0010
1000
0001
0010
0100
0110
,
0000
1001
0000
0110
0000
2020
0000
3030
,
0200
0000
0002
0320
0000
0203
0030
2000
,
0300
0000
3020
0200
0000
0030
0000
0300
,
0002
0000
0020
0203
0000
2030
0300
0200
,
3000
0020
0300
0002
0030
0200
0003
0000
,
0320
0000
2030
0020
0000
3200
0030
0002
,
0300
0000
0023
0200
0000
0030
0000
0300
,
2000
0000
0020
3200
0000
0032
0300
0020
,
0003
0002
0030
2000
0003
0020
0000
3030
,
1000
0000
0000
0010
0000
0000
0100
0000
0000
0001
0000
0000
0010
0000
0100
0000
,
1000
0000
0000
0100
0000
0000
0010
0000
0000
0001
0000
0000
0100
0000
0010
0000
,
1000
0000
0000
0010
0000
0000
0100
0000
0000
0001
0000
0000
0010
0000
0100
0000
,
1000
0000
0000
0100
0000
0000
0010
0000
0000
0001
0000
0000
0100
0000
0010
0000
,
0010
0000
0100
0000
0001
0000
0010
0100
,
1000
0000
0100
0000
0010
0000
0001
0100
,
0010
0000
1000
0000
0010
0000
0100
0001
,
0010
0100
1000
0100
0010
0001
0100
0010
,
0110
0000
2002
0000
0000
0000
0000
3003
,
0010
0000
0100
1000
0100
0010
0001
0100
,
0000
0100
0010
1000
0000
1000
0010
0000
,
0100
0000
0001
0010
0100
1000
0100
1100
,
0000
0011
0000
0110
0000
2002
0000
3003
,
0100
0000
0010
0100
0010
1000
0100
0010
,
0000
0010
0001
0100
0000
0100
0001
0000
,
1000
0000
0010
0100
0001
0010
0001
0011
,
0000
1100
0000
1010
0000
0202
0000
0303
,
0200
0000
0002
0320
0000
0203
0030
2000
,
0300
0000
3020
0200
0000
0030
0000
0300
,
0002
0000
0020
0203
0000
2030
0300
0200
,
3000
0020
0300
0002
0030
0200
0003
0000
,
0320
0000
2030
0020
0000
3200
0030
0002
,
0300
0000
0023
0200
0000
0030
0000
0300
,
2000
0000
0020
3200
0000
0032
0300
0020
,
0003
0002
0030
2000
0003
0020
0000
3030
,
2002
0000
0000
0000
,
0000
0000
0000
3003
;

//---------------dance-double - J. Frederick----------------
#NOTES:
     dance-double:
     J. Frederick:
     Easy:
     5:
     0.294,0.291,0.118,0.364,0.000,173.000,13.000,40.000,0.000,0.000,0.000,0.294,0.291,0.118,0.364,0.000,173.000,13.000,40.000,0.000,0.000,0.000:
00000000
00000000
00000000
00000000
,
00000000
00000000
00000000
00000000
,
00000000
00000000
00000000
00000000
,
01100000
20020000
00000000
30030000
,
00100000
00010000
01000000
00010000
,
10000000
00010000
00100000
00010000
,
00001000
00000100
00001000
00000010
,
00000001
00000100
00000001
00000010
,
00001000
00010000
00100000
00010000
,
00001000
00000100
00001000
00010000
,
01000000
10000000
00100000
00010000
,
00022000
00000000
00000000
00033000
,
00011000
00000000
00001000
00000100
,
00000001
00000010
00000001
00000100
,
00000110
00000000
00001000
00000010
,
00001000
00000100
00000001
00000010
,
00001000
00010000
00100000
00010000
,
01000000
10000000
00010000
00010000
,
00100000
01000000
10000000
00100000
,
01000000
00100000
00010000
10000000
,
00110000
22000000
00000000
33000000
,
01000000
00100000
00020000
00030000
,
00002000
00003000
00000020
00000030
,
00000001
00000100
00000010
00001000
,
00022000
00000000
00000000
00033000
,
00020000
00030000
00200000
00300000
,
02000000
03000000
20000000
30000000
,
00100000
00010000
01000000
10000000
,
22000000
00000000
00000000
33000000
,
00100000
01000000
00100000
01000000
,
00100000
01000000
00200000
00300000
,
00010000
00001000
00010000
00001000
,
00010000
00001000
00020000
00030000
,
00001000
00000100
00001000
00000100
,
00001000
00000100
00002000
00003000
,
00000001
00000010
00000001
00000100
,
00002020
00000000
00000000
00003030
,
00002000
00000000
00000000
00000000
,
00023000
00000000
00000000
00000000
,
00230000
00000000
00000000
00000000
,
02300000
00000000
00000000
00000000
,
23000000
00000000
00000000
00000000
,
32000000
00000000
00000000
00000000
,
03020000
00000000
00000000
00000000
,
00032000
00000000
00000000
00003000
,
00000100
00000202
00000000
00000303
,
00000001
00000010
00000001
00000100
,
00000010
00001000
00000100
00000001
,
00000010
00000001
00000100
00000010
,
00002020
00000000
00000000
00003030
,
00001000
00010000
00100000
00010000
,
01000000
10000000
00100000
01000000
,
00010000
00100000
01000000
10000000
,
20020000
00000000
00000000
30030000
,
00010000
00100000
00010000
00100000
,
00010000
00100000
00020000
00030000
,
00010000
00001000
00010000
00001000
,
00010000
00001000
00020000
00030000
,
00001000
00000100
00001000
00000100
,
00001000
00000100
00002000
00003000
,
00000001
00000100
00000001
00000010
,
00001000
00000001
00000100
00000000
,
00002000
00000000
00000000
00000000
,
00000000
00000000
00000000
00000000
,
00003000
00000000
00000000
00000000
;

//---------------dance-double - J. Frederick----------------
#NOTES:
     dance-double:
     J. Frederick:
     Medium:
     7:
     0.381,0.437,0.091,0.200,0.000,261.000,10.000,22.000,0.000,0.000,0.000,0.381,0.437,0.091,0.200,0.000,261.000,10.000,22.000,0.000,0.000,0.000:
00000000
00000000
00000000
00000000
,
00000000
00000000
00000000
00000000
,
00000000
00000000
00000000
00000000
,
10010000
02200000
00000000
03300000
,
10000000
00100000
10000000
00000000
00010000
00000000
01000000
00000000
,
00010000
00100000
00010000
00000000
01000000
00000000
00001000
00000000
,
00010000
00001000
00010000
00000000
00000100
00000000
00000001
00000000
,
00000010
00000001
00000010
00000000
00000100
00000001
00000100
00000000
,
00000010
00001000
00000010
00000000
00000100
00000000
00000001
00000000
,
00001000
00000010
00001000
00000000
00000100
00000000
00010000
00000000
,
00001000
00100000
00010000
00000000
00100000
00000000
01000000
00000000
,
10000000
00100000
01000000
00000000
22000000
00000000
33000000
00000000
,
00010000
00000000
00100000
00000000
01000000
10000000
01000000
00000000
,
00100000
00010000
00100000
00000000
01000000
10000000
01000000
00000000
,
00010000
00000000
00100000
00000000
00001000
00010000
00001000
00000000
,
00000100
00001000
00000100
00000000
00000001
00000100
00000001
00000000
,
00000010
00000000
00001000
00000000
00000010
00001000
00001000
00000000
,
00000001
00000100
00000100
00000000
00000010
00001000
00001000
00000000
,
00010000
00001000
00010000
00001000
00100000
00010000
00100000
00010000
,
10000000
00010000
10000000
00010000
10000000
00010000
00100000
00000000
,
00010000
20020000
00000000
30030000
,
00010000
00000000
00100000
00010000
10000000
01000000
00100000
00000000
,
00100000
01000000
00010000
00100000
00000000
01000000
00001000
00000000
,
00010000
00000000
00001000
00000100
00000001
00000010
00000001
00000100
,
00000000
00000010
00000000
00001000
00000000
00022000
00000000
00033000
,
00010000
00000000
00001000
00000100
00000001
00000010
00000001
00000100
,
00000000
00000001
00000010
00001000
00000000
00000100
00000010
00000000
,
00001000
00000000
00010000
00100000
00010000
10000000
01000000
00100000
,
00000000
01000000
00000000
10010000
00000000
10010000
00000000
00000000
,
00100000
00000000
00010000
10000000
00000000
01000000
00000000
00100000
,
00000000
00000000
00001000
00020000
00000000
00000000
00030000
00000000
,
00001000
00000000
00000100
00000001
00000000
00000010
00000000
00000001
,
00000000
00000100
00000000
00000010
00000000
00002000
00000000
00003000
,
00000010
00000000
00000001
00000100
00000000
00000010
00000000
00001000
,
00000000
00000000
00000100
00000002
00000000
00000000
00000003
00000000
,
00000010
00000000
00001000
00010000
00000000
00100000
00000000
00010000
,
00000000
10000000
00000000
01000000
00000000
00200000
00000000
00300000
,
00020000
00000000
00000000
00000000
,
00032000
00000000
00000000
00000000
,
00003200
00000000
00000000
00000000
,
00000302
00000000
00000000
00000000
00000000
00000000
00000000
00000003
,
00000010
00000000
00001000
00000000
00000001
00000100
00000001
00000000
,
00000010
00000000
00001000
00000000
00010000
00001000
00010000
00000000
,
00100000
00000000
00010000
00000000
10000000
01000000
10000000
00000000
,
00100000
00000000
00010000
00000000
10000000
00010000
10000000
00000000
,
00010000
00000000
00022000
00000000
00000000
00000000
00000000
00033000
,
00001000
00000000
00000100
00000000
00000001
00000010
00000001
00000000
,
00000100
00000000
00000010
00000000
00001000
00000100
00001000
00000000
,
00000010
00000000
00000001
00000000
00001000
00010000
00000010
00100000
,
00000000
00001000
00000000
00010000
00000000
10000000
00000000
00000000
,
01000000
00100000
00110000
01000000
,
10000000
00000000
01000000
00100000
00010000
00000000
01000000
00000000
,
00100000
00000000
00010000
00001000
00010000
00000000
00001000
00000001
,
00000000
00000100
00000000
00000010
00000000
00001000
00000000
00000000
,
00000001
00000000
00000001
00000100
00000000
00000010
00000000
00001000
,
00000000
00000000
00010000
00002000
00000000
00000000
00003000
00000000
,
00010000
00000000
00100000
00010000
00000000
10000000
00000000
01000000
,
00000000
00100000
00000000
00010000
00000000
02000000
00000000
03000000
,
00010000
00000000
00001000
00010000
00000000
00001000
00000000
00100000
,
00000000
00000000
00000010
00000001
00000000
00000000
00000000
00000000
,
00000100
00000000
00000010
00001000
00000000
00000100
00000000
00000001
,
00000000
00001000
00000000
00000010
00000000
00001000
00000000
00010000
,
00022000
00000000
00000000
00000000
,
00000000
00000000
00000000
00000000
,
00033000
00000000
00000000
00000000
;

//---------------dance-single - A.J. Kung----------------
#NOTES:
     dance-single:
     A.J. Kung:
     Edit:
     10:
     0.971,0.000,0.036,1.000,1.000: // measure 1
0000
0000
0000
0000
,  // measure 2
0000
0000
0000
0000
,  // measure 3
0000
0000
0000
0000
,  // measure 4
2000
0000
0002
0003
000M
0000
3001
0000
,  // measure 5
0001
M100
0001
0000
0001
0010
0000
0001
0010
0100
0010
0000
0001
0010
0000
0010
,  // measure 6
0100
1000
0100
0000
0100
0010
0000
0100
0010
0001
0010
0000
0100
0010
0000
0010
,  // measure 7
0001
0100
0001
0000
0001
0010
0000
0001
0010
0100
0010
0000
0001
0010
0000
0010
,  // measure 8
0100
1000
0100
0000
0100
0010
0000
0100
0010
0100
1000
0000
1000
0001
0000
0001
,  // measure 9
1000
0010
1000
0000
1000
0100
0000
1000
0100
0010
0100
0000
1000
0100
0000
0100
,  // measure 10
1000
0010
1000
0000
1000
0100
0000
1000
0100
0010
0100
0000
1000
0100
0000
0100
,  // measure 11
1000
0010
1000
0000
1000
0100
0000
1000
0100
0010
0100
0000
1000
0100
0000
0100
,  // measure 12
0010
0000
0100
0010
0100
0010
0000
0100
1000
0000
0001
1000
0001
0100
0000
0100
,  // measure 13
0002
0000
0000
0003
0000
0000
0001
0000
0100
0000
0001
0100
0000
000M
0100
0000
,  // measure 14
0100
0000
0010
0001
0000
0000
0100
0010
1000
0000
0100
0010
0000
0000
0100
0010
,  // measure 15
0001
0000
0010
0000
0000
0000
0001
0000
1000
0001
1000
0100
0000
0000
000M
0000
,  // measure 16
1100
0000
0101
0000
1100
0000
0001
0000
0010
0000
0100
0010
0000
0000
0000
0000
,  // measure 17
1000
0001
0000
0001
0000
1000
0000
0000
0010
0100
0000
0100
0000
0010
0000
0000
,  // measure 18
1000
0000
0001
0010
0001
0000
1000
0100
1000
0000
0001
0010
0001
0000
1000
0000
,  // measure 19
0010
0000
0100
0001
0100
0000
0100
0001
0000
0000
0001
0100
0001
0000
0000
0000
,  // measure 20
0010
0000
0100
0000
0000
0000
1000
0000
1000
0001
1000
0000
0001
0000
0000
0000
,  // measure 21
0200
0000
0002
0303
0M0M
0000
0000
0000
,  // measure 22
0001
0100
0001
0100
0010
1000
0010
1000
0001
1000
0001
1000
0001
0010
0001
0010
,  // measure 23
0100
0010
0100
0010
0100
1000
0100
1000
0001
1000
0001
0010
0100
0010
0100
0010
,  // measure 24
0100
1000
0001
1000
0001
0100
0010
0100
0010
0100
0001
1000
0100
0010
0100
0010
,  // measure 25
0100
1000
0010
0100
0010
0100
0001
0010
0100
1000
0010
1000
0010
0000
0000
0000
,  // measure 26
0001
0100
0001
0100
0010
1000
0010
1000
0001
1000
0001
1000
0001
0010
0001
0010
,  // measure 27
0100
0010
0100
0010
0100
1000
0100
1000
0001
1000
0001
0010
0100
0010
0100
0010
,  // measure 28
0100
1000
0001
1000
0001
0100
0010
0100
0010
0100
0001
1000
0100
0010
0100
0010
,  // measure 29
0100
1000
0010
0100
0010
0100
0001
0010
0100
1000
0010
1000
0010
0100
0001
0000
,  // measure 30
2000
3200
0302
20M3
3002
02M3
2300
30M2
,  // measure 31
0203
0000
23M0
0000
3002
0000
2MM3
0000
3002
0000
0023
0000
M430
0000
0000
0300
,  // measure 32
M002
0023
2M30
3002
2M03
3020
0M32
2003
,  // measure 33
3M20
0000
0032
0000
2M03
0000
30M2
0000
2003
0000
3200
0000
0340
0000
M00M
0030
,  // measure 34
0200
M302
0023
M230
0320
M032
0203
M320
,  // measure 35
0032
0000
2M03
0000
3002
0000
20M3
0000
3200
0000
03M2
0000
M403
0000
0000
0300
,  // measure 36
002M
2030
320M
0320
023M
2300
3020
0M32
,  // measure 37
2003
3MM2
2003
32M0
0302
20M3
3M02
00M3
,  // measure 38
2000
0000
00MM
0200
0000
3000
00M2
0000
M300
0200
0000
00M3
2000
0300
0002
3000
,  // measure 39
0020
0000
MM03
0002
0000
0030
2000
0000
0M03
00M2
0000
3000
0200
0003
0320
0000
,  // measure 40
2030
0000
000M
0200
0000
30M0
0002
0000
M300
0200
00M0
0003
2000
0300
0002
3000
,  // measure 41
0020
0000
MM03
0002
0000
0030
2000
0000
0M03
0002
00M0
3000
0200
0003
M010
0300
,  // measure 42
0010
0000
1000
0001
0000
1000
0010
0000
1000
0100
0000
0100
1000
0000
1000
0000
,  // measure 43
1000
0000
0001
1000
0000
0001
0100
0000
0001
0010
0000
0010
0001
0000
0001
0000
,  // measure 44
0001
0000
1000
0001
0000
1000
0010
0000
1000
0100
0000
0100
0010
0000
0010
0000
,  // measure 45
0010
0000
0010
0001
0000
1000
0010
0000
1000
0100
0000
1000
0010
0000
0010
0000
,  // measure 46
0000
2000
0000
0000
0000
0000
0000
0000
0000
0000
0000
0000
0000
0000
0000
0000
0000
0000
0000
0000
0000
0000
0000
0000
0000
0000
0000
0000
0000
0000
0000
0000
0000
0000
0000
0000
0000
0000
0000
0000
0000
0000
0000
0000
0000
0000
0000
0000
3001
0000
0000
0000
0000
0000
0000
0000
0000
0000
0000
0000
0000
0000
0000
0000
0000
0000
0000
0000
0000
0000
0000
0000
0000
0000
0000
0000
0000
0000
0000
0000
0000
0000
0000
0000
0000
0000
0000
0000
0000
0000
0000
0000
0000
0000
0000
0000
M00M
0000
0000
0000
0000
0000
0000
0000
0000
0000
0000
0000
0000
0000
0000
0000
0000
0000
0000
0000
0000
0000
0000
0000
0000
0000
0000
0000
0000
0000
0000
0000
0000
0000
0000
0000
0000
0000
0000
0000
0000
0000
0000
0000
0000
0000
0000
0000
0000
0000
0000
0000
0000
0000
0000
0000
0000
0000
0000
0000
0000
0000
0000
0000
0000
0000
0000
0000
0000
0000
0000
0000
0000
0000
0000
0000
0000
0000
0000
0000
0000
0000
0000
0000
0000
0000
0000
0000
0000
0000
0000
0000
0000
0000
0000
0000
,  // measure 47
1000
0010
1000
0010
0100
0001
0100
0001
1000
0001
1000
0001
1000
0100
1000
0100
,  // measure 48
0010
0100
0010
0100
0010
0001
0010
0001
1000
0001
1000
0100
0010
0100
0010
0100
,  // measure 49
0010
0001
1000
0001
1000
0010
0100
0010
0100
0010
1000
0001
0010
0100
0010
0100
,  // measure 50
0010
0001
0100
0010
0100
0010
1000
0100
0010
0001
0100
0001
0100
00M0
0000
0000
,  // measure 51
1000
0010
1000
0010
0100
0001
0100
0001
1000
0001
1000
0001
1000
0100
1000
0100
,  // measure 52
0010
0100
0010
0100
0010
0001
0010
0001
1000
0001
1000
0100
0010
0100
0010
0100
,  // measure 53
0010
0001
1000
0001
1000
0010
0100
0010
0100
0010
1000
0001
0010
0100
0010
0100
,  // measure 54
0010
0001
0100
0010
0100
0010
1000
0100
0010
0001
0100
0001
0100
0000
0000
0000
,  // measure 55
0002
M000
0023
0000
2030
0000
3M02
0000
2003
0000
3M20
0000
0032
0000
2M03
0000
,  // measure 56
3020
0000
0032
0M00
2003
0000
30M2
0000
2003
0000
3200
0000
034M
0000
0000
0030
,  // measure 57
2000
0000
3200
00M0
0302
0000
2003
0000
30M2
0000
0203
0000
2300
00M0
3002
0000
,  // measure 58
0203
0000
2300
0000
30M2
0000
2M03
0000
3002
0000
0023
0000
M430
000M
0000
0300
,  // measure 59
0020
203M
3200
032M
0230
2300
302M
0230
,  // measure 60
2300
0000
3002
00M0
2003
0M00
3002
0000
0023
0000
2M30
0000
304M
0000
0000
0030
,  // measure 61
M200
0000
0302
0000
M023
0000
0230
M000
0320
0000
M032
0000
0203
0000
23M0
0000
,  // measure 62
3002
0000
0000
0000
0000
0000
0000
0000
0000
0000
0000
0000
0000
0000
0000
0000
0000
0000
0000
0000
0000
0000
0000
0000
2003
0000
0000
0000
0000
0000
0000
0000
0000
0000
0000
0000
00M0
0000
0000
0000
0000
0000
0000
0000
0000
0000
0000
0000
3000
2000
0000
0000
0000
0000
0000
0000
0000
0000
0000
0000
0000
0000
0000
0000
0000
0000
0000
0000
0000
0000
0000
0000
3200
0000
0000
0000
0000
0000
0000
0000
0000
0000
0000
0000
0000
0000
0000
0000
0000
0000
0000
0000
0000
0000
0000
0000
0302
0000
0000
0000
0000
0000
0000
0000
0000
0000
0000
0000
0000
0000
0000
0000
0000
0000
0000
0000
0000
0000
0000
0000
2003
0000
0000
0000
0000
0000
0000
0000
0000
0000
0000
0000
0M00
0000
0000
0000
0000
0000
0000
0000
0000
0000
0000
0000
30M2
0000
0000
0000
0000
0000
0000
0000
0000
0000
0000
0000
0000
0000
0000
0000
0000
0000
0000
0000
0000
0000
0000
0000
0003
0000
0000
0000
0000
0000
0000
0000
0000
0000
0000
0000
0000
0000
0000
0000
0000
0000
0000
0000
0000
0000
0000
0000
,  // measure 63
0220
M000
000M
M000
000M
M000
000M
M000
,  // measure 64
033M
0000
M000
000M
0000
0M00
00M0
M000
0M00
00M0
000M
0000
0000
0000
0000
0000
;
