#TITLE:Take My Time;
#SUBTITLE:;
#ARTIST:Alphadelta;
#TITLETRANSLIT:;
#SUBTITLETRANSLIT:;
#ARTISTTRANSLIT:;
#GENRE:Trance;
#CREDIT:;
#BANNER:Take My Time-bn.png;
#BACKGROUND:Take My Time-bg.png;
#LYRICSPATH:;
#CDTITLE:;
#MUSIC:Take My Time.ogg;
#OFFSET:-0.013;
#SAMPLESTART:67.940;
#SAMPLELENGTH:11.860;
#SELECTABLE:YES;
#BPMS:0.000=130.700;
#STOPS:;
#BGCHANGES:0.003=Take My Time.mpg=1.000=1=0=0=StretchNoLoop==CrossFade==,
99999=-nosongbg-=1.000=0=0=0 // don't automatically add -songbackground-;
#KEYSOUNDS:;

//---------------dance-single - D. D'Amato----------------
#NOTES:
     dance-single:
     D. D'Amato:
     Hard:
     7:
     0.464,0.423,0.278,0.306,0.056,287.000,30.000,33.000,0.000,0.000,0.000,0.464,0.423,0.278,0.306,0.056,287.000,30.000,33.000,0.000,0.000,0.000:
0000
0000
0000
0000
,
0010
0011
0101
0100
,
0010
1010
1100
0100
,
0010
0001
1000
0100
,
1000
0000
0001
0000
,
0100
0100
0010
0010
,
0100
0000
0000
0001
0000
0000
0100
0000
0000
0001
0000
0000
0100
0000
0000
0000
,
0010
0000
0000
1000
0000
0000
0010
0000
0000
1000
0000
0000
0010
0000
1000
0000
,
0100
0000
0000
1000
0000
0000
0100
0000
0000
1000
0000
0000
0100
0000
0000
0000
,
0010
0000
0000
0001
0000
0000
0010
0000
0000
0001
0000
0000
0010
0000
0001
0000
,
0100
0000
0000
0010
0000
0000
0100
0000
0000
0010
0000
0000
0100
0000
0000
0000
,
0001
0000
0000
1000
0000
0000
0001
0000
0000
1000
0000
0000
0001
0000
0010
0000
,
0200
1000
0010
1300
,
1001
0000
0101
0000
0010
1000
0100
0000
,
0011
0000
1100
0000
0010
0001
1000
0000
,
1010
0000
0110
0000
0001
0100
0010
0000
,
1001
0000
0011
0000
0100
1000
0010
0000
,
0101
0000
1010
0000
0100
0010
1000
0000
,
0110
0000
1001
0000
0010
1000
0001
0000
,
0011
0000
0110
0000
1000
0100
0010
0000
,
1100
0000
1001
0000
0010
0100
0001
0000
,
0020
0032
0203
2300
,
3020
2030
3200
0302
,
0023
0100
0031
1000
,
0020
0100
1030
0001
,
1001
1000
0001
0001
,
1000
0010
0100
0010
,
0100
0000
0010
0000
,
1000
0000
0001
0000
,
0010
0001
0000
0011
0000
0101
0000
0100
,
0000
0010
0000
1000
0000
1010
0000
1100
,
0000
0100
1000
0010
0000
1010
0000
0101
,
0000
0100
0001
0010
0000
0011
0000
1001
,
0000
1000
0100
0000
0100
0010
0010
0000
,
0010
0001
0001
0000
0001
0100
0100
0000
,
0100
0010
0010
0000
0010
1000
1000
0000
,
1000
0100
0100
0010
0001
0100
0100
0010
,
1000
0100
0020
0000
0001
0000
0130
1000
,
0001
0100
0020
0000
1000
0000
0130
0001
,
0100
0010
2000
0000
0100
0000
3001
0010
,
0100
0010
0002
0000
0100
0000
1003
0010
,
0100
0020
0000
2030
0000
3200
0000
0320
,
0000
0032
0000
2003
0000
3020
0000
0130
,
0001
2000
0000
0010
0000
0100
0000
3010
,
0100
0002
0000
0010
0000
0100
0000
0013
,
0100
1000
0010
0000
0010
0100
0001
0000
,
0001
1000
0100
0010
0001
0100
0010
0000
,
0010
1000
0001
0010
0100
1000
0010
0100
,
0001
1000
0100
0010
0001
1000
0010
0000
,
0010
0200
0000
0302
0000
0023
0000
0230
,
0000
2300
0000
3002
0000
0203
0000
0310
,
1000
0002
0000
0100
0000
0010
0000
0103
,
0010
2000
0000
0100
0000
0010
0000
3100
,
0010
0001
1000
1000
0010
1000
0001
0001
,
0100
0001
1000
1000
0100
1000
0001
0001
,
0010
0001
0100
0100
0010
1000
0100
0100
,
0010
0001
0000
0100
0000
0010
0000
1000
,
1001
0000
0000
0000
;

//---------------dance-single - D. D'Amato----------------
#NOTES:
     dance-single:
     D. D'Amato:
     Challenge:
     9:
     0.566,0.529,0.278,0.074,0.413,389.000,30.000,8.000,0.000,6.000,0.000,0.566,0.529,0.278,0.074,0.413,389.000,30.000,8.000,0.000,6.000,0.000: // measure 1
0000
0000
0000
0000
,  // measure 2
1001
0000
0110
0000
0100
0010
0001
0000
,  // measure 3
0011
0000
0101
0000
0100
0010
1000
0000
,  // measure 4
1010
0000
1100
0000
0100
0010
0001
0000
,  // measure 5
0100
0010
1000
0000
0100
0010
0001
0000
,  // measure 6
0010
0000
0000
0010
0000
0000
0100
0000
0000
0100
0000
0000
1000
0000
0000
0000
,  // measure 7
0010
0000
0000
0010
0000
0000
0100
0000
0000
0100
0000
0000
0001
0000
0000
0000
,  // measure 8
1000
0000
0000
1000
0000
0000
0010
0000
0000
0010
0000
0000
0101
0000
0000
0000
,  // measure 9
0001
0000
0000
0001
0000
0000
0010
0000
0000
0010
0000
0000
1100
0000
0000
0000
,  // measure 10
0010
0000
0000
0011
0000
0000
1000
0000
0000
1100
0000
0000
1001
0000
0000
0000
,  // measure 11
0010
0000
0000
1010
0000
0000
0001
0000
0000
0101
0000
0000
1001
0000
0000
0000
,  // measure 12
1000
0000
0000
1010
0000
0000
0100
0000
0000
0101
0000
0000
0110
0000
0000
0000
,  // measure 13
0001
0000
0000
0011
0000
0000
0100
0000
0000
1100
0000
0000
0110
0000
0000
0000
,  // measure 14
0010
0000
0100
0000
0010
0001
0010
0000
0100
0000
0010
0000
0100
1000
0100
0000
,  // measure 15
0010
0000
0100
0000
0010
0001
0010
0000
0100
0000
0010
0000
0100
1000
0100
0000
,  // measure 16
0010
0000
0001
0000
0100
0001
0100
0000
0010
0000
0100
0000
0010
1000
0010
0000
,  // measure 17
0100
0000
0010
0000
0100
0001
0100
0000
0010
0000
0100
0000
0010
1000
0010
0000
,  // measure 18
0100
0000
0001
0000
0010
1000
0010
0000
0100
0000
0010
0000
0100
0001
0100
0000
,  // measure 19
0010
0000
0100
0000
0010
1000
0010
0000
0100
0000
0010
0000
0100
0001
0100
0000
,  // measure 20
0010
0000
0001
0000
0100
1000
0100
0000
0010
0000
0100
0000
0010
0001
0010
0000
,  // measure 21
0100
0000
0010
0000
0100
1000
0100
0000
0010
0000
0100
0000
0010
0001
0010
0000
,  // measure 22
1000
0100
0010
0010
0001
0010
0100
0100
,  // measure 23
1000
0010
0100
0100
0001
0100
0010
0010
,  // measure 24
0001
0010
0100
0000
1000
0100
0010
0000
,  // measure 25
1000
0010
0100
0000
0001
0100
0010
1000
,  // measure 26
0100
0100
0010
0010
,  // measure 27
0001
0100
0010
0100
,  // measure 28
0010
0000
0100
0000
,  // measure 29
0010
1000
0100
0010
,  // measure 30
0001
2000
0000
0200
0000
0001
0000
3310
,  // measure 31
0000
0002
0000
0200
0000
1000
0000
0313
,  // measure 32
0000
2000
0000
0002
0000
0010
3000
0103
,  // measure 33
0000
0002
0000
2000
0000
0010
0003
3100
,  // measure 34
0000
0000
1000
0000
0100
0000
0100
1000
0000
0000
0001
0000
0100
0000
0100
0001
,  // measure 35
0000
0000
1000
0000
0010
0000
0010
1000
0000
0000
0001
0000
0010
0000
0010
0001
,  // measure 36
0000
0000
1000
0000
0001
0000
0001
1000
0001
0000
1000
0000
0001
0000
0001
1000
,  // measure 37
0000
1000
0010
0000
0100
0000
0001
0000
0010
0001
0010
0001
1000
0100
1000
0100
,  // measure 38
0010
0000
0000
0010
0001
0000
0000
0001
0100
0000
0000
0100
0010
0000
0000
0010
,  // measure 39
1000
0000
0000
1000
0100
0000
0000
0100
0010
0000
0000
0010
0001
0000
0000
0001
,  // measure 40
1000
0000
0000
1000
0010
0000
0000
0010
0100
0000
0000
0100
0001
0000
0000
0001
,  // measure 41
0010
0000
0000
0010
0100
0000
0000
0100
1000
0000
0010
0000
0100
0000
0001
0000
,  // measure 42
0010
0000
0000
0010
0001
0000
0000
0000
0100
0000
0000
0100
0010
0000
0000
0000
,  // measure 43
1000
0000
0000
1000
0100
0000
0000
0100
0010
0000
0000
0010
0001
0000
1000
0000
,  // measure 44
0010
0000
0000
0010
1000
0000
0000
0000
0100
0000
0000
0100
0010
0000
0000
0000
,  // measure 45
0001
0000
0100
0000
0010
1000
0000
1000
0010
0000
0100
0000
0001
0000
1000
0000
,  // measure 46
0010
0000
0000
0010
1000
0000
0000
1000
0100
0000
0000
0100
0010
0000
0000
0010
,  // measure 47
0001
0000
0000
0001
0100
0000
0000
0100
0010
0000
0000
0010
1000
0000
0000
1000
,  // measure 48
0001
0000
0000
0001
0010
0000
0000
0010
0100
0000
0000
0100
1000
0000
0000
1000
,  // measure 49
0010
0000
0000
0010
0100
0000
0000
0100
0001
0000
0010
0000
0100
0000
1000
0000
,  // measure 50
0010
0000
0000
0010
1000
0000
0000
0000
0100
0000
0000
0100
0010
0000
0000
0000
,  // measure 51
0001
0000
0000
0001
0100
0000
0000
0100
0010
0000
0000
0010
1000
0000
0001
0000
,  // measure 52
0010
0000
0000
0010
0001
0000
0000
0000
0100
0000
0000
0100
0010
0000
0000
0000
,  // measure 53
1000
0000
0100
0000
0010
0001
0000
0001
0010
0000
0100
0000
1000
0000
0001
0000
,  // measure 54
0100
0001
0101
0100
0010
1000
1010
0010
,  // measure 55
1000
0100
1100
1000
0001
0010
0011
0001
,  // measure 56
1000
0100
0110
0010
0001
1000
1001
0001
,  // measure 57
0000
0101
0000
1010
0000
1100
0000
0011
,  // measure 58
1000
0000
0000
0000
;

//---------------dance-double - A. Gigante----------------
#NOTES:
     dance-double:
     A. Gigante:
     Medium:
     6:
     0.403,0.400,0.260,0.176,0.000,257.000,28.000,19.000,0.000,0.000,0.000,0.403,0.400,0.260,0.176,0.000,257.000,28.000,19.000,0.000,0.000,0.000:
00000000
00000000
00000000
00000000
,
00000000
00000000
00000000
00000000
,
00000000
00000000
00000000
00000000
,
00000000
00000000
00000000
00000000
,
00000000
00000000
00000000
00000000
,
00100000
01000000
00000000
00010000
00100000
00000000
00001000
00000000
,
00010000
00000100
00000000
00010000
00001000
00000000
00000010
00000001
,
00000100
00001000
00000000
00000100
00000010
00000000
00010000
00000000
,
01000000
00010000
00000000
00001000
00000000
01000000
00100000
10000000
,
01000000
00100000
00000000
00001000
00010000
00000000
00100000
00000000
,
00010000
00001000
00000000
00000010
00000000
00001000
00010000
00001000
,
00010000
00000100
00000000
00000001
00000000
00000100
00001000
00000000
,
00000010
00001000
00000000
00000001
00000100
00000000
00001000
00010000
,
00000010
00000000
00001000
00000000
00000100
00010000
00001000
00000000
,
01000000
00000000
00100000
00000000
01000000
00010000
00100000
00001000
,
01000000
02010000
03100000
20100000
,
31000000
12000000
03100000
00102000
,
00013000
00000010
00000100
00000000
00000001
00000000
00000010
00000000
,
00000100
00000010
00000001
00000000
00001000
00000010
00010000
00000010
,
00001000
00001002
00000013
00000210
,
00001300
00020010
00031000
00120000
,
01030000
00100000
00010000
00000000
00001000
00000000
00100000
00000000
,
00001000
00010000
00000100
00000000
00001000
00000010
00010000
00001000
,
00100000
00000000
01000000
00000000
10000000
00100000
00010000
00000000
,
00100000
00000000
00000000
00100000
01000000
00000000
01001000
00000000
,
00021000
00000000
00000000
00000000
00002000
00030000
00000000
00000000
,
00000020
00003000
00000000
00000000
00000200
00000030
00000000
00000000
,
00002000
00000300
00000000
00000000
00003002
00000000
00000000
00000000
,
00000200
00000000
00000000
00000000
00000000
00000000
00000000
00000303
,
00000101
00000010
00000000
00001000
00000000
00010100
00000000
00101000
,
00000000
00110000
00000000
01010000
00000000
00011000
00000000
01010000
,
00100000
10000000
00000000
01000000
00000000
01100000
00000000
00101000
,
00010000
00001000
00000000
00001010
00000100
00000001
00000000
00001001
,
00000100
00000010
00000000
00000100
00000000
00011000
00000000
00101000
,
00000000
00011000
00000000
00010010
00000000
00001010
00000000
00000101
,
00000100
00001000
00000000
00010000
00000000
01000000
00000000
10000000
,
00100000
01000000
00010000
00100000
01000000
10000000
01000000
00000000
,
00110000
00000000
01000000
00000000
00001000
00010000
00000100
00000000
,
00001000
00000000
00000001
00000000
00000100
00000010
00001000
00000100
,
00000001
00000000
00000100
00000000
00010000
00001000
00000100
00000000
,
00000010
00000000
00010000
00000000
00001000
00000100
00000010
00010000
,
00001000
00000000
00010000
00000000
01000000
00010000
00001000
00000000
,
00010000
00000000
00100000
00000000
01000000
00010000
00100000
10000000
,
00100000
00000000
00001000
00000000
01000000
00010000
00100000
00000000
,
00001000
00000000
00000100
00000000
00001000
00010000
00000010
00001000
,
00000100
00000000
00001000
00000000
00000001
00000100
00001000
00000000
,
00010000
00000000
00100000
00000000
10000000
01000000
00010000
00001000
,
00100000
00010000
00000000
01000000
00000000
00001000
00000000
00010000
,
00000000
00000100
00000000
00000020
00000000
00000031
00000100
00000000
,
00001000
00000000
00100000
00000000
00001000
00010000
00001000
00000000
,
00000100
00000000
00000001
00000000
00000010
00001000
00000010
00000001
,
00001000
00000000
00000010
00000000
00010000
00001000
01000000
00000000
,
00100000
00000000
10000000
00000000
00010000
00100000
00001000
00010000
,
00000100
00000000
00001000
00000000
00000010
00000000
00000100
00000001
,
00000010
00000000
00001000
00000000
00100000
00000000
01000000
00010000
,
00002000
00000000
00003020
00000000
,
00000130
00000000
00000010
00000000
00000100
00001000
00000010
00000100
,
00000002
00000000
00000003
00000000
;

//---------------dance-double - K. Zavodney----------------
#NOTES:
     dance-double:
     K. Zavodney:
     Hard:
     7:
     0.419,0.427,0.353,0.037,0.028,274.000,38.000,4.000,0.000,0.000,0.000,0.419,0.427,0.353,0.037,0.028,274.000,38.000,4.000,0.000,0.000,0.000:
00000000
00000000
00000000
00000000
,
00000000
00000000
00000000
00000000
,
00000000
00000000
00000000
00000000
,
00000000
00000000
00000000
00000000
,
00000000
00000000
00000000
00000000
00001000
00100000
00010000
01000000
,
00100000
00000000
01001000
00010000
01001000
00000000
00100000
00000000
,
01000000
00001000
00010000
00000100
00001000
00000000
00001100
00000000
,
00000010
00000000
00000000
00000001
00000000
00000000
00000100
00000000
00000000
00001000
00000000
00000000
00010000
00000000
00000000
00000000
,
00100000
01000000
00010000
00000000
11000000
00000000
00000000
00000000
,
00010000
00100000
00001000
00010000
01000000
00000000
01100000
00000000
,
00100000
00000000
00000000
00001000
00000000
00000000
00010000
00000000
00000000
00000100
00000000
00000000
00001000
00000000
00000000
00000000
,
00001000
00000010
00010000
00001000
00000100
00000000
00001001
00000000
,
00000010
00000000
00000000
00000001
00000000
00000000
00000100
00000000
00000000
00001000
00000000
00000000
00010000
00000000
00000000
00000000
,
00001000
00100000
00010000
01000000
00000000
01000000
00000000
01100000
,
00000000
01020000
00100000
00030000
01000000
01000000
01000000
00000000
,
00100000
10000000
01000000
00000000
00010000
00000000
00001000
00000000
,
00000010
00000001
00000100
00000000
00001000
00000000
00010000
00000000
,
00001000
00000100
00000000
00000010
00000000
00010100
00001000
00010100
,
00000000
00001200
00000000
00000310
00000000
00000010
00000000
00000010
,
00000001
00001000
00010000
10000000
,
01000000
00100000
00010000
00000000
01100000
00000000
00000000
01000000
,
10000000
01000000
00000000
00010000
00000000
00001000
00000000
00000010
,
00000100
00001000
00000000
00000001
00000000
00000100
00000000
00001000
,
00010000
00100000
00000000
01000000
00000000
00010000
10000000
01000000
,
11000000
00000000
01100000
00010000
01000000
00000000
01001000
00010000
,
01001000
00000000
00010000
00100000
00001000
00010000
00000100
00000000
,
00010000
00001000
00010000
01000000
00100000
00000000
00010000
00000000
,
01000000
00010000
00100000
00000000
00000010
00001000
00000100
00000000
,
00000010
00000000
00000000
00000000
,
01100000
00010000
00000000
10000000
00000000
10000000
00000000
01000000
,
00000000
01000000
00000000
00010000
00000000
00010000
00000000
00001000
,
00000000
00001000
00000000
00000100
00000000
00000100
00000000
00000001
,
00000000
00000001
00000000
00000010
00000000
00000010
00000000
00001000
,
00010000
00100000
00000000
10000000
00000000
10000000
00000000
01000000
,
00000000
01000000
00000000
00010000
00000000
00010000
00000000
00001000
,
00000000
00001000
00000000
00000100
00000000
00000100
00000000
00000001
,
00000000
00000001
00000000
00000010
00000000
00000010
00000000
00001000
,
00010000
00100000
00000000
00100000
10000000
01000000
00000000
10000000
,
00010000
01000000
00000000
00001000
00010000
00000100
00000000
00001000
,
00000010
00000100
00000000
00001010
00000000
00000101
00000000
00000010
,
00001000
00000100
00000000
00000011
00000000
00001100
00000000
00010000
,
00001000
00100000
00000000
00010000
00010000
10000000
00000000
01100000
,
00000000
00011000
00000000
00001001
00000000
00000100
00000000
00000010
,
00001000
00000100
00000000
00000010
00000010
00000001
00000000
00000110
,
00000000
00011000
00000000
10010000
00000000
00010000
00010000
00100000
,
00001000
00100000
00101000
00010000
,
00010100
00001000
00101000
00010000
,
01000000
00100000
01000000
00001000
00010000
00000000
00000010
00000000
,
00001000
00000100
00000010
00000100
00010000
00000000
00001000
01000000
,
00010000
00100000
10010000
01010000
,
00100000
00001000
00011000
00101000
,
00010000
00000100
00010100
00001100
,
00001000
00000010
00000100
00000100
00000001
00000000
00001001
00000100
,
00001000
00000001
00000010
00000100
00001000
00000010
00000100
00000000
,
00000100
00001000
00000100
00001000
00010000
00100000
00010000
00100000
,
10000000
00100000
01000000
00010000
10000000
01000000
10000000
00000000
,
10000000
00010000
00100000
00001000
00010000
00000100
00001000
00000000
,
00002020
00000000
00003030
00000000
;

//---------------dance-double - M.Emirzian----------------
#NOTES:
     dance-double:
     M.Emirzian:
     Easy:
     3:
     0.182,0.185,0.046,0.009,0.000,131.000,5.000,1.000,0.000,0.000,0.000,0.182,0.185,0.046,0.009,0.000,131.000,5.000,1.000,0.000,0.000,0.000:
00000000
00000000
00000000
00000000
,
00000000
00000000
00000000
00000000
,
00000000
00000000
00000000
00000000
,
00000000
00000000
00000000
00000000
,
00100000
00000000
00000000
00000000
,
00010000
00110000
00000000
00001000
,
00000000
00010000
00010000
00000000
,
00000010
00001010
00000000
00000001
,
00000000
00000100
00000100
00000000
,
00000010
00001010
00000000
00010000
,
00000000
00001000
00001000
00000000
,
00010000
01001000
00000000
01000000
,
00000000
00010000
00010000
00000000
,
10000000
01000000
00010000
00000000
,
00001000
00000100
00000001
00000000
,
00000010
00000000
00000010
00000000
,
00000010
00000000
00000100
00000000
,
00010000
00001000
01000000
00000000
,
00001000
00010000
01000000
00000000
,
10000000
00000000
10000000
00000000
,
10000000
00000000
00010000
00000000
,
01000000
00010000
00100000
00000000
,
00001000
00010000
00000100
00000000
,
00001000
00000000
00001000
00000000
,
00001000
00000000
00000000
00000000
,
00000010
00000000
00000000
00000000
,
00000001
00000000
00000000
00000000
,
00000020
00000000
00000000
00000000
,
00000000
00000000
00000000
00000030
,
00000010
00000000
00001000
00000000
,
00000100
00001000
00010000
00000000
,
00001000
00000000
00010000
00000000
,
01000000
00010000
00001000
00000000
,
01000000
00000000
00100000
00000000
,
10000000
00000000
01000000
00000000
,
00100000
00010000
01000000
00000000
,
00100000
00000000
10000000
01000000
,
00100000
00010000
01000000
00000000
,
00100000
00001000
00010000
00000000
,
00001000
00000100
00000000
00000001
,
00000001
00000000
00000010
00001000
,
00010000
00000100
00001000
00000000
,
00000010
00010000
00001000
00000000
,
00100000
00010000
00001000
00000000
,
00010000
01000000
10000000
00000000
,
00100000
00100000
00000000
01000000
,
00010000
01000000
00100000
10000000
,
00000000
01000000
00100000
00010000
,
00000000
00100000
00001000
00010000
,
00000100
00000000
00000010
00000100
,
00001000
00000001
00000100
00000000
,
00000010
00000010
00000000
00001000
,
00000100
00001000
00000010
00000000
,
00010000
00000000
00001000
00000000
,
01000000
00000000
00010000
00000000
,
10000000
00000000
01000000
00000000
,
00100000
00000000
00010000
00000000
,
10010000
00000000
00000000
00000000
;

//---------------dance-double - W. Smith----------------
#NOTES:
     dance-double:
     W. Smith:
     Challenge:
     9:
     0.627,0.716,0.260,0.186,0.742,425.000,28.000,20.000,81.000,1.000,0.000,0.627,0.716,0.260,0.186,0.742,425.000,28.000,20.000,81.000,1.000,0.000:
00000000
00000000
00000000
00000000
,
00000000
00000000
00000000
00000000
,
00000000
00000000
00000000
00000000
,
10000000
01000000
00000000
01000000
00000000
00100000
00010000
00100000
00000000
00001000
00000000
00001000
00000000
00010000
00000010
00010000
,
00000000
00000100
00000000
00000100
00000000
00001000
00000001
00001000
00000000
00000100
00000000
00010000
00000000
00001000
01000000
00000000
,
10100000
00000000
00100000
00010000
00000000
00000000
00011000
00000000
00000000
00001000
00000000
00000100
00000001
00000000
0000000M
00000000
,
00000011
00000000
00000010
00001000
00000000
00000000
00011000
00000000
00000000
00010000
00000000
01000000
10000000
00000000
M0000000
00000000
,
10010000
00000000
01000000
00100000
00000000
00000000
00101000
00000000
00000000
00001000
00000000
00010000
00000100
00000000
00000M00
00000000
,
00001001
00000000
00000100
00000010
00000000
00000000
00010010
00000000
00000000
00010000
00000000
00001000
01000000
00000000
0M000000
00000000
,
01100000
00000000
10000000
00010000
00000000
00000000
00101000
00000000
00000000
00001000
00000000
00010000
00000100
00000000
00000M00
00000000
,
00000110
00000000
00000001
00001000
00000000
00000000
00010010
00000000
00000000
00010000
00000000
00001000
01000000
00000000
0M000000
00000000
,
10010000
00000000
00100000
00001000
00000000
00000000
00011000
00000000
00000000
00000010
00000000
00010000
00001000
00000000
0000M000
00000000
,
00100000
00000010
00010000
00001000
01000000
00000100
00011000
000MM000
,
00011000
00010000
01000000
00010000
00000100
00010000
01000000
10000000
,
00100000
00010000
00000010
00010000
00100000
00010000
00000010
00000100
,
00001000
00000000
00000100
00000000
00000001
00000010
00000100
00000000
00001000
00000000
00010000
00000000
00100000
01000000
10000000
00000000
,
00010000
00000000
10000000
00000000
00100000
00010000
00001000
00000000
00000100
00000000
00000001
00000000
00000010
00001000
00010000
00000000
,
00101000
00010000
00001000
00000100
00100000
00010000
00001000
00000200
,
00000000
00000020
00000000
00010000
00000000
00000000
00000330
00000000
,
00010000
00000000
00001000
00000000
01000000
00000100
01000000
00000000
00001000
00000000
00010000
00000000
00000010
00100000
00000010
00000000
,
00010000
00000000
00001000
00000000
10000000
00010000
10000000
00000000
00001000
00000000
00010000
00000000
00000001
00001000
00000001
00000000
,
00020100
00030200
00020300
00030020
00020030
00230000
00320000
02030000
,
03020000
00032000
00203000
00300000
00010000
00100000
01000000
00000000
,
10000000
00100000
00010000
00001000
00000100
00000001
00000010
00000000
,
00010100
00000000
01001000
10000000
10010000
00000000
00011000
00000000
,
M0002002
0M000000
00M00000
00000000
000M0000
00M00000
0M000000
00000000
M0000000
0M000000
00M00000
00000000
000M0000
00M00000
0M000000
00000000
,
M0000000
0M000000
00M00000
00000000
000M0000
00M00000
0M000000
00000000
M0000000
0M000000
00M00000
00000000
000M0000
00M00000
0M003003
00000000
,
0002200M
000000M0
00000M00
00000000
M0000000
0M000000
00M00000
00000000
0000000M
000000M0
00000M00
00000000
M0000000
0M000000
00M33000
00000000
,
2002000M
000000M0
00000M00
00000000
0000M000
00000M00
000000M0
00000000
0000000M
000000M0
00000M00
00000000
0000M000
00000M00
300300M0
00000000
,
10000000
00000000
00010000
01000000
00000000
00000000
00001000
00000000
00000000
00010000
00000000
00000000
00000100
00000000
00001000
00000000
,
00000001
00000000
00001000
00000010
00000000
00000000
00010000
00000000
00000000
00001000
00000000
00000000
00100000
00000000
M000000M
00000000
,
01000000
00000000
10000000
00010000
00000000
00000000
00100000
00000000
00000000
00001000
00000000
00000000
00000010
00000000
00000100
00000000
,
00000010
00000000
00000001
00001000
00000000
00000000
00000100
00000000
00000000
00010000
00000000
00000000
01100000
00000000
000MM000
00000000
,
10000000
00000000
00010000
00000000
01000000
00000000
01000000
00010000
00100000
00000000
00001000
00000000
00010000
00000000
00010000
00000010
,
00001000
00000000
00000001
00000000
00000010
00000000
00000100
00010000
00001000
00000000
01000000
00000000
00100MM0
00000000
10000000
00100000
,
01000000
00010000
00100000
00001000
00010000
00000100
00001000
00000001
00000010
00000100
00010000
00001000
01000000
00010000
10000000
01000000
,
00100000
00001000
00010000
00001000
01000000
00001000
10000000
00001000
00010000
00000100
00010000
00000001
0MM10000
00000010
00010000
00001000
,
00100000
00000000
01000000
10000000
00000000
00000000
10000000
00100000
00000000
00000000
00100000
00001000
00000000
00000000
00001000
00010000
,
00000000
00000000
00010000
01000000
00000000
00000000
01000000
00001000
00000000
00000000
00001000
00010000
00000000
00000000
00010000
00000100
,
00001000
00000000
00000100
00000001
00000000
00000000
00000001
00001000
00000000
00000000
00001000
00000010
00000000
00000000
00000010
00010000
,
00000000
00000000
00010000
00100000
00000000
00000000
00100000
10000000
00000000
00000000
10000000
00010000
00000000
00000000
00010000
01000000
,
00100000
00000000
00010000
01000000
00000000
00000000
00001000
00100000
00000000
00000000
00000010
00010000
00000000
00000000
00000001
00001000
,
00000000
00000000
00000100
00000010
00000000
00000000
00001000
00010000
00000000
00000000
01000000
00100000
00000000
00000000
00100000
00001000
,
00010000
00000000
00001000
00010000
00000000
00000000
00000100
00000000
00000000
00010000
00000000
00001000
01000000
00000000
00100000
00000000
,
10000000
00000000
00000000
00000000
00000000
00000000
01000000
00000000
00000000
00100000
00000000
00000000
00000000
00000000
00000000
00000000
00000000
00000000
00001000
00000000
00000000
00000000
00000000
00000000
00000000
00000000
00000000
00010000
00000000
00000000
00000000
00000000
00000000
00010000
00000000
00000000
00000010
00000000
00000000
00000000
00001000
00000000
00000010
00000000
00001000
00000000
00000010
00000000
,
MMMM1000
00000000
00000100
00010000
00000000
00000000
00010000
00100000
00000000
00000000
00100000
00001000
00000000
00000000
00001000
00010000
,
00000000
00000000
00010000
01000000
00000000
00000000
01000000
00001000
00000000
00000000
00001000
00010000
00000000
00000000
00010000
00000100
,
00001000
00000000
00000100
00000001
00000000
00000000
00000001
00001000
00000000
00000000
00001000
00000010
00000000
00000000
00000010
00010000
,
00000000
00000000
00010000
00100000
00000000
00000000
00100000
10000000
00000000
00000000
10000000
00010000
00000000
00000000
00010000
01000000
,
00100000
00000000
00001000
00010000
00000000
00000000
00000010
00000100
00000000
00000000
00001000
00010000
00000000
00000000
00100000
01000000
,
00000000
00000000
00010000
00100000
00000000
00000000
00001000
00010000
00000000
00000000
00000010
00001000
00000000
00000000
00000100
00010000
,
00001000
00000000
01000000
00010000
00000000
00000000
00100000
00000000
00000000
00001000
00000000
00010000
00000010
00000000
00000100
00000000
,
00000001
00000000
00000000
00000000
00000000
00000000
00000010
00000000
00000000
00000100
00000000
00000000
00000000
00000000
00000000
00000000
00000000
00000000
00010000
00000000
00000000
00000000
00000000
00000000
00000000
00000000
00000000
00001000
00000000
00000000
00000000
00000000
00000000
00001000
00000000
00000000
01000000
00000000
00000000
00000000
00010000
00000000
10000000
00000000
00010000
00000000
10000000
00000000
,
0001MMMM
00000000
01000000
00000000
00001000
00010000
0000010M
00000000
00000010
00000000
00000100
00000000
00010000
00001000
M1000000
00000000
,
00100000
00000000
10000000
00000000
00010000
00100000
0000100M
00000000
00000010
00000000
00000001
00000000
00001000
00000010
M0010000
00000000
,
00001000
00000000
00100000
00000000
00010000
01000000
0010000M
00000000
00010000
00000000
00000100
00000000
00001000
00000010
M0000100
00000000
,
00000001
00000110
00000000
00001000
00000000
00010000
00000000
01100000
,
200MM000
30000000
00000000
00000000
00000000
00000000
00000000
00000000
;

//---------------dance-single - J. Frederick----------------
#NOTES:
     dance-single:
     J. Frederick:
     Beginner:
     1:
     0.074,0.079,0.028,0.000,0.000,53.000,3.000,0.000,0.000,0.000,0.000,0.074,0.079,0.028,0.000,0.000,53.000,3.000,0.000,0.000,0.000,0.000:
0000
0000
0000
0000
,
1000
0000
0000
0000
,
0001
0000
0000
0000
,
0010
0000
0000
0000
,
0100
0000
0000
0000
,
1000
0000
0000
0000
,
0001
0000
0000
0000
,
0100
0000
0000
0000
,
0010
0000
0000
0000
,
1000
0000
0000
0000
,
0001
0000
0000
0000
,
1000
0000
0000
0000
,
0010
0000
0000
0000
,
1000
0000
0000
0000
,
0000
0000
0000
0000
,
0001
0000
0000
0000
,
0000
0000
0000
0000
,
0010
0000
0000
0000
,
0000
0000
0000
0000
,
0100
0000
0000
0000
,
0000
0000
0000
0000
,
1000
0000
0000
0000
,
1000
0000
0000
0000
,
0001
0000
0000
0000
,
0001
0000
0000
0000
,
0010
0000
0000
0000
,
0100
0000
0000
0000
,
0010
0000
0000
0000
,
0100
0000
0000
0000
,
1001
0000
0000
0000
,
1000
0000
0000
0000
,
0001
0000
0000
0000
,
0010
0000
0000
0000
,
0100
0000
0000
0000
,
0010
0000
0000
0000
,
1000
0000
0000
0000
,
0001
0000
0000
0000
,
0110
0000
0000
0000
,
1000
0000
0000
0000
,
0001
0000
0000
0000
,
0100
0000
0000
0000
,
0010
0000
0000
0000
,
1000
0000
0000
0000
,
0001
0000
0000
0000
,
0010
0000
0000
0000
,
0100
0000
0000
0000
,
0010
0000
0000
0000
,
1000
0000
0000
0000
,
0001
0000
0000
0000
,
0010
0000
0000
0000
,
0100
0000
0000
0000
,
1000
0000
0000
0000
,
0001
0000
0000
0000
,
0010
0000
0000
0000
,
0100
0000
0000
0000
,
1000
0000
0000
0000
,
0001
0000
0000
0000
,
1001
0000
0000
0000
;

//---------------dance-single - J. Frederick----------------
#NOTES:
     dance-single:
     J. Frederick:
     Easy:
     3:
     0.176,0.185,0.056,0.158,0.000,110.000,6.000,17.000,0.000,0.000,0.000,0.176,0.185,0.056,0.158,0.000,110.000,6.000,17.000,0.000,0.000,0.000:
0000
0000
0000
0000
,
1001
0000
1000
0000
,
0001
0000
0010
0000
,
0100
0000
1000
0000
,
0220
0000
0000
0330
,
1000
0000
1000
0000
,
0001
0000
0001
0000
,
1000
0000
1000
0000
,
0010
0000
0100
0000
,
0001
0000
0010
0000
,
0100
0000
1000
0000
,
0010
0000
0100
0000
,
0001
0000
1000
0000
,
0020
0000
0000
0030
,
0200
0000
0000
0300
,
0001
0000
0001
0000
,
1000
0000
1000
0000
,
0200
0000
0000
0300
,
0020
0000
0000
0030
,
1000
0000
0001
0000
,
0010
0000
0100
0000
,
2000
0000
0000
3000
,
0002
0000
0000
0003
,
0010
0000
0100
0000
,
0010
0000
0100
0000
,
2002
0000
0000
0000
,
0000
0000
0000
3003
,
0100
0000
0010
0000
,
0100
0000
0010
0000
,
1000
0000
1000
0000
,
0001
0000
0001
0000
,
0010
0000
0010
0000
,
0100
0000
0100
0000
,
0010
0000
1000
0000
,
0001
0000
0100
0000
,
0010
0000
0100
0000
,
2002
0000
0000
3003
,
0001
0100
0001
0000
,
1000
0010
1000
0000
,
1000
0000
0001
0000
,
0100
0010
0100
0010
,
0100
1000
0100
0000
,
0001
0100
0001
0000
,
0010
0001
0010
0000
,
0001
0000
1000
0000
,
0010
1000
0010
0000
,
0001
0100
0001
0000
,
1000
0000
0010
0000
,
0100
0010
0100
0010
,
0100
0000
1000
0000
,
0001
0000
0100
0000
,
0010
1000
0010
0000
,
0001
0000
0100
0000
,
0020
0030
0000
0000
,
0200
0300
0000
0000
,
2000
3000
0000
0000
,
2002
0000
0000
3003
,
1001
0000
0000
0000
;

//---------------dance-single - J. Frederick----------------
#NOTES:
     dance-single:
     J. Frederick:
     Medium:
     5:
     0.345,0.423,0.213,0.260,0.000,209.000,23.000,28.000,0.000,0.000,0.000,0.345,0.423,0.213,0.260,0.000,209.000,23.000,28.000,0.000,0.000,0.000:
0000
0000
0000
0000
,
1001
0100
0010
1000
,
1010
0100
0001
0010
,
0110
1000
0100
0010
,
0002
0010
2000
3003
,
0100
0010
1000
1000
,
0010
0100
0001
0001
,
0010
0100
1000
1000
,
0010
0100
0010
0010
,
1000
0010
0100
0100
,
0001
0010
0001
0001
,
0010
0100
1000
0100
,
2002
0000
0000
3003
,
0100
0010
1000
0100
,
0010
0001
0200
0300
,
0010
1000
0010
0100
,
0001
0010
0100
1000
,
0100
0010
0001
0100
,
0010
1000
0001
0010
,
0200
0300
0200
0300
,
0200
0300
0200
0300
,
1000
0010
0100
0001
,
0020
0030
0200
0300
,
1000
0010
0100
0001
,
0020
0030
0100
1000
,
2200
0000
0000
3300
,
0022
0000
0000
0033
,
0220
0000
0000
0330
,
2002
0000
0000
3003
,
0000
0100
0000
0010
0000
1000
0000
0010
,
0000
0100
0000
0001
0000
0010
0000
0100
,
0000
1000
0000
0100
0000
0010
0000
0001
,
0000
0100
0000
0001
0000
1000
0000
0001
,
0000
1010
0000
0110
0000
0101
0000
0011
,
0000
0110
0000
1100
0000
0110
0000
0011
,
0000
1001
0000
1010
0000
0110
0000
0101
,
0010
0100
0010
0100
0010
0100
0010
0000
,
0100
1000
0010
0100
,
0001
0010
0001
1000
,
0010
0100
0001
0010
,
0100
0000
1000
0000
0010
0100
0010
0000
,
1000
0001
0010
0100
,
1000
0010
0100
0001
,
0010
0001
1000
0010
,
0100
0000
0001
0000
0010
0100
0010
0000
,
1001
0000
0100
0000
0010
1000
0010
0000
,
0100
0000
0001
0000
0010
0100
1000
0000
,
0100
0010
0001
0100
,
0001
1000
0010
0100
,
0010
1000
0010
0000
0100
0000
0001
0000
,
0010
0100
0010
0000
0100
0000
1000
0000
,
0010
0001
0010
0000
1000
0000
0100
0000
,
0010
0001
0010
0000
0100
0000
1000
0000
,
0020
0130
2000
3001
,
0020
0130
2000
3010
,
0200
0301
0020
0130
,
2002
0000
0000
3003
,
1001
0000
0000
0000
;
