#TITLE:Sweet Things;
#SUBTITLE:;
#ARTIST:Andreas Viklund;
#TITLETRANSLIT:;
#SUBTITLETRANSLIT:;
#ARTISTTRANSLIT:;
#GENRE:Silly Pop;
#CREDIT:;
#BANNER:Sweet Things-bn.png;
#BACKGROUND:Sweet Things-bg.png;
#LYRICSPATH:;
#CDTITLE:;
#MUSIC:Sweet Things.ogg;
#OFFSET:0.008;
#SAMPLESTART:14.620;
#SAMPLELENGTH:11.860;
#SELECTABLE:YES;
#BPMS:0.000=131.230;
#STOPS:;
#BGCHANGES:0.268=Sweet Things.mpg=1.000=1=0=0=StretchNoLoop==CrossFade==,
99999=-nosongbg-=1.000=0=0=0 // don't automatically add -songbackground-;
#KEYSOUNDS:;

//---------------dance-single - D. D'Amato----------------
#NOTES:
     dance-single:
     D. D'Amato:
     Hard:
     9:
     0.538,0.575,0.121,0.009,0.471,390.000,13.000,1.000,0.000,0.000,0.000,0.538,0.575,0.121,0.009,0.471,390.000,13.000,1.000,0.000,0.000,0.000:
0000
0000
0000
0000
,
0000
0000
0000
0000
,
0000
0000
0000
0000
,
0000
0000
0000
0000
,
0100
0000
0000
0001
0100
0000
0010
0000
0000
0000
0000
0010
1000
0000
0000
0010
,
0000
0000
0100
0000
0001
0000
1000
0000
0100
0000
0000
0010
0001
0000
1000
0000
,
0100
0000
0000
1000
0100
0000
0010
0000
0000
0000
0000
0010
0001
0000
0000
0010
,
0000
0100
1000
0001
0100
0010
1000
0001
,
0100
0000
0000
0100
0000
0000
0010
0000
1000
0000
0000
1000
0000
0000
0100
0000
,
0010
0000
0000
0010
0000
0000
1000
0000
0001
0000
0100
0000
0010
0000
1000
0000
,
0100
0000
0000
0100
0000
0000
0010
0000
0001
0000
0000
0001
0000
0000
0100
0000
,
0010
0000
0000
0010
0000
0000
0001
0000
1000
0000
0100
0000
0010
0000
0001
0000
,
0100
0000
0000
1000
0000
0000
0010
0000
1000
0000
0000
0001
0000
0000
0100
0000
,
0010
0000
0000
0100
0000
0000
1000
0000
0001
0000
0100
0000
0010
0000
1000
0000
,
0100
0000
0000
0001
0000
0000
0010
0000
0001
0000
0000
1000
0000
0000
0100
0000
,
0010
0000
0000
0100
0000
0000
0001
0000
1000
0000
0100
0000
0010
0000
0001
0000
,
0100
0000
0010
0000
1000
0000
0001
0100
0000
0000
0010
0000
1000
0000
0100
0000
,
0010
0000
0001
0000
1000
0000
0010
0000
0000
1000
0000
0000
0100
0000
1000
0000
,
0010
0000
0100
0000
0001
0000
1000
0010
0000
0000
0100
0000
0001
0000
0010
0000
,
0100
0000
1000
0000
0001
0000
0100
0000
0000
0001
0000
0000
0100
0000
0001
0000
,
0010
0000
0100
0000
1000
0000
0001
0010
0000
0000
0100
0000
1000
0000
0010
0000
,
0100
0000
0001
0000
1000
0000
0100
0000
0000
1000
0000
0000
0010
0000
1000
0000
,
0100
0000
0010
0000
0001
0000
1000
0100
0000
0000
0010
0000
0001
0000
0100
0000
,
0010
0000
1000
0000
0001
0000
0100
0000
0000
0001
0000
0000
0010
0000
0001
0000
,
0100
0000
0010
0000
1000
0000
0001
0100
0000
0000
0010
0000
1000
0000
0100
0000
,
0010
0000
0001
0000
1000
0000
0010
0100
0000
0001
0000
0010
0100
0000
1000
0000
,
0010
0000
0100
0000
0001
0000
1000
0010
0000
0000
0100
0000
0001
0000
0010
0000
,
0100
0000
1000
0000
0001
0000
0100
0010
0000
1000
0000
0100
0010
0000
0001
0000
,
0010
0000
0100
0000
1000
0000
0001
0010
0000
0000
0100
0000
1000
0000
0010
0000
,
0100
0000
0001
0000
1000
0000
0100
0010
0000
0001
0000
0100
0010
0000
1000
0000
,
0100
0000
0010
0000
0001
0000
1000
0100
0000
0000
0010
0000
0001
0000
0100
0000
,
0010
0000
1000
0000
0001
0000
0010
0100
0000
1000
0000
0010
0100
0000
0001
0000
,
1000
0001
0100
0000
0010
0000
1000
0100
0000
0010
0000
0001
0100
0000
0010
1000
,
0001
1000
0100
0000
0010
0000
0001
0100
0000
0010
0000
1000
0010
0000
0100
0001
,
1000
0001
0010
0000
0100
0000
1000
0010
0000
0100
0000
0001
0010
0000
0100
1000
,
0001
1000
0010
0000
0100
0000
0001
0010
0000
0100
0000
1000
0100
0000
0010
0001
,
1000
0001
0100
0000
0010
0000
1000
0100
0000
0010
0000
0001
0100
0000
0010
1000
,
0001
1000
0100
0000
0010
0000
0001
0100
0000
0010
0000
1000
0010
0000
0100
0001
,
1000
0001
0010
0000
0100
0000
1000
0010
0000
0100
0000
0001
0010
0000
0100
1000
,
0001
1000
0010
0000
0100
0000
0001
0010
0000
0100
0000
1000
0100
0000
0010
0000
,
0200
0000
0000
0300
,
0100
0000
0100
0010
0001
0100
0010
1000
,
0100
0000
0000
1000
0000
0000
0010
0000
1000
0000
0000
0001
0000
0000
0100
0000
,
0010
0000
0000
0100
0000
0000
1000
0000
0001
0000
0100
0000
0010
0000
1000
0000
,
0100
0000
0000
0001
0000
0000
0010
0000
0001
0000
0000
1000
0000
0000
0100
0000
,
0010
0000
0000
0100
0000
0000
0001
0000
1000
0000
0100
0000
0010
0000
0001
0000
,
1000
0000
0000
0001
0000
0000
0100
0000
0001
0000
0000
1000
0000
0000
0010
0000
,
0100
0000
0000
0010
0000
0000
0001
0000
1000
0000
0010
0000
0100
0000
0001
0000
,
0010
0000
0000
1001
0000
0000
0100
0000
1000
0000
0000
0101
0000
0000
0010
0000
,
0100
0000
0000
0011
0000
0000
1000
0000
0001
0000
0010
0000
0100
0000
1000
0000
,
0100
0000
0000
1001
0000
0000
0010
0000
1000
0000
0000
0011
0000
0000
0100
0000
,
0010
0000
0000
0101
0000
0000
1000
0000
0001
0000
0100
0000
0010
0000
1000
0000
,
0010
0000
0000
0101
0000
0000
1000
0000
0001
0000
0000
0110
0000
0000
1000
0000
,
0100
0000
0000
1001
0000
0000
0010
0000
1000
0000
0001
0000
0010
0000
0100
0000
,
1001
0000
0000
0000
,
0110
0000
0000
1001
0000
0000
0010
0000
0001
0000
1000
0000
0010
0000
0100
0000
,
1001
0000
0000
0000
;

//---------------dance-single - D. D'Amato----------------
#NOTES:
     dance-single:
     D. D'Amato:
     Challenge:
     10:
     0.758,0.758,0.149,0.093,0.938,543.000,16.000,10.000,0.000,0.000,0.000,0.758,0.758,0.149,0.093,0.938,543.000,16.000,10.000,0.000,0.000,0.000: // measure 1
0000
0000
0000
0000
,  // measure 2
0000
0000
0000
0000
,  // measure 3
0000
0000
0000
0000
,  // measure 4
0000
0000
0000
0000
,  // measure 5
0001
0000
1000
0000
0100
0000
0010
0000
0001
0100
0000
0001
1000
0000
0100
0010
,  // measure 6
0100
0000
1000
0000
0001
0000
0010
0001
0000
1000
0001
0000
0100
0010
0100
0001
,  // measure 7
1000
0000
0001
0000
0100
0000
0010
0000
1000
0100
0000
1000
0001
0000
0100
0010
,  // measure 8
0100
0001
1000
0000
0001
0000
0100
0000
0010
0000
1000
0000
0100
0000
0010
0000
,  // measure 9
0001
0000
0000
0001
0100
0000
0001
0000
0010
0000
0000
0010
0100
0000
0010
0000
,  // measure 10
0001
0000
0000
0001
0010
0000
0001
0000
0100
0000
0010
0000
1000
0000
0001
0000
,  // measure 11
1000
0000
0000
1000
0100
0000
1000
0000
0010
0000
0000
0010
0100
0000
0010
0000
,  // measure 12
1000
0000
0000
1000
0010
0000
1000
0000
0100
0000
0010
0000
0001
0000
1000
0000
,  // measure 13
0001
0000
0000
0010
0001
0000
0010
0000
0100
0000
0000
0010
0100
0000
0010
0000
,  // measure 14
0001
0000
0000
0100
0001
0000
0100
0001
0100
0000
0010
0000
1000
0000
0001
0000
,  // measure 15
1000
0000
0000
0010
1000
0000
0010
0000
0100
0000
0000
0010
0100
0000
0010
0000
,  // measure 16
1000
0000
0000
0100
1000
0000
0100
1000
0100
0000
0010
0001
0010
0100
1000
0001
,  // measure 17
0100
0010
0100
0000
0001
0000
1000
0010
0000
0010
1000
0000
0100
0000
1000
0001
,  // measure 18
0010
0100
0010
0000
0001
0000
1000
0100
0000
0100
1000
0000
0010
0100
0001
1000
,  // measure 19
0100
0010
0100
0000
1000
0000
0001
0010
0000
0010
0001
0000
0100
0000
0001
1000
,  // measure 20
0010
0100
0010
0000
1000
0000
0001
0100
0000
0100
0001
0000
0010
0100
1000
0001
,  // measure 21
0010
0100
0010
0000
0001
0000
1000
0100
0000
0100
1000
0000
0010
0000
1000
0001
,  // measure 22
0100
0010
0100
0000
0001
0000
1000
0010
0000
0010
1000
0000
0100
0010
0001
1000
,  // measure 23
0010
0100
0010
0000
1000
0000
0001
0100
0000
0100
0001
0000
0010
0000
0001
1000
,  // measure 24
0100
0010
0100
0000
1000
0000
0001
0010
0000
0010
0001
0000
0100
0010
1000
0001
,  // measure 25
0100
0010
0100
0000
0001
0000
1000
0010
0000
0010
1000
0010
0100
0010
1000
0001
,  // measure 26
0010
0100
0010
0000
0001
0000
1000
0100
0000
0100
1000
0000
0010
0100
0001
1000
,  // measure 27
0100
0010
0100
0000
1000
0000
0001
0010
0000
0010
0001
0010
0100
0010
0001
1000
,  // measure 28
0010
0100
0010
0000
1000
0000
0001
0100
0000
0100
0001
0000
0010
0100
1000
0001
,  // measure 29
0010
0100
0010
0000
0001
0000
1000
0100
0000
0100
1000
0100
0010
0100
1000
0001
,  // measure 30
0100
0010
0100
0000
0001
0000
1000
0010
0000
0010
1000
0000
0100
0010
0001
1000
,  // measure 31
0010
0100
0010
0000
1000
0000
0001
0100
0000
0100
0001
0100
0010
0100
0001
1000
,  // measure 32
0100
0010
0100
0000
1000
0000
0001
0010
0000
0010
0001
0000
0100
0010
1000
0001
,  // measure 33
0100
0010
0100
0001
0100
0010
1000
0010
0000
0010
1000
0010
0100
0010
1000
0001
,  // measure 34
0010
0100
0010
0001
0010
0100
1000
0100
0000
0100
1000
0000
0010
0100
0001
1000
,  // measure 35
0100
0010
0100
1000
0100
0010
0001
0010
0000
0010
0001
0010
0100
0010
0001
1000
,  // measure 36
0010
0100
0010
1000
0010
0100
0001
0100
0000
0100
0001
0000
0010
0100
1000
0001
,  // measure 37
0010
0100
0010
0001
0010
0100
1000
0100
0000
0100
1000
0100
0010
0100
1000
0001
,  // measure 38
0100
0010
0100
0001
0100
0010
1000
0010
0000
0010
1000
0000
0100
0010
0001
1000
,  // measure 39
0010
0100
0010
1000
0010
0100
0001
0100
0000
0100
0001
0100
0010
0100
0001
1000
,  // measure 40
0100
0010
0100
1000
0100
0010
0001
0010
0000
0010
0001
0000
0100
0010
1000
0001
,  // measure 41
0020
0000
0000
0000
,  // measure 42
0130
0000
0110
1000
0001
0100
0010
1000
,  // measure 43
0100
0000
0010
0001
0000
0001
0010
0000
0100
0000
0010
0100
0000
0100
0010
0000
,  // measure 44
0001
0000
0010
0001
0000
0001
0010
0000
0100
1000
0100
0000
0010
0000
0001
0000
,  // measure 45
0100
0000
0010
1000
0000
1000
0010
0000
0100
0000
0010
0100
0000
0100
0010
0000
,  // measure 46
1000
0000
0010
1000
0000
1000
0010
0000
0100
0001
0100
0000
0010
0000
1000
0000
,  // measure 47
0100
0000
1000
0001
0000
0001
1000
0000
0010
0000
0100
0010
0000
0010
0100
0000
,  // measure 48
0001
0000
1000
0001
0000
0001
1000
0000
0100
0010
0100
0000
1000
0000
0001
0000
,  // measure 49
0201
0000
0000
0310
1000
0000
0001
0000
0021
0000
0000
0130
1000
0000
0010
0000
,  // measure 50
0210
0000
0000
0301
1000
0000
0010
0000
0100
0000
0010
0000
1000
0001
1000
0000
,  // measure 51
1200
0000
0000
0310
0001
0000
1000
0000
1020
0000
0000
0130
0001
0000
0010
0000
,  // measure 52
0210
0000
0000
1300
0001
0000
0010
0000
0100
0000
0010
0000
0001
1000
0001
0000
,  // measure 53
2001
0000
0000
3100
0010
0000
0001
0000
0201
0000
0000
0310
1000
0000
0100
0000
,  // measure 54
2100
0000
0000
3010
0100
0000
0001
0000
0011
0000
0000
0000
1010
0000
1000
0000
,  // measure 55
1001
0000
0000
0000
,  // measure 56
1001
0000
0000
0110
0000
0000
1000
0000
0100
0000
0010
0000
0001
0000
0100
0000
,  // measure 57
1001
0000
0000
0000
;

//---------------dance-single - D. D'Amato----------------
#NOTES:
     dance-single:
     D. D'Amato:
     Medium:
     7:
     0.400,0.418,0.121,0.093,0.103,277.000,13.000,10.000,0.000,0.000,0.000,0.400,0.418,0.121,0.093,0.103,277.000,13.000,10.000,0.000,0.000,0.000:
0000
0000
0000
0000
,
0000
0000
0000
0000
,
0000
0000
0000
0000
,
0000
0000
0000
0000
,
1000
0000
0001
0000
0100
0000
0000
0000
0000
0000
0000
0000
0100
0000
0000
0010
,
0000
1000
0100
0000
0000
0000
0100
0010
,
0001
0000
1000
0000
0100
0000
0000
0000
0000
0000
0000
0000
0100
0000
0000
0010
,
0000
0001
0100
0000
0010
1000
0001
0100
,
0020
1000
0000
0230
,
0000
0000
0301
1000
0100
1000
0100
0000
,
0020
0001
0000
0230
,
0000
0000
1300
0001
0100
0001
0100
0000
,
0020
0100
1000
0230
,
0010
0000
0301
1000
0100
1000
0100
0000
,
0020
0100
0001
0230
,
0010
0000
1300
0000
0010
1000
0001
0100
,
0010
0000
1000
0000
0100
0000
0010
0010
,
0010
0000
0001
0000
0100
0000
0010
0010
,
0010
0000
1000
0000
0001
0000
0100
0100
,
0100
0000
0010
0000
1000
0000
0100
0100
,
0100
0000
0010
0000
0001
0000
1000
1000
,
1000
0000
0010
0000
0100
0000
0001
0001
,
0001
0000
0100
0000
0010
0000
1000
1000
,
1000
0000
0100
0000
0010
0000
0001
0001
,
0001
0000
0010
0000
0100
1000
0100
1000
,
0100
0000
0010
0000
0001
0100
0001
0000
,
1000
0000
0100
0000
0010
0001
0010
0001
,
0010
0000
0100
0000
1000
0010
1000
0000
,
0001
0000
0100
0000
0010
1000
0010
1000
,
0010
0000
0100
0000
0001
0010
0001
0000
,
1000
0000
0010
0000
0100
0001
0100
0001
,
0101
1010
1100
0011
,
1001
1000
0001
0100
0001
0010
0000
0001
,
1000
0001
1000
0100
1000
0010
1000
1000
,
0001
0010
0001
0100
0001
0010
0001
0001
,
1000
0010
1000
0100
1000
0010
1000
1000
,
0001
0010
0010
0100
1000
1000
0001
0001
,
1000
0010
0010
0100
0001
0001
1000
1000
,
0001
0001
0100
0100
0010
0010
1000
1000
,
1001
0000
0000
0000
0100
0000
0000
0010
0000
0000
0100
0000
0010
0000
0001
0000
,
2002
0000
0000
3003
,
1100
0011
0101
1010
,
1001
0000
0000
0001
0000
0000
0000
0000
0100
0000
0000
0100
0000
0000
0000
0000
,
0010
0000
0000
0010
0000
0000
0000
0000
1000
0000
0010
0000
0100
0000
0001
0000
,
1000
0000
0000
1000
0000
0000
0000
0000
0100
0000
0000
0100
0000
0000
0000
0000
,
0010
0000
0000
0010
0000
0000
0000
0000
0001
0000
0010
0000
0100
0000
1000
0000
,
0010
0000
0000
0010
0000
0000
0000
0000
0100
0000
0000
0100
0000
0000
0000
0000
,
0001
0000
0000
0001
0000
0000
0000
0000
1000
0000
0001
0000
0100
0000
0010
0000
,
1000
0000
0000
0010
0000
0000
0000
0000
0100
0000
0000
0001
0000
0000
0000
0000
,
0100
0000
0000
0010
0000
0000
1000
0000
0100
0000
0010
0000
0100
0000
0010
0000
,
0001
0000
0000
0010
0000
0000
0000
0000
0100
0000
0000
1000
0000
0000
0000
0000
,
0100
0000
0000
0010
0000
0000
0001
0000
0100
0000
0010
0000
0100
0000
0010
0000
,
1000
0000
0000
0001
0000
0000
0000
0000
0100
0000
0000
0010
0000
0000
1000
0000
,
0100
0000
0000
0010
0000
0000
0001
0000
0100
0000
0010
0000
1000
0000
0001
0000
,
0010
0000
0000
0000
,
0100
0000
0000
0010
0000
0000
0001
0000
1000
0000
0100
0000
0010
0000
0000
0000
,
1001
0000
0000
0000
;

//---------------dance-single - D. D'Amato----------------
#NOTES:
     dance-single:
     D. D'Amato:
     Easy:
     3:
     0.195,0.183,0.028,0.019,0.000,141.000,3.000,2.000,0.000,0.000,0.000,0.195,0.183,0.028,0.019,0.000,141.000,3.000,2.000,0.000,0.000,0.000:
0000
0000
0000
0000
,
0000
0000
0000
0000
,
0000
0000
0000
0000
,
0000
0000
0000
0000
,
1001
0000
0000
0010
,
0000
1000
0000
0100
,
1000
0010
0000
0100
,
0001
1000
0100
0010
,
1001
0000
0100
0000
,
0100
0000
0100
0010
,
1000
0000
1000
0000
,
1000
0000
1000
0100
,
0010
0000
0010
0000
,
0010
0000
0010
0001
,
0100
0000
0100
0000
,
0200
0000
0000
0300
,
0000
0010
0000
1000
,
0000
0100
0000
0010
,
0000
0001
0000
0100
,
0000
0010
0000
1000
,
0000
0100
0000
0010
,
0000
0001
0000
0100
,
0000
0010
0000
1000
,
0000
0100
0010
0001
,
1000
0010
0000
0100
,
0001
0100
0000
1000
,
0100
1000
0000
0010
,
1000
0010
0000
0001
,
0010
0001
0000
0100
,
0001
1000
0000
0100
,
1000
0010
0000
1000
,
0001
0010
0100
1000
,
0001
0001
0100
0000
,
0010
0010
1000
0000
,
0001
0001
0010
0000
,
0100
0100
1000
0001
,
1000
1000
0100
0000
,
0010
0010
0001
0000
,
1000
1000
0010
0000
,
0100
0100
0001
1000
,
0200
0000
0000
0300
,
1000
0100
0010
0001
,
1001
0000
0100
0000
,
0100
0000
0100
0010
,
0001
0000
0001
0000
,
0001
0000
0001
0100
,
0010
0000
0010
0000
,
0010
0000
0010
0010
,
1000
0010
0100
0000
,
0100
0000
0100
0010
,
1000
0000
1000
0000
,
1000
0000
1000
0100
,
0010
0000
0010
0000
,
0010
0000
0010
0010
,
0001
0010
0100
1000
,
0100
0000
0010
0001
,
1000
0000
0000
0000
;

//---------------dance-double - M. Emirzian----------------
#NOTES:
     dance-double:
     M. Emirzian:
     Easy:
     3:
     0.231,0.209,0.149,0.056,0.000,151.000,16.000,6.000,0.000,0.000,0.000,0.231,0.209,0.149,0.056,0.000,151.000,16.000,6.000,0.000,0.000,0.000:
00000000
00000000
00000000
00000000
,
00000000
00000000
00000000
00000000
,
00000000
00000000
00000000
00000000
,
00000000
00000000
00000000
00000000
,
00100000
00100000
00000000
00100000
,
00000000
00100000
00000000
00100000
,
00000000
00100000
00000000
00100000
,
00010000
00000000
01000000
00000000
,
00001000
00010000
00000100
00000000
,
00001000
00001000
00000000
00000010
,
00001000
00000100
00000000
00000010
,
00000001
00000100
00000000
00000010
,
00001000
00000100
00010000
00000000
,
00001000
00001000
00000000
01000000
,
00010000
00100000
00000000
02000000
,
20000000
00000000
00000000
33000000
,
10000000
00010000
01000000
00100000
,
10000000
00000000
00011000
00000000
,
00000001
00001000
00000100
00000010
,
00000001
00000000
00001100
00000000
,
00010000
00000100
00001000
00000010
,
00010000
00000000
00011000
00000000
,
01000000
00001000
00100000
00010000
,
01000000
00000000
10100000
00000000
,
10000000
01000000
00100000
00010000
,
01000000
00000000
00011000
00000000
,
00000001
00000100
00000010
00001000
,
00000100
00000000
00011000
00000000
,
01000000
00001000
00010000
00000010
,
00001000
00000000
00011000
00000000
,
00000010
00010000
00001000
01000000
,
00010000
10000000
00100000
01000000
,
00010000
10000000
00100000
00000000
,
10000000
01000000
00100000
00000000
,
00001000
00001000
00000000
00010000
,
00010000
00000000
00010100
00000000
,
00001000
00000010
00000100
00000000
,
00000001
00000100
00001000
00000000
,
00010000
00100000
10000000
02000000
,
00200000
00000000
00000000
03300000
,
00220000
00000000
00000000
00330000
,
01000000
00001000
00010000
00000010
,
00010000
00001000
01000000
00010000
,
00100000
00000000
11000000
00000000
,
00010000
01000000
00001000
00010000
,
00000010
00000000
00001100
00000000
,
00000001
00000100
00000010
00001000
,
00000100
00000000
00011000
00000000
,
10000000
00100000
01000000
00010000
,
10000000
00000000
11000000
00000000
,
00100000
00010000
01000000
00001000
,
00010000
00000000
00001010
00000000
,
00000100
00010000
00001000
00100000
,
00010000
00000000
01001000
00000000
,
01000000
00000000
00001000
00000000
,
00010000
00000010
00001000
00000100
,
00001010
00000000
00000000
00000000
;

//---------------dance-double - M. Emirzian----------------
#NOTES:
     dance-double:
     M. Emirzian:
     Medium:
     5:
     0.343,0.313,0.112,0.075,0.000,237.000,12.000,8.000,0.000,0.000,0.000,0.343,0.313,0.112,0.075,0.000,237.000,12.000,8.000,0.000,0.000,0.000:
00000000
00000000
00000000
00000000
,
00000000
00000000
00000000
00000000
,
00000000
00000000
00000000
00000000
,
00000000
00000000
00000000
00000000
,
01000000
00000000
00100000
00000000
00000000
00100000
00010000
00000000
,
00000000
00000000
01000000
00000000
00000000
00100000
00010000
00000000
,
00000000
00000000
00001000
00000000
00000000
00010000
00001000
00010000
,
00001000
00001000
00010000
00010000
,
00000100
00000000
00000000
00000100
00000010
00000000
00000000
00000010
,
00000001
00000000
00000000
00000001
00000100
00000000
00000110
00000000
,
00000010
00001000
00000010
00000000
00010000
00000000
00001000
00000000
,
01000000
00000000
00001000
00000000
00010000
00000100
00010000
00000000
,
00001000
00000000
00000000
00001000
01000000
00000000
00000000
01000000
,
00100000
00000000
00000000
00100000
10000000
00000000
10010000
00000000
,
01000000
00100000
01000000
00000000
10000000
00000000
00010000
00000000
,
02000000
00000000
00002000
03003000
,
01000000
00000000
00100000
01000000
00100000
00000000
01000000
00000000
,
00001000
00010000
00000100
00001000
,
00000010
00000000
00001000
00000001
00001000
00000000
00000100
00000000
,
00000010
00000000
00000001
00000000
00001000
00000010
00001000
00000000
,
00000100
00000000
00010000
00001000
00010000
00000000
00000100
00000000
,
00010000
00001000
00100000
00001000
,
00010000
00000000
00000010
00010000
00000010
00000000
00010000
00000000
,
00001000
00000000
01000000
00000000
00010000
01000000
00010000
00000000
,
01000000
00000000
00100000
10000000
00000000
10000000
01000000
00000000
,
00100000
00000000
00010000
01000000
00000000
01000000
00001000
00000000
,
00010000
00000100
00001100
00010100
,
00001000
00000100
00001000
00000000
00000010
00001000
00000100
00000000
,
00000010
00000000
00000100
00001000
00000000
00001000
00000001
00000000
,
00000100
00000000
00001000
00010000
00000000
00010000
01000000
00000000
,
10000000
00100000
01010000
10010000
,
00100000
10000000
00100000
01000000
,
00010000
01000000
00010000
00000000
00100000
00001000
00100000
00000000
,
00001000
00010000
00000100
00001000
00000100
00000000
00000010
00000000
,
00001000
00000100
00000010
00000000
00000001
00001000
00000010
00000000
,
00000100
00001000
00000001
00000100
00000010
00000000
00001000
00000000
,
00000100
00010000
00000100
00000000
00010000
00001000
00010000
00000000
,
00001000
01000000
00010000
01000000
00100000
00000000
10000000
00000000
,
01000000
00100000
00010000
00100000
00001000
00010000
00001000
00000000
,
00022000
00000000
00000000
00033000
,
00002200
00000000
00000000
00003300
,
00000100
00000000
00001000
00000000
00000100
00001000
00000100
00001000
,
00000010
00000000
00000000
00000010
00000100
00000000
00000000
00000100
,
00000001
00000000
00000000
00000001
00001000
00000000
00001100
00000000
,
00000100
00010000
00000100
00000000
00010000
00000000
00001000
00000000
,
01000000
00000000
00001000
00000000
00010000
00000100
00010000
00000000
,
00001000
00000000
00000000
00001000
00100000
00000000
00000000
00100000
,
01000000
00000000
00000000
01000000
10000000
00000000
01100000
00000000
,
10000000
00010000
10000000
00000000
01000000
00000000
00010000
00000000
,
00001000
00000000
00000100
00000000
00000001
00000010
00000001
00000000
,
00001000
00000000
00000000
00001000
00000100
00000000
00000000
00000100
,
00010000
00000000
00000000
00010000
00000100
00000000
00001100
00000000
,
00010000
00001000
00010000
00000000
00001000
00000000
01000000
00000000
,
00100000
00000000
10000000
00000000
01000000
00100000
01000000
00000000
,
20020000
00000000
00000000
30030000
,
10000000
00000000
01000000
00000000
00100000
00010000
00100000
00001000
,
00010000
00000000
00000000
00000000
;

//---------------dance-double - M. Emirzian----------------
#NOTES:
     dance-double:
     M. Emirzian:
     Hard:
     8:
     0.564,0.470,0.131,0.140,0.373,394.000,14.000,15.000,2.000,0.000,0.000,0.564,0.470,0.131,0.140,0.373,394.000,14.000,15.000,2.000,0.000,0.000:
00000000
00000000
00000000
00000000
,
00000000
00000000
00000000
00000000
,
10000000
01000000
10000000
00000000
00010000
00100000
00010000
00000000
,
01000000
00001000
01000000
00000000
00000010
00010000
00000010
00000000
,
00002000
00000000
00000000
00000000
00000100
00000000
00000000
00000000
00003010
00000000
00000000
00000010
00000100
00000000
00000000
00000000
,
00000002
00000000
00000000
00000000
00000100
00000000
00000000
00000000
00000013
00000000
00000000
00000010
00000100
00000000
00000000
00000000
,
00020000
00000000
00000000
00000000
01000000
00000000
00000000
00000000
00031000
00000000
00000000
00001000
00010000
00000000
000MM000
00000000
,
00001000
00010000
00001000
01000000
00010000
01000000
00010000
00100000
,
00010000
00000000
00010000
01000000
00000000
00000000
01000000
00000000
00100000
00000000
00100000
10000000
00000000
00000000
10000000
00000000
,
01000000
00000000
00000000
01100000
00000000
00000000
00100000
00000000
00010000
00000000
01000000
00000000
00001000
00000000
00010000
00000000
,
00001000
00000000
00001000
00010000
00000000
00000000
00010000
00000000
00000100
00000000
00000100
00001000
00000000
00000000
00001000
00000000
,
00000010
00000000
00000000
00000110
00000000
00000000
00000001
00000000
00000100
00000000
00000010
00000000
00001000
00000000
00000100
00000000
,
00000010
00000000
00000010
00000100
00000000
00000000
00000100
00000000
00001000
00000000
00001000
00000010
00000000
00000000
00000010
00000000
,
00010000
00000000
00000000
00011000
00000000
00000000
01000000
00000000
00001000
00000000
00010000
00000000
01000000
00000000
10000000
00000000
,
00100000
00000000
00100000
01000000
00000000
00000000
01000000
00000000
00010000
00000000
00010000
10000000
00000000
00000000
01000000
00000000
,
00200000
00320000
20030000
32000000
,
03100000
00000000
00000000
00100000
00010000
00000000
00000000
00010000
00100000
00000000
00000000
00100000
00001000
00000000
00000000
00001000
,
00010000
00000000
00000000
00010000
00001000
00000000
00000000
00001000
00000100
00000000
00000000
00000100
00000001
00000000
00000010
00000000
,
00000100
00000000
00001000
00000100
00000000
00000000
00000010
00000001
00000000
00000000
00001000
00000100
00000000
00000000
00010000
00001000
,
00000000
00000000
01000000
00010000
00000000
00000000
01000000
00100000
00000000
00000000
01000000
10000000
00000000
00000000
01000000
00000000
,
00010000
00000000
00000000
00010000
10000000
00000000
00000000
10000000
00010000
00000000
00000000
00010000
01000000
00000000
00000000
01000000
,
00001000
00000000
00000000
00001000
00010000
00000000
00000000
00010000
00000010
00000000
00000000
00000010
00010000
00000000
00001000
00000000
,
00010000
00000000
00000010
00001000
00000000
00000000
00000001
00001000
00000000
00000000
00000100
00010000
00000000
00000000
00001000
00100000
,
00000000
00000000
00010000
10000000
00000000
00000000
00010000
01000000
00000000
00000000
00010000
00100000
00000000
00000000
01000000
00000000
,
10000000
00000000
00010000
00000000
01000000
00000000
00100000
10000000
00000000
10000000
01000000
00000000
00100000
00000000
00010000
00000000
,
01000000
00001000
00010000
00000100
00000010
00000010
00000100
00000100
,
00001000
00000000
00000000
00001000
00000001
00000000
00000000
00000001
00000100
00000000
00000000
00000100
00000010
00000000
00001000
00000000
,
00000100
00001000
00000001
00001000
00000100
00001000
00000010
00001000
,
00000100
00000000
00010000
00000000
00000010
00000000
00010000
00001000
00000000
00001000
01000000
00000000
00100000
00000000
01000000
00000000
,
00001000
00010000
00100000
10000000
00010000
00010000
10000000
10000000
,
01000000
00000000
00000000
01000000
00100000
00000000
00000000
00100000
00010000
00000000
00000000
00010000
00100000
00000000
00000000
00000000
,
00101000
00000000
00000000
00000000
00001010
00000000
00000000
00000100
00000001
00000000
00000100
00000000
00000010
00000000
00001000
00000000
,
00000010
00001000
00000100
00000010
00000001
00001000
00000100
00010000
,
00001000
01000000
00100000
00010000
00001000
00100000
00010000
10000000
,
01000000
00000000
00000000
01000000
00100000
00000000
00000000
00100000
00010000
00000000
00000000
00010000
00100000
00000000
00001000
00000000
,
00010000
00000010
00001000
00000100
00000010
00000001
00001000
00000000
,
00000010
00000000
00001000
00000010
00000000
00000000
00000100
00000000
00000000
00000001
00000000
00000000
00000100
00000000
00000000
00000010
00000000
00000000
00001000
00000000
00000000
00000100
00000000
00000000
,
00000010
00000000
00000100
00000010
00000000
00000000
00000100
00000000
00000000
00001000
00000000
00000000
00000010
00000000
00000000
00010000
00000000
00000000
00001000
00000000
00000000
01000000
00000000
00000000
,
00100000
00000000
00000000
00100000
10000000
00000000
00000000
10000000
00100000
00000000
00000000
00100000
01000000
00000000
00010000
00000000
,
20000000
32000000
03200000
00310000
,
02020000
00000000
00000000
03030000
,
00110000
00000000
00000000
00000000
00011000
00000000
00000000
00000000
00001100
00000000
00000000
00001000
00000010
00000000
00000100
00000000
,
00000001
00000000
00000001
00000100
00000000
00000000
00000100
00000000
00000010
00000000
00000010
00001000
00000000
00000000
00001000
00000000
,
00000100
00000000
00000000
00010100
00000000
00000000
00001000
00000000
00010000
00000000
00100000
00000000
00010000
00000000
00001000
00000000
,
01000000
00000000
01000000
00100000
00000000
00000000
00100000
00000000
10000000
00000000
10000000
01000000
00000000
00000000
01000000
00000000
,
00100000
00000000
00000000
00110000
00000000
00000000
10000000
00000000
00100000
00000000
10000000
00000000
00010000
00000000
01000000
00000000
,
00010000
00000000
00010000
00100000
00000000
00000000
00100000
00000000
00001000
00000000
00001000
00010000
00000000
00000000
00010000
00000000
,
00000100
00000000
00000100
00001000
00000000
00000000
00001000
00000000
00000100
00000000
00000010
00000000
00000001
00000000
00001000
00000000
,
00000010
00000000
00000010
00001000
00000000
00000000
00001000
00000000
00000100
00000000
00000100
00010000
00000000
00000000
00010000
00000000
,
00001000
00100000
00001000
00010000
01000000
10000000
01000000
01000000
,
00100000
00000000
00100000
00010000
00000000
00000000
00010000
00000000
01000000
00000000
01000000
00001000
00000000
00000000
00001000
00000000
,
00010000
00000000
00010000
00000100
00000000
00000000
00000100
00000000
00001000
00000000
00000010
00000000
00001000
00000000
00000100
00000000
,
00000010
00000000
00000010
00000001
00000000
00000000
00000001
00000000
00000100
00000000
00000100
00000010
00000000
00000000
00000010
00000000
,
00001000
00000010
00010000
00001000
00010000
00100000
10000000
00010000
,
02000000
03200000
20300000
31000000
,
00110000
00000000
00000000
00101000
00000000
00000000
00010000
00000000
00001000
00000000
00000000
00001000
00010000
00000000
00000010
00000000
,
00001010
00000000
00000000
00000000
;

//---------------dance-double - M. Emirzian----------------
#NOTES:
     dance-double:
     M. Emirzian:
     Challenge:
     9:
     0.654,0.575,0.047,0.065,0.592,479.000,5.000,7.000,0.000,0.000,0.000,0.654,0.575,0.047,0.065,0.592,479.000,5.000,7.000,0.000,0.000,0.000:
00000000
00000000
00000000
00000000
,
00000000
00000000
00000000
00000000
,
00000010
00000000
00010000
00001000
00000000
00000000
00100000
00000000
00000000
00001000
00000000
00000000
00010000
00000000
00000000
00000010
00000000
00000000
00010000
00000000
00000000
00001000
00000000
00000000
,
01000000
00000000
00010000
10000000
00000000
00000000
01000000
00000000
00000000
00100000
00000000
00000000
00010000
00000000
00000000
01000000
00000000
00000000
00001000
00000000
00000000
00010000
00000000
00000000
,
00000100
00000000
00010000
00001000
00000000
00000000
00100000
00000000
00000000
00001000
00000000
00010000
00000100
00000000
00000000
00010000
00000000
00000000
00001000
00000000
00000000
00000010
00000000
00000000
,
00000001
00000000
00001000
00000100
00000000
00000000
00000010
00000000
00000000
00000001
00000000
00001000
00000100
00000000
00000000
00000010
00000000
00000000
00000100
00000000
00000000
00001000
00000000
00000000
,
00000010
00000000
00010000
00001000
00000000
00000000
01000000
00000000
00000000
00010000
00000000
01000000
00100000
00000000
00000000
10000000
00000000
00000000
01000000
00000000
00000000
00100000
00000000
00000000
,
00010000
00000000
10000000
01000000
00000000
00000000
00100000
00000000
00000000
00010000
00000000
01000000
00000000
00000000
00100000
10000000
00000000
00010000
10000000
00000000
00010000
01000000
00000000
00000000
,
00100000
00000000
00100000
10000000
00000000
00000000
10000000
00000000
01000000
00000000
01000000
00100000
00000000
00000000
00100000
00000000
,
00000010
00000000
00000010
00010000
00000000
00000000
00010000
00000000
00000010
00000000
00010000
00000000
00000100
00000000
00000010
00000000
,
00000001
00000000
00001000
00000010
00000000
00000010
00000100
00000000
00000001
00000000
00000100
00000010
00000000
00001000
00000100
00000000
,
00010000
00000000
00001000
01000000
00000000
01000000
00100000
00000000
10000000
00010000
10000000
00000000
01000000
00000000
01000000
00000000
,
00100000
00000000
00100000
00010000
00000000
00000000
00010000
00000000
01000000
00000000
01000000
00000100
00000000
00000000
00000100
00000000
,
00010000
00000000
00010000
00000010
00000000
00000000
00000010
00000000
00001000
00000000
00000001
00000000
00000010
00000000
00000100
00000000
,
00001000
00000000
00000010
00000100
00000000
00000100
00000001
00000000
00000010
00000000
00000100
00010000
00000000
00000100
00001000
00000000
,
00000010
00000000
00001000
00000001
00000000
00000000
00000100
00000000
00000000
00000010
00000000
00001000
00000000
00000000
00000100
00001000
00000000
00000100
00000010
00000000
00000100
00001000
00000000
00000000
,
00000001
00000000
00000100
00000010
00000000
00000000
00001000
00000000
00000000
00001000
00000000
00000100
00000000
00000000
00000100
00010000
00000000
00000000
00001000
00000000
00000000
01000000
00000000
00000000
,
00100000
00010000
00001000
00000010
00001000
00001000
00010000
00010000
,
00100000
00000000
01000000
00010000
00000000
00000000
10000000
00000000
00000000
10000000
00000000
00100000
00000000
00000000
00100000
10000000
00000000
00000000
00010000
00000000
00000000
00100000
00000000
00000000
,
00001000
00010000
00001000
00000000
01000000
00000000
01000000
00000000
00001000
00010000
00001000
00000000
00100000
00000000
00100000
00000000
,
00001000
00000000
00000000
00010000
00000010
00000000
00000000
00000010
00100000
00000000
00000000
00100000
00000010
00000000
00010000
00000000
,
00001000
00000000
00010000
00000100
00000000
00000000
01000000
00001000
00000000
00000000
00000010
00010000
00000000
00000000
00000100
00000000
,
00001000
00000000
00000010
00000100
00000000
00000000
00000001
00000000
00000000
00000001
00000000
00000010
00000000
00000000
00000010
00000001
00000000
00000000
00000010
00000000
00000000
00000100
00000000
00000000
,
00010000
00000000
00001000
01000000
00000000
00000000
00100000
00000000
00000000
00100000
00000000
01000000
00000000
00000000
01000000
00100000
00000000
10000000
00010000
00000000
00000000
00100000
00000000
00000000
,
01000000
00000000
00100000
00010000
00000000
00000000
01000000
00000000
00000000
01000000
00000000
00001000
00000000
00000000
00001000
00010000
00000000
00000000
00000100
00000000
00000000
00010000
00000000
00000000
,
00000010
00001000
00000100
00000010
00000001
00000001
00001000
00001000
,
00000010
00000000
00001000
00000001
00000000
00000000
00000010
00000000
00000000
00000010
00000000
00000100
00000000
00000000
00000100
00000010
00000000
00000000
00000001
00000000
00000000
00000100
00000000
00000000
,
00000001
00001000
00000001
00000000
00000010
00000000
00000010
00000000
00000001
00001000
00000001
00000000
00000100
00000000
00000100
00000000
,
00000010
00000000
00000000
00000010
00010000
00000000
00000000
00010000
00100000
00000000
00000000
00100000
00010000
00000000
00001000
00000000
,
01000000
00000000
00100000
01000000
00000000
00000000
00000100
00001000
00000000
00000000
01000000
00100000
00000000
00000000
00001000
00000000
,
00010000
00000000
00001000
00010000
00000000
00000000
00000010
00000000
00000000
00000010
00000000
00001000
00000000
00000000
00001000
00000010
00000000
00000000
00000100
00000000
00000000
00000001
00000000
00000000
,
00001000
00000000
00000010
00000100
00000000
00000000
00000010
00000000
00000000
00000010
00000000
00001000
00000000
00000000
00001000
00000100
00000000
00001000
00000001
00000000
00000000
00000100
00000000
00000000
,
00000010
00000000
00001000
00000100
00000000
00000000
00010000
00000000
00000000
00010000
00000000
00001000
00000000
00000000
00001000
01000000
00000000
00000000
00001000
00000000
00000000
00010000
00000000
00000000
,
00000010
00001000
00000010
00000000
01000000
00000000
00001000
00000000
00010000
00000000
00100000
00000000
00010000
00000000
00001000
00000000
,
01000000
00000000
00010000
01000000
00000000
00000000
00100000
00000000
00000000
00100000
00000000
01000000
00000000
00000000
01000000
00010000
00000000
00000000
00100000
00000000
00000000
00001000
00000000
00000000
,
01000000
00001000
01000000
00000000
00100000
00000000
00100000
00000000
10000000
01000000
10000000
00000000
00010000
00000000
00010000
00000000
,
10000000
00000000
00000000
01000000
00100000
00000000
00000000
00100000
00000010
00000000
00000000
00000010
00000100
00000000
00000001
00000000
,
00000010
00000000
00000100
00010000
00000000
00000000
01000000
00001000
00000000
00000000
00000010
00010000
00000000
00000000
00000001
00000000
,
00000010
00000000
00000100
00001000
00000000
00000000
00000010
00000000
00000000
00010000
00000000
00001000
00000000
00000000
00001000
00010000
00000000
00000000
00001000
00000000
00000000
01000000
00000000
00000000
,
00200000
20300000
32000000
03100000
,
20020000
00000000
00000000
30030000
,
10000000
00000000
01000000
00100000
00000000
00000000
00010000
00000000
00000000
00100000
00000000
00000000
00001000
00000000
00000000
01000000
00000000
00000000
00001000
00000000
00000000
01000000
00000000
00000000
,
00010000
00000000
00010000
01000000
00000000
00000000
01000000
00000000
00000100
00000000
00000100
00001000
00000000
00000000
00001000
00000000
,
00000010
00000000
00000010
00000001
00000000
00000000
00000001
00000000
00000010
00000000
00010000
00000000
00001000
00000000
00001000
00000000
,
00010000
00000000
00001000
00010000
00000000
00010000
00100000
00000000
10000000
00000000
01000000
00100000
00000000
00010000
10000000
00000000
,
00100000
00000000
01000000
00001000
00000000
00001000
00010000
00000000
00000010
00010000
00000010
00000000
00000100
00000000
00000100
00000000
,
00000001
00000000
00000001
00000010
00000000
00000000
00000010
00000000
00000100
00000000
00000100
01000000
00000000
00000000
01000000
00000000
,
00100000
00000000
00100000
00010000
00000000
00000000
00010000
00000000
00001000
00000000
10000000
00000000
01000000
00000000
00100000
00000000
,
00001000
00000000
00010000
00000010
00000000
00000010
00001000
00000000
00000100
00000000
00000010
00000001
00000000
00001000
00000010
00000000
,
00000100
00000000
00000001
00000100
00000000
00000100
00000001
00000000
00000010
00000100
00000010
00000000
00000100
00000000
00000100
00000000
,
00010000
00000000
00000000
00010000
00100000
00000000
00000000
00100000
10000000
00000000
00000000
10000000
00100000
00000000
01000000
00000000
,
00001000
00000000
00010000
00000010
00000000
00000000
00001000
01000000
00000000
00000000
00000010
00001000
00000000
00000000
00000100
00000000
,
00000010
00000000
00000010
00000001
00000000
00000000
00000100
00000000
00000010
00000000
00000010
00010000
00000000
00000000
00010000
00000000
,
00000100
00000000
00000100
01000000
00000000
00000000
01000000
00000000
00100000
00000000
00010000
00000000
00001000
00000000
00000010
00000000
,
00001000
00020000
00230000
10300000
,
11000000
00000000
00000000
10010000
00000000
00000000
00110000
00000000
00100000
00000000
00000000
00100000
00001000
00000000
00010000
00000000
,
00010010
00000000
00000000
00000000
;

//---------------dance-single - S. Bauer----------------
#NOTES:
     dance-single:
     S. Bauer:
     Beginner:
     1:
     0.173,0.209,0.047,0.019,0.000,123.000,5.000,2.000,0.000,0.000,0.000,0.173,0.209,0.047,0.019,0.000,123.000,5.000,2.000,0.000,0.000,0.000:
0000
0000
0000
0000
,
0000
0000
0000
0000
,
0000
0000
0000
0000
,
0000
0000
0000
0000
,
1001
0000
0000
0010
,
0000
1000
0000
0000
,
1000
0000
0000
0100
,
0000
1000
0000
0000
,
1001
0000
0100
0000
,
0100
0000
0100
0100
,
1000
0000
1000
0000
,
1000
0000
1000
0010
,
0010
0000
0010
0000
,
0010
0000
0010
0100
,
0000
0000
0100
0000
,
0200
0000
0000
0300
,
0000
0010
0000
1000
,
0000
1000
0000
1000
,
0000
0001
0000
0001
,
0000
0001
0000
1000
,
0000
0100
0000
0010
,
0000
0001
0000
0100
,
0000
0010
0000
1000
,
0000
0100
0100
0100
,
0100
0010
0000
0100
,
0000
0100
0000
1000
,
0000
1000
0000
0010
,
0000
0010
0000
0001
,
0000
0001
0000
0110
,
0001
1000
0000
0100
,
0000
0010
0000
1000
,
0001
0010
0100
1000
,
0001
0001
0001
0000
,
0010
0010
0010
0000
,
0001
0001
0001
0000
,
0100
0100
0100
1001
,
1000
1000
0010
0000
,
0010
0010
0010
0000
,
1000
1000
1000
0000
,
0100
0100
0100
1000
,
0200
0000
0000
0300
,
1000
0100
0010
0001
,
1001
0000
0100
0000
,
0100
0000
0100
0000
,
0001
0000
0001
0000
,
0001
0000
0001
0100
,
0000
0000
0010
0000
,
0010
0000
0010
0010
,
0000
0010
0100
0000
,
0100
0000
0100
0010
,
1000
0000
1000
0000
,
1000
0000
1000
0000
,
0010
0000
0010
0000
,
0010
0000
0010
0000
,
0001
0000
0010
0000
,
0100
0000
0010
0001
,
1000
0000
0000
0000
;
