#TITLE:Supremacy;
#SUBTITLE:;
#ARTIST:KaW;
#TITLETRANSLIT:;
#SUBTITLETRANSLIT:;
#ARTISTTRANSLIT:;
#GENRE:Techno;
#CREDIT:;
#BANNER:Supremacy-bn.png;
#BACKGROUND:Supremacy-bg.png;
#LYRICSPATH:;
#CDTITLE:;
#MUSIC:Supremacy.ogg;
#OFFSET:-0.030;
#SAMPLESTART:34.340;
#SAMPLELENGTH:11.840;
#SELECTABLE:YES;
#BPMS:0.000=139.560,112.000=69.780,152.000=139.560;
#STOPS:;
#BGCHANGES:0.066=Supremacy.mpg=1.000=1=0=0=StretchNoLoop==CrossFade==,
99999=-nosongbg-=1.000=0=0=0 // don't automatically add -songbackground-;
#KEYSOUNDS:;

//---------------dance-single - D. Runberg----------------
#NOTES:
     dance-single:
     D. Runberg:
     Edit:
     11:
     0.827,0.000,0.387,0.211,1.000:
0000
0000
0000
0000
,
0000
0000
0000
0000
,
0000
0000
0000
0000
,
2002
0000
3003
1000
1100
0100
1001
1001
,
0001
0000
0100
0010
0100
0010
1000
0000
0001
0000
0010
0100
0010
0100
1000
0000
,
0001
0000
1000
0010
1000
0010
0100
0000
0001
0000
0100
0010
0000
0M10
1000
0000
,
0001
0000
1000
0100
0010
0100
1000
0000
0001
0000
0100
0010
1000
0010
0100
0000
,
0001
0000
0010
0001
0100
0001
0010
0000
0100
0000
0010
0001
0000
00M1
0100
0000
,
0001
0000
1000
0010
0100
0000
0010
1000
0001
0000
1000
0100
0010
0000
0100
0010
,
0001
0000
1000
0010
0100
0000
0010
0100
0001
0000
1000
0001
0000
0100
0010
0000
,
2000
0000
00M1
0000
3002
0000
0100
M000
0000
0103
0010
0000
1000
00M0
0M01
0000
,
2002
0000
3003
1000
1010
0010
0110
0110
,
0100
0000
0001
0000
0010
0000
0100
0000
00M0
1000
0100
0000
1000
0000
0010
0000
,
0100
0001
0000
0001
0M00
0000
1000
0000
0200
0010
0000
0000
0310
0001
0000
00M0
,
2000
0000
0000
3010
0100
0000
0100
0001
0000
0001
0010
0000
0100
0000
1000
0000
,
0002
0000
M000
00M0
0M00
0000
00M0
M000
0000
0M00
00M0
0000
M000
00M0
0M03
0000
,
1000
0010
0000
0010
1000
0000
1000
0100
0000
0100
1000
0000
1000
0000
0001
0000
,
0100
0000
0000
0001
0000
0000
0000
0000
0000
0M10
0000
0000
0000
0000
0000
0000
0000
0000
0100
0000
0000
0000
0000
0000
1000
0000
0000
0001
0000
0000
0000
0000
0000
0000
0000
0000
0202
0000
0000
0000
0000
0000
0000
0000
0300
0003
0000
0000
,
0100
0010
0000
0010
0000
1000
0000
00M0
1000
0100
1000
0000
0001
0010
0001
0000
,
0200
M00M
0300
0010
1010
0110
0101
1001
,
1000
0100
0000
0100
0001
0000
0001
0100
0000
0100
1000
0000
1000
0000
0010
0000
,
0100
0001
0000
2000
0000
0000
3001
0000
M020
0100
0000
0000
0130
1000
0000
0M00
,
1000
0010
0000
0010
0100
0000
0100
1000
0000
1000
0100
0000
0100
0000
0001
0000
,
2000
0000
00M0
0M00
0000
000M
3M00
0010
0100
0000
0001
0000
1000
0100
0000
0000
,
1M00
0010
0000
1000
0M01
0000
1000
0100
000M
1000
0M10
0000
0010
0000
0100
0000
,
0001
0010
0000
0100
00M0
0000
1000
0000
0200
1000
0000
0000
1300
0001
0000
0M00
,
1000
0001
0100
0000
0010
0000
0010
0000
1000
0100
0010
0001
0100
0010
1000
0010
,
0200
0000
00M0
000M
0300
M000
00M1
0000
0101
0000
1001
0000
1100
0000
0110
0000
,
0010
0000
0001
0100
0010
0000
0100
0000
0010
0000
1000
0100
0010
0000
0001
0000
0100
0000
0001
0000
0100
0000
0010
0000
1000
0000
0001
0100
0000
0100
0010
0000
,
1000
0000
0100
0010
0001
0000
0010
0100
1000
0000
0001
0100
0010
0000
1000
0010
0100
0000
0001
0010
0100
0000
1000
0100
0010
0000
0100
1000
0010
0000
1010
0000
,
1000
0000
0010
0100
0001
0000
0010
0000
0100
0000
1000
0010
0100
0000
0010
0000
1000
0000
0010
1000
0100
0000
0010
0000
0001
0000
0100
0010
0000
0010
1000
0000
,
0100
0000
0010
0001
0100
0000
0010
0000
0100
0000
0010
1000
0001
0000
1000
0100
0010
0000
M000
0000
0M00
0000
0001
0000
0010
0000
0000
0001
0000
0000
0100
0000
,
01M1
0001
1M01
1000
001M
0010
M100
0001
00M1
1000
010M
0010
M001
01M0
0100
0010
,
1M10
0000
1000
0000
10M1
0000
0001
0000
M010
0000
010M
0000
1000
0000
00M1
0000
M101
0000
0100
0000
001M
0000
1000
0000
1010
0000
000M
0110
M000
0000
0101
0000
,
0001
1000
110M
0100
1000
0010
M100
00M1
1001
1000
010M
0010
0M01
0001
0100
0100
,
001M
0000
1000
0000
0010
0000
0000
0000
01M0
0000
0001
1000
0001
0000
0010
0000
0000
0000
010M
0000
1000
0000
0000
0000
1000
0000
0001
0000
1000
0001
1000
0001
,
1001
1000
0010
M010
0110
0100
0001
10M0
0000
M001
0101
010M
0110
0010
1M00
1000
,
11M0
0100
10M0
0001
1M01
0010
010M
M100
00M0
1000
1M10
0010
0100
M100
00M1
1000
,
010M
0000
1000
0100
0010
0100
1000
0000
0001
0000
0100
0001
0010
0000
0100
0000
,
0010
0001
0100
0001
1000
0000
0010
0000
1000
0100
1000
0001
1000
0000
1010
0000
,
1010
0000
1000
0010
0100
0001
0010
0000
0100
0000
1000
0100
0010
0000
0001
0000
,
0202
0000
0303
0100
1001
0101
0110
1010
,
1000
0000
0010
0000
0100
0001
0100
0010
1000
0100
0010
0001
0400
0040
0000
0300
,
1030
0001
0M00
1000
0001
0100
M000
0010
0100
0000
0001
M020
0000
010M
0000
1000
,
0M00
0031
0100
0010
1000
0001
0M00
00M0
1000
0100
0010
0100
1000
0001
0100
0010
,
1000
010M
0000
10M0
0100
0010
0001
0000
10M0
0000
0010
0200
000M
1000
0000
0010
,
M000
0301
1000
0001
0010
0100
100M
0000
0010
M100
0001
0010
0100
0010
0001
0100
,
0040
4000
0000
0030
3001
0010
0100
0010
M001
0100
000M
0010
1000
0000
0M10
0000
,
1010
0000
1000
0001
0010
0100
1000
00M0
0001
M100
0001
1000
0M00
0001
1000
00M1
,
1000
0100
0010
M000
0001
0100
0010
0100
0001
10M0
0000
100M
0100
0010
0001
4000
,
0004
0000
0000
3000
0103
0010
100M
0100
0010
0100
1000
0001
0400
0040
0000
0300
,
1030
0100
0010
M001
0100
0010
0000
0100
00M1
1000
0001
0010
040M
4000
0300
30M1
,
0100
0000
M010
0000
0100
0001
0010
0100
M010
0001
1000
00M1
0100
0010
100M
0010
,
0200
0000
00M1
0000
0301
0010
0000
0100
10M0
0000
0001
0100
0010
4000
0004
3000
,
0013
0100
0000
01M0
1000
0000
1M00
0001
0000
00M1
0100
0000
0010
0000
0100
0000
,
2002
0000
3003
0000
;

//---------------dance-double - M.Emirzian----------------
#NOTES:
     dance-double:
     M.Emirzian:
     Easy:
     4:
     0.220,0.290,0.079,0.000,0.000,166.000,9.000,0.000,0.000,0.000,0.000,0.220,0.290,0.079,0.000,0.000,166.000,9.000,0.000,0.000,0.000,0.000:
00000000
00000000
00000000
00000000
,
00000000
00000000
00000000
00000000
,
00000000
00000000
00000000
00000000
,
00000000
00000000
00000000
00000000
,
00100000
10000000
00010000
01000000
,
00100000
10000000
00100000
00000000
,
01000000
00001000
00010000
00001000
,
00010000
00000010
00001000
00000000
,
00000010
00001000
00000010
00000100
,
00000001
00001000
00000100
00000000
,
00000010
00000100
00001000
00000001
,
00000110
00000000
00000110
00001010
,
00001000
00000000
00000010
00001000
,
00000100
00000000
00010000
00000000
,
00001000
00000000
01000000
00000000
,
00010000
00000000
00000000
00000000
,
10000000
01000000
00100000
00010000
,
01000000
00000000
10010000
00000000
,
00100000
00001000
00010000
00000100
,
00001000
00000000
00000010
00000100
,
00000001
00001000
00000100
00000010
,
00000001
00000000
00001000
00000010
,
00001000
00000100
00010000
00001000
,
00011000
00000000
00001000
01000000
,
00010000
00100000
01000000
10000000
,
01000000
00000000
00100000
00010000
,
01000000
00001000
00010000
00001000
,
00011000
00000000
00000100
00010000
,
00001000
00000000
01000000
00000000
,
00000100
00000000
00010000
00000000
,
00001000
00000000
00100000
00000000
,
00000010
00000000
00010000
00000000
,
00000100
00001000
00000000
00100000
,
10000000
01000000
00000000
00000010
,
00000001
00000100
00000000
00010000
,
00001000
01000000
00010000
10000000
,
00000000
01000000
00100000
00010000
00000000
00100000
00001000
00010000
,
00000000
00000010
00010000
00001000
00000000
00100000
01000000
10000000
,
00010000
00000000
00000000
01000000
,
01000000
00000000
00000000
00010000
,
00010000
00000000
00000000
00001000
,
00011000
00000000
00001000
00001000
,
00010000
00000100
00010000
00000100
,
00001000
00000100
00000010
00000000
,
00000001
00001000
00000010
00000100
,
00000001
00000000
00000010
00001000
,
00000100
00010000
00001000
01000000
,
00010000
10000000
00100000
00000000
,
10000000
01000000
00010000
01000000
,
10000000
00000000
00100000
01000000
,
00010000
10000000
01000000
00100000
,
00001000
00010000
00001000
00000000
,
00010000
00000100
00001000
00000010
,
00010010
00000000
00000010
00001000
,
00000100
00000010
00000001
00000100
,
00001010
00000000
00000000
00000000
;

//---------------dance-double - M.Emirzian----------------
#NOTES:
     dance-double:
     M.Emirzian:
     Challenge:
     10:
     0.674,0.972,0.273,0.088,0.752,495.000,31.000,10.000,0.000,0.000,0.000,0.674,0.972,0.273,0.088,0.752,495.000,31.000,10.000,0.000,0.000,0.000:
00000000
00000000
00000000
00000000
,
00000000
00000000
00000000
00000000
,
00000000
00000000
00000000
00000000
,
00200020
00000000
00300030
00010000
00001000
01000000
00010000
01001000
,
00001000
00000000
00000000
00001000
01000000
00000000
00010000
01000000
00100000
00000000
00000000
00100000
10000000
00000000
00010000
01000000
,
00100000
00000000
00000000
00100000
10000000
00000000
01000000
00100000
00010000
00000000
00000000
00101000
00000000
00000000
00001000
00000000
,
00010000
00000000
00000000
00000100
00010000
00000000
00000100
00001000
00000010
00000000
00000000
00000010
00000100
00000000
00000001
00001000
,
00000010
00000000
00000000
00000010
00000100
00000000
00000001
00000000
00001000
00000010
00000000
00001000
00000000
00000000
00000100
00000000
,
00001000
00000010
00000100
00000010
00001000
00000100
00000010
00000100
,
00010000
00000000
00001000
00000000
00000100
00000000
00001000
00000000
00010000
00000000
00000000
01001000
00000000
00000000
00110000
00000000
,
00010000
10000000
00100000
01000000
00000000
01000000
00010000
00100000
,
00202000
00000000
00303000
00001000
00010000
00000100
00001000
00010100
,
00010000
00000000
00000000
00010000
00000100
00000000
00000100
00001000
00000000
00001000
00000010
00000000
00000100
00000000
00000001
00000000
,
00001000
00000100
00000000
00000010
00000000
00000000
00000100
00000000
00001000
00000010
00000000
00000010
00010000
00001000
00000000
00000000
,
00100010
00000000
00000000
00001000
00010000
00000000
00010000
00100000
00000000
00100000
10000000
00000000
01000000
00000000
00100000
00000000
,
00001000
00010000
00000000
00000100
00000000
00000000
00010100
00000000
00000000
00000000
00010010
00000000
00000000
00000000
00000110
00000000
,
00000010
00001000
00000000
00001000
00000100
00000000
00000100
00000010
00000000
00000010
00000001
00000000
00000100
00000000
00000010
00000000
,
00010000
00001000
00000000
01000000
00000000
00000000
00100000
00000000
01000000
00010000
00000000
00010000
00100000
00000000
00000000
00000000
,
01000000
10000000
00000000
00100000
00000000
01000000
00000000
00000000
00010000
01000000
00001000
00000000
00010000
00001000
00010000
00000100
,
00001000
00000000
00000000
00000010
00000100
00000001
00001000
00000110
,
00000001
00000100
00000000
00000100
00000010
00000000
00000010
00010000
00000000
00010000
00100000
00000000
01000000
00000000
00001000
00000000
,
00010000
00000100
00000000
00001000
00000000
00000000
00000010
00000000
00010000
00001000
00000000
00001000
10000000
00000000
00000000
00000000
,
00100000
01000000
00000000
01000000
00001000
00000000
00001000
00000100
00000000
00000100
00000001
00000000
00000010
00000000
00000100
00000000
,
00001100
00000000
00000000
00000000
00000000
00000000
00000000
00000010
00010000
00000000
00001000
00000000
01000000
00100000
00000000
00000000
,
10000000
01000000
00000000
01000000
00010000
00000000
00010000
00000100
00000000
00000100
00001000
00000000
00000010
00000000
00000100
00000000
,
00000001
00001000
00000000
00000010
00000000
00000000
00001000
00000000
00000100
00000010
00000000
00000010
00000100
00000000
00000000
00000000
,
00010000
00000010
00000000
00000100
00000000
00001000
00000000
00000000
00010000
00001000
00010000
00000000
00100000
01000000
00100000
10000000
,
01000000
00000000
00000000
00100000
00010000
01000000
00001000
01010000
,
01000000
00000000
00000000
00100000
10000000
00000000
01000000
00100000
00010000
00000000
00000000
00010000
01000000
00000000
00001000
01000000
00010000
00000000
00000000
00010000
00100000
00000000
00001000
00010000
00000100
00000000
00000000
00001100
00000000
00000000
00010100
00000000
,
00001000
00000000
00000000
00001000
00000100
00000000
00000010
00000001
00000100
00000000
00000000
00000100
00000001
00000000
00000100
00000010
00001000
00000000
00000000
00001000
00000100
00000000
00000010
00000001
00000100
00000000
00000000
00001010
00000000
00000000
00010010
00000000
,
00001000
00000000
00010000
00000000
00000100
00000000
00001000
00000000
00000010
00000000
00001000
00000000
00000100
00000000
00000010
00000000
00001000
00000000
00000010
00000000
00000100
00000000
00010000
00000000
00001000
00000000
00000000
00010000
00000000
00000000
00100000
00000000
,
01000000
00000000
00001000
00000000
00010000
00000000
01000000
00000000
10000000
00000000
00100000
00000000
00010000
00000000
00100000
00000000
10000000
00000000
01000000
00000000
00100000
00000000
00010000
00000000
00100000
00010000
00000000
11000000
00000000
00000000
10000000
00000000
,
00100000
00000000
01000000
01000000
01000000
00000000
00010000
01000000
00001000
00010000
00100000
01000000
00100000
00010000
00001000
00000000
,
00010000
00000000
00000010
00000010
00000010
00000000
00000010
00000100
00001000
00010000
00001000
00000100
00000010
00001000
00000001
00000000
,
00001010
00000000
00000001
00000001
00000001
00000000
00000100
00000010
00010000
00000100
00001000
00000010
00000100
00000010
00010000
00000000
,
00001000
00000000
00010000
00000000
01001000
00000000
00000000
00000000
00010000
00000000
01000000
00100000
10000000
00000000
10010000
00000000
00000000
00000000
10000000
00000000
01000000
00000000
00100000
00000000
01000000
00000000
10000000
00000000
00100000
00000000
01000000
00000000
,
01100000
00000000
00001000
00010000
01000000
10000000
01100000
00000000
00000000
00000000
00010000
00001000
00000010
00000001
00000110
00000000
,
00000000
00000000
00000100
00001000
00010000
00100000
01100000
00000000
00000000
00000000
01000000
00010000
00001000
00000100
00001000
00010000
,
00001000
00010000
00000000
00001000
00000000
00001000
01000000
00000000
00100000
00000000
10000000
00000000
01000000
00000000
00100000
00000000
,
00010000
01000000
00100000
10000000
00010000
00000000
00100000
00000000
00001000
00010000
00001000
01000000
00001000
00010000
00000000
00000000
,
00001000
00010000
00000000
00000100
00000000
00001000
00000010
00000000
00000100
00000000
00000010
00000000
00001000
00000000
00000100
00000000
,
00002002
00000000
00003003
00000010
00000100
00001000
00010000
00011000
,
00001000
00000000
00010000
00000000
00100000
00000000
01000000
00000000
00100000
00000000
10000000
00000000
00010000
00000000
10000000
01000000
,
00100000
00000000
00010000
00000000
00100000
00000000
01000000
00000000
00010000
00000000
01000000
00100000
00000000
00010000
00000000
01000000
,
00100000
00000000
01000000
00000000
00001000
00000000
00000100
00000000
00000010
00000000
00001000
00000000
00000100
00000000
00000010
00001000
,
00000010
00000000
00000001
00000000
00001000
00000000
00000010
00000000
00000100
00000000
00000001
00000100
00000000
00000010
00000000
00000100
,
00000001
00000000
00001000
00000000
00000100
00000000
00010000
00000000
00100000
00000000
00010000
00000000
00001000
00000000
01000000
00010000
,
10000000
00000000
00100000
00000000
01000000
00000000
10000000
00000000
01000000
00000000
00100000
10000000
00000000
01000000
00000000
00100000
,
01000000
00000000
00100000
00000000
00001000
00000000
00010000
00000000
00100000
00000000
01000000
00000000
00010000
00000000
01000000
00001000
,
01000000
00000000
00010000
00000000
00100000
00000000
00001000
00000000
00000100
00000000
00000010
00001000
00000000
00000001
00000010
00000000
,
00000100
00001000
00000001
00000000
00000010
00001000
01000000
00000000
,
10000000
01000000
00001000
00000000
00000001
00000100
00010000
00000000
,
00000001
00000100
00001000
00010000
00001000
01000000
00100000
01000000
,
20020000
00000000
30030000
10000000
01000000
00100000
00010000
00101000
,
00001000
00010000
00000000
00010000
00000100
00000000
00000100
00000010
00000000
00000010
00000001
00000000
00001000
00000000
00000010
00000000
,
00000220
00000330
00000000
00000000
;

//---------------dance-double - M.Emirzian----------------
#NOTES:
     dance-double:
     M.Emirzian:
     Medium:
     6:
     0.332,0.315,0.123,0.000,0.000,250.000,14.000,0.000,0.000,0.000,0.000,0.332,0.315,0.123,0.000,0.000,250.000,14.000,0.000,0.000,0.000,0.000:
00000000
00000000
00000000
00000000
,
00000000
00000000
00000000
00000000
,
00000000
00000000
00000000
00000000
,
00000000
00000000
00000000
00000000
,
00010000
00000000
00001000
01000000
00010000
00000000
01000000
00010000
,
10000000
00000000
01000000
00100000
00010000
00000000
00100000
00000000
,
01000000
00000000
00100000
00010000
01000000
00000000
00100000
00001000
,
00010000
00000000
00000100
00001000
00000010
00000000
00000100
00000000
,
00000001
00000000
00001000
00000100
00000001
00000000
00010000
00000100
,
00001000
00000000
01000000
00001000
00010000
00000000
00100000
00000000
,
00010000
10000000
01000000
00010000
,
10010000
00000000
00000000
00100000
10000000
01000000
10000000
00000000
,
00100000
00010000
00000000
01000000
00000000
00001000
00000000
00010000
,
00000000
00000100
00000000
00001000
00000000
00000010
00000000
00001000
,
00000000
00000100
00000000
00000001
00000000
00000010
00000000
00000100
,
00000000
00010000
00000000
00001000
00000000
01000000
00000000
00010000
,
10000000
00000000
01000000
00000000
00100000
00010000
10000000
00000000
,
00100000
00010000
01000000
00000000
00100000
00000000
10000000
00000000
,
01000000
00000000
00100000
00000000
00001000
00010000
00000100
00000000
,
00001100
00000000
00000000
00000100
00010000
00000100
00001000
00000000
,
00000010
00000100
00000001
00000000
00000010
00000100
00001000
00000000
,
00000010
00010000
00001000
00000000
00000100
00000000
00011000
00000000
,
00010000
00001000
01000000
00000000
00100000
00000000
10000000
00000000
,
01000000
00000000
00000000
00100000
00010000
00100000
01000000
00000000
,
10000000
00010000
01000000
00000000
00100000
01000000
00001000
00000000
,
00010000
00001000
00100000
00000000
00001000
00000000
00010100
00000000
,
00001000
00000100
00000010
00000000
00000001
00000000
00000100
00000000
,
00000010
00000000
00000000
00001000
00000100
00000010
00000001
00000000
,
00000110
00000000
00000000
00000000
00011000
00000000
00000000
00001000
,
01001000
00000000
00100000
10000000
01000000
00000000
00110000
00000000
,
00001000
00000000
00000110
00000000
,
00001001
00000000
00000010
00010000
00001000
00000000
00000000
00000000
,
00010000
00001000
01000000
00000000
00010000
01000000
00100000
00000000
,
10000000
01000000
00010000
00000000
00001000
00010000
00000100
00001000
,
00000010
00010000
00000100
00000000
00010000
00001000
01000000
00000000
,
00010000
01000000
00100000
00000000
10000000
01000000
00100000
00010000
,
10000000
00100000
01000000
00001000
00000000
00010000
00000100
00001000
,
00000000
00000010
00001000
00000100
00000000
00000001
00000100
00001000
,
00000100
00000000
00010000
00000000
,
00001000
00000000
00010000
00000000
00001000
00000000
00010000
00001000
,
01000000
00000000
00100000
00000000
,
10100000
00000000
00000000
01000000
00100000
00010000
10000000
01000000
,
00100000
00000000
00010000
00000000
00100000
00001000
00010000
00000000
,
01000000
00010000
00001000
00000100
,
00000001
00000000
00000010
00000000
00000100
00001000
00000010
00000000
,
00001000
00000100
00000001
00000100
,
00001000
00000000
00010000
00000000
00100000
01000000
00010000
00000000
,
10000000
01000000
00100000
00010000
,
10000000
00000000
01000000
00000000
00100000
00010000
01000000
00000000
,
00001000
00010000
00000100
00001000
,
00000010
00000000
00000100
00000000
00000001
00001000
00000010
00000000
,
00000100
00001000
00010000
00001000
,
01000000
00010000
00100000
00000000
01000000
10000000
00010000
00000000
,
01010000
00000000
00000000
01000000
00100000
00010000
10000000
00000000
,
01100000
00010000
00001000
00000100
,
00001100
00000000
00000000
00000000
;

//---------------dance-double - J.Casarino & MJ----------------
#NOTES:
     dance-double:
     J.Casarino & MJ:
     Hard:
     9:
     0.567,0.605,0.167,0.158,0.444,414.000,19.000,18.000,0.000,4.000,0.000,0.567,0.605,0.167,0.158,0.444,414.000,19.000,18.000,0.000,4.000,0.000:
00000000
00000000
00000000
00000000
,
00000000
00000000
00000000
00000000
,
00010000
00001000
00000000
00010000
00000000
00000000
00000100
00000000
00000010
00000000
00000100
00000000
00010000
00000000
00001000
00000000
,
00010100
00000000
00000000
00010000
00001000
00000010
00000001
00001000
,
00000001
00000000
00000000
00000001
00000100
00000000
00000100
00000000
00001000
00000000
00000000
00001000
00010000
00000000
00010000
00000000
,
00100000
00000000
00000000
00100000
10000000
00000000
10000000
00000000
00100000
00000000
01000000
00010000
00000000
00010000
10000000
00000000
,
01000000
00100000
00010000
00100000
00001000
00010000
00100000
01000000
,
00001000
00000000
00010000
00000000
00000100
00000000
00000010
00000000
00000001
00001000
00000000
00000110
00000000
00000000
00001000
00000000
,
00000001
00000000
00000000
00000001
00000100
00000000
00000100
00000000
00001000
00000000
00000000
00001000
00010000
00000000
00010000
00000000
,
00100000
00000000
00000000
00100000
01000000
00000000
01000000
00000000
00010000
00000000
00000000
01100000
00000000
00000000
00010000
00000000
,
10000000
00010000
01000000
00100000
00010000
00100000
01000000
00001000
,
00011000
00000000
00000010
00000001
00000010
00001000
00000100
00010000
,
00011000
00000000
00000000
00000000
01000000
00000000
00001000
00010000
00000000
00010000
00001000
00000000
00000100
00000000
00000010
00000000
,
00001000
00000001
00000000
00000001
00000100
00000000
00000000
00000000
00010000
01000000
00000000
01000000
00100000
00000000
00000000
00000000
,
00001100
00000000
00000000
00000000
00000010
00000000
00010000
00001000
00000000
00001000
00010000
00000000
00000010
00000000
00010000
00000000
,
00002000
00000100
00000000
00010000
00000000
01000000
00000000
00013000
,
00100000
00000000
01000000
00000000
10000000
00000000
01000000
00010000
00000000
00010000
00100000
00000000
00001000
00000000
00100000
00000000
,
00010000
01000000
00000000
00100000
00000000
00000000
01000000
00000000
00001000
00010000
00000000
00010000
00001000
00000000
00010000
00000000
,
00000010
00001000
00000100
00000010
00001000
00000010
00000100
00010000
,
00000110
00000000
00001000
00000100
00000010
00010000
00001000
01000000
,
00001000
00010000
00000000
00010000
01000000
00000000
01000000
10000000
00000000
10000000
00100000
00000000
10000000
00000000
01000000
00000000
,
00010000
01000000
00000000
00010000
00000000
00000000
00001000
00000000
00010000
00001000
00000000
00001000
00000100
00000000
00000000
00000000
,
00000001
00001000
00000000
00001000
00000001
00000000
00000001
00000010
00000000
00000010
00000001
00000000
00000010
00000000
00000100
00000000
,
00010000
00000000
00001000
00000000
00000100
00000000
00001000
00000000
00010000
00000000
00100000
00000000
01000000
00010000
00000000
00000000
,
10000000
00100000
00000000
00100000
01000000
00000000
01000000
00001000
00000000
00001000
00010000
00000000
00010000
00000000
00001000
00000000
,
01000000
00010000
00000000
01000000
00000000
00000000
00001000
00000000
01000000
00100000
00000000
10000000
01000000
00000000
00000000
00000000
,
00100000
01000000
10000000
00100000
10000000
01000000
00100000
01000000
,
10000000
00001000
01000000
00100000
00010000
00100000
01000000
00001000
,
00220000
00000000
00000000
00000000
00000000
00000000
00000000
00000000
00001000
00330000
00000000
00000000
00000000
00000000
00001000
00000000
,
00020020
00000000
00000000
00000000
00000000
00000000
00000000
00000000
00001000
00030030
00000000
00000000
00000000
00000000
00000000
00000000
,
02002000
00000000
00000000
00000000
00000000
00000000
00000000
00000000
10000000
03003000
00000000
00000000
00000000
00000000
00000000
00000000
,
00000220
00000000
00000000
00000000
00000000
00000000
00000000
00000000
00011000
00000330
00000000
00000000
00000000
00000000
00000000
00000000
,
00001000
00000000
00000000
00001000
00020000
00000000
00000000
10000000
00000000
00001000
00000000
00000000
10000000
00000000
00031000
00000000
,
00010000
00000000
00000000
00010000
00002000
00000000
00000000
00000001
00000000
00010000
00000000
00000000
00000001
00000000
00013000
00000000
,
00001000
00000000
00000000
00001000
00020000
00000000
00000000
00100000
00000000
00000010
00000000
00000000
00100000
00000000
00030010
00000000
,
00010000
00010000
00010000
00000000
00001000
01000000
00010000
00100000
00000000
00100000
01000000
10000000
01000000
00100000
00001000
00000000
,
00010000
00000000
00000100
00001000
00000010
00001000
00000100
00000000
00010000
00000000
01000000
00010000
01000000
00100000
00010000
00000000
,
01000000
00000000
00000010
00001000
00000010
00000001
00000010
00000000
00001000
00000000
00010000
01000000
00010000
00100000
00001000
00001000
,
00010000
00000000
00000000
00010000
00001000
00000000
00000000
00001000
00000100
00000000
00000000
00000100
00001000
00000000
00000000
00001000
,
01000000
00000000
00000000
01000000
00010000
00000000
00000000
00010000
00100000
00000000
00000000
00101000
00000000
00000000
00010000
00000000
,
00001000
00000000
00000000
00001000
00100000
00000000
00000000
00100000
00010000
00000000
00000000
00010000
01000000
00000000
00100000
00000000
,
01100000
00000000
01000000
00100000
00001000
00010000
00001000
00001000
,
00100000
00002000
00010000
00000000
00103000
00020000
10000000
00000000
,
00130000
00000000
00001000
00000000
01000000
00000000
00001000
00000000
00010000
00000000
00000010
00001000
00000000
00000001
00000000
00000100
,
00000001
00002000
00000100
00000000
00003001
00000200
00000010
00000000
,
00001300
00000000
00010000
00000000
00001000
00000000
01000000
00000000
00010000
00000000
00010000
01000000
00000000
00100000
00000000
10000000
,
00010000
00100000
01000000
10000000
01000000
00010000
00001000
00000100
,
00000001
00000100
00000001
00000000
00001000
00000000
00000010
00000000
00001000
00000000
00000100
00000000
00010000
00000000
00001000
00000000
,
00010000
00001000
00010000
00000000
01010000
00000000
00000000
00000000
00001000
00010000
00001000
00000000
00001010
00000000
00000000
00000000
,
00010000
00001000
00010000
00000000
01000000
00000000
00010000
00000000
00001000
00000000
00000010
00000001
00000000
00000001
00001000
00000000
,
00000010
00020000
00001000
00000000
00130000
02000000
00001000
00000000
,
03010000
00000000
00100000
00000000
00010000
00000000
01000000
00000000
00001000
00000000
00010000
00100000
00000000
00100000
10000000
00000000
,
01000000
00000000
00100000
00010000
00100000
00000000
00001000
00000000
01000000
00000000
00001000
00000000
00010000
00000000
00000010
00000000
,
00001010
00000000
00010000
00000100
00000010
00000001
00001000
00001001
,
00000001
00000010
00000000
00000010
00001000
00000000
00001000
00010000
00000000
00010000
00100000
00000000
01000000
00000000
00010000
00000000
,
01001000
00000000
00000000
00000000
;

//---------------dance-single - G.Marchan----------------
#NOTES:
     dance-single:
     G. Marchan:
     Challenge:
     11:
     0.811,1.000,0.194,0.185,1.000,602.000,22.000,21.000,12.000,0.000,0.000,0.811,1.000,0.194,0.185,1.000,602.000,22.000,21.000,12.000,0.000,0.000:
0000
0000
0000
0000
,
0000
0000
0000
0000
,
0000
0000
0000
0000
,
2002
0000
0000
3003
,
0001
0000
0100
0010
0100
0010
1000
0000
0001
0000
0010
0100
0010
0100
1000
0000
,
0001
0000
1000
0010
1000
0010
0100
0000
0001
0000
0100
0010
0000
0010
1000
0000
,
0001
0000
1000
0100
0010
0100
1000
0000
0001
0000
0100
0010
1000
0010
0100
0000
,
0001
0000
0010
0001
0100
0001
0010
0000
0100
0000
0010
0001
0000
0001
0100
0000
,
0001
0100
0010
1000
0100
0010
0100
1000
0100
0000
0010
0000
0001
0000
0100
0000
,
0010
1000
0100
0010
0001
1000
0010
0100
0001
0000
0010
0000
0100
0000
1000
0000
,
0001
1000
0010
0100
0001
0010
0100
1000
0100
0010
0100
1000
0001
0000
0100
0000
,
2002
0000
0000
3003
,
0001
0100
0000
0100
0010
0000
1000
0100
0000
0100
0001
0000
0001
0000
0100
0000
,
0100
0010
0000
0010
0000
0000
0100
0000
1000
0001
0000
0000
0100
0010
0000
0000
,
1000
0010
0000
0010
0100
0000
0100
0001
0000
0001
0010
0000
0100
0000
1000
0000
,
2200
0000
0000
0000
3300
0000
0000
1000
0010
0000
0100
0000
0010
1000
0000
0000
,
0001
0010
0000
0010
1000
0000
1000
0010
0000
0010
0001
0000
0100
0000
0010
0000
,
1000
0100
0000
0100
0000
0000
0010
0000
0001
0100
0000
0000
0202
0000
0303
0000
,
0100
0010
0000
0010
0000
1000
0000
0000
1000
0100
1000
0000
0001
0010
0001
0000
,
2002
0000
0000
0000
0000
0000
0000
3003
,
1000
0100
0000
0100
0001
0000
0001
0100
0000
0100
1000
0000
1000
0000
0010
0000
,
0100
0001
0000
0001
0000
0000
0010
0000
0100
1000
0000
0000
0001
0010
0000
0000
,
0100
0010
0000
0010
0001
0000
0001
0100
0000
0100
1000
0000
1000
0000
0100
0000
,
0220
0000
0000
0000
0330
0000
0000
1000
0100
0000
1000
0000
0010
0100
0000
0000
,
0001
0010
0000
0010
0001
0000
1000
0100
0000
0100
0010
0000
0001
0000
0100
0000
,
0010
1000
0000
1000
0000
0000
0100
0000
0010
0001
0000
0000
1000
0100
0000
0000
,
1000
0001
0000
0100
0000
0100
0000
0000
0010
0100
0010
1000
0100
0010
0001
2000
,
0002
0000
0000
0000
0000
0000
0000
3003
,
1000
0000
0001
0100
0010
0000
0100
0001
0100
0000
0010
1000
0100
0000
0010
0001
0010
0000
0001
1000
0100
0000
0010
0100
0010
0000
0001
1000
0000
1000
0010
0000
,
1000
0000
0100
0010
0001
0000
0010
0100
1000
0000
0001
0100
0010
0000
1000
0010
0100
0000
0001
0010
0100
0000
1000
0100
1000
0000
0001
0100
0000
0100
0010
0000
,
1000
0000
0010
0100
0001
0000
0010
0100
0010
0000
0001
0010
0100
0000
0010
0100
1000
0000
0010
0100
0001
0000
0010
0001
1000
0000
0010
0100
0000
0100
0001
0000
,
1000
0000
0100
0010
0100
0000
0010
0001
0100
0000
0010
1000
0001
0000
1000
0100
0020
0000
0000
0000
0000
0000
0001
0000
0001
0000
0000
0100
0000
0000
0130
0000
,
1000
0100
1100
0010
0110
0000
0001
0100
0110
1000
0100
1100
0010
0000
1000
0001
,
0101
0000
0000
0000
0000
0000
0000
0000
0000
0000
0000
0000
0101
0000
0000
0000
0000
0000
0000
0000
0000
0000
0000
0000
0101
0000
0000
0000
0000
0000
0000
0000
0000
0000
0000
0000
0000
0000
0000
0000
0000
0000
0000
0000
0000
0000
0000
0000
0001
0000
0000
0000
0000
0000
0000
0000
0000
0000
0000
0000
0100
0000
0000
0000
0000
0000
0010
0000
0000
0000
0000
0000
0100
0000
0000
0000
0000
0000
0000
0000
0000
0000
0000
0000
0110
0000
0000
0000
0000
0000
0000
0000
0000
0000
0000
0000
0000
0000
0000
0000
0000
0000
0000
0000
0000
0000
0000
0000
1000
0000
0000
0000
0000
0000
0000
0000
0000
0000
0000
0000
1001
0000
0000
0000
0000
0000
0000
0000
0000
0000
0000
0000
0000
0000
0000
0000
0000
0000
0000
0000
0000
0000
0000
0000
1010
0000
0000
0000
0000
0000
0000
0000
0000
0000
0000
0000
1010
0000
0000
0000
0000
0000
0000
0000
0000
0000
0000
0000
1000
0000
0000
0000
0010
0000
0000
0000
1000
0000
0000
0000
0010
0000
0000
0000
1000
0000
0000
0000
0010
0000
0000
0000
,
1000
0000
0010
0000
1000
0000
0100
0000
0010
0000
0001
0000
0010
0000
0000
0000
0001
0000
1000
0010
0100
0000
0010
0000
1000
0000
0100
0000
0001
0000
0100
0000
,
1000
0000
0010
0100
0001
0100
0010
1000
0100
0000
0010
0000
0110
0000
0000
0000
1000
0000
0100
0010
0100
0000
0001
0000
0100
0000
1000
0000
0010
0000
0100
0000
,
0001
0000
0010
0001
0010
0100
1000
0100
0010
0000
0100
0000
0110
0000
0000
0000
0010
0000
0001
1000
0001
0000
0010
0000
1000
0000
0010
0000
0001
0000
0100
0000
,
0001
0000
0010
0100
1000
0001
0100
0010
1000
0000
0010
0000
1010
0000
0000
0000
1000
0000
0001
0100
0010
0000
1000
0000
0100
0000
0001
0000
0100
0000
1000
0000
,
0001
0000
1000
0100
0010
0001
1000
0010
0100
0000
0001
0000
0010
0000
0100
0000
,
0010
0001
0100
0001
1000
0010
0100
0001
1000
0000
0010
0000
0100
0000
0001
0000
,
1000
0000
0010
1000
0100
0010
0001
0000
0100
0000
0010
0100
0001
1000
0010
0000
,
2002
0000
0000
0000
0000
0000
0000
3003
,
1000
0000
0010
0000
0100
0001
0100
0010
1000
0100
0010
0001
0100
0000
0010
0000
,
1000
0100
00M0
0100
0010
0001
00M0
0001
0100
0000
0010
1000
0M00
1000
00M0
1000
,
0000
0001
0100
0010
1000
0001
00M0
0001
1000
0100
0010
0100
1000
0001
0100
0010
,
1000
0100
00M0
0100
0010
0001
0010
0000
0100
0000
1000
0100
00M0
0100
000M
0100
,
0000
0010
0001
1000
0100
0010
0001
0000
1000
0010
1000
0100
1000
0001
1000
0010
,
0100
0010
0M00
0010
1000
0010
0100
0010
1000
0001
M000
0001
0100
0000
0010
0000
,
1000
0000
1000
0001
0010
0100
1000
0000
0010
0100
0001
1000
0M00
1000
0100
0010
,
0100
1000
0001
0100
0010
0100
0001
1000
0010
1000
0M00
1000
0100
0010
0001
1000
,
0001
0010
0100
0010
0001
1000
0010
0100
0001
0010
0100
1000
0100
0010
0100
0010
,
0001
0100
0010
1000
0001
0100
0001
0010
0100
1000
0100
1000
0010
0100
0001
0010
,
0100
1000
0100
0010
0100
1000
0001
0100
0010
1000
0100
1000
0001
0010
0100
2000
,
0002
0000
0000
0000
0000
0000
0000
3003
,
1000
0001
0000
0001
1000
0000
1000
0010
0000
0010
0100
0000
0001
0000
0100
0000
,
2002
0000
0000
0000
0000
3003
0000
0000
;

//---------------dance-single - J. Frederick----------------
#NOTES:
     dance-single:
     J. Frederick:
     Beginner:
     1:
     0.068,0.073,0.018,0.000,0.000,52.000,2.000,0.000,0.000,0.000,0.000,0.068,0.073,0.018,0.000,0.000,52.000,2.000,0.000,0.000,0.000,0.000:
0000
0000
0000
0000
,
0000
0000
0000
0000
,
0000
0000
0000
0000
,
1000
0000
0000
0000
,
0001
0000
0000
0000
,
0100
0000
0000
0000
,
0010
0000
0000
0000
,
1000
0000
0000
0000
,
0001
0000
0000
0000
,
1000
0000
0000
0000
,
0010
0000
0000
0000
,
0100
0000
0000
0000
,
1000
0000
0000
0000
,
0000
0000
0000
0000
,
0001
0000
0000
0000
,
0000
0000
0000
0000
,
0010
0000
0000
0000
,
0100
0000
0000
0000
,
1000
0000
0000
0000
,
1001
0000
0000
0000
,
0100
0000
0000
0000
,
0010
0000
0000
0000
,
1000
0000
0000
0000
,
0001
0000
0000
0000
,
0010
0000
0000
0000
,
0100
0000
0000
0000
,
1000
0000
0000
0000
,
0001
0000
0000
0000
,
0100
0000
0000
0000
,
0010
0000
0000
0000
,
1000
0000
0000
0000
,
0001
0000
0000
0000
,
0100
0000
0000
0000
,
0010
0000
0000
0000
,
1000
0000
0000
0000
,
0010
0000
0100
0000
,
0010
0000
0000
0000
,
0001
0000
0000
0000
,
1000
0000
0000
0000
,
0001
0000
0000
0000
,
0010
0000
0000
0000
,
0100
0000
0000
0000
,
0010
0000
0000
0000
,
0100
0000
0000
0000
,
1000
0000
0000
0000
,
0001
0000
0000
0000
,
0100
0000
0000
0000
,
0010
0000
0000
0000
,
1000
0000
0000
0000
,
0001
0000
0000
0000
,
0010
0000
0000
0000
,
0100
0000
0000
0000
,
1000
0000
0000
0000
,
0001
0000
0000
0000
,
0100
0000
0000
0000
,
1001
0000
0000
0000
;

//---------------dance-single - J. Frederick----------------
#NOTES:
     dance-single:
     J. Frederick:
     Easy:
     4:
     0.274,0.294,0.141,0.308,0.000,167.000,16.000,35.000,0.000,0.000,0.000,0.274,0.294,0.141,0.308,0.000,167.000,16.000,35.000,0.000,0.000,0.000:
0000
0000
0000
0000
,
0000
0000
0000
0000
,
0000
0000
0000
0000
,
2002
0000
0000
3003
,
1000
0010
1000
0010
,
0100
0001
0020
0030
,
0100
1000
0100
0010
,
0001
0100
0020
0030
,
1000
0010
0100
0001
,
0010
0100
2000
3000
,
0001
0100
0010
1000
,
0001
0010
0220
0330
,
1000
0010
0100
0010
,
2000
3000
0002
0003
,
0010
0100
1000
0010
,
0220
0000
0000
0330
,
1000
0010
0100
0001
,
0020
0030
0200
0300
,
1000
0010
0100
0001
,
0220
0000
0000
0330
,
1000
0100
1000
0100
,
0010
0001
0010
0001
,
0100
0001
0100
0001
,
2002
0000
0000
3003
,
0100
0010
1000
0010
,
0100
0001
0010
0100
,
1000
0010
0100
0001
,
0220
0000
0000
0330
,
1000
0010
0100
0001
,
0010
0100
1000
0100
,
0010
0001
0100
0010
,
1000
0010
0100
0001
,
0010
0001
1000
1010
,
0100
0001
0011
0010
,
0100
1100
1000
1010
,
0100
0010
2002
3003
,
0010
0100
1000
0010
,
0100
0001
0010
0100
,
1000
0100
1000
0000
,
0010
0100
0001
0000
,
0010
0001
1000
0000
,
0220
0000
0000
0330
,
1000
0010
2000
3000
,
0010
0100
0002
0003
,
0010
0100
1000
0010
,
0220
0000
0000
0330
,
0100
0001
0020
0030
,
0100
1000
0020
0030
,
0100
0001
0010
0001
,
1000
0001
2002
3003
,
0100
0010
1000
0010
,
0100
0001
0010
0001
,
1000
0100
0010
0001
,
0220
0000
0000
0330
,
1000
0001
1000
0000
,
2002
0000
0000
3003
;

//---------------dance-single - J. Frederick----------------
#NOTES:
     dance-single:
     J. Frederick:
     Medium:
     5:
     0.370,0.392,0.194,0.158,0.000,254.000,22.000,18.000,0.000,0.000,0.000,0.370,0.392,0.194,0.158,0.000,254.000,22.000,18.000,0.000,0.000,0.000:
0000
0000
0000
0000
,
0000
0000
0000
0000
,
0000
0000
0000
0000
,
1001
0000
0000
1000
0010
1000
0010
1000
,
0010
0000
1000
0000
0001
0000
0010
0100
,
1000
0000
0100
0000
0010
0000
0001
0100
,
0001
0000
1000
0000
0010
0000
0100
0010
,
1000
0010
0100
0001
,
0010
0000
0100
0000
1000
0000
0100
0010
,
0001
0000
0100
0000
0001
0000
1000
0010
,
0100
0000
0010
0000
1000
0000
0001
0010
,
0220
0000
0000
0000
0000
0000
0000
0330
,
1000
0000
0100
0000
1000
0000
0100
0010
,
0002
0003
2000
3000
,
0010
0000
0100
0010
1000
0000
0100
0000
,
0220
0000
0000
0000
0000
0000
0000
0330
,
1000
0001
0010
0000
0100
0000
1000
0000
,
0100
0010
0001
0000
0100
0000
0010
0000
,
1000
1000
0001
0001
,
0220
0000
0330
0000
0010
0100
0010
0100
,
1000
0000
0100
0000
0010
0000
0001
0100
,
0001
0000
1000
0000
0010
0000
0100
0010
,
1000
0000
0010
0000
0100
0000
0001
0010
,
0100
0000
1000
0000
0100
0000
0010
0001
,
0100
0000
0001
0000
1000
0000
0010
0100
,
0001
0000
0010
0000
0001
1000
0001
0000
,
1010
0101
0110
1001
,
0220
0000
0000
0330
,
1000
0010
0100
0010
0100
0001
0010
0010
,
0100
1000
0100
0010
0002
0000
0000
0003
,
0100
0010
1000
0100
0010
0001
0100
0010
,
1000
0010
0100
0001
0020
0000
0000
0030
,
1000
0010
1100
0000
1000
0010
1010
0000
,
0001
0100
0101
0000
0010
0100
0110
0000
,
1000
0100
1100
0000
0001
0100
0101
0000
,
1001
0000
0110
0000
1000
0010
0110
0000
,
0001
0010
0001
0000
0000
1000
0100
1000
,
0000
0010
0100
0010
0000
1000
0001
1000
,
0001
0000
1000
0000
0010
0000
0100
0010
,
0100
0000
0001
0000
0010
0000
0100
1000
,
0100
0010
0001
0100
,
0220
0000
0000
0330
1000
0010
1000
0010
,
1000
0010
0100
0000
0001
0000
0010
0000
,
0100
1000
0100
1000
0100
0000
1000
0000
,
0010
0100
0001
0010
,
0001
0010
0001
0010
0001
0000
0100
0000
,
0010
1000
0010
0100
,
0001
0010
0100
1000
0100
0000
0010
0000
,
0001
0100
0010
1000
,
0010
0100
0001
0000
0010
0000
0100
0000
,
1000
0100
0010
0001
0100
0000
0001
0000
,
1000
0001
0100
0010
1000
0000
0010
0000
,
0100
0001
0010
0100
1000
0000
0100
0000
,
0110
0000
0001
0000
1000
0010
0100
0010
,
0220
0000
0000
0330
,
2002
0000
0000
3003
;

//---------------dance-single - J. Frederick----------------
#NOTES:
     dance-single:
     J. Frederick:
     Hard:
     9:
     0.578,0.684,0.079,0.167,0.427,432.000,9.000,19.000,0.000,1.000,0.000,0.578,0.684,0.079,0.167,0.427,432.000,9.000,19.000,0.000,1.000,0.000:
0000
0000
0000
0000
,
0000
0000
0000
0000
,
0000
0000
0000
0000
,
1001
0000
0000
0010
0100
1000
0100
0010
,
0001
0000
0000
0100
0001
0000
0000
1000
0001
0000
0000
0100
0010
0000
0000
1000
,
0010
0000
0000
0100
0010
0000
0000
1000
0100
0000
0000
0010
0000
0000
0001
0000
,
0100
0000
0000
0001
0010
0000
0000
0100
1000
0000
0000
0100
0010
0000
0000
0001
,
1000
0000
0000
0010
0100
0000
0000
0010
1000
0000
0000
0001
0000
0000
0010
0000
,
0100
0000
0000
1000
0010
0000
0000
0100
0001
0000
0000
0010
0001
0000
0000
0010
,
0100
0000
0000
1000
0010
0000
0000
0100
0010
0000
0000
0100
0000
0000
0001
0000
,
0010
0000
0000
0001
1000
0000
0000
0010
0100
0000
0000
0010
1000
0000
0000
0100
,
0020
0000
0000
1030
0001
0010
0100
1000
,
0010
0100
0001
0010
0001
1000
0010
0100
,
0010
0100
0000
0100
0000
0100
0010
0000
1000
0000
0100
0000
0010
0000
0000
0000
,
0010
0001
0000
0000
0100
0000
0001
0000
1000
0000
0001
0000
0100
0000
0010
0000
,
2000
0010
0001
3100
,
0010
0001
0100
0010
1000
0010
0100
0001
,
0010
0001
0000
0001
0000
0001
1000
0000
0010
0000
0100
0000
0110
0000
0000
0000
,
1000
0000
0100
0000
0010
0000
0001
0000
0100
0001
0100
0000
0010
1000
0010
0000
,
0200
0000
0000
0301
0010
0100
1000
0100
,
1000
0001
0000
0000
0100
0000
0010
0000
1000
0000
0010
0000
0100
0000
0001
0000
,
0010
0001
0000
0000
1000
0000
0010
0000
0100
0000
0010
0000
1000
0000
0001
0000
,
0010
0001
0000
0000
0100
0000
0001
0000
1000
0000
0010
0000
0001
0000
0010
0000
,
1000
0010
0000
0000
0100
0000
0001
0000
0010
0000
0000
0100
1000
0000
0100
0000
,
0010
0001
0000
0000
0100
0000
0001
0000
1000
0000
0010
0000
0100
0000
0010
0000
,
1000
0100
0000
0000
0010
0000
0001
0000
0100
0000
0001
0000
1000
0000
0001
0000
,
0100
0001
0000
1000
0000
0010
0000
0000
0100
0010
0100
0000
0010
1000
0010
0000
,
0200
0000
0000
0301
0010
0100
1000
0100
,
0010
0000
0001
0000
1000
0000
0001
0000
0100
0000
0010
0000
1000
0000
0010
0010
,
0100
0000
0001
0000
0010
0000
0100
0000
1000
0000
0100
0000
0010
0010
0000
0001
,
0100
0000
0001
0000
1000
0000
0010
0000
0100
0000
0010
0000
1000
0000
1000
0100
,
0010
0000
0100
0000
0010
0000
0001
0000
0100
0000
0010
0000
1000
1000
0000
1000
,
0010
0000
0100
0000
0001
0000
0010
0000
0100
0000
1000
0000
0100
0000
0100
0100
,
0010
0001
0100
0001
1000
0010
0110
0110
,
1000
0010
1000
0010
0200
0000
0301
0000
0010
0001
0010
0100
2000
0000
3100
0000
,
0010
0001
0100
0001
2000
0000
3010
0000
0001
0010
1000
0100
0020
0000
0031
0000
,
1000
0001
0100
0010
2000
0000
3010
0000
0100
0001
0010
0100
2000
0000
3100
0000
,
0010
0001
0100
0001
2000
0000
3010
0000
0100
0010
1000
0100
0010
0000
0100
0000
,
0110
0000
0000
0010
1000
0000
0000
0100
0001
0000
0000
0010
0100
0000
0000
1000
,
0100
0000
0000
0010
0001
0000
0000
0100
0001
0000
0000
1000
0000
0000
0010
0000
,
0100
0000
0000
0010
1000
0000
0000
0010
0100
0000
0000
0001
0010
0000
0100
0000
,
0220
0000
0000
0000
0000
0330
1000
0000
0010
0000
0100
0000
0010
0000
1000
0000
,
0001
0010
0100
1000
0100
0010
0001
0100
,
0001
0100
0001
0000
1000
0000
0010
0000
0100
0000
0010
0000
1000
0000
0010
0000
,
0100
0010
0100
0000
0010
0000
1000
0000
0100
0000
0000
0010
0001
0000
0010
0000
,
0100
1000
0100
0000
0010
0001
0010
0000
0001
0000
0100
0000
0001
0000
1000
0000
,
0010
0100
0010
0000
1000
0000
0010
0000
0100
0000
0001
0000
0010
0000
0001
0000
,
1000
0001
1000
0000
0010
0000
0100
0000
0010
0000
1000
0000
0000
0100
0010
0000
,
0001
0010
0001
0000
0010
0000
0100
0000
1000
0000
0010
0000
0100
0000
0010
0000
,
0220
0000
0000
0000
0000
0330
1000
0000
0010
0000
0100
0000
0001
0000
0010
0000
,
0100
1000
0000
0010
0001
0000
0010
0000
0100
0000
0001
0000
1000
0000
0010
0000
,
0100
0010
0000
1000
0010
0000
0100
0000
0001
0000
0010
0000
0100
0000
1000
0000
,
0100
0010
0000
0001
0100
0000
0001
0000
1000
0000
0010
0000
0100
0000
0010
0000
,
0220
0000
0000
1330
0010
0100
0001
0010
,
0100
0000
1000
0100
0010
0000
0001
0100
0000
0001
1000
0000
0010
0000
0100
0000
,
2002
0000
3003
0000
;
