#TITLE:Sunshine;
#SUBTITLE:;
#ARTIST:Playmaker;
#TITLETRANSLIT:;
#SUBTITLETRANSLIT:;
#ARTISTTRANSLIT:;
#GENRE:RnB;
#CREDIT:;
#BANNER:Sunshine-bn.png;
#BACKGROUND:Sunshine-bg.png;
#LYRICSPATH:;
#CDTITLE:;
#MUSIC:Sunshine.ogg;
#OFFSET:-2.034;
#SAMPLESTART:42.120;
#SAMPLELENGTH:11.860;
#SELECTABLE:YES;
#BPMS:0.000=124.600;
#STOPS:;
#BGCHANGES:-3.838=Sunshine.mpg=1.000=1=0=0=StretchNoLoop==CrossFade==,
99999=-nosongbg-=1.000=0=0=0 // don't automatically add -songbackground-;
#KEYSOUNDS:;

//---------------dance-single - D. D'Amato----------------
#NOTES:
     dance-single:
     D. D'Amato:
     Hard:
     8:
     0.470,0.424,0.157,0.078,0.328,312.000,16.000,8.000,0.000,0.000,0.000,0.470,0.424,0.157,0.078,0.328,312.000,16.000,8.000,0.000,0.000,0.000:
0000
0000
0000
0000
,
0000
0000
0000
0000
,
0000
0000
0000
0000
,
1000
0000
0001
0000
0010
0001
1000
0000
,
0102
0000
0013
0000
0100
1000
0100
0010
,
0001
0000
1000
0000
0010
1000
0001
0000
,
2100
0000
3010
0000
0100
0001
0100
0010
,
1000
0000
0001
0000
0100
0001
1000
0000
,
0012
0000
0103
0000
0010
1000
0010
0100
,
0001
0000
1000
0000
0100
1000
0001
0000
,
2010
0000
3100
0000
0010
0001
0010
0100
,
0020
0100
0031
1001
,
1001
0000
0100
0000
0010
0000
0000
0100
0000
0010
0000
0100
0000
0000
1000
0000
,
0020
0100
1030
1001
,
1001
0000
0100
0000
0010
0000
0000
0000
1001
0000
0100
0000
0010
1000
0000
1000
,
0100
0000
0010
0000
0001
0000
0010
0000
0001
0000
0000
0100
0000
0000
0000
0000
,
1000
0100
0001
0100
1000
0001
0010
0001
,
0100
0000
0010
0000
1000
0000
0010
0000
1000
0000
0000
0100
0000
0000
0000
0000
,
0001
0100
1000
0100
0001
1000
0010
1000
,
0010
0000
0100
0000
0001
0000
0100
0000
0001
0000
0000
0010
0000
0000
0000
0000
,
1000
0010
0001
0010
1000
0001
0100
0001
,
0010
0000
0100
0000
1000
0000
0100
0000
1000
0000
0000
0010
0000
0000
0000
0000
,
0001
0000
0010
0000
1000
0010
0000
0001
0000
0000
1000
0000
0100
0010
0000
0010
,
0001
0000
0000
0000
0100
0000
0000
0010
0000
0000
1000
0000
0001
0000
0010
0000
,
0100
0000
0000
0000
1000
0000
0000
0000
0001
0000
0100
0000
0000
0010
0000
0000
,
1000
0000
0000
0100
0000
0000
0000
0010
0000
0000
0000
0001
0000
0000
0100
0000
,
0000
0010
0000
0000
1000
0000
0001
0000
0010
0000
0100
0000
1000
0000
0000
0000
,
0100
1000
0001
0000
0100
0010
1000
0000
,
0010
0000
0000
0000
0100
0000
0000
0001
0000
1000
0000
0100
1000
0000
0001
0000
,
0000
0100
0000
0000
0010
0000
1000
0000
0100
0000
0000
0000
0010
0000
0001
1000
,
0001
1000
0001
1000
0001
1000
0001
1000
,
0100
0000
0000
0000
0011
0000
0000
0001
0000
0100
0000
0000
1000
0000
0000
0000
,
0010
0000
1000
0000
0100
0000
0000
0010
0000
0000
0001
0000
0100
0000
0001
1000
,
0001
0000
1000
0000
0100
0000
0000
1000
0000
0000
0001
0000
0100
0000
0010
0000
,
1000
0000
0100
0000
0010
0000
0000
0001
0000
0000
0100
0000
0010
0000
1000
0001
,
2000
0100
3001
0110
,
0110
0000
0001
0000
1000
0000
0000
0001
0000
1000
0000
0001
0000
0000
1000
0000
,
0002
0100
1003
0110
,
0110
0000
1000
0000
0001
0000
0000
0000
0110
0000
0001
0000
1000
0001
0000
0001
,
0100
0000
0000
0000
0010
0000
0000
0100
0000
0000
0001
0000
1000
0000
0000
0100
,
0010
0000
0100
0000
1000
0001
0000
0100
0000
0000
0010
0000
0000
0100
0000
0000
,
0001
0000
0000
0010
0000
0000
0000
0100
0000
0000
0000
1000
0000
0000
0010
0000
,
0000
0100
0000
0000
0001
1000
0000
0100
0000
0010
0000
0001
0000
0000
0100
0000
,
0010
0000
1000
0000
0001
0000
0010
0000
0100
0010
0000
0001
0000
0000
1000
0000
,
0100
0000
0010
0000
0001
0100
0000
0010
0000
1000
0000
0010
1000
0000
0001
0000
,
0000
0010
0000
0000
0100
0000
1000
0000
0010
0100
0000
0001
0000
0000
1000
0001
,
1000
0001
1000
0001
1000
0001
1000
0001
,
0100
0000
0000
0000
1010
0000
0000
1000
0000
0100
0000
0000
0001
0000
0000
0000
,
0010
0000
0001
0000
0100
0000
0000
0010
0000
0000
1000
0000
0100
0000
1000
0001
,
1000
0000
0001
0000
0100
0000
0000
0001
0000
0000
1000
0000
0100
0000
0010
0000
,
0001
0000
0100
0000
0010
0000
0000
1000
0000
0000
0100
0000
0010
0001
1000
0001
;

//---------------dance-single - D. D'Amato----------------
#NOTES:
     dance-single:
     D. D'Amato:
     Challenge:
     9:
     0.664,0.598,0.274,0.000,0.906,447.000,28.000,0.000,0.000,0.000,0.000,0.664,0.598,0.274,0.000,0.906,447.000,28.000,0.000,0.000,0.000,0.000: // measure 1
0000
0000
0000
0000
,  // measure 2
0000
0000
0000
0000
,  // measure 3
0000
0000
0000
0000
,  // measure 4
0100
0000
1000
0000
0010
0000
1000
0001
0000
1000
0001
0000
0100
0000
0001
0000
,  // measure 5
0010
0000
0100
0000
1000
0010
0000
0000
0100
0000
0010
0000
1000
0010
0000
0000
,  // measure 6
0100
0000
0001
0000
0010
0000
0001
1000
0000
0001
1000
0000
0100
0000
1000
0000
,  // measure 7
0010
0000
0100
0000
0001
0010
0000
0000
0100
0000
0010
0000
0001
0010
0000
0000
,  // measure 8
0100
0000
1000
0000
0001
0000
0010
0001
0000
1000
0000
0001
0010
0000
0100
0000
,  // measure 9
0010
0000
0000
0001
0000
1000
0000
0000
0000
0001
0000
0000
0100
0000
0010
0000
,  // measure 10
0100
0000
0001
0000
1000
0000
0010
1000
0000
0001
0000
1000
0010
0000
0100
0000
,  // measure 11
0010
0000
0000
1000
0000
0001
0000
0000
0000
1000
0000
0000
0010
0000
0100
0000
,  // measure 12
0001
1000
0001
0000
0100
0000
0010
0000
1000
0100
0000
1000
0000
0000
0001
0100
,  // measure 13
0001
0000
1000
0000
0100
0010
0000
0100
0000
0110
0000
0110
0000
0100
0010
0000
,  // measure 14
0001
1000
0001
0000
0000
0000
0010
0000
0001
0100
0000
0001
0000
0000
1000
0100
,  // measure 15
1000
0010
0000
1000
0000
0000
0001
0100
0001
0010
0000
0001
0000
0000
1000
0000
,  // measure 16
0001
1000
0100
0000
1000
0000
0010
0000
1000
0100
0000
1000
0000
0000
0001
0010
,  // measure 17
0001
0000
1000
0000
0010
1000
0000
0100
0000
1100
0000
1100
0000
0000
0100
0000
,  // measure 18
1000
0001
0100
0000
0001
0000
0010
0000
0001
0100
0000
0001
0000
0000
1000
0010
,  // measure 19
1000
0000
0001
0000
0010
0001
0000
0100
0000
0101
0000
0101
0000
0000
0100
0000
,  // measure 20
0001
1000
0010
0000
1000
0000
0100
0000
1000
0010
0000
1000
0000
0000
0001
0100
,  // measure 21
0001
0000
1000
0000
0100
1000
0000
0010
0000
1010
0000
1010
0000
0000
0010
0000
,  // measure 22
1000
0001
0010
0000
0001
0000
0100
0000
0001
0010
0000
0001
0000
0000
1000
0100
,  // measure 23
1000
0000
0001
0000
0100
0001
0100
0010
0000
0000
0100
0000
0010
1000
0000
0001
,  // measure 24
1000
0100
0010
0000
0100
0000
0010
0000
0001
0100
0000
0001
1000
0000
0001
0010
,  // measure 25
0100
0000
0010
0000
0001
1000
0000
0101
0000
1010
0000
0101
0000
1000
0001
1000
,  // measure 26
0001
0100
0010
0000
0100
0000
0010
0000
1000
0100
0000
1000
0001
0000
1000
0010
,  // measure 27
0100
0000
0010
0000
1000
0001
0000
0110
0000
1001
0000
0110
0000
0001
1000
0001
,  // measure 28
1000
0010
0100
0000
0010
0000
0100
0000
0001
0010
0000
0001
1000
0000
0001
0100
,  // measure 29
0010
0000
0100
0000
0001
1000
0000
0011
0000
1100
0000
0011
0000
1000
0001
1000
,  // measure 30
0001
0010
0100
0000
0010
0000
0100
0000
1000
0010
0000
1000
0001
0000
1000
0100
,  // measure 31
0010
0100
0010
0100
0010
0100
0010
0100
,  // measure 32
0010
0100
0000
0010
0001
0000
1000
0001
0000
0010
0001
0000
0100
0000
0000
0010
,  // measure 33
0100
0000
0010
0000
1000
0000
0000
0001
1000
0100
0010
0000
0100
0000
1000
0001
,  // measure 34
0100
0000
0010
0000
1000
0000
0001
0100
0000
0010
1000
0000
0100
0000
0000
1000
,  // measure 35
0001
0000
0010
0000
0100
0000
0000
1000
0000
0001
0100
0000
0010
0000
0100
0001
,  // measure 36
1000
0000
0000
0000
0100
0000
0010
0000
0001
0100
0000
0001
0000
0000
1000
0100
,  // measure 37
1000
0000
0001
0000
0100
0010
0000
0100
0000
0110
0000
0110
0000
0100
0010
0000
,  // measure 38
1000
0001
1000
0000
0000
0000
0010
0000
1000
0100
0000
1000
0000
0000
0001
0100
,  // measure 39
0001
0010
0000
0001
0000
0000
1000
0100
1000
0010
0000
1000
0000
0000
0001
1000
,  // measure 40
0001
1000
0010
0000
1000
0000
0100
0000
1000
0010
0000
1000
0000
0000
0100
1000
,  // measure 41
0001
0000
1000
0000
0100
0010
0000
0110
0000
1100
0000
1010
0000
0010
1000
0001
,  // measure 42
1000
0001
0010
0000
0001
0000
0100
0000
0001
0010
0000
0001
0000
0000
0100
0001
,  // measure 43
1000
0000
0001
0000
0100
0010
0000
0110
0000
0101
0000
0011
0000
0010
0001
1000
,  // measure 44
0001
1000
0100
0000
1000
0000
0010
0000
1000
0100
0000
1000
0000
0000
0100
1000
,  // measure 45
0001
0000
1000
0000
0010
0100
0000
0110
0000
1010
0000
1100
0000
0100
1000
0001
,  // measure 46
1000
0001
0100
0000
0001
0000
0010
0000
0001
0100
0000
0001
0000
0000
0100
0001
,  // measure 47
1000
0001
1000
0001
1000
0001
1000
0001
,  // measure 48
0100
0010
0000
0100
0001
0000
1000
0001
0000
0100
0000
0000
0010
0000
0000
0100
,  // measure 49
0010
0000
0100
0000
0001
0000
0000
1000
0001
0010
0100
0000
0010
0000
0001
1000
,  // measure 50
0010
0000
0100
0000
0001
0000
1000
0010
0000
0100
0001
0000
0010
0000
0000
0001
,  // measure 51
1000
0000
0100
0000
0010
0000
0000
0001
0000
1000
0010
0000
0100
0010
1000
0001
;

//---------------dance-single - D. D'Amato----------------
#NOTES:
     dance-single:
     D. D'Amato:
     Medium:
     6:
     0.358,0.349,0.196,0.088,0.108,227.000,20.000,9.000,0.000,0.000,0.000,0.358,0.349,0.196,0.088,0.108,227.000,20.000,9.000,0.000,0.000,0.000:
0000
0000
0000
0000
,
0000
0000
0000
0000
,
0000
0000
0000
0000
,
1000
0100
0000
0100
,
0010
0100
1000
0000
0000
0000
0101
0000
,
0001
0100
0000
0100
,
0010
0100
0001
0000
0000
0000
1010
0000
,
1000
0010
0000
0010
,
0100
0010
1000
0000
0000
0000
0011
0000
,
0001
0010
0000
0010
,
0100
0010
0001
0000
0000
0000
1100
0000
,
0010
1001
0000
0100
,
0001
0100
1000
0000
0010
1000
0100
0000
,
0010
1001
0000
0100
,
1000
0100
0001
0000
1000
0100
0001
0100
,
1000
0001
0000
0100
0010
0000
0100
0000
,
0010
0000
1000
0000
0010
0000
0000
0000
0000
0001
0000
0100
0000
0000
0000
0000
,
0001
1000
0000
0100
0010
0000
0100
0000
,
0010
0000
0001
0000
0010
0000
0000
0000
0000
1000
0000
0100
0000
0000
0000
0000
,
1000
0001
0000
0010
0100
0000
0010
0000
,
0100
0000
1000
0000
0100
0000
0000
0000
0000
0001
0000
0010
0000
0000
0000
0000
,
0001
1000
0000
0010
0100
0000
0010
0000
,
0100
0001
0200
0000
0000
1300
0010
0000
,
0002
0100
1003
0110
,
0001
0000
0100
0000
0100
0000
1000
0000
0000
0010
0000
0010
0000
0000
0000
0000
,
2000
0100
3001
0110
,
1000
0000
0100
0000
0100
0000
0001
0000
0000
0010
0000
0010
0000
0000
0000
0000
,
0002
0010
1003
0110
,
0001
0000
0010
0000
0010
0000
1000
0000
0000
0100
0000
0100
0000
0000
0000
0000
,
2000
0010
3001
0110
,
1000
0010
0100
0001
,
0110
0000
1000
0000
0010
1000
0100
0000
,
1000
0000
0101
0000
1000
0000
0101
0001
,
0010
0000
1100
0000
0010
1000
1100
0000
,
0010
0001
0100
0000
0001
1000
0100
1000
,
0001
0100
0000
0100
,
0000
0100
0000
0100
,
0000
0000
0100
0000
0100
0010
0100
0000
,
0100
0010
0100
0000
0100
0010
0100
0001
,
2000
0000
0001
0000
0000
0000
3100
0000
0010
0000
0000
0100
0000
0000
0000
0000
,
0010
0000
0001
0000
0010
0000
0001
0000
0000
0001
0000
0100
0000
0000
0000
0000
,
0002
0000
1000
0000
0000
0000
0103
0000
0010
0000
0000
0100
0000
0000
0000
0000
,
0010
0000
1000
0000
0010
0000
1000
0000
0000
1000
0000
0100
0000
0000
0000
0000
,
2000
0000
0001
0000
0000
0000
3010
0000
0100
0000
0000
0010
0000
0000
0000
0000
,
0100
0000
0001
0000
0100
0000
0001
0000
0000
0001
0000
0010
0000
0000
0000
0000
,
0002
0000
1000
0000
0000
0000
0013
0000
0100
0000
0000
0010
0000
0000
0000
0000
,
0001
0010
0100
1000
,
0110
0000
0001
0000
0010
0001
0100
0000
,
0001
0000
1100
0000
0001
0000
1100
1000
,
0010
0000
0101
0000
0010
0001
0101
0000
,
0010
1000
0100
0000
1000
0001
0100
1000
;

//---------------dance-single - D. D'Amato----------------
#NOTES:
     dance-single:
     D. D'Amato:
     Easy:
     2:
     0.183,0.174,0.117,0.059,0.000,113.000,12.000,6.000,0.000,0.000,0.000,0.183,0.174,0.117,0.059,0.000,113.000,12.000,6.000,0.000,0.000,0.000:
0000
0000
0000
0000
,
0000
0000
0000
0000
,
0000
0000
0000
0000
,
1001
0000
0010
0000
,
0200
0000
0000
0300
,
1001
0000
0010
0000
,
0200
0000
0000
0300
,
1001
0000
0100
0000
,
0020
0000
0000
0030
,
1001
0000
0100
0000
,
0020
0000
0000
0030
,
1001
0000
0100
0000
,
0010
0010
0001
0000
,
1000
0000
0010
0000
,
0010
0000
0020
0000
,
1030
0000
0100
0001
,
0000
0010
0000
0110
,
0001
0000
0100
1000
,
0000
0010
0000
0110
,
1000
0000
0010
0001
,
0000
0100
0000
0110
,
0001
0000
0010
1000
,
0000
0100
0000
0110
,
0000
0001
0000
0100
,
0000
0010
1000
0000
,
0100
1000
0000
0100
,
0000
0010
0001
0000
,
0100
0001
0000
0010
,
0000
0100
1000
0000
,
0010
1000
0000
0010
,
0000
0100
0001
1000
,
0100
0010
0000
1001
,
0000
0100
0000
0100
,
1000
0100
0000
0100
,
0001
0100
0000
0100
,
1001
0000
0100
0000
,
0010
0010
1000
0000
,
0001
0000
0010
0000
,
0010
0000
0020
0000
,
0031
1000
0000
0100
,
0000
0010
0001
0000
,
0100
0001
0000
0100
,
0000
0010
1000
0000
,
0100
1000
0000
0010
,
0000
0100
0001
0000
,
0010
0001
0000
0010
,
0000
0100
1000
0001
,
0100
0010
0000
1001
,
0000
0100
0000
0100
,
0001
0100
0000
0100
,
1000
0100
0000
0100
;

//---------------dance-single - J. Frederick----------------
#NOTES:
     dance-single:
     J. Frederick:
     Beginner:
     1:
     0.094,0.149,0.127,0.000,0.000,54.000,13.000,0.000,0.000,0.000,0.000,0.094,0.149,0.127,0.000,0.000,54.000,13.000,0.000,0.000,0.000,0.000:
0000
0000
0000
0000
,
0000
0000
0000
0000
,
0000
0000
0000
0000
,
1000
0000
0000
0000
,
0010
0000
0000
0000
,
0100
0000
0000
0000
,
0001
0000
0000
0000
,
0010
0000
0000
0000
,
0100
0000
0000
0000
,
1000
0000
0000
0000
,
0001
0000
0000
0000
,
0110
0000
1001
0000
,
0110
0000
0000
0000
,
1001
0000
0110
0000
,
1001
0000
1001
0000
,
0010
0000
0000
0000
,
0100
0000
0000
0000
,
1000
0000
0000
0000
,
0001
0000
0000
0000
,
0010
0000
0000
0000
,
0100
0000
0000
0000
,
1000
0000
0000
0000
,
0001
0000
0000
0000
,
0100
0000
0000
0000
,
0010
0000
0000
0000
,
1000
0000
0000
0000
,
0001
0000
0000
0000
,
0010
0000
0000
0000
,
0100
0000
0000
0000
,
0001
0000
0000
0000
,
1000
0000
0000
0000
,
1001
0000
0000
0000
,
0010
0000
0000
0000
,
0100
0000
0000
0000
,
0001
0000
0000
0000
,
0110
0000
1001
0000
,
0110
0000
0000
0000
,
0110
0000
1001
0000
,
0100
0000
0000
0000
,
0010
0000
0000
0000
,
1000
0000
0000
0000
,
0001
0000
0000
0000
,
0010
0000
0000
0000
,
0100
0000
0000
0000
,
1000
0000
0000
0000
,
0001
0000
0000
0000
,
0010
0000
0000
0000
,
0100
0000
0000
0000
,
1000
0000
0000
0000
,
0001
0000
0000
0000
,
0010
0000
0000
0100
;

//---------------dance-double - J. Frederick----------------
#NOTES:
     dance-double:
     J. Frederick:
     Easy:
     4:
     0.243,0.248,0.137,0.294,0.000,130.000,14.000,30.000,0.000,0.000,0.000,0.243,0.248,0.137,0.294,0.000,130.000,14.000,30.000,0.000,0.000,0.000:
00000000
00000000
00000000
00000000
,
00000000
00000000
00000000
00000000
,
00000000
00000000
00000000
00000000
,
10000000
00000000
00000000
00000000
,
01000000
00000000
00100000
00000000
,
00010000
00000000
00000000
00000000
,
00001000
00000000
00000010
00000000
,
00000001
00000000
00000000
00000000
,
00000100
00000000
00001000
00000000
,
00010000
00000000
00000000
00000000
,
00100000
00000000
01000000
00000000
,
20000000
30000000
02000000
03000000
,
00200000
00000000
00000000
00300000
,
00020000
00030000
00002000
00003000
,
00000020
00000030
00000200
00000300
,
00000001
00000100
00000001
00000010
,
00000001
00000100
00000010
00000010
,
00001000
00010000
00100000
01000000
,
10000000
01000000
00100000
00100000
,
00010000
01000000
00010000
10000000
,
00100000
01000000
00010000
00010000
,
00001000
00000010
00001000
00000001
,
00000100
00000010
00001000
00001000
,
00011000
00100000
00011000
00000010
,
00001000
00000100
00000001
00000010
,
00001001
00000010
00001001
00000100
,
00000001
00000010
00001000
00010000
,
00110000
01000000
11000000
00100000
,
00010000
01000000
10000000
00100000
,
01000000
01000000
00010000
00010000
,
00001000
00010000
00001000
00010000
,
00022000
00000000
00000000
00033000
,
00002020
00000000
00000000
00003030
,
00000202
00000000
00000000
00000303
,
00002002
00000000
00000000
00003003
,
00000020
00000030
00000200
00000300
,
00002000
00000000
00000000
00003000
,
00020000
00030000
00200000
00300000
,
02000000
03000000
20000000
30000000
,
00100000
01000000
10000000
01000000
,
00010000
00100000
00010000
00001000
,
00000010
00000100
00000001
00000010
,
00000001
00000100
00000010
00001000
,
00000100
00000001
00000100
00000010
,
00001000
00010000
00100000
00010000
,
00100000
01000000
10000000
00010000
,
10000000
10000000
10000000
10000000
,
22000000
00000000
00000000
33000000
,
00220000
00000000
00000000
00330000
,
00022000
00000000
00000000
00033000
,
00002020
00000000
00000000
00003030
;

//---------------dance-double - K. Pearman----------------
#NOTES:
     dance-double:
     K. Pearman:
     Challenge:
     9:
     0.694,0.000,0.255,0.000,0.778: // measure 1
00000000
00000000
00000000
00000000
,  // measure 2
00000000
00000000
00000000
00000000
,  // measure 3
00000000
00000000
00000000
00000000
,  // measure 4
10000000
00000000
00010000
00000000
01000000
00000000
00010000
10000000
00010000
10000000
00010000
00000000
00100000
00000000
00000000
00000000
,  // measure 5
00001000
00000000
00000100
00000000
00000010
00001000
00000000
00000000
00000100
00000000
00000010
00000000
00000001
00000100
00000000
00000000
,  // measure 6
00000010
00000000
00001000
00000000
00000001
00000000
00001000
00000100
00001000
00000100
00001000
00000000
00000100
00000000
00000000
00000000
,  // measure 7
00010000
00000000
00001000
00000000
01000000
00100000
00000000
00000000
00010000
00000000
00100000
00000000
10000000
01000000
00000000
00000000
,  // measure 8
10000000
00000000
00010000
00000000
01000000
00000000
00001000
00010000
00001000
00010000
00001000
00000000
00010000
00000000
00000000
00000000
,  // measure 9
00000100
00000000
00000010
00000000
00000001
00001000
00000000
00000000
00000100
00000000
00000010
00000000
00000001
00001000
00000000
00000000
,  // measure 10
00000001
00000000
00000100
00000000
00000010
00000000
00010000
00001000
00010000
00001000
00010000
00000000
00001000
00000000
00000000
00000000
,  // measure 11
01000000
00000000
00010000
00000000
00100000
10000000
00000000
00000000
01000000
00000000
00010000
00000000
00100000
10000000
00000000
00000000
,  // measure 12
00100000
00010000
00100000
00000000
00010000
00000000
01000000
00000000
00001000
00010000
00000000
00001000
00000000
00000000
00010000
00000100
,  // measure 13
00010000
00000000
00000100
00000000
00000010
00000001
00000000
00000100
00000000
00000110
00000000
00000110
00000000
00000010
00001000
00000100
,  // measure 14
00001000
00000001
00001000
00000000
00000100
00000000
00010000
00000000
00001000
00010000
00000000
00001000
01000000
00000000
00010000
01000000
,  // measure 15
00010000
10000000
00000000
01000000
00000000
00000000
00100000
00001000
01000000
00001000
00000000
00010000
00000000
00000100
00001000
00000001
,  // measure 16
00000100
00000010
00001000
00000010
00001000
00000000
00000001
00000010
00000100
00001000
00000000
00000100
00010000
00000000
00001000
00010000
,  // measure 17
00001000
00000000
01000000
00000000
00010000
00100000
00000000
01000000
00000000
11000000
00000000
11000000
00000000
01000000
00100000
00010000
,  // measure 18
01000000
00100000
01000000
00000000
00001000
00000000
00010000
00000000
00000100
00001000
00000000
00000001
00000100
00000000
00000010
00001000
,  // measure 19
00000001
00000000
00000010
00000000
00000100
00001000
00000000
00001100
00000000
00010100
00000000
00011000
00000000
00001000
01000000
00010000
,  // measure 20
00100000
01000000
10000000
00000000
10000000
00000000
00010000
00100000
01000000
10000000
00000000
00100000
00000000
00000000
01000000
00010000
,  // measure 21
00100000
00000000
00010000
00000000
00100000
00001000
00000000
00011000
00000000
00001100
00000000
00001001
00000000
00000001
00000100
00000010
,  // measure 22
00001000
00000001
00000010
00000000
00000100
00000000
00001000
00000001
00000100
00000001
00000000
00001000
00000001
00000000
00001000
00000010
,  // measure 23
00010000
00000000
00001000
00000000
01000000
00010000
00000000
10010000
00000000
11000000
00000000
10010000
00000000
00010000
01000000
00100000
,  // measure 24
10000000
00000000
00010000
00000000
01000000
00000000
00001000
00010000
00001000
00000000
00010000
00000000
00000100
00000000
00000010
00000000
,  // measure 25
00000001
00000000
00000100
00000000
00000010
00000000
00001000
00000100
00000001
00000000
00000100
00000000
00001000
00000000
00000010
00000000
,  // measure 26
00010000
00000000
00000100
00000000
00001000
00000000
00000010
00010000
00001000
00000000
00010000
00000000
00001000
00000000
01000000
00000000
,  // measure 27
00010000
00000000
00100000
00000000
10000000
00000000
00100000
00010000
10000000
00000000
00100000
00000000
01000000
00000000
00010000
00000000
,  // measure 28
10000000
00010000
01000000
00000000
00001000
00000000
00010000
00000000
00000100
00001000
00000001
00000000
00000100
00000000
00000010
00000000
,  // measure 29
00001000
00000001
00000010
00000000
00000100
00000000
00001000
00000000
00000010
00010000
00001000
00000000
01000000
00000000
00010000
00000000
,  // measure 30
00100000
00010000
10000000
00000000
00100000
00000000
01000000
00000000
00010000
10000000
00000000
00010000
10000000
00000000
01000000
00100000
,  // measure 31
00010000
00010000
00100000
00010000
00100000
00100000
00010000
01000000
,  // measure 32
00001000
00010000
00000000
00000100
00001000
00000000
00000001
00000100
00000000
00000010
00001000
00000000
00000001
00000000
00000010
00000000
,  // measure 33
00000100
00000010
00000100
00000000
00001000
00000000
00000100
00010000
00001000
00010000
00001000
00000000
01000000
00000000
00001000
00000000
,  // measure 34
00100000
01000000
10000000
00000000
00100000
00000000
01000000
00010000
10000000
00100000
01000000
00000000
00010000
00000000
00100000
00000000
,  // measure 35
00001000
00010000
00001000
00000000
00010000
00000000
00000100
00001000
00000010
00000100
00000001
00000000
00001000
00000000
00000001
00000000
,  // measure 36
00000010
00000100
00001000
00000000
00000001
00000000
00000100
00000001
00000100
00000001
00000000
00001000
00000000
00000000
00000010
00010000
,  // measure 37
00000100
00000000
00001000
00000000
00000100
00010000
00000000
00001000
00000000
01001000
00000000
01001000
00000000
00010000
10000000
00100000
,  // measure 38
10000000
01000000
00100000
00000000
00010000
00000000
00100000
00000000
00000100
00010000
00000000
00000100
01000000
00000000
00000000
00000000
,  // measure 39
01000000
00010000
00000000
01000000
00000100
00000000
00000000
00000000
00010000
00000100
00000000
00001000
00000001
00000000
00000000
00000000
,  // measure 40
00000010
00000001
00000100
00000000
00000010
00000000
00001000
00000000
00000100
00010000
00000000
00001000
00010000
00000000
00001000
01000000
,  // measure 41
00010000
00000000
01000000
00000000
00100000
10000000
00000000
00010000
00000000
10010000
00000000
01001000
00000000
00000000
00010000
00000000
,  // measure 42
00000100
00001000
00000100
00000000
00000010
00000000
00000001
00000000
00000100
00000001
00000000
00000100
00000001
00000000
00001000
00000010
,  // measure 43
00001000
00000000
00000001
00000000
00010000
00000100
00000000
00011000
00000000
01001000
00000000
01010000
00000000
00010000
10000000
00100000
,  // measure 44
10000000
00010000
00100000
00000000
01000000
00000000
10000000
00000000
00010000
01000000
00000000
00001000
00010000
00000000
00000100
00001000
,  // measure 45
00000010
00000100
00000001
00001000
00000100
00000010
00000001
00000100
,  // measure 46
00000110
00000010
00010000
00001000
00011000
00001000
01000000
00010000
,  // measure 47
00100000
00110000
00010000
10010000
10000000
10100000
00100000
01100000
,  // measure 48
01000000
00001000
00000000
00100000
00000010
00000000
00010000
00000100
00000000
00001000
00000001
00000000
00000100
00000000
00000010
00000000
,  // measure 49
00001000
00000000
00000100
00000000
00010000
00000000
00001000
01000000
00001000
01000000
00001000
00000000
00100000
00000000
00010000
00000000
,  // measure 50
10000000
00100000
10000000
00000000
00010000
00000000
01000000
00001000
01000000
00001000
01000000
00000000
00000100
00000000
00010000
00000010
,  // measure 51
00001000
00000000
00000001
00000000
00000010
00000000
00000100
00001000
00000001
00000010
00000100
00000000
00004000
00000400
00000000
00000000
,  // measure 52
00000000
00003300
00000000
0000MM00
00000000
00000000
00000000
00000000
;

//---------------dance-double - C. Zou----------------
#NOTES:
     dance-double:
     C. Zou:
     Medium:
     5:
     0.323,0.323,0.088,0.039,0.127:
00000000
00000000
00000000
00000000
,
00000000
00000000
00000000
00000000
,
00000000
00000000
00000000
00000000
,
00000100
00000000
00010000
00000000
00001000
00100000
01000000
00000000
,
00100000
00000000
00001000
00000000
00010000
00000010
00000100
00000000
,
00000010
00000000
00010000
00000000
00001000
00100000
00010000
00000000
,
00100000
00000000
00001000
00000000
00010000
00000100
00001000
00000000
,
00000100
00000000
00010000
00000000
00001000
01000000
00100000
00000000
,
01000000
00000000
00001000
00000000
00010000
00000100
00000010
00000000
,
00000100
00000000
00010000
00000000
00001000
01000000
00010000
00000000
,
00100000
00000000
00001000
00000000
00010000
00000010
00001000
00000000
,
00000110
00000001
00000000
00001000
,
00000000
00010000
00000000
10000000
,
00000000
01000000
00100000
01000000
,
00011000
00000100
00011000
01000000
,
00001000
00010000
00000000
00010000
00000100
00000000
00000010
00000000
,
00000001
00000000
00000100
00000000
00000010
00000000
00000000
00000000
00000000
00010000
00000000
00001000
00000000
00000000
00000000
00000000
,
01000000
00010000
00000000
00010000
00100000
00000000
01000000
00000000
,
10000000
00000000
00100000
00000000
01000000
00000000
00000000
00000000
00000000
00010000
00000000
10000000
00000000
00000000
00000000
00000000
,
01000000
00100000
00000000
00100000
00001000
00000000
00010000
00000000
,
00000010
00000000
00001000
00000000
00000100
00000000
00000000
00000000
00000000
00001000
00000000
00000010
00000000
00000000
00000000
00000000
,
00000100
00000001
00000000
00000001
00001000
00000000
00000100
00000000
,
00010000
00001000
00010000
00001000
01000000
00100000
01000000
00000000
,
00020000
00100000
01000000
00130000
,
00001000
00000000
00010000
00000000
00000100
00000000
00001000
00000000
00000000
00000010
00000000
00001000
00000000
00000000
00000000
00000000
,
00000200
00010000
00000010
00010300
,
00001000
00000000
01000000
00000000
00010000
00000000
00100000
00000000
00000000
00010000
00000000
10000000
00000000
00000000
00000000
00000000
,
00200000
10000000
00010000
10300000
,
00010000
00000000
00100000
00000000
00001000
00000000
00010000
00000000
00000000
00000010
00000000
00000100
00000000
00000000
00000000
00000000
,
00000020
00010000
00001000
00010030
,
00000100
00010000
00001000
01000000
,
01100000
00000000
00000000
00000000
10000000
00000000
00000000
01000000
00000000
00000000
00000000
00000000
00010000
00000000
00000000
00000000
,
00001000
00000000
00000000
00000000
00000100
00000000
00000000
00000001
00000000
00000000
00000000
00000000
00000010
00000000
00000000
00000000
,
00000100
00000000
00000000
00000000
00010000
00000000
00000000
00001000
00000000
00000000
00000000
00000000
01000000
00000000
00000000
00000000
,
00010000
00000000
00000000
00000000
00100000
00000000
00000000
01000000
00000000
00000000
00000000
00000000
00100000
00000000
00000000
00000000
,
11000000
10000000
00000000
00010000
,
00000000
00001000
00000000
00000001
,
00000000
00000100
00000010
00010000
,
00011000
00100000
00011000
00000010
,
00010000
00001000
00000000
00001000
00100000
00000000
01000000
00000000
,
10000000
00000000
00100000
00000000
01000000
00000000
00000000
00000000
00000000
00001000
00000000
00010000
00000000
00000000
00000000
00000000
,
00000010
00001000
00000000
00001000
00000100
00000000
00000010
00000000
,
00000001
00000000
00000100
00000000
00000010
00000000
00000000
00000000
00000000
00001000
00000000
00000001
00000000
00000000
00000000
00000000
,
00000010
00000100
00000000
00000100
00010000
00000000
00001000
00000000
,
01000000
00000000
00010000
00000000
00100000
00000000
00000000
00000000
00000000
00010000
00000000
01000000
00000000
00000000
00000000
00000000
,
00100000
10000000
00000000
10000000
00010000
00000000
00100000
00000000
,
00001000
00010000
00001000
00010000
00000010
00000100
00000010
00000000
,
00001010
00000000
00000000
00000000
00000100
00000000
00000000
00010000
00000000
00000000
00000000
00000000
00001000
00000000
00000000
00000000
,
01000000
00000000
00000000
00000000
00100000
00000000
00000000
10000000
00000000
00000000
00000000
00000000
01000000
00000000
00000000
00000000
,
00010000
00000000
00000000
00000000
00001000
00000000
00000000
00000010
00000000
00000000
00000000
00000000
00000001
00000000
00000000
00000000
,
00000100
00000000
00000000
00000000
00000010
00000000
00000000
00010000
00000000
00000000
00000000
00000000
00011000
00000000
00000000
00000000
;

//---------------dance-double - C. Zou----------------
#NOTES:
     dance-double:
     C. Zou:
     Hard:
     8:
     0.534,0.474,0.284,0.157,0.538: // measure 1
00000000
00000000
00000000
00000000
,  // measure 2
00000000
00000000
00000000
00000000
,  // measure 3
00000000
00000000
00000000
00000000
,  // measure 4
00010000
00000000
10000000
00000000
01000000
00000000
00000000
10000000
00000000
00010000
00000000
00000000
01000000
00000000
00000000
00000000
,  // measure 5
00001000
00000000
00010000
00000000
00000100
00000000
00001000
00000001
00000000
00001000
00000000
00000000
00001100
00000000
00001000
00000000
,  // measure 6
00000100
00000000
00010000
00000000
00001000
00000000
00000000
01000000
00000000
00100000
00000000
00000000
01000000
00000000
00000000
00000000
,  // measure 7
00010000
00000000
10000000
00000000
01000000
00000000
10000000
00010000
00000000
00100000
00000000
00000000
00011000
00000000
00001000
00000000
,  // measure 8
00010000
00000000
00000010
00000000
00000100
00000000
00000000
00000010
00000000
00001000
00000000
00000000
00000001
00000000
00000000
00000000
,  // measure 9
00000010
00000000
00001000
00000000
00010000
00000000
01000000
00100000
00000000
01000000
00000000
00000000
11000000
00000000
10000000
00000000
,  // measure 10
00010000
00000000
01000000
00000000
00100000
00000000
00000000
01000000
00000000
00001000
00000000
00000000
00010000
00000000
00000000
00000000
,  // measure 11
00000100
00000000
00001000
00000000
00000010
00000000
00001000
00000001
00000000
00000100
00000000
00000000
00000110
00000000
00000010
00000000
,  // measure 12
00010000
00001000
00110000
11000000
,  // measure 13
10100000
00000000
00000000
00100000
01000000
00000000
00001000
00000000
00010000
00000000
00000000
00000000
00010100
00000000
00000000
00000000
,  // measure 14
00001000
00010000
00000010
00000000
00010100
00000000
00000011
00000000
,  // measure 15
00001001
00000000
00001000
00000000
00000100
00000000
00000000
00000000
00011000
00000000
00001000
00000000
01000000
00100000
00000000
01000000
,  // measure 16
00100000
00000000
10000000
00000000
01000000
00000000
00010000
00000000
01000000
00100000
00000000
01000000
00000000
00000000
10000000
00000000
,  // measure 17
00010000
00000000
01000000
00000000
00001000
00010000
00000000
00000100
00000000
00010000
00000000
00000100
00000000
00000000
00001000
00000000
,  // measure 18
00000001
00000000
00000100
00000000
00001000
00000000
00000100
00000000
00000010
00000100
00000000
00000010
00000000
00000000
00010000
00000000
,  // measure 19
00001000
00000000
00100000
00000000
01000000
00100000
00000000
00010000
00000000
00100000
00000000
00010000
00000000
00000000
01000000
00000000
,  // measure 20
00001000
00000000
00010000
00000000
01000000
00000000
00010000
00000000
00001000
00000100
00000000
00001000
00000000
00000000
00010000
00000000
,  // measure 21
00000010
00000000
00000100
00000000
00000001
00001000
00000000
00000100
00000000
00001000
00000000
00000100
00000000
00000000
00000010
00000000
,  // measure 22
00000100
00000000
00010000
00000000
00001000
00000000
01000000
00000000
00100000
01000000
00000000
00010000
00000000
00000000
10000000
00000000
,  // measure 23
01000000
00000000
00010000
00000000
01000000
00100000
00000000
01100000
00000000
00000000
00000000
00000000
10000000
00010000
00000000
20000000
,  // measure 24
00020000
00000000
00000000
00000000
30130000
00000000
00000000
00020000
02000000
00000000
00000000
00000000
03031000
00000000
00000000
00000000
,  // measure 25
00010000
00000000
00100000
00000000
00001000
00010000
00000000
00000010
00000000
00010000
00000000
00000010
00000000
00000000
00000000
00000200
,  // measure 26
00000002
00000000
00000000
00000000
00000313
00000000
00000000
00002000
00000200
00000000
00000000
00000000
00003301
00000000
00000000
00000000
,  // measure 27
00000100
00000000
00010000
00000000
00001000
00100000
00000000
01000000
00000000
00100000
00000000
01000000
00000000
00000000
00000000
20000000
,  // measure 28
00200000
00000000
00000000
00000000
30301000
00000000
00000000
02000000
00002000
00000000
00000000
00000000
03013000
00000000
00000000
00000000
,  // measure 29
00001000
00000000
00010000
00000000
00000100
00001000
00000000
00000001
00000000
00001000
00000000
00000001
00000000
00000000
00000000
00000020
,  // measure 30
00000200
00000000
00000000
00000000
00000331
00000000
00000000
00000200
00020000
00000000
00000000
00000000
00031300
00000000
00000000
00000000
,  // measure 31
00010000
00010000
00001000
00001000
01000000
01000000
00100000
00100000
,  // measure 32
01000000
00010000
00000000
01000000
00010000
00000000
00000000
10000000
00000000
01000000
00000000
00000000
11000000
00000000
00000000
00000000
,  // measure 33
00010000
00000000
00000000
00000000
01010000
00000000
00000000
00001000
00000000
00010000
00000000
00000000
00000100
00000000
00010000
00001000
,  // measure 34
00010000
00000000
00000000
00000000
00010010
00000000
00000000
00000100
00000000
00000001
00000000
00000000
00001001
00000000
00000000
00000000
,  // measure 35
00000100
00000000
00000000
00000000
00011000
00000000
00000000
00001000
00000000
01000000
00000000
00000000
00010000
00000000
00100000
01000000
,  // measure 36
00100000
00010000
11000000
10100000
,  // measure 37
01100000
00000000
00000000
01000000
00001000
00000000
00010000
00000000
00000010
00000000
00000000
00000000
00011000
00000000
00000000
00000000
,  // measure 38
00010000
00000100
00001000
00000000
00001010
00000000
00000101
00000000
,  // measure 39
00001001
00000000
00001000
00000000
00000100
00000000
00000000
00000000
00011000
00000000
00001000
00000000
01000000
00010000
00000000
01000000
,  // measure 40
00010000
00000000
10000000
00000000
01000000
00000000
00010000
00000000
01000000
00100000
00000000
01000000
00000000
00000000
10000000
00000000
,  // measure 41
00100000
00000000
01000000
00000000
00010000
00100000
00000000
00001000
00000000
00100000
00000000
00001000
00000000
00000000
00010000
00000000
,  // measure 42
00000010
00000000
00000100
00000000
00000010
00000000
00001000
00000000
00000001
00000010
00000000
00000001
00000000
00000000
00000100
00000000
,  // measure 43
00001000
00000000
00010000
00000000
00001000
00000100
00000000
00000010
00000000
00000100
00000000
00000010
00000000
00000000
00010000
00000000
,  // measure 44
00001000
00000000
00100000
00000000
01000000
00000000
00100000
00000000
00010000
01000000
00000000
00100000
00000000
00000000
01000000
00000000
,  // measure 45
00010000
00000000
10000000
00000000
01000000
00100000
00000000
00001000
00000000
00100000
00000000
00001000
00000000
00000000
00010000
00000000
,  // measure 46
00000100
00000000
00001000
00000000
00000010
00000000
00010000
00000000
00001000
00100000
00000000
00010000
00000000
00000000
00100000
00000000
,  // measure 47
01000000
01000000
00010000
00010000
00001000
00001000
00000100
00000100
,  // measure 48
00000001
00001000
00000000
00000001
00001000
00000000
00000000
00000100
00000000
00010000
00000000
00000000
00011000
00000000
00000000
00000000
,  // measure 49
00000100
00000000
00010000
00000000
00001000
00000000
00000000
00100000
00000000
01000000
00000000
00000000
00100000
00000000
00010000
01000000
,  // measure 50
00010000
00000000
00000000
00000000
11000000
00000000
00000000
00010000
00000000
00100000
00000000
00000000
00101000
00000000
00000000
00000000
,  // measure 51
00010000
00000000
00000000
00000000
00000100
00000000
00001000
00000001
00000000
00001000
00000000
00000000
00000100
00000010
00000100
00000010
;
