#TITLE:Sun Son Sunday;
#SUBTITLE:;
#ARTIST:Vospi;
#TITLETRANSLIT:;
#SUBTITLETRANSLIT:;
#ARTISTTRANSLIT:;
#GENRE:House;
#CREDIT:;
#BANNER:Sun Son Sunday-bn.png;
#BACKGROUND:Sun Son Sunday-bg.png;
#LYRICSPATH:;
#CDTITLE:;
#MUSIC:Sun Son Sunday.ogg;
#OFFSET:-0.009;
#SAMPLESTART:78.660;
#SAMPLELENGTH:11.840;
#SELECTABLE:YES;
#BPMS:0.000=125.020;
#STOPS:46.000=0.480;
#BGCHANGES:0.087=Sun Son Sunday.mpg=1.000=1=0=0=StretchNoLoop==CrossFade==,
99999=-nosongbg-=1.000=0=0=0 // don't automatically add -songbackground-;
#KEYSOUNDS:;

//---------------dance-single - D. D'Amato----------------
#NOTES:
     dance-single:
     D. D'Amato:
     Challenge:
     9:
     0.614,0.593,0.000,0.036,0.683,477.000,0.000,4.000,1.000,0.000,0.000,0.614,0.593,0.000,0.036,0.683,477.000,0.000,4.000,1.000,0.000,0.000: // measure 1
0000
0000
0000
0000
,  // measure 2
0000
0000
0000
0000
,  // measure 3
0000
0000
0000
0000
,  // measure 4
0000
0000
0000
0000
,  // measure 5
0010
0000
0001
1000
0100
1000
0001
0100
0000
0010
0000
0100
0000
0001
1000
0000
,  // measure 6
0100
0000
1000
0001
0010
0001
1000
0010
0000
0100
0000
0010
0000
1000
0001
0000
,  // measure 7
0100
0000
0001
1000
0010
1000
0001
0010
0000
0100
0000
0010
0000
0001
1000
0000
,  // measure 8
0010
0000
1000
0001
0100
0001
1000
0100
0000
0010
0000
0100
0000
1000
0001
0000
,  // measure 9
0100
0000
0010
0000
0100
0000
0001
0010
0000
0000
0000
0010
0001
0000
1000
0000
,  // measure 10
0100
0000
0010
0000
0100
0000
1000
0010
0000
0000
0000
0010
1000
0000
0001
0000
,  // measure 11
0010
0000
0100
0000
0010
0000
0001
0100
0000
0000
0000
0100
0001
0000
1000
0000
,  // measure 12
0010
0000
0100
0000
0010
0000
1000
0000
0100
0000
0001
0000
0100
0010
0001
0000
,  // measure 13
1000
0001
0100
0000
0010
0100
0000
0001
0000
0100
1000
0000
0100
0010
1000
0000
,  // measure 14
0001
1000
0100
0000
0010
0100
0000
1000
0000
0100
0001
0000
0100
0010
0001
0000
,  // measure 15
1000
0001
0100
0000
0010
0100
0000
0001
0000
0100
1000
0000
0100
0010
1000
0000
,  // measure 16
0001
1000
0100
0000
0010
0100
0000
1000
0000
0010
0001
0000
0010
0100
0001
0000
,  // measure 17
1000
0001
0010
0000
0100
0010
0000
0001
0000
0010
1000
0000
0010
0100
1000
0000
,  // measure 18
0001
1000
0010
0000
0100
0010
0000
1000
0000
0010
0001
0000
0010
0100
0001
0000
,  // measure 19
1000
0001
0010
0000
0100
0010
0000
0001
0000
0010
1000
0000
0010
0100
1000
0000
,  // measure 20
0001
1000
0010
0000
0100
0010
0000
1000
0000
0100
0001
0000
0100
0000
0010
0000
,  // measure 21
0001
0100
0000
0010
0000
1000
0000
0000
0100
0000
0010
0000
0001
0000
0000
0000
,  // measure 22
1000
0100
0000
0010
0000
0001
0000
0000
0100
0000
0010
0000
1000
0000
0000
0000
,  // measure 23
0100
0000
0000
0010
0000
0000
0000
0000
0100
0000
1000
0000
0001
0000
0000
0000
,  // measure 24
0200
0000
0000
0000
0000
0000
0310
1000
,  // measure 25
0100
0000
0000
0010
0000
0000
0000
0100
0000
0000
0000
1000
0000
0000
0000
0100
0000
0000
0010
0000
0000
0001
0000
0000
,  // measure 26
0100
0000
0000
0010
0000
0000
0000
0100
0000
0000
0000
0001
0000
0000
0000
0010
0000
0000
0100
0000
0000
1000
0000
0000
,  // measure 27
0010
0000
0000
0100
0000
0000
0000
0010
0000
0000
0000
1000
0000
0000
0000
0010
0000
0000
0100
0000
0000
0001
0000
0000
,  // measure 28
0010
0000
0000
0000
0000
0000
0100
0000
0000
0000
0000
0000
0000
0000
0010
0000
0000
0000
0000
0000
0000
0000
0001
0000
0000
0000
0000
0000
0000
0000
0100
0000
0000
0000
0000
0000
0010
0000
0000
0000
0000
0000
1000
0000
0000
0001
0000
0000
,  // measure 29
0100
0000
0000
0001
0000
0000
0010
0000
0000
0000
0000
0000
0000
0000
0100
0000
0000
0000
0000
0000
0000
0000
1000
0000
0000
0000
0000
0000
0000
0000
0100
0000
0000
0000
0000
0000
0010
0000
0000
0000
0000
0000
0001
0000
0000
1000
0000
0000
,  // measure 30
0100
0000
0000
1000
0000
0000
0010
0000
0000
0000
0000
0000
0000
0000
0100
0000
0000
0000
0000
0000
0000
0000
0001
0000
0000
0000
0000
0000
0000
0000
0010
0000
0000
0000
0000
0000
0100
0000
0000
0000
0000
0000
1000
0000
0000
0001
0000
0000
,  // measure 31
0010
0000
0000
0001
0000
0000
0100
0000
0000
0000
0000
0000
0000
0000
0010
0000
0000
0000
0000
0000
0000
0000
1000
0000
0000
0000
0000
0000
0000
0000
0010
0000
0000
0000
0000
0000
0100
0000
0000
0000
0000
0000
0001
0000
0000
1000
0000
0000
,  // measure 32
0010
0000
0000
1000
0000
0000
0100
0000
0000
0000
0000
0000
0000
0000
0010
0000
0000
0000
0000
0000
0000
0000
0001
0000
0000
0000
0000
0000
0000
0000
0100
0000
0000
0000
0000
0000
0010
0000
0000
0000
0000
0000
1000
0000
0000
0001
0000
0000
,  // measure 33
0100
0000
0000
0001
0000
0000
0010
0000
0000
0000
0000
0000
0000
0000
0001
0000
0000
0000
1000
0000
0000
0000
0001
0000
0000
0000
1000
0000
0000
0000
0100
0000
0000
0000
0000
0000
0010
0000
0000
0000
0000
0000
0001
0000
0000
1000
0000
0000
,  // measure 34
0100
0000
0000
1000
0000
0000
0010
0000
0000
0000
0000
0000
0000
0000
1000
0000
0000
0000
0001
0000
0000
0000
1000
0000
0000
0000
0001
0000
0000
0000
0010
0000
0000
0000
0000
0000
0100
0000
0000
0000
0000
0000
1000
0000
0000
0001
0000
0000
,  // measure 35
0010
0000
0000
0001
0000
0000
0100
0000
0000
0000
0000
0000
0000
0000
0001
0000
0000
0000
1000
0000
0000
0000
0001
0000
0000
0000
1000
0000
0000
0000
0010
0000
0000
0000
0000
0000
0100
0000
0000
0000
0000
0000
0001
0000
0000
1000
0000
0000
,  // measure 36
0010
0000
0000
1000
0000
0000
0100
0000
0000
0000
0000
0000
0000
0000
1000
0000
0000
0000
0001
0000
0000
0000
1000
0000
0000
0000
0001
0000
0000
0000
0100
0000
0000
0000
0000
0000
0010
0000
0000
0000
0000
0000
0000
0000
0000
0000
0000
0000
,  // measure 37
0010
0000
0010
0000
00M0
0000
0010
1000
,  // measure 38
0010
0000
0000
0000
0000
0000
0001
0000
0000
0000
0000
0000
0010
0000
0000
0000
0000
0000
0000
0000
1000
0000
0000
0000
0000
0000
0000
0000
0100
0000
0000
0000
0000
0000
0000
0000
0010
0000
0000
0001
0000
0000
0010
0000
0000
0001
0000
0000
,  // measure 39
1000
0100
0010
0001
1000
0100
1000
0100
0010
0001
1000
0100
0010
0000
0001
0000
,  // measure 40
0010
0000
0000
0000
0000
0000
1000
0000
0000
0000
0000
0000
0010
0000
0000
0000
0000
0000
0000
0000
0001
0000
0000
0000
0000
0000
0000
0000
0100
0000
0000
0000
0000
0000
0000
0000
0010
0000
0000
1000
0000
0000
0010
0000
0000
1000
0000
0000
,  // measure 41
0001
0000
0000
0100
0000
0000
0010
0000
0000
1000
0000
0000
0200
0000
0000
0000
0000
0000
0000
0000
0000
0000
0000
0000
0300
0000
0010
0000
0100
0000
0010
0000
0100
0000
0010
0000
0001
0000
0000
0000
0000
0000
0100
0000
0000
0000
0000
0000
,  // measure 42
1000
0000
0100
0000
0010
0000
1000
0001
0010
0000
0100
0000
0010
0000
0001
0000
,  // measure 43
1000
0100
0001
0001
0100
0100
1000
0100
,  // measure 44
0001
0000
0100
0000
0010
0000
0001
1000
0010
0000
0100
0000
0010
0000
1000
0000
,  // measure 45
0001
0100
1000
1000
0100
0100
0001
0010
,  // measure 46
1000
0000
0010
0000
0100
0000
1000
0001
0100
0000
0010
0000
0100
0000
0001
0000
,  // measure 47
1000
0010
0001
0001
0010
0010
1000
0010
,  // measure 48
0001
0000
0010
0000
0100
0000
0001
1000
0100
0000
0010
0000
0100
0000
1000
0000
,  // measure 49
0001
0010
2000
0000
0000
0000
3001
0100
,  // measure 50
1000
0000
0100
0000
0010
0000
1000
0001
0100
0000
0010
0000
0100
0000
1000
0000
,  // measure 51
0100
0010
0001
0001
0100
0100
1000
0100
,  // measure 52
0001
0000
0100
0000
0010
0000
0001
1000
0100
0000
0010
0000
0100
0000
0001
0000
,  // measure 53
0100
0010
1000
1000
0010
0010
0001
0010
,  // measure 54
1000
0000
0010
0000
0100
0000
1000
0001
0010
0000
0100
0000
0010
0000
1000
0000
,  // measure 55
0010
0100
0001
0001
0010
0010
1000
0010
,  // measure 56
0001
0000
0010
0000
0100
0000
0001
1000
0010
0000
0100
0000
0010
0000
0001
0000
,  // measure 57
0010
0000
0100
0000
1000
0010
1000
0010
0100
0001
1000
0010
0200
0000
0000
0000
,  // measure 58
0000
0000
0000
0300
;

//---------------dance-single - D. D'Amato----------------
#NOTES:
     dance-single:
     D. D'Amato:
     Hard:
     8:
     0.504,0.464,0.197,0.250,0.147,345.000,22.000,28.000,0.000,0.000,10.000,0.504,0.464,0.197,0.250,0.147,345.000,22.000,28.000,0.000,0.000,10.000:
0000
0000
0000
0000
,
0000
0000
0000
0000
,
0000
0000
0000
0000
,
0000
0000
0000
0000
,
0010
0000
0100
0000
1000
0000
0100
0000
0000
0100
0000
0010
0000
0100
1000
0000
,
0010
0000
0100
0000
0001
0000
0100
0000
0000
0100
0000
0010
0000
0100
0010
0000
,
1000
0000
0100
0000
0010
0000
0100
0000
0000
0100
0000
0010
0000
0001
0010
0000
,
0001
0000
0100
0000
0010
0000
0100
0000
0000
0100
0000
0010
0000
1000
0010
0000
,
1000
0000
0001
0000
0100
0000
0000
1001
0000
0000
0000
0000
0010
0000
0100
0000
,
0001
0000
1000
0000
0100
0000
0000
1001
0000
0000
0000
0000
0010
0000
0100
0000
,
1000
0000
0001
0000
0010
0000
0000
1001
0000
0000
0000
0000
0100
0000
0010
0000
,
0001
1000
0010
0100
1001
0000
0210
0000
,
0001
0001
0301
1000
0100
0010
0210
0000
,
1000
1000
1300
0001
0010
0100
0120
0000
,
0001
0001
0031
1000
0010
0100
0120
0000
,
1000
1000
1030
0001
0100
0010
0210
0000
,
1000
1000
1300
0100
0001
0010
0210
0000
,
0001
0001
0301
1000
0010
0100
0120
0000
,
1000
1000
1030
0010
0001
0100
0120
0000
,
0001
0001
0031
1000
0100
0010
0200
0000
,
0010
0000
0000
0010
0000
0000
0000
0000
0000
0000
0000
0000
0320
0000
0000
0000
,
0100
0000
0000
0100
0000
0000
0000
0000
0000
0000
0000
0000
2030
0000
0000
0000
,
0000
0000
0001
0002
,
0000
0000
0000
0000
3003
0000
0001
0100
,
0010
0200
0040
0000
0000
0330
1000
0100
,
0010
0200
0040
0000
0000
0330
0001
0100
,
0010
2000
0004
0000
0000
3003
1000
0100
,
0010
0002
4000
0000
0000
3003
1010
1000
,
0100
0020
0004
0000
0000
0033
1001
0001
,
0100
0020
4000
0000
0000
3030
0101
0100
,
0010
2000
0400
0000
0000
3300
0110
0100
,
0010
0002
0400
0000
0000
0303
0010
1000
,
0100
0000
0000
2100
0000
0000
0001
0000
0000
3010
0000
0000
0100
0000
0001
0000
,
0010
0000
0000
0012
0000
0000
1000
0000
0000
0103
0000
0000
0010
0000
0100
0000
,
0001
0000
0000
2010
0000
0000
0001
0000
0000
3010
0000
0000
0100
0000
0010
0000
,
1000
0000
0000
0102
0000
0000
1000
0000
0000
0103
0000
0000
0010
0000
0000
0000
,
0010
0000
0010
0000
0000
0000
0010
1000
,
0010
1000
0400
0000
0000
0000
1300
1000
,
0001
0100
0001
0001
1000
0100
0010
0001
,
0010
0001
0400
0000
0000
0000
0301
0001
,
1000
0100
0020
0000
0000
0100
0130
1000
,
0001
0000
0100
0000
0001
0000
0010
0100
0010
0000
0001
0000
1000
0000
0100
0000
,
1000
0001
0100
0100
0100
0100
0010
1000
,
0001
0000
0010
0000
0001
0000
0100
0010
0100
0000
0001
0000
1000
0000
0010
0000
,
1000
0001
0100
0100
0100
0100
0010
1000
,
0001
0000
0010
0000
0001
0000
0100
0010
0100
0000
0001
0000
1000
0000
0010
0000
,
1000
0001
0010
0010
0010
0010
0100
1000
,
0001
0000
0100
0000
0001
0000
0010
0100
0010
0000
0001
0000
1000
0000
0100
0000
,
1000
0001
0020
0000
0000
0000
0130
0001
,
0100
0000
1000
0000
0001
0000
0010
0100
0010
0000
0001
0000
0100
0000
1000
0000
,
0100
0010
1000
1000
1000
1000
0010
0001
,
0010
0000
1000
0000
0001
0000
0100
0010
0100
0000
0001
0000
0010
0000
1000
0000
,
0010
0100
1000
1000
1000
1000
0110
1000
,
0100
0000
0001
0000
1000
0000
0010
0100
0010
0000
1000
0000
0100
0000
0001
0000
,
0100
0010
0001
0001
0001
0001
0010
1000
,
0010
0000
0001
0000
1000
0000
0100
0010
0100
0000
1000
0000
0010
0000
0001
0000
,
0010
0100
0001
0001
1000
1000
0220
0000
,
0000
0000
0000
0330
;

//---------------dance-single - D. D'Amato----------------
#NOTES:
     dance-single:
     D. D'Amato:
     Medium:
     6:
     0.374,0.335,0.223,0.080,0.085,259.000,25.000,9.000,8.000,0.000,4.000,0.374,0.335,0.223,0.080,0.085,259.000,25.000,9.000,8.000,0.000,4.000:
0000
0000
0000
0000
,
0000
0000
0000
0000
,
0000
0000
0000
0000
,
0000
0000
0000
0000
,
0001
1000
0002
0000
0010
0000
0103
0000
,
1000
0001
2000
0000
0010
0000
3100
0000
,
0010
0100
0020
0000
0001
0000
1030
0000
,
0100
0010
0200
0000
1000
0000
0301
0000
,
1010
0000
0000
0000
0000
0000
0001
0100
0000
0000
0000
0000
0010
0000
0000
0000
,
0101
0000
0000
0000
0000
0000
1000
0100
0000
0000
0000
0000
0010
0000
0000
0000
,
1100
0000
0000
0000
0000
0000
0001
0010
0000
0000
0000
0000
0100
0000
0000
0000
,
0011
0000
0000
1000
0010
0000
1001
0000
,
0100
0000
0001
0010
1000
0010
0001
0000
,
1000
0000
0010
1000
0100
1000
0010
0000
,
0001
0000
1000
0100
0001
0100
1000
0000
,
0010
0000
0100
0001
0010
0001
0100
0000
,
1000
0000
0001
0100
1000
0100
0001
0000
,
1000
0000
0100
1000
0010
1000
0100
0000
,
0001
0000
1000
0010
0001
0010
1000
0000
,
0100
0000
0010
0001
0100
0001
0010
0000
,
1000
0000
0100
0010
,
0001
0000
0100
1000
,
0010
0000
0001
0100
,
2002
0000
0000
0000
3003
0000
0010
1000
,
0001
0000
0000
1000
0000
0000
0000
0M00
0000
0000
0000
00M0
0000
0000
0000
0001
0000
0000
0100
0000
0000
0001
0000
0000
,
1000
0000
0000
0001
0000
0000
0000
00M0
0000
0000
0000
0M00
0000
0000
0000
1000
0000
0000
0010
0000
0000
1000
0000
0000
,
0001
0000
0000
1000
0000
0000
0000
00M0
0000
0000
0000
0M00
0000
0000
0000
0001
0000
0000
0100
0000
0000
0001
0000
0000
,
1000
0000
0000
0001
0000
0000
0000
0M00
0000
0000
0000
00M0
0000
0000
0000
1000
0000
0000
0100
0000
0000
0000
0000
0000
,
0000
0000
0110
0000
0000
0000
0001
0000
0000
0100
0000
0000
0101
0000
0000
0000
,
0000
0000
0110
0000
0000
0000
1000
0000
0000
0010
0000
0000
1010
0000
0000
0000
,
0000
0000
0110
0000
0000
0000
0001
0000
0000
0010
0000
0000
0011
0000
0000
0000
,
0000
0000
0110
0000
0000
0000
1000
0000
0000
0100
0000
0000
1100
0000
0000
0000
,
0000
0000
1001
0000
0000
0000
0010
0000
0000
0001
0000
0000
0101
0000
0000
0000
,
0000
0000
1001
0000
0000
0000
0100
0000
0000
1000
0000
0000
1010
0000
0000
0000
,
0000
0000
1001
0000
0000
0000
0100
0000
0000
0001
0000
0000
0011
0000
0000
0000
,
0000
0000
1001
0000
0000
0000
0010
0000
0000
1000
0000
0000
0100
0000
0000
0000
,
0100
0100
0000
0400
,
0000
0000
4300
0000
0000
0000
3001
0010
,
0001
0000
1000
0010
1000
0010
0400
0000
,
0000
0000
0304
0000
0000
0000
1003
0010
,
1000
0000
0200
0000
0000
0310
0110
0000
,
0001
0000
1000
0100
0001
0000
0100
1000
,
0010
0100
0000
0010
0100
0001
1000
0000
,
0001
0000
1000
0010
0001
0000
0010
1000
,
0100
0010
0000
0100
0010
0001
1001
0000
,
1000
0000
0001
0100
1000
0000
0100
0001
,
0010
0100
0000
0010
0100
1000
0001
0000
,
1000
0000
0001
0010
1000
0000
0010
0001
,
0100
0010
0200
0000
0300
0000
1001
0000
,
0010
0000
1000
0100
0010
0000
0100
1000
,
0010
0001
0000
0010
1000
0100
0010
0000
,
0001
0000
1000
0010
0100
0000
0010
1000
,
0100
0001
0000
0100
1000
0001
1001
0000
,
0010
0000
0001
0100
0010
0000
0100
0001
,
0010
1000
0000
0010
0001
0100
0010
0000
,
1000
0000
0001
0010
0100
0000
0010
0001
,
0100
1000
0000
0100
0001
0000
0020
0000
,
0000
0000
0000
0030
;

//---------------dance-single - D. D'Amato----------------
#NOTES:
     dance-single:
     D. D'Amato:
     Easy:
     4:
     0.240,0.253,0.152,0.277,0.000,140.000,17.000,31.000,0.000,0.000,0.000,0.240,0.253,0.152,0.277,0.000,140.000,17.000,31.000,0.000,0.000,0.000:
0000
0000
0000
0000
,
0000
0000
0000
0000
,
0000
0000
0000
0000
,
0000
0000
0000
0000
,
1000
0102
0000
0013
,
1000
0012
0000
1003
,
0010
2100
0000
3010
,
0001
2010
0000
3001
,
0100
0010
0000
0100
,
0100
0010
0000
0100
,
0100
0010
0000
0100
,
0100
0010
0100
1001
,
0000
0101
0010
1000
,
0000
1010
0001
0010
,
0000
0011
0100
1000
,
0000
1100
0001
0100
,
0000
0101
1000
0010
,
0000
1100
0010
0001
,
0000
1010
0100
0001
,
0000
0011
1000
0100
,
0000
0000
0000
0100
,
0000
0000
0000
0100
,
0000
0000
0000
0200
,
0000
0000
0300
0010
,
0010
0002
0000
0103
,
0100
0020
0000
1030
,
1000
0200
0000
0301
,
0001
2000
0000
3010
,
0010
2000
0000
3100
,
0100
0020
0000
0031
,
0001
0200
0000
1300
,
1000
0002
0000
0013
,
0100
1001
0010
0100
,
0000
1001
0010
0100
,
0000
1001
0010
0100
,
0000
1001
0010
0100
,
0000
0000
0000
0200
,
0000
0000
0000
0301
,
0001
1000
1000
0200
,
0000
0000
0000
1300
,
1000
0001
0000
0001
,
0200
0010
0000
1000
,
0000
0302
0000
0000
0000
0000
1003
0000
,
0200
0010
0000
0001
,
0000
2300
0000
0000
0000
0000
3001
0000
,
0020
0100
0000
1000
,
0000
0032
0000
0000
0000
0000
1003
0000
,
0020
0100
0000
0001
,
0000
2030
0000
0000
0000
0000
3001
0000
,
0200
1000
0000
0010
,
0000
0302
0000
0000
0000
0000
1003
0000
,
0200
0001
0000
0010
,
0000
2300
0000
0000
0000
0000
3001
0000
,
0020
1000
0000
0100
,
0000
0032
0000
0000
0000
0000
1003
0000
,
0020
0001
0000
0100
,
0000
2030
0000
0000
0000
0000
3001
0000
;

//---------------dance-double - M.Emirzian----------------
#NOTES:
     dance-double:
     M.Emirzian:
     Easy:
     3:
     0.175,0.228,0.036,0.054,0.000,127.000,4.000,6.000,0.000,0.000,0.000,0.175,0.228,0.036,0.054,0.000,127.000,4.000,6.000,0.000,0.000,0.000:
00000000
00000000
00000000
00000000
,
00000000
00000000
00000000
00000000
,
00000000
00000000
00000000
00000000
,
00000000
00000000
00000000
00000000
,
10000000
10000000
01000000
00000000
,
00100000
00100000
00001000
00000000
,
00010000
00010000
00000100
00000000
,
00000010
00000010
00001000
00000000
,
00000001
00000000
00000000
00000100
,
00000100
00000000
00000000
00001000
,
00001000
00000000
00000000
01000000
,
01000000
00000000
00100000
00000000
,
00000000
00000000
00000000
10000000
,
00010000
00000000
00000000
00100000
,
00001000
00000000
00000000
00010000
,
00000100
00000000
00000000
00000001
,
00001000
00000000
00000000
00000010
,
00000100
00000000
00000000
00001000
,
00010000
00000000
00000000
00100000
,
01000000
00000000
00000000
00010000
,
00010000
00000000
00000000
00001000
,
00001000
00000000
00000000
00000100
,
00000100
00000000
00000000
00002002
,
00000000
00000000
00003003
00000010
,
00000010
00000000
00001000
00001000
,
00000100
00000000
00010000
00010000
,
00001000
00000000
01000000
01000000
,
00100000
00000000
10000000
10000000
,
00010000
00000000
00100000
00100000
,
00001000
00000000
00010000
00010000
,
00000100
00000000
00000100
00000100
,
00000010
00000000
00000001
00000001
,
00001000
00000000
00010000
00010000
,
00001000
00000000
01000000
01000000
,
00001000
00000000
00010000
00010000
,
00000010
00000000
00000000
00022000
,
00000000
00000000
00000000
00033000
,
00000000
00000000
00000000
00001000
,
00000000
00000000
00000000
01000000
,
00000000
00000000
00000000
00010000
,
00000000
00000000
00000000
00000010
,
00001000
00000100
00000000
00010000
,
00001000
01000000
00000000
00001000
,
00010000
00000010
00000000
00010000
,
00001000
00100000
00000000
00010000
,
00010000
10000000
00000000
01000000
,
01000000
00010000
00000000
00001000
,
00001000
00000100
00000000
00000202
,
00000000
00000000
00000303
00000010
,
00000010
00001000
00000000
00000100
,
00000100
00010000
00000000
00001000
,
00001000
01000000
00000000
00010000
,
00010000
00000010
00000000
00001000
,
00010000
01000000
00000000
10000000
,
10000000
00010000
00000000
01000000
,
00010000
00001000
00000000
00010000
,
00001000
00000100
00000000
00001010
;

//---------------dance-double - M.Emirzian----------------
#NOTES:
     dance-double:
     M.Emirzian:
     Medium:
     5:
     0.299,0.279,0.045,0.009,0.000,228.000,5.000,1.000,0.000,0.000,0.000,0.299,0.279,0.045,0.009,0.000,228.000,5.000,1.000,0.000,0.000,0.000:
00000000
00000000
00000000
00000000
,
00000000
00000000
00000000
00000000
,
00000000
00000000
00000000
00000000
,
00000000
00000000
00000000
00000000
,
00001000
00000000
00010000
00000000
00001000
01000000
00010000
00000000
,
01000000
00000000
00100000
00000000
10000000
01000000
00010000
00000000
,
00001000
00000000
00010000
00000000
00001000
00010000
00000100
00000000
,
00001000
00000000
00000010
00000000
00000100
00000001
00000010
00000000
,
00000100
00000000
00001000
00000100
,
00010000
00000000
00001000
00010000
,
01000000
00000000
10000000
00010000
,
00100000
00000000
00011000
00000100
,
00000010
00000000
00000001
00000010
00000100
00000000
00001000
00000000
,
00000010
00000000
00010000
00001000
01000000
00000000
00100000
00000000
,
10000000
00000000
00100000
10000000
01000000
00000000
00100000
00000000
,
00001000
00000000
00010000
00001000
00000100
00000000
00000001
00000000
,
00001000
00000000
00000100
00000010
00000001
00000000
00001000
00000000
,
00000010
00000000
00000100
00000001
00000010
00000000
00000100
00000000
,
00010000
00000000
00001000
00010000
01000000
00000000
10000000
00000000
,
00100000
00000000
01000000
00010000
10000000
00000000
00100000
00000000
,
00000000
00000000
01000000
01000000
,
00000000
00000000
00000010
00000010
,
00000000
00000000
00010000
00010000
,
00000000
00000000
00000000
00001000
,
00010000
00000000
01000000
00000000
00010000
00100000
10000000
00000000
,
00100000
00000000
00010000
00000000
01000000
10000000
00100000
00000000
,
01000000
00000000
00001000
00000000
00010000
00001000
00000010
00000000
,
00000001
00000000
00000100
00000000
00000010
00001000
00000100
00000000
,
00001000
00000000
00000001
00000000
00000100
00001000
00010000
00000000
,
00000100
00000000
00010000
00000000
00001000
00100000
00010000
00000000
,
01000000
00000000
00010000
00000000
00100000
10000000
01000000
00000000
,
00100000
00000000
00001000
00000000
00010000
00000100
00001000
00000000
,
00000100
00000000
00010000
00000000
00000100
00000010
00000001
00000000
,
00000100
00000000
00001000
00000000
00000010
00010000
00001000
00000000
,
00000100
00000000
00001000
00000000
00010000
00100000
01000000
00000000
,
00010000
00000000
10000000
01000000
00100000
00000000
10010000
00000000
,
00000000
00000000
00000000
10000000
,
00000000
00010000
00000000
00001000
,
00000000
00000001
00000000
00001000
,
00000000
00000100
00000000
00010000
,
00000000
00000000
01001000
00000000
01000000
00000000
00100000
10000000
,
01000000
00000000
10000000
00000000
00100000
00000000
01000000
00010000
,
00100000
00000000
00010000
00000000
01000000
00000000
00001000
00010000
,
00000100
00000000
00000010
00000000
00000100
00000000
00001000
00000001
,
00000100
00000000
00001000
00000000
00000100
00000000
00000010
00001000
,
00000100
00000000
00010000
00000000
00001000
00000000
00000100
00001000
,
00010000
00000000
00100000
00000000
01000000
00000000
00010000
10000000
,
01000000
00100000
01000000
10000000
,
00001000
00000000
00020000
00000000
00000100
00000000
00031000
00010000
,
00000010
00000000
00001000
00000000
00000100
00000000
00000010
00000001
,
00000100
00000000
00000010
00000000
00010000
00000000
00001000
00010000
,
00000100
00000000
00010000
00000000
01000000
00000000
10000000
00010000
,
01000000
00000000
00100000
00000000
10000000
00000000
01000000
00010000
,
00100000
00000000
00010000
00000000
01000000
00000000
00001000
00010000
,
00000100
00000000
00000010
00000000
00000100
00000000
00000001
00000100
,
00001000
00000000
00000010
00000000
00010000
00000000
00001000
01000000
,
00010000
00110000
00001000
00001100
;

//---------------dance-double - M.Emirzian----------------
#NOTES:
     dance-double:
     M.Emirzian:
     Hard:
     7:
     0.489,0.411,0.223,0.152,0.165,341.000,25.000,17.000,0.000,0.000,0.000,0.489,0.411,0.223,0.152,0.165,341.000,25.000,17.000,0.000,0.000,0.000:
00000000
00000000
00000000
00000000
,
00000000
00000000
00000000
00000000
,
00010000
00000000
10000000
00000000
,
00010000
10000000
00010000
10000000
,
00010000
00000000
00000000
00000000
00010000
00000000
00000000
00010000
01000000
00000000
00000000
00000000
00100000
10000000
00000000
00000000
,
11000000
00000000
00000000
00000000
01000000
00000000
00000000
01000000
00100000
00000000
00000000
00000000
00001000
00010000
00000000
00000000
,
00010010
00000000
00000000
00000000
00000010
00000000
00000000
00000010
00001000
00000000
00000000
00000000
00000100
00000010
00000000
00000000
,
00001001
00000000
00000000
00000000
00001000
00000000
00000000
00001000
00000010
00000000
00000000
00000000
00000100
00000010
00000000
00000000
,
00001000
00000000
00000000
00000000
00010100
00000000
00000000
00001000
00010000
00000000
00000000
00000000
00001000
01000000
00000000
00000000
,
01001000
00000000
00000000
00000000
01010000
00000000
00000000
01000000
00100000
00000000
00000000
00000000
10000000
01000000
00000000
00000000
,
11000000
00000000
00000000
00000000
10010000
00000000
00000000
00010000
01000000
00000000
00000000
00000000
00001000
00010000
00000000
00000000
,
00011000
00000000
00000000
00000000
00010010
00000000
00000000
00000010
00001000
00000000
00000000
00000000
00000100
00000000
00000000
00000000
,
00000011
00000000
00001000
00000010
00001000
00000100
00000010
00000000
,
00010100
00000000
00001000
00010000
00001000
00000100
00001000
00000000
,
00011000
00000000
00000000
00010000
00000100
00000000
00010000
00000000
00001000
00000000
00100000
00000000
01000000
00000000
00000000
00000000
,
11000000
00000000
00010000
01000000
00100000
10000000
01000000
00000000
,
10010000
00000000
01000000
00100000
00010000
00100000
00001000
00000000
,
01010000
00000000
00000000
01000000
00001000
00000000
00010000
00000000
00000010
00000000
00001000
00000000
00000100
00000000
00000000
00000000
,
00001001
00000000
00000000
00000001
00000010
00000000
00000100
00000000
00001000
00000000
00000100
00000000
00000010
00000000
00000000
00000000
,
00000011
00000000
00000000
00000001
00001000
00000000
00000010
00000000
00000100
00000000
00000001
00000000
00000010
00000000
00000000
00000000
,
00001001
00000000
00000000
00000000
00000000
00000000
00000000
00000000
00000000
00000020
00000000
00000000
00020000
00000030
00000000
00000000
,
00032000
00000000
00000000
00000000
00003000
00000000
00000000
00000000
00000000
00020000
00000000
00000000
00200000
00030000
00000000
00000000
,
20300000
00000000
00000000
00000000
30000000
00000000
00000000
00000000
00000000
01000000
00100000
00000000
00000000
00000000
00000000
00000000
,
00022000
00000000
00000000
00000000
00033000
00000000
00010000
00001000
,
01000000
00001000
00010000
00001000
00100000
00010000
10000000
01000000
,
00100000
00010000
00100000
00001000
00010000
00001000
00000100
00001000
,
00000100
00001000
00000100
00001000
00010000
00001000
00010000
01000000
,
00010000
01000000
00010000
01000000
00010000
00001000
00010000
00001000
,
00010000
00000100
00010000
00001000
00010000
00000100
00001000
00000001
,
00000100
00000010
00010000
00001000
01000000
00001000
00010000
00001000
,
01000000
00001000
00010000
00001000
00100000
00010000
10000000
00000000
,
00100000
00000000
01000000
00200000
00000000
00000000
10000000
00000000
00000000
10000000
00000000
00000000
10300000
00000000
00000000
00000000
,
01000000
00000000
00100000
00020000
00000000
00000000
00100000
00000000
00000000
00100000
00000000
00000000
00130000
00000000
00000000
00000000
,
00001000
00000000
00010000
00002000
00000000
00000000
00000100
00000000
00000000
00000100
00000000
00000000
00003100
00000000
00000000
00000000
,
00000001
00000000
00000010
00000002
00000000
00000000
00001000
00000000
00000000
00001000
00000000
00000000
00001003
00000000
00000000
00000000
,
00000010
00000000
00010000
00001000
00000000
00000000
01000000
00000000
00000000
00010000
00000000
00000000
20020000
00000000
00000000
00000000
,
00000000
00000000
00000000
00000000
30030000
00000000
00000000
10000000
,
00000000
10000000
00000000
10000000
00000000
10000000
01000000
00010000
,
00000000
00001000
00000010
00000001
00000000
00001000
00000010
00000100
,
00000000
00000100
00000000
00000100
00000000
00000001
00000100
00001000
,
00000000
00000000
00010000
00000000
00021000
00000000
00000000
00000000
00000000
00030100
00000000
00000000
00010000
00000000
00001000
00000000
,
00000100
00001000
00000100
00001000
00010000
00100000
01000000
00100000
,
01000000
00010000
01000000
00001000
00010000
00000000
01000000
00010000
,
01000000
00010000
01000000
10000000
01000000
00100000
00010000
00100000
,
00001000
00010000
00000100
00001000
00000010
00000000
00000100
00000001
,
00000100
00000001
00000100
00001000
00000100
00001000
00010000
00001000
,
00010000
01000000
00010000
01000000
10000000
00000000
10000000
01000000
,
10000000
01000000
00010000
01000000
00010000
00001000
00010000
00001000
,
00000100
00000000
00000000
00000110
00000000
00000000
00000000
00000000
00000000
00000001
00001000
00000000
00000100
00000000
00001000
00000000
,
00000100
00000010
00000100
00001000
00000100
00010000
00001000
00010000
,
00001000
01000000
00010000
00100000
00010000
00000000
10000000
00100000
,
10000000
00100000
00010000
00100000
00010000
00001000
00010000
00001000
,
00000010
00001000
00000010
00000001
00000010
00000000
00000100
00001000
,
00000001
00000100
00000010
00000100
00000010
00010000
00001000
00010000
,
00001000
00000100
00001000
00000100
00001000
00000000
00010000
00100000
,
00010000
00100000
00010000
00001000
00000010
00001000
00000010
00001000
,
00010000
00000000
00000000
00011000
00000000
00000000
00000000
00000000
00000000
00100000
01000000
00000000
02020000
00000000
00000000
00000000
,
00000000
00000000
03030000
00000000
;

//---------------dance-double - M.Emirzian----------------
#NOTES:
     dance-double:
     M.Emirzian:
     Challenge:
     9:
     0.569,0.558,0.411,0.071,0.433,392.000,46.000,8.000,0.000,4.000,0.000,0.569,0.558,0.411,0.071,0.433,392.000,46.000,8.000,0.000,4.000,0.000:
00000000
00000000
00000000
00000000
,
00000000
00000000
00000000
00000000
,
00001000
00000000
00000001
00000000
,
00000100
00000010
00001000
00000001
,
00001010
00000000
00000000
00000000
00010100
00000000
00000000
00000100
00010000
00000000
00000000
00000000
00001000
01000000
00000000
00000000
,
00110000
00000000
00000000
00000000
10010000
00000000
00000000
10000000
01000000
00000000
00000000
00000000
00100000
00010000
00000000
00000000
,
01010000
00000000
00000000
00000000
00101000
00000000
00000000
00001000
00010000
00000000
00000000
00000000
00000100
00000010
00000000
00000000
,
00001100
00000000
00000000
00000000
00001001
00000000
00000000
00000001
00000100
00000000
00000000
00000000
00000010
00001000
00000000
00000000
,
00010010
00000000
00000000
00000000
00011000
00000000
00001000
00010000
00001000
00000000
00000000
00000000
01000000
00001000
00000000
00000000
,
01010000
00000000
00000000
00000000
10010000
00000000
10000000
00010000
10000000
00000000
00000000
00000000
01000000
00100000
00000000
00000000
,
00110000
00000000
00000000
00000000
00101000
00000000
00001000
00010000
00001000
00000000
00000000
00000000
00000100
00010000
00000000
00000000
,
00011000
00000000
00000000
00000000
00000110
00000000
00000000
00000001
00001000
00000000
00000000
00000000
00001010
00000000
00000000
00000000
,
00000110
00000000
00000000
00000010
00000000
00010000
00000000
00001000
00000000
01000000
00001000
00000000
01001000
00000000
00000000
00000000
,
00110000
00000000
00000000
00100000
00000000
00001000
00000000
00010000
00000000
00000100
00001000
00000000
00000100
00000000
00000100
00000000
,
00000100
00000000
00000000
00010000
00000000
00001000
00000000
01000000
00000000
00001000
00010000
00000000
00010100
00000000
00000000
00000000
,
00001010
00000000
00000000
00000010
00000000
00000100
00000000
00000001
00000000
00000100
00000010
00000000
00010000
00000000
00010000
00000000
,
00010000
00000000
00000000
00000100
00000000
00010000
00000000
00001000
00000000
01000000
00001000
00000000
01001000
00000000
00000000
00000000
,
00110000
00000000
00000000
01000000
00000000
10000000
00000000
00100000
00000000
10000000
01000000
00000000
00100000
00000000
00100000
00000000
,
00100000
00000000
00000000
00010000
00000000
00100000
00000000
00001000
00000000
00010000
00000100
00000000
00010100
00000000
00000000
00000000
,
00011000
00000000
00000000
00001000
00000000
00100000
00000000
00001000
00000000
00010000
00000100
00000000
00000010
00000000
00000000
00000000
,
00000001
00000000
00000000
00001001
00000000
00000000
00000000
00000000
00000000
00000200
00000000
00000000
00002000
00000000
00000000
00000000
,
00000010
00000000
00000000
00013300
00000000
00000000
00000000
00000000
00000000
00020000
00000000
00000000
00200000
00000000
00000000
00000000
,
01000000
00000000
00000000
00331000
00000000
00000000
00000000
00000000
00000000
01000000
00100000
00000000
10010000
00000000
00000000
00000000
,
02200000
00000000
00000000
00000000
03300000
00000000
00010000
10000000
,
01000000
00000000
00100000
00000000
00010000
00100000
00010000
00000000
01000000
00001000
00000000
00001000
00010000
00000000
00000100
00000000
,
00000010
00000000
00001000
00000000
00000010
00000100
00000000
00000100
00001000
00000000
00000001
00000100
00000001
00000000
00000100
00000000
,
00000010
00000000
00001000
00000000
00000100
00010000
00000000
00000100
00001000
00000100
00000000
00010000
00001000
00000000
00010000
00000000
,
00001000
00000000
01000000
00000000
00010000
10000000
00010000
00100000
00010000
10000000
00010000
00100000
00010000
00000000
00000000
00000000
,
10000000
00000000
00100000
01000000
00000000
00000000
01001000
00000000
00000000
00011000
00000000
00000000
00010010
00000000
00000000
00000000
,
00001000
00000000
00000100
00000010
00000000
00000000
00000110
00000000
00000000
00010100
00000000
00000000
00011000
00000000
00000000
00000000
,
00000100
00000000
00001000
00010000
00000000
00000000
00011000
00000000
00000000
01001000
00000000
00000000
01010000
00000000
00000000
00000000
,
00100000
00000000
01000000
00010000
00000000
00000000
10100000
00000000
00000000
10010000
00000000
00000000
11000000
00000000
00000000
00000000
,
00100000
00000000
00010000
00000000
10000000
00010000
10000000
00000000
00100000
01000000
00000000
01000000
00001000
00000000
00010000
00000000
,
00000100
00000000
00001000
00000000
00000100
00000010
00000000
00000010
00000001
00000000
00001000
00000010
00001000
00000000
00000100
00000000
,
00000010
00000000
00000001
00000000
00000100
00000010
00000000
00000010
00001000
00000010
00000000
00000010
00010000
00000000
00001000
00000000
,
00000100
00000000
00001000
00000000
00010000
00001000
01000000
00001000
00010000
00001000
00100000
00001000
00020000
00000000
00000000
00000000
,
00000000
00000000
00000000
00000000
00030000
00000000
00001000
01000000
,
00000000
00000000
00110000
00000000
00000000
00000000
10010000
00000000
00000000
00000000
00100000
00000000
10000000
00010000
10000000
00000000
,
01000000
00000000
00100000
00000000
00010000
01000000
00010000
00000000
00100000
00000000
00001000
00000000
00010000
00000000
00000100
00000000
,
00000000
00000000
01000000
00000000
00000000
00000000
00001000
00000000
00000000
00010000
00000100
00000000
00010000
00001000
00010000
00000000
,
00000100
00000000
00000010
00000000
00001002
00000000
00000000
00000000
00000000
00000100
00000000
00000000
00000013
00000000
00000100
00000000
,
00001000
00000001
00000100
00000010
00000100
00000001
00000010
00001000
,
00010000
00100000
00010000
00100000
00010000
00001000
01000000
00010000
,
00100000
01000000
00100000
00010000
01000000
00001000
00010000
00001000
,
00000100
00001000
00000100
00001000
00010000
00000010
00001000
00000100
,
00000010
00000001
00000100
00000010
00000100
00001000
00010000
00100000
,
00010000
00100000
00010000
00001000
00010000
00000010
00010000
00001000
,
01000000
00100000
01000000
00010000
00100000
01000000
10000000
00000000
,
10010000
00000000
00000000
01000000
00001000
00000000
00000000
00000000
00000000
00001000
00010000
00000000
00001000
00000000
00000100
00000000
,
00000001
00000100
00000010
00000100
00001000
00010000
00001000
00000010
,
00001000
00000010
00001000
00010000
00001000
01000000
00100000
10000000
,
01000000
00100000
01000000
10000000
01000000
00010000
00001000
00000100
,
00001000
00000100
00001000
00010000
00000100
00001000
00000001
00000010
,
00001000
00010000
00100000
10000000
00010000
01000000
00100000
00010000
,
00100000
00010000
00100000
01000000
00001000
00010000
00000100
00000010
,
00000100
00001000
00000010
00000100
00000001
00000010
00000100
00010000
,
00001000
00000000
00000100
00000000
00001000
00000000
00010000
00000000
00000000
00010000
00001000
00000000
01001000
00000000
00000000
00000000
;

//---------------dance-single - J. Frederick----------------
#NOTES:
     dance-single:
     J. Frederick:
     Beginner:
     1:
     0.071,0.076,0.018,0.000,0.000,54.000,2.000,0.000,0.000,0.000,0.000,0.071,0.076,0.018,0.000,0.000,54.000,2.000,0.000,0.000,0.000,0.000:
0000
0000
0000
0000
,
0000
0000
0000
0000
,
0000
0000
0000
0000
,
0000
0000
0000
0000
,
0010
0000
0000
0000
,
0100
0000
0000
0000
,
1000
0000
0000
0000
,
0001
0000
0000
0000
,
0100
0000
0000
0000
,
0010
0000
0000
0000
,
1000
0000
0000
0000
,
0001
0000
0000
0010
,
0000
0000
0000
0100
,
0000
0000
0000
1000
,
0000
0000
0000
0001
,
0000
0000
0000
0100
,
0000
0000
0000
0010
,
0000
0000
0000
1000
,
0000
0000
0000
0001
,
0000
0000
0000
0010
,
0000
0000
0000
0100
,
0000
0000
0000
1000
,
0000
0000
0000
0001
,
0000
0000
0000
0110
,
0000
0000
0000
1000
,
0000
0000
0000
0001
,
0000
0000
0000
0010
,
0000
0000
0000
0100
,
0000
0000
0000
1000
,
0000
0000
0000
0001
,
0000
0000
0000
0100
,
0000
0000
0000
0010
,
0000
0000
0000
1000
,
0000
0000
0000
0001
,
0000
0000
0000
0010
,
0000
0000
0000
0100
,
0000
0000
0000
0001
,
0000
0000
0000
1000
,
0000
0000
0000
0010
,
0000
0000
0000
0100
,
0000
0000
0000
0001
,
0000
0000
0000
1000
,
0000
0000
0000
0010
,
0000
0000
0000
0100
,
0000
0000
0000
1000
,
0000
0000
0000
0001
,
0000
0000
0000
0010
,
0000
0000
0000
0100
,
0000
0000
0000
1001
,
0000
0000
0000
0010
,
0000
0000
0000
0100
,
0000
0000
0000
1000
,
0000
0000
0000
0001
,
0000
0000
0000
0010
,
0000
0000
0000
0100
,
0000
0000
0000
1000
,
0000
0000
0000
0001
;
