#TITLE:Sun Son Sunday;
#SUBTITLE:(Orange Mix);
#ARTIST:Vospi;
#TITLETRANSLIT:;
#SUBTITLETRANSLIT:;
#ARTISTTRANSLIT:;
#GENRE:Drum & Bass;
#CREDIT:;
#BANNER:Sun Son Sunday (Orange Mix)-bn.png;
#BACKGROUND:Sun Son Sunday (Orange Mix)-bg.png;
#LYRICSPATH:;
#CDTITLE:;
#MUSIC:Sun Son Sunday (Orange Mix).ogg;
#OFFSET:-0.038;
#SAMPLESTART:49.360;
#SAMPLELENGTH:11.840;
#SELECTABLE:YES;
#BPMS:0.000=175.069,112.000=87.534,128.000=175.069,192.000=87.534,208.000=175.069;
#STOPS:;
#BGCHANGES:0.058=Sun Son Sunday (Orange Mix).mpg=1.000=1=0=0=StretchNoLoop==CrossFade==,
99999=-nosongbg-=1.000=0=0=0 // don't automatically add -songbackground-;
#KEYSOUNDS:;

//---------------dance-single - D. D'Amato----------------
#NOTES:
     dance-single:
     D. D'Amato:
     Easy:
     6:
     0.370,0.322,0.112,0.234,0.000,240.000,12.000,25.000,0.000,0.000,0.000,0.370,0.322,0.112,0.234,0.000,240.000,12.000,25.000,0.000,0.000,0.000:
0000
0000
0000
0000
,
0000
0000
0000
0000
,
0000
0000
0000
0000
,
0000
0000
0000
0000
,
0010
0001
0100
0000
,
0010
1000
0100
0010
,
0100
1000
0010
0000
,
0100
0001
0010
0100
,
0010
0001
0100
0000
,
0010
1000
0200
0320
,
0130
1000
0010
0000
,
0100
0001
0010
0100
,
0000
0110
0000
1000
,
0001
1000
0100
1000
,
0200
0000
0010
0000
,
0010
0310
0011
1100
,
0100
0110
0000
0001
,
1000
0001
0100
0001
,
0200
0000
0010
0000
,
0010
0310
1010
0101
,
0100
0000
0000
1010
0000
0000
0100
0000
,
0010
0000
0000
0101
0000
0000
0010
0000
,
0100
0000
0000
0011
0000
0000
0100
0000
,
0010
0000
0000
1100
0000
0000
0010
0000
,
0100
0100
1000
0001
,
0100
0100
0001
1000
,
0010
0010
1000
0001
,
0010
0010
0001
1000
,
1002
0000
0000
0000
,
2003
0000
0000
0000
,
3001
0100
1000
0100
,
0001
0000
0010
0000
0100
0000
0010
0100
,
1000
0200
0001
0310
,
0001
0200
1000
0010
,
0301
0200
1000
0310
,
1000
0200
0001
0010
,
1300
0200
0001
0310
,
0001
0200
1000
0010
,
0301
0200
1000
0310
,
1000
0200
0001
0000
,
1300
0020
0001
0130
,
0001
0020
1000
0100
,
0031
0020
1000
0130
,
1000
0020
0001
0100
,
1030
0020
0001
0130
,
0001
0020
1000
0100
,
0031
0020
1000
0130
,
1000
0020
0001
0000
,
1030
0000
0010
0000
,
1000
1000
0100
0000
,
0100
0100
0001
0001
,
0100
0100
1000
0100
,
0001
0000
0100
0000
1000
0001
0100
0000
,
1000
0100
0001
0100
,
1000
0000
0100
0000
0001
1000
0100
0000
,
0001
0100
1000
0100
,
0001
0000
0100
0000
1000
0001
0100
0000
,
1000
0100
0001
0100
,
1000
0000
0100
0000
0001
1000
0100
0000
,
0001
0000
0100
1000
0020
0000
0000
0000
,
0031
0000
0010
0000
1000
0001
0010
0000
,
1000
0010
0001
0010
,
1000
0000
0010
0000
0001
1000
0010
0000
,
0001
0010
1000
0010
,
0001
0000
0010
0000
1000
0001
0010
0000
,
1000
0010
0001
0010
,
1000
0000
0010
0000
0001
1000
0010
0000
,
0001
0000
0010
1000
0100
0000
0000
0000
,
2002
0000
0000
0000
,
3003
0000
0000
0000
;

//---------------dance-single - D. D'Amato----------------
#NOTES:
     dance-single:
     D. D'Amato:
     Challenge:
     10:
     0.773,0.871,0.084,0.065,0.565,563.000,9.000,7.000,36.000,0.000,0.000,0.773,0.871,0.084,0.065,0.565,563.000,9.000,7.000,36.000,0.000,0.000:
0000
0000
0000
0000
,
0000
0000
0000
0000
,
0000
0000
0000
0000
,
0000
0000
0000
0000
,
1000
0001
1000
0100
0000
0010
0001
0100
,
0001
0010
0100
1000
0010
1000
0100
0010
,
0001
1000
0001
0100
0000
0010
1000
0100
,
1000
0010
0100
0001
0010
0001
0100
0010
,
1000
0001
1000
0100
0000
0010
0001
1000
,
0010
0000
0100
0000
0010
0000
1000
0000
0001
0010
0100
0000
1000
0010
0100
0000
,
0001
1000
0001
0100
0000
0010
1000
0001
,
0010
0100
0010
0001
2000
0000
0010
0000
,
3100
0000
1MM1
0001
0100
0010
0100
1000
,
0100
1000
0100
0001
0010
0100
1000
0010
,
0001
0000
0010
1010
0M0M
1000
0100
1000
,
0010
0000
0001
0000
0010
0000
1000
0000
0100
0010
0001
0000
0100
0010
1000
0000
,
0100
0000
1001
1000
0100
0010
0100
0001
,
0100
0001
0100
1000
0010
0100
0001
0010
,
1000
0000
0010
0011
MM00
0001
0100
0001
,
0010
0000
1000
0000
0010
0000
0001
0000
0100
0000
0010
0000
1000
0100
0010
0000
,
0100
M00M
0011
0001
1000
0100
0001
0100
,
0100
1000
0010
0100
M000
0100
0010
0100
,
0100
0001
0010
0100
000M
0100
0010
0100
,
0100
0000
1000
0000
0010
0000
0100
0000
0001
0010
0100
0000
1000
0010
0100
0001
,
0010
0100
0001
0100
0010
0001
1000
0001
,
0001
0100
0010
1000
MMMM
1010
0010
1000
,
1000
0100
0010
0001
MMMM
0011
0010
0001
,
0001
0000
0100
0000
0010
0100
0001
0010
0100
1000
0010
0100
0001
0000
1000
0000
,
0100
0010
0001
0020
0000
0000
0000
0000
0000
0031
0000
0002
0000
0000
0000
0000
,
0103
0010
1000
0020
0000
0000
0000
0000
0000
1030
0000
2000
0000
0000
0000
0000
,
3001
0000
0100
0010
1000
0000
0100
0010
0001
1000
0010
0000
1001
0000
0100
0010
,
1000
0000
0100
0010
0001
0000
1000
0010
0100
0001
0010
0100
1000
0010
0100
0001
,
1000
0000
0100
0000
0001
0000
0001
0000
0000
0000
0001
0100
0010
0000
0100
1000
,
0001
0000
0100
0000
1000
0000
0100
1000
0100
0000
1000
0100
0010
0000
0100
0001
,
1000
0000
0100
0000
0001
0000
0001
0000
0000
0000
0001
0100
0010
0000
0100
1000
,
0001
0000
0100
0000
1000
0000
0100
0000
0001
00M0
0001
M000
0010
0000
0010
0000
,
0001
0000
0100
0000
1000
0000
1000
0000
0000
0000
1000
0100
0010
0000
0100
0001
,
1000
0000
0100
0000
0001
0000
0100
0001
0100
0000
0001
0100
0010
0000
0100
1000
,
0001
0000
0100
0000
1000
0000
1000
0000
0000
0000
1000
0100
0010
0000
0100
0001
,
1000
0000
0100
0000
0001
0000
0100
0000
1000
0010
1000
0001
0010
0000
0010
0000
,
0001
0000
0010
0000
1000
0000
1000
0000
0000
0000
1000
0010
0100
0000
0010
0001
,
1000
0000
0010
0000
0001
0000
0010
0001
0010
0000
0001
0010
0100
0000
0010
1000
,
0001
0000
0010
0000
1000
0000
1000
0000
0000
0000
1000
0010
0100
0000
0010
0001
,
1000
0000
0010
0000
0001
0000
0010
0000
1000
0M00
1000
000M
0100
0000
0100
0000
,
1000
0000
0010
0000
0001
0000
0001
0000
0000
0000
0001
0010
0100
0000
0010
1000
,
0001
0000
0010
0000
1000
0000
0010
1000
0010
0000
1000
0010
0100
0000
0010
0001
,
1000
0000
0010
0000
0001
0000
0001
0000
0000
0000
0001
0010
0100
0000
0010
1000
,
0001
0000
0010
0000
1000
0000
0010
0000
0001
0100
0001
1000
0100
0010
0001
0100
,
0010
1000
0100
0010
0000
M00M
0000
0M00
0001
0100
0010
1000
0100
0010
0000
0000
,
0100
0000
1000
0001
0M00
0000
0000
00M0
0000
1000
0100
0010
0100
1000
0000
0000
,
0001
0100
0010
0100
0001
0000
1000
0000
0100
0010
0001
0000
1000
0000
0010
0000
,
0001
0000
0010
0100
0001
0000
0010
0000
0100
0010
1000
0000
0010
0000
0100
0000
,
0001
0000
0100
0000
1000
0000
1000
0000
0000
0000
1000
0010
0100
0000
0010
0001
,
1000
0000
0100
0000
0001
0000
0100
0001
0100
0000
0001
0010
0100
0000
0010
1000
,
0001
0000
0100
0000
1000
0000
1000
0000
0000
0000
1000
0010
0100
0000
0010
0001
,
1000
0000
0100
0000
0001
0000
0010
0000
0001
M000
0001
M000
0100
00M0
0100
00M0
,
1000
0000
0100
0000
0001
0000
0001
0000
0000
0000
0001
0010
0100
0000
0010
1000
,
0001
0000
0100
0000
1000
0000
0100
1000
0100
0000
1000
0010
0100
0000
0010
0001
,
1000
0000
0100
0000
0001
0000
0001
0000
0000
0000
0001
0010
0100
0000
0010
1000
,
0001
0100
1000
0010
0M00
0000
0M00
0000
,
0M01
0000
0010
0000
1000
0000
1000
0000
0000
0000
1000
0100
0010
0000
0100
0001
,
1000
0000
0010
0000
0001
0000
0010
0001
0010
0000
0001
0100
0010
0000
0100
1000
,
0001
0000
0010
0000
1000
0000
1000
0000
0000
0000
1000
0100
0010
0000
0100
0001
,
1000
0000
0010
0000
0001
0000
0100
0000
0001
1000
0001
1000
0100
0010
0100
0010
,
1000
0000
0010
0000
0001
0000
0001
0000
0000
0000
0001
0100
0010
0000
0100
1000
,
0001
0000
0010
0000
1000
0000
0010
1000
0010
0000
1000
0100
0010
0000
0100
0001
,
1000
0000
0010
0000
0001
0000
0001
0000
0000
0000
0001
0100
0010
0000
0100
1000
,
0001
0010
1000
0100
00M0
0000
00M0
0000
,
2002
0000
0000
0000
,
3003
0000
0000
0000
;

//---------------dance-single - D. D'Amato----------------
#NOTES:
     dance-single:
     D. D'Amato:
     Hard:
     9:
     0.567,0.548,0.093,0.121,0.019,402.000,10.000,13.000,2.000,0.000,0.000,0.567,0.548,0.093,0.121,0.019,402.000,10.000,13.000,2.000,0.000,0.000:
0000
0000
0000
0000
,
0000
0000
0000
0000
,
0000
0000
0000
0000
,
0000
0000
0000
0000
,
1000
0100
0010
0100
0000
0010
0100
0010
,
0001
0010
0000
0010
0001
0000
0100
0000
,
0001
0100
0010
0100
0000
0010
0100
0010
,
1000
0010
0000
0010
1000
0000
0100
0000
,
1000
0010
0100
0010
0000
0100
0010
0100
,
0001
0100
0000
0100
0001
0001
1000
1000
,
0001
0010
0100
0010
0000
0100
0010
0100
,
1000
0100
0000
0100
1000
0000
0010
0000
,
M0M0
0000
0101
0000
0001
1000
0000
0100
,
0000
0010
0000
0001
1000
0000
0010
0100
,
0001
0000
1010
0000
1000
0001
0000
0100
,
0000
0010
0000
1000
0001
0000
0010
0100
,
1000
0000
0011
0000
0001
1000
0000
0010
,
0000
0100
0000
0001
1000
0000
0100
0010
,
0001
0000
1100
0000
1000
0001
0000
0010
,
0000
0100
0000
1000
0001
0000
0100
0010
,
2000
0000
0000
0100
0000
0010
0000
3010
,
0102
0000
0000
0100
0000
0010
0000
0013
,
2100
0000
0000
0100
0000
0010
0000
3010
,
0102
0000
0010
0000
1003
0010
0100
0001
,
0020
0100
0000
0100
0000
0001
0000
0031
,
2000
0010
0000
0010
0000
0001
0000
3001
,
0200
0010
0000
0010
0000
0001
0000
0301
,
1000
0100
0010
0001
0100
0010
0100
0010
,
2000
0000
0000
0000
0000
0000
0000
0000
0000
3001
0000
0100
0000
0000
0000
0000
,
0002
0000
0000
0000
0000
0000
0000
0000
0000
1003
0000
0100
0000
0000
0000
0000
,
1000
1000
0101
0000
0001
0001
1100
0010
,
0001
0100
0100
0010
1000
0100
0010
0001
,
1000
0100
0001
0100
0000
1000
0010
0100
,
1000
0100
0001
0100
0010
1000
0010
1000
,
0001
0100
1000
0100
0000
0001
0010
0100
,
0001
0100
1000
0100
0010
0001
0010
0001
,
1000
0100
0001
0100
0000
1000
0010
0100
,
1000
0100
0001
0100
0010
1000
0010
1000
,
0001
0100
1000
0100
0000
0001
0010
0100
,
0001
0100
1000
0100
0020
0000
0000
0000
,
0031
0010
1000
0010
0000
0001
0100
0010
,
0001
0010
1000
0010
0100
0001
0100
0001
,
1000
0010
0001
0010
0000
1000
0100
0010
,
1000
0010
0001
0010
0100
1000
0100
1000
,
0001
0010
1000
0010
0000
0001
0100
0010
,
0001
0010
1000
0010
0100
0001
0100
0001
,
1000
0010
0001
0010
0000
1000
0100
0010
,
1000
0010
0001
0010
0200
0000
0000
0000
,
1300
0100
0010
0001
0000
0010
0100
0010
,
0001
0000
0100
0000
0001
0100
0010
1000
,
0000
0010
0100
0010
1000
0000
0100
0000
,
0010
0000
0001
1000
0001
0000
0010
0100
,
0001
0100
1000
0100
0000
0010
0001
0100
,
1000
0100
0001
0010
0100
1000
0010
0001
,
1000
0100
0001
0100
0000
0010
1000
0100
,
0001
0100
1000
0010
0100
0001
0010
1000
,
0001
0100
1000
0100
0000
0010
0001
0100
,
1000
0100
0001
0010
0100
1000
0010
0001
,
1000
0100
0001
0100
0000
0010
1000
0100
,
0001
0100
1000
0010
0000
0000
0000
0000
,
0001
0010
1000
0010
0000
0100
0001
0010
,
1000
0010
0001
0100
0010
1000
0100
0001
,
1000
0010
0001
0010
0000
0100
1000
0010
,
0001
0010
1000
0100
0010
0001
0100
1000
,
0001
0010
1000
0010
0000
0100
0001
0010
,
1000
0010
0001
0100
0010
1000
0100
0001
,
1000
0010
0001
0010
0000
0100
1000
0010
,
0001
0010
1000
0100
0000
0000
0000
0000
,
2002
0000
0000
0000
,
3003
0000
0000
0000
;

//---------------dance-single - D. D'Amato----------------
#NOTES:
     dance-single:
     D. D'Amato:
     Medium:
     8:
     0.518,0.548,0.234,0.065,0.000,356.000,25.000,7.000,0.000,0.000,0.000,0.518,0.548,0.234,0.065,0.000,356.000,25.000,7.000,0.000,0.000,0.000:
0000
0000
0000
0000
,
0000
0000
0000
0000
,
0000
0000
0000
0000
,
0000
0000
0000
0000
,
0010
0001
0000
0100
0000
0000
0010
0000
,
0010
0000
1000
0010
0100
0000
0100
0000
,
0010
1000
0000
0100
0000
0000
0010
0000
,
0010
0000
0001
0010
0100
1000
0100
0000
,
0100
1000
0000
0010
0000
0000
0100
0000
,
0100
0000
0001
0100
0010
0010
0010
0000
,
0100
0001
0000
0010
0000
0000
0100
0000
,
0100
0000
1000
0100
0010
0001
0010
0001
,
0010
1100
1000
0010
,
0010
0000
1000
0100
0001
0000
1100
0000
,
0010
0011
0001
0100
,
0100
0000
0001
0010
1000
0000
0011
0000
,
1001
0101
0001
0010
,
0010
0000
0001
0100
1000
0000
0101
0000
,
0010
1010
1000
0100
,
0100
0000
1000
0010
0001
0000
1010
0000
,
0110
0000
0000
0101
0000
0101
0000
0000
,
1001
0000
0000
0011
0000
0011
0000
0000
,
0110
0000
0000
1100
0000
1100
0000
0000
,
1001
0000
0000
1010
0000
1010
0000
0000
,
0110
0000
0010
1000
0100
1000
0000
0100
,
0010
0000
0010
0001
0100
0001
0000
0100
,
0010
0000
0010
1000
0100
1000
0001
0010
,
0100
0000
0010
0001
0100
0001
1000
0010
,
0200
0000
0300
0000
,
0020
0000
0030
0000
,
0100
0100
0101
0000
0010
0010
1010
1000
,
1000
0001
0001
0100
0010
0100
0001
1000
,
0001
1000
0100
0001
0000
0100
0010
0100
,
1000
0001
0100
1000
0100
0000
0010
0000
,
1000
0001
0100
1000
0000
0100
0010
0100
,
0001
1000
0100
0001
0100
0000
0010
0000
,
0001
1000
0100
0001
0000
0100
0010
0100
,
1000
0001
0100
1000
0100
0000
0010
0000
,
1000
0001
0100
1000
0000
0100
0010
0100
,
0001
1000
0100
0001
0200
0000
0000
0000
,
1300
0001
0010
1000
0000
0010
0100
0010
,
0001
1000
0010
0001
0010
0000
0100
0000
,
0001
1000
0010
0001
0000
0010
0100
0010
,
1000
0001
0010
1000
0010
0000
0100
0000
,
1000
0001
0010
1000
0000
0010
0100
0010
,
0001
1000
0010
0001
0010
0000
0100
0000
,
0001
1000
0010
0001
0000
0010
0100
0010
,
1000
0001
0010
1000
0020
0000
0000
0000
,
0031
0000
0100
0000
0000
0010
1000
0001
,
1000
0000
0100
0000
0000
0010
0001
1000
,
0001
0100
1000
0100
,
0001
0000
0010
0000
0100
0000
1000
0100
,
0001
0100
1000
0001
0000
1000
0010
0100
,
1000
0100
0001
1000
0010
0000
0100
0000
,
1000
0100
0001
1000
0000
0001
0010
0100
,
0001
0100
1000
0001
0010
0000
0100
0000
,
0001
0100
1000
0001
0000
1000
0010
0100
,
1000
0100
0001
1000
0010
0000
0100
0000
,
1000
0100
0001
1000
0000
0001
0010
0100
,
0001
0100
1000
0001
0020
0000
0000
0000
,
1030
0010
0001
1000
0000
0001
0100
0010
,
0001
0010
1000
0001
0100
0000
0010
0000
,
0001
0010
1000
0001
0000
1000
0100
0010
,
1000
0010
0001
1000
0100
0100
0010
0010
,
1000
0010
0001
1000
0000
0001
0100
0010
,
0001
0010
1000
0001
0100
0000
0010
0000
,
0001
0010
1000
0001
0000
1000
0100
0010
,
1000
0010
0001
1000
0000
0000
0000
0000
,
2002
0000
0000
0000
,
3003
0000
0000
0000
;

//---------------dance-double - D. D'Amato &----------------
#NOTES:
     dance-double:
     D. D'Amato &:
     Edit:
     10:
     0.000,0.000,0.000,0.000,0.000,0.000,0.000,0.000,0.000,0.000,0.000,0.000,0.000,0.000,0.000,0.000,0.000,0.000,0.000,0.000,0.000,0.000:
;

//---------------dance-double - D. D'Amato----------------
#NOTES:
     dance-double:
     D. D'Amato:
     Challenge:
     10:
     0.757,0.838,0.065,0.103,0.472,549.000,7.000,11.000,19.000,0.000,0.000,0.757,0.838,0.065,0.103,0.472,549.000,7.000,11.000,19.000,0.000,0.000:
00000000
00000000
00000000
00000000
,
00000000
00000000
00000000
00000000
,
00000000
00000000
00000000
00000000
,
00000000
00000000
10000000
00010000
,
00100000
00010000
01000000
00001000
00000000
00010000
00000100
00001000
,
00000010
00000100
00000001
00000010
00000001
00000100
00001000
00010000
,
00000010
00001000
00000100
00010000
00000000
00001000
01000000
00010000
,
00100000
01000000
10000000
00100000
10000000
01000000
00010000
00001000
,
00100000
00010000
10000000
01000000
00000000
00100000
00010000
01000000
,
00001000
00000000
00010000
00000000
00000100
00000000
00001000
00000000
00000010
00000100
00000010
00000000
00001000
00000001
00001000
00000000
,
00000010
00001000
00000001
00000100
00000000
00000010
00001000
00000100
,
00000010
00000100
00000010
00000001
00000100
00000010
00000100
000000M1
,
00000100
00000000
00001001
00001000
00000100
00000000
00010000
00001000
,
00000200
00000000
00001300
00100000
00001000
00010000
01000000
00100000
,
00010000
00000000
10000000
01000000
00100000
01000000
00010000
01000000
,
00100000
00010000
00100000
01000000
20000000
00000000
30020000
00000000
,
01030000
00000000
10010000
00010000
01000000
00000000
00001000
00010000
,
02000000
00000000
03010000
00000010
00010000
00001000
00000100
00000010
,
00001000
00000000
00000001
00000100
00000010
00000100
00001000
00000100
,
00000010
00000000
00001000
00000000
00000010
00000000
00000100
00000000
00000001
00001000
00000001
00000000
00000010
00000000
00000100
00000000
,
00001000
00000000
00000110
00000010
0000M00M
00000110
00000100
00010000
,
00010000
00001000
01000000
00100000
M00M0000
01100000
01000000
00001000
,
00001000
00010000
00000100
00000010
0000M00M
00000110
00000100
00010000
,
00010000
00000000
00001000
00000000
01000000
00000000
00100000
00000000
100M0000
00000000
0M100000
00000000
01000000
00100000
01000000
00000000
,
00010000
00010000
10000000
01000000
00M00000
00010000
00001000
00000100
,
00000100
00000001
00001000
00000100
0000M000
00000010
00000010
00000001
,
00001000
00001000
00000001
00000100
000000M0
00001000
00010000
01000000
,
01000000
00000000
10000000
00000000
00010000
00000000
01000000
00000000
00010000
10000000
00010000
00000000
00100000
00000000
00001000
00000000
,
00010000
00000100
00010000
00002000
00000000
00000000
00000000
00000000
00000000
00013000
00000000
00020000
00000000
00000000
00000000
00000000
,
00031000
01000000
00001000
00020000
00000000
00000000
00000000
00000000
00030000
00001000
00000000
00002000
00000000
00000000
00000000
00000000
,
00013000
00000000
00000100
00001000
00000001
00000000
00000100
00000010
00001000
00000000
00000100
00010000
00001000
00000000
00100000
00001000
,
01000000
00010000
00100000
00001000
00010000
00000000
00000100
00010000
00001000
00100000
00010000
00000000
10000000
01000000
00100000
00010000
,
10000000
00000000
01000000
00000000
00010000
00000000
00010000
00000000
00000000
00000000
00001000
00000100
00000010
00000000
00000100
00000001
,
00001000
00000000
00000100
00000000
00000001
00000000
00000100
00000001
00000100
00000000
00000001
00000100
00000010
00000000
00000100
00001000
,
00000001
00000000
00000100
00000000
00001000
00000000
00001000
00000000
00000000
00000000
00010000
01000000
00100000
00000000
01000000
10000000
,
00010000
01000000
10000000
01000000
00100000
00010000
00001000
00000100
,
00000001
00000000
00000100
00000000
00001000
00000000
00001000
00000000
00000000
00000000
00010000
01000000
00100000
00000000
01000000
10000000
,
00010000
00000000
01000000
00000000
10000000
00000000
01000000
10000000
01000000
00000000
10000000
01000000
00100000
00000000
01000000
00010000
,
10000000
00000000
01000000
00000000
00010000
00000000
00010000
00000000
00000000
00000000
00001000
00000100
00000010
00000000
00000100
00000001
,
00001000
00000100
00000010
00001000
00020M00
00000000
01000000
01030000
,
10000000
00000000
00100000
00000000
00010000
00000000
00010000
00000000
00000000
00000000
00001000
00000010
00000100
00000000
00000010
00000001
,
00001000
00000000
00000010
00000000
00000001
00000000
00000010
00000001
00000010
00000000
00000001
00000010
00000100
00000000
00000010
00001000
,
00000001
00000000
00000010
00000000
00001000
00000000
00001000
00000000
00000000
00000000
00010000
00100000
01000000
00000000
00100000
10000000
,
00010000
00100000
10000000
00100000
01000000
00010000
00001000
00000010
,
00000001
00000000
00000010
00000000
00001000
00000000
00001000
00000000
00000000
00000000
00010000
00100000
01000000
00000000
00100000
10000000
,
00010000
00000000
00100000
00000000
10000000
00000000
00100000
10000000
00100000
00000000
10000000
00100000
01000000
00000000
00100000
00010000
,
10000000
00000000
00100000
00000000
00010000
00000000
00010000
00000000
00000000
00000000
00001000
00000010
00000100
00000000
00000010
00000001
,
00001000
00000010
00000001
00000010
00000100
00000000
00000000
00000000
,
00010000
01000000
00001000
00100000
00000000
00000000
0M0010M0
00000000
00010000
00000010
00001000
00000100
00010000
00001000
00000000
00000000
,
00100000
00000000
00010000
01000000
00000000
00000000
00M00M00
00000000
00000000
00001000
00100000
00010000
01000000
00001000
00000000
00000000
,
00010000
00000100
00000010
00000001
00000100
00000000
00000010
00000000
00000100
00001000
00010000
00M00000
00000010
00000000
00001000
00000000
,
00000100
00000000
00000010
00001000
00010000
0M000000
00100000
00000000
10000000
00010000
01000000
00000000
00100000
00000000
01000000
00000000
,
10000000
00000000
01000000
00000000
00010000
00000000
00010000
00000000
00000000
00000000
00100000
00001000
00010000
00000000
00000010
00000100
,
00001000
00000000
00000100
00000000
00000001
00000000
00001000
00000100
00001000
00000000
00000001
00001000
00000100
00000000
00000010
00000100
,
00000001
00000000
00000100
00000000
00001000
00000000
00001000
00000000
00000000
00000000
00000010
00010000
00001000
00000000
00100000
01000000
,
00010000
00000000
01000000
00000000
10000000
00000000
00010000
01000000
00010000
00000000
10000000
00010000
01000000
00000000
00100000
01000000
,
10000000
00000000
01000000
00000000
00010000
00000000
00010000
00000000
00000000
00000000
00100000
00001000
00010000
00000000
00000010
00000100
,
00001000
00000000
00000100
00000000
00000001
00000000
00001000
00000100
00001000
00000000
00000001
00001000
00000100
00000000
00000010
00000100
,
00000001
00000000
00000100
00000000
00001000
00000000
00001000
00000000
00000000
00000000
00000010
00010000
00001000
00000000
00100000
01000000
,
00010000
01000000
10000000
00010000
00000000
00100000
00000000
00000000
,
10000000
00000000
00100000
00000000
00010000
00000000
00010000
00000000
00000000
00000000
01000000
00001000
00010000
00000000
00000100
00000010
,
00001000
00000000
00000010
00000000
00000001
00000000
00001000
00000010
00001000
00000000
00000001
00001000
00000010
00000000
00000100
00000010
,
00000001
00000000
00000010
00000000
00001000
00000000
00001000
00000000
00000000
00000000
00000100
00010000
00001000
00000000
01000000
00100000
,
00010000
00000000
00100000
00000000
10000000
00000000
00010000
00100000
00010000
00000000
10000000
00010000
00100000
00000000
01000000
00100000
,
10000000
00000000
00100000
00000000
00010000
00000000
00010000
00000000
00000000
00000000
01000000
00001000
00010000
00000000
00000100
00000010
,
00001000
00000000
00000010
00000000
00000001
00000000
00001000
00000010
00001000
00000000
00000001
00001000
00000010
00000000
00000100
00000010
,
00000001
00000000
00000010
00000000
00001000
00000000
00001000
00000000
00000000
00000000
00000100
00010000
00001000
00000000
01000000
00100000
,
00010000
00100000
10000000
00010000
00000000
01000000
00000000
00000000
,
20020000
00000000
00000000
00000000
,
30030000
00000000
00000000
00000000
;

//---------------dance-double - D. D'Amato----------------
#NOTES:
     dance-double:
     D. D'Amato:
     Hard:
     9:
     0.585,0.516,0.084,0.196,0.047,408.000,9.000,21.000,2.000,0.000,0.000,0.585,0.516,0.084,0.196,0.047,408.000,9.000,21.000,2.000,0.000,0.000:
00000000
00000000
00000000
00000000
,
00000000
00000000
00000000
00000000
,
00000000
00000000
00000000
00000000
,
00000000
00000000
00000000
00000000
,
00100000
00010000
00100000
01000000
00000000
00100000
00001000
00010000
,
00000100
00001000
00000100
00000010
00000100
00000000
00001000
00000000
,
00000010
00001000
00000010
00000100
00000000
00000010
00010000
00001000
,
01000000
00010000
01000000
00100000
01000000
00000000
00010000
00000000
,
00100000
00001000
00010000
00001000
00000000
00010000
00000100
00010000
,
00001000
00010000
00000010
00001000
00000001
00000001
00001000
00001000
,
00000010
00010000
00001000
00010000
00000000
00001000
01000000
00001000
,
00010000
00001000
00100000
00010000
10000000
00000000
00100000
00000000
,
M0M00000
00000000
01010000
00000000
00100000
00010000
01000000
00001000
,
00000000
00010000
00000000
00001000
00000000
00010000
00000100
00001000
,
00000010
00000000
00001100
00000000
00000010
00001000
00000100
00010000
,
00000000
00001000
00000000
00010000
00000000
00001000
00100000
00010000
,
01000000
00000000
00110000
00000000
01000000
00010000
00100000
00001000
,
00000000
00010000
00000000
00001000
00000000
00010000
00000010
00001000
,
00000100
00000000
00001010
00000000
00000100
00001000
00000010
00010000
,
00000000
00001000
00000000
00010000
00000000
00001000
01000000
00010000
,
01002000
00000000
00000000
00000100
00000000
00010000
00000000
00013000
,
00020100
00000000
00000000
01000000
00000000
00001000
00000000
00031000
,
00102000
00000000
00000000
00000010
00000000
00010000
00000000
00013000
,
00020100
00000000
00000000
00100000
00000000
00001000
00000000
00031000
,
00200000
00010000
00000000
00010000
00000000
00001000
00000000
00301000
,
00020000
00000010
00000000
00000010
00000000
00000100
00000000
00030100
,
00002000
00000001
00000000
00000001
00000000
00000010
00000000
00003010
,
00000100
00000001
00000010
00000000
00000100
00000000
00010000
00001000
,
00020000
00000000
00000000
00000000
00000000
00000000
00000000
00000000
00030000
00001000
00000000
00100000
00000000
00000000
00000000
00000000
,
00002000
00000000
00000000
00000000
00000000
00000000
00003000
00000000
00000000
00010000
00000000
00000010
00000000
00000000
00000000
00000000
,
00010000
00010000
00001000
00010000
00001000
00001000
00010000
00001000
,
01000000
01000000
00100000
01000000
00100000
00100000
10000000
00010000
,
10000000
01000000
00010000
00001000
00000000
00001000
00000100
00000010
,
00001000
00000100
00000001
00000100
00000010
00000001
00000100
00000100
,
00000001
00000100
00001000
00010000
00000000
00010000
01000000
00100000
,
00010000
01000000
10000000
01000000
00100000
10000000
01000000
01000000
,
10000000
01000000
00010000
00001000
00000000
00001000
00000100
00000010
,
00001000
00000100
00000001
00000100
00000010
00000001
00000100
00000100
,
00000001
00000100
00001000
00010000
00000000
00010000
01000000
00100000
,
00010000
01000000
10000000
01000000
00200000
00000000
00000000
00000000
,
10300000
00100000
00010000
00001000
00000000
00001000
00000010
00000100
,
00001000
00000010
00000001
00000010
00000100
00000001
00000010
00000010
,
00000001
00000010
00001000
00010000
00000000
00010000
00100000
01000000
,
00010000
00100000
10000000
00100000
01000000
10000000
00100000
00100000
,
10000000
00100000
00010000
00001000
00000000
00001000
00000010
00000100
,
00001000
00000010
00000001
00000010
00000100
00000001
00000010
00000010
,
00000001
00000010
00001000
00010000
00000000
00010000
00100000
01000000
,
00010000
00100000
10000000
00100000
02000000
00000000
00000000
00000000
,
13000000
00000000
00010000
00100000
00000000
00000000
00000000
00000000
01000000
10000000
00000000
00000000
00010000
00000000
00100000
00000000
,
00001000
00000000
00000000
00010000
00000000
00000000
00000000
00000000
00000010
00001000
00000000
00000001
00000000
00000100
00000000
00000000
,
00000000
00000010
00010000
00001000
00100000
00000000
00010000
00000000
,
10000000
00000000
00010000
00000000
01000000
00000000
00100000
01000000
,
10000000
01000000
00020000
10000000
00000000
01030000
00001000
00010000
,
00001000
00000100
00000001
00001000
00000100
00001000
00000100
00000100
,
00000001
00000100
00002000
00000001
00000000
00003100
00010000
00001000
,
00010000
01000000
10000000
00010000
01000000
00010000
01000000
01000000
,
10000000
01000000
00020000
10000000
00000000
01030000
00001000
00010000
,
00001000
00000100
00000001
00001000
00000100
00001000
00000100
00000100
,
00000001
00000100
00002000
00000001
00000000
00003100
00010000
00001000
,
00010000
01000000
10000000
00010000
00000000
00100000
00000000
00000000
,
10000000
00100000
00020000
10000000
00000000
00130000
00001000
00010000
,
00001000
00000010
00000001
00001000
00000010
00001000
00000010
00000010
,
00000001
00000010
00002000
00000001
00000000
00003010
00010000
00001000
,
00010000
00100000
10000000
00010000
00100000
00010000
00100000
00100000
,
10000000
00100000
00020000
10000000
00000000
00130000
00001000
00010000
,
00001000
00000010
00000001
00001000
00000010
00001000
00000010
00000010
,
00000001
00000010
00002000
00000001
00000000
00003010
00010000
00001000
,
00010000
00100000
10000000
00010000
00000000
01000000
00000000
00000000
,
20020000
00000000
00000000
00000000
,
30030000
00000000
00000000
00000000
;

//---------------dance-double - D. D'Amato----------------
#NOTES:
     dance-double:
     D. D'Amato:
     Medium:
     8:
     0.490,0.484,0.159,0.056,0.037,344.000,17.000,6.000,0.000,0.000,0.000,0.490,0.484,0.159,0.056,0.037,344.000,17.000,6.000,0.000,0.000,0.000:
00000000
00000000
00000000
00000000
,
00000000
00000000
00000000
00000000
,
00000000
00000000
00000000
00000000
,
00000000
00000000
00000000
00000000
,
00100000
00001000
00000000
00010000
00000000
00000000
00000100
00000000
,
00001000
00000000
00000010
00001000
00000100
00000000
00010000
00000000
,
00000010
00010000
00000000
00001000
00000000
00000000
01000000
00000000
,
00010000
00000000
00100000
00010000
01000000
00000000
00001000
00000000
,
01000000
00001000
00000000
00010000
00000000
00000000
00000010
00000000
,
00001000
00000000
00000100
00001000
00000010
00000010
00010000
00010000
,
00000100
00010000
00000000
00001000
00000000
00000000
00100000
00000000
,
00010000
00000000
00100000
00010000
01000000
00100000
10000000
00100000
,
01000000
01010000
10000000
00010000
,
00100000
00000000
10000000
00100000
00010000
00000000
01000000
00000000
,
00001000
00011000
00100000
00001000
,
00010000
00000000
00001000
00000100
00000001
00000000
00000011
00000000
,
00000110
00001100
00000001
00001000
,
00000010
00000000
00000001
00000010
00001000
00000000
00000100
00000000
,
00010000
00011000
00000010
00010000
,
00001000
00000000
00010000
01000000
10000000
00000000
10100000
00000000
,
01100000
00000000
00000000
01010000
00000000
01000000
00000000
00010000
,
10000000
00000000
00000000
00110000
00000000
00100000
00000000
00001000
,
00010000
00000000
00000000
00001100
00000000
00001000
00000000
00000010
,
00001000
00000000
00000000
00000101
00000000
00000001
00000000
00000100
,
00000010
00000000
00000000
00001010
00000000
00000010
00000000
00001000
,
00000001
00000000
00000000
00001100
00000000
00000100
00000000
00010000
,
00001000
00000000
00000000
00110000
00000000
00010000
00000000
01000000
,
00010000
00000000
00000000
10100000
00000000
10000000
00000000
00100000
,
02000000
00000000
00000000
00000000
00000000
00000000
00000000
03000000
00000000
01000000
00000000
01000000
00000000
00000000
00000000
00000000
,
00200000
00000000
00000000
00000000
00000000
00000000
00000000
00300000
00000000
00100000
00000000
00100000
00000000
00000000
00000000
00000000
,
10000000
01000000
00010000
00001000
00000100
00000001
00001000
00000100
,
00010000
00010000
00001000
00001000
00000000
01000000
00010000
10000000
,
00010000
10000000
01000000
00010000
00000000
00010000
00001000
00000100
,
00000001
00001000
00000100
00000001
00000100
00000000
00001000
00000000
,
00001000
00000001
00000100
00001000
00000000
00001000
00010000
01000000
,
10000000
00010000
01000000
10000000
01000000
00000000
00010000
00000000
,
00010000
10000000
01000000
00010000
00000000
00010000
00001000
00000100
,
00000001
00001000
00000100
00000001
00000100
00000000
00001000
00000000
,
00001000
00000001
00000100
00001000
00000000
00001000
00010000
01000000
,
10000000
00010000
01000000
10000000
02000000
00000000
00000000
00000000
,
03010000
10000000
00100000
00010000
00000000
00010000
00001000
00000010
,
00000001
00001000
00000010
00000001
00000010
00000000
00001000
00000000
,
00001000
00000001
00000010
00001000
00000000
00001000
00010000
00100000
,
10000000
00010000
00100000
10000000
00100000
00000000
00010000
00000000
,
00010000
10000000
00100000
00010000
00000000
00010000
00001000
00000010
,
00000001
00001000
00000010
00000001
00000010
00000000
00001000
00000000
,
00001000
00000001
00000010
00001000
00000000
00001000
00010000
00100000
,
10000000
00010000
00100000
10000000
00200000
00000000
00000000
00000000
,
00310000
00000000
00000000
01000000
00000000
00000000
00000000
00000000
00000000
00100000
00000000
00000000
10000000
00000000
00010000
00000000
,
01000000
00000000
00000000
00001000
00000000
00000000
00000000
00000000
00000000
00010000
00000000
00000000
00000100
00000000
00001000
00000000
,
00000001
00000010
00000100
00001000
,
00000010
00010000
00001000
01000000
,
10000000
01000000
00010000
00100000
00000000
00001000
00010000
00000000
,
00001000
00000100
00000001
00001000
00000100
00000000
00000100
00000000
,
00000001
00000100
00001000
00000010
00000000
00010000
00000000
00001000
,
00010000
01000000
10000000
00010000
01000000
00000000
01000000
00000000
,
10000000
01000000
00010000
00100000
00000000
00001000
00010000
00000000
,
00001000
00000100
00000001
00001000
00000100
00000000
00000100
00000000
,
00000001
00000100
00001000
00000010
00000000
00010000
00000000
00001000
,
00010000
01000000
10000000
00010000
00000000
00100000
00000000
00000000
,
10000000
00100000
00010000
01000000
00000000
00001000
00010000
00000000
,
00001000
00000010
00000001
00001000
00000010
00000000
00000010
00000000
,
00000001
00000010
00001000
00000100
00000000
00010000
00000000
00001000
,
00010000
00100000
10000000
00010000
00100000
00000000
00100000
00000000
,
10000000
00100000
00010000
01000000
00000000
00001000
00010000
00000000
,
00001000
00000010
00000001
00001000
00000010
00000000
00000010
00000000
,
00000001
00000010
00001000
00000100
00000000
00010000
00000000
00001000
,
00010000
00100000
10000000
00010000
00000000
01000000
00000000
00000000
,
20020000
00000000
00000000
00000000
,
30030000
00000000
00000000
00000000
;

//---------------dance-double - M. Emirzian----------------
#NOTES:
     dance-double:
     M. Emirzian:
     Easy:
     3:
     0.222,0.222,0.056,0.000,0.000,160.000,6.000,0.000,0.000,0.000,0.000,0.222,0.222,0.056,0.000,0.000,160.000,6.000,0.000,0.000,0.000,0.000:
00000000
00000000
00000000
00000000
,
00000000
00000000
00000000
00000000
,
00000000
00000000
00000000
00000000
,
00000000
00000000
00000000
00000000
,
00001000
00000000
00000000
01001000
00000000
00000000
00000000
00000000
,
00010000
00010000
00000100
00000000
,
00001000
00000000
00000000
00000110
00000000
00000000
00000000
00000000
,
00000001
00000001
00000100
00000000
,
00000010
00000000
00000000
00001010
00000000
00000000
00000000
00000000
,
00010000
00010000
00001000
00000000
,
01000000
00000000
00000000
01001000
00000000
00000000
00000000
00000000
,
00010000
00010000
10000000
00000000
,
01000000
00000000
00100000
00000000
,
00010000
00100000
01000000
00000000
,
10000000
00000000
00010000
00000000
,
01000000
00001000
00010000
00000000
,
00000100
00000000
00001000
00000000
,
00000010
00001000
00000100
00000000
,
00000001
00000000
00000100
00000000
,
00001000
00000001
00000100
00000000
,
00001000
00000000
00010000
00000000
,
00100000
00000000
10000000
00000000
,
01000000
00000000
00100000
00000000
,
00001000
00000000
00010000
00000000
,
00000010
00000000
00010000
00000000
,
00001000
00000000
01000000
00000000
,
00001000
00000000
00010000
00000000
,
00000010
00000000
00010000
00000000
,
00001000
00000000
00010000
00010000
,
00010000
00000000
00000010
00000010
,
00000010
00000000
00001000
00000000
,
00011000
00000100
00001000
00010000
,
00100000
00000000
10000000
00000000
,
01000000
00100000
00010000
00000000
,
01000000
00000000
00001000
00000000
,
01000000
00010000
00100000
00000000
,
00001000
00000000
00010000
00000000
,
00000010
00001000
00000100
00000000
,
00000010
00000000
00000001
00000000
,
00000100
00001000
00000001
00000000
,
00000100
00000000
00000010
00000000
,
00001000
00000100
00010000
00000000
,
00001000
00000000
01000000
00000000
,
00010000
01000000
00100000
00000000
,
10000000
00000000
00010000
00000000
,
00100000
00001000
00010000
00000000
,
01000000
00000000
00100000
00000000
,
00010000
10000000
01000000
00000000
,
00100000
00000000
00010000
00010000
,
00010000
00000000
00001000
00000000
,
00000100
00000000
00000010
00000010
,
00000010
00000000
00010000
00010000
,
00010000
00000000
01000000
00000000
,
00100000
00100000
10000000
00000000
,
01000000
00000000
00100000
00000000
,
00010000
00100000
00001000
00000000
,
00010000
00000000
00000010
00000000
,
00001000
00001000
00000100
00000000
,
00000010
00000000
00000001
00000000
,
00000100
00000010
00001000
00000000
,
00000100
00000000
00010000
00000000
,
00001000
01000000
00010000
00000000
,
01000000
00000000
00001000
00000000
,
00010000
00000010
00001000
00000000
,
00000010
00000000
00010000
00000000
,
00001000
00100000
00010000
00000000
,
00100000
00000000
00001000
00000000
,
00010000
00000100
00001000
00000000
,
00000110
00000000
00000000
00000000
;

//---------------dance-single - J. Frederick----------------
#NOTES:
     dance-single:
     J. Frederick:
     Beginner:
     1:
     0.065,0.127,0.047,0.000,0.000,44.000,5.000,0.000,0.000,0.000,0.000,0.065,0.127,0.047,0.000,0.000,44.000,5.000,0.000,0.000,0.000,0.000:
0000
0000
0000
0000
,
0000
0000
0000
0000
,
0000
0000
0000
0000
,
0000
0000
0000
0000
,
1000
0000
0000
0000
,
0000
0000
0000
0000
,
0001
0000
0000
0000
,
0000
0000
0000
0000
,
0010
0000
0000
0000
,
0000
0000
0000
0000
,
0100
0000
0000
0000
,
0000
0000
0000
0000
,
1001
0000
0000
0000
,
0000
0000
0000
0000
,
0010
0000
0000
0000
,
0000
0000
0000
0000
,
0100
0000
0000
0000
,
0000
0000
0000
0000
,
1000
0000
0000
0000
,
0000
0000
0000
0000
,
0001
0000
0000
0000
,
0100
0000
0000
0000
,
0010
0000
0000
0000
,
1000
0000
0000
0000
,
0001
0000
0000
0000
,
0010
0000
0000
0000
,
0100
0000
0000
0000
,
1000
0000
0000
0000
,
0001
0000
0000
0000
,
1000
0000
0000
0000
,
0010
0000
0000
0000
,
0100
0000
0000
0000
,
1001
0000
0000
0000
,
0000
0000
0000
0000
,
0010
0000
0000
0000
,
0000
0000
0000
0000
,
1000
0000
0000
0000
,
0000
0000
0000
0000
,
0010
0000
0000
0000
,
0000
0000
0000
0000
,
0001
0000
0000
0000
,
0000
0000
0000
0000
,
0010
0000
0000
0000
,
0000
0000
0000
0000
,
0100
0000
0000
0000
,
0000
0000
0000
0000
,
1000
0000
0000
0000
,
0000
0000
0000
0000
,
0110
0000
0000
0000
,
0001
0000
0000
0000
,
0010
0000
0100
0000
,
1000
0000
0001
0000
,
1001
0000
0000
0000
,
0000
0000
0000
0000
,
0010
0000
0000
0000
,
0000
0000
0000
0000
,
0100
0000
0000
0000
,
0000
0000
0000
0000
,
1000
0000
0000
0000
,
0001
0000
0000
0000
,
0010
0000
0000
0000
,
0000
0000
0000
0000
,
0100
0000
0000
0000
,
0000
0000
0000
0000
,
0001
0000
0000
0000
,
0000
0000
0000
0000
,
1000
0000
0000
0000
,
0000
0000
0000
0000
,
1001
0000
0000
0000
;
