#TITLE:Starfield;
#SUBTITLE:;
#ARTIST:Cyrex;
#TITLETRANSLIT:;
#SUBTITLETRANSLIT:;
#ARTISTTRANSLIT:;
#GENRE:Trance;
#CREDIT:;
#BANNER:Starfield-bn.png;
#BACKGROUND:Starfield-bg.png;
#LYRICSPATH:;
#CDTITLE:;
#MUSIC:Starfield.ogg;
#OFFSET:-0.048;
#SAMPLESTART:49.720;
#SAMPLELENGTH:11.860;
#SELECTABLE:YES;
#BPMS:0.000=139.999;
#STOPS:;
#BGCHANGES:0.068=Starfield.mpg=1.000=1=0=0=StretchNoLoop==CrossFade==,
99999=-nosongbg-=1.000=0=0=0 // don't automatically add -songbackground-;
#KEYSOUNDS:;

//---------------dance-double - M. Emirzian----------------
#NOTES:
     dance-double:
     M. Emirzian:
     Easy:
     3:
     0.229,0.000,0.029,0.087,0.000:
00000000
00000000
00000000
00000000
,
00000000
00000000
00000000
00000000
,
00000000
00000000
00000000
00000000
,
00000000
00000000
00000000
00000000
,
00100000
10000000
01000000
00000000
,
00100000
00010000
01000000
00000000
,
00100000
00100000
01000000
00000000
,
00001000
00010000
00010000
00000000
,
00000100
00001000
00001000
00000000
,
00000010
00000100
00000001
00000000
,
00000100
00000010
00001000
00000000
,
00000010
00001000
00000100
00000000
,
00000010
00000001
00000100
00000000
,
00001000
00001000
00000000
00010000
,
00001000
01000000
00010000
00000000
,
01000000
00100000
00000000
10000000
,
01000000
00100000
00010000
00000000
,
00100000
00100000
00000000
00001000
,
00010000
00000100
00001000
00000000
,
00000010
00000010
00000000
00001000
,
00000100
00000010
00000001
00000100
,
00002020
00000000
00000000
00003030
,
00000000
00000000
00000000
00000000
,
00000000
00000000
00000000
00000000
,
00002000
00000000
00000000
00000000
,
00023000
00000000
00000000
00000000
,
02030000
00000000
00000000
00000000
,
23000000
00000000
00000000
00000000
,
30020000
00000000
00000000
00100000
,
00130000
01000000
10000000
00000000
,
10000000
01000000
01000000
00100000
,
00010000
00000000
00100000
00001000
,
00010000
00000000
00001000
00010000
,
00010000
00000100
00001000
00000000
,
00000010
00001000
00000100
00000000
,
00000010
00000001
00000001
00000100
,
00000010
00000000
00000100
00001000
,
00000010
00000000
00010000
00001000
,
00000100
00000000
00010000
00001000
,
00001000
01000000
00010000
00000000
,
10000000
01000000
00100000
00000000
,
01000000
10000000
10000000
00010000
,
01000000
00000000
00001000
00010000
,
00000100
00000000
00000010
00000100
,
00010000
00001000
00000100
00000000
,
00000001
00001000
00000100
00000000
,
00000010
00001000
00001000
00000100
,
00000010
00000000
00001001
00000000
,
00000010
00001000
00001000
00000100
,
00000010
00000000
00000100
00010000
,
00001000
00000000
00000100
00001000
,
00010000
00100000
10000000
00000000
,
01000000
00100000
01000000
00000000
,
10000000
00010000
01000000
00000000
,
00001000
00010000
00100000
00010000
,
00001000
00000000
00001100
00000000
,
00000010
00001000
00000100
00000000
,
00000010
00000001
00000100
00000010
,
00002000
00000000
00000002
00000000
,
00003003
00000000
00000000
00000000
;

//---------------dance-double - M. Emirzian----------------
#NOTES:
     dance-double:
     M. Emirzian:
     Medium:
     5:
     0.371,0.000,0.029,0.058,0.000:
00000000
00000000
00000000
00000000
,
00000000
00000000
00000000
00000000
,
00000000
00000000
00000000
00000000
,
00000000
00000000
00000000
00000000
,
00001000
00001000
00010000
00010000
,
00001000
00010000
00001000
00010000
00000000
00000100
00001000
00000100
,
00000000
00010000
00001000
00010000
00000000
00100000
01000000
00100000
,
00000000
00010000
00001000
00010000
00000000
00000100
00000010
00000100
,
00000000
00010000
00001000
00010000
00000000
00000010
00001000
00000010
,
00001000
00000000
00000100
00000010
00000001
00000000
00000010
00000100
,
00001000
00000000
00000010
00001000
00000100
00000000
00001000
00000010
,
00010000
00000000
00001000
00010000
00000100
00000000
00010000
00001000
,
01000000
00000000
00100000
00010000
00001000
00000000
01000000
00010000
,
01000000
00100000
00000000
00100000
10000000
00010000
00000000
00100000
,
00000000
01000000
00000000
01000000
10000000
00010000
00000000
01000000
,
00000000
00001000
00000000
00001000
00010000
00000100
00000000
00010000
,
00000000
00001000
00000000
00001000
00010000
00000010
00000000
00001000
,
00000000
00000100
00000000
00000100
00000010
00000001
00000000
00000100
,
00000000
00000010
00000000
00000010
00001000
00000001
00000000
00000100
,
00000000
00001000
00000000
00010000
00001000
01000000
00000000
00100000
,
00000000
01000000
00000000
00000000
00010000
00000000
10000000
00000000
,
20020000
00000000
00000000
00000000
,
00000000
00000000
30030000
00000000
,
00000000
00000000
00000000
00000000
,
01000000
00000000
00000000
00000000
,
10010000
00000000
00000000
00000000
,
00000000
00000000
00000000
00000000
,
00001000
00000000
00000000
00000000
,
00010000
00000000
00001000
00000000
,
00010000
00001000
00010000
00000000
00000100
00001000
00000100
00000000
,
00010000
00001000
00010000
00000000
00100000
00000000
00010000
00000000
,
00001000
01000000
00010000
00000000
01000000
00100000
10000000
00000000
,
01000000
00100000
00010000
00000000
00100000
00000000
00001000
00000000
,
00010000
00000010
00000000
00001000
00000100
00000010
00000000
00000100
,
00001000
00000010
00000000
00001000
00000001
00000000
00000100
00000000
,
00000010
00001000
00000100
00000000
00010000
00001000
00100000
00000000
,
00010000
01000000
00100000
00000000
10000000
00000000
01000000
00000000
,
00220000
00000000
00000000
00330000
,
00100000
00010000
00100000
00000000
00001000
00010000
00001000
00000000
,
00000010
00000100
00000010
00000000
00001000
00000000
00010000
00000000
,
00000100
00001000
00000100
00000000
00010000
00001000
00010000
00000000
,
00100000
01000000
00100000
00000000
10000000
00000000
01000000
00000000
,
00100000
00010000
00000000
00010000
00100000
00001000
00000000
00001000
,
00010000
00000010
00000000
00000010
00001000
00000000
00000100
00000000
,
00000010
00000100
00001000
00000000
00000100
00001000
00000010
00000000
,
00000100
00000001
00000010
00000000
00000100
00000000
00001000
00000000
,
00000010
00010000
00001000
00000000
00010000
00001000
00100000
00000000
,
01000000
00010000
00001000
00000000
01000000
00000000
01000000
00000000
,
00100000
01000000
00010000
00000000
10000000
01000000
00100000
00000000
,
00010000
00100000
00001000
00000000
00010000
00000000
00010000
00000000
,
00001000
00010000
00000000
00010000
00000100
00001000
00000000
00001000
,
00000100
00010000
00000000
00010000
00001000
00000000
00010000
00000000
,
00000010
00001000
00000010
00000000
00010000
00001000
00010000
00000000
,
00100000
01000000
00100000
00000000
00010000
00000000
00001000
00000000
,
00000010
00000100
00000010
00000001
00000000
00001000
00000010
00001000
,
00000000
00000100
00010000
00000100
00000000
00010000
00001000
00010000
,
00000000
00100000
01000000
00100000
00000000
00010000
00001000
00010000
,
00000000
00000100
00000010
00000100
00000000
00010000
00001000
00010000
,
00000200
00000000
00002000
00000000
,
00003300
00000000
00000000
00000000
;

//---------------dance-double - M. Emirzian----------------
#NOTES:
     dance-double:
     M. Emirzian:
     Challenge:
     9:
     0.680,0.000,0.223,0.058,0.564:
00000000
00000000
00000000
00000000
,
00000000
00000000
00000000
00000000
,
00000000
00000000
00000000
00000000
00000000
00000000
00000000
00000000
00000000
00000000
00100000
10000000
00000000
01000000
00000000
00010000
,
00000000
00000000
01000000
00010000
00000000
00001000
00000000
00000100
00000000
00000000
00000010
00010000
00000000
00001000
00000000
00000001
,
00000000
00000000
00000100
00001000
00000000
00000010
00000000
00100000
00000000
00000000
00001000
00010000
00000000
10000000
00000000
01000000
,
00010000
00000000
01000000
00000000
00100000
00000000
10000000
00000000
00000000
01000000
00100000
00000000
00001000
00000000
00010000
00000000
,
00000000
00000010
00001000
00000000
00000100
00000000
00000010
00000000
00000000
00000001
00000100
00000000
00001000
00000000
00000100
00000000
,
00000000
00001000
00010000
00000000
00100000
00000000
01000000
00000000
00000000
00001000
00010000
00000000
10000000
00000000
01000000
00000000
,
00000000
00001000
00100000
00000000
01000000
00000000
10000000
00000000
00000000
00010000
01000000
00000000
00001000
00000000
00010000
00000000
,
00000100
00000000
00001000
00000010
00000000
00000010
00000100
00000000
00000001
00000000
00000010
00000100
00000000
00010000
00000010
00000000
,
00000100
00000000
00001000
00010000
00000000
00100000
01000000
00000000
00010000
00000000
10000000
01000000
00000000
01000000
00010000
00000000
,
00000100
00000000
00000010
00000001
00000000
00000100
00000010
00000000
00010000
00000000
00100000
01000000
00000000
00010000
10000000
00000000
,
01000000
00000000
00100000
00001000
00000000
00010000
00000100
00000000
00000010
00000000
00000001
00000000
00001000
00000010
00000100
00000001
,
00000010
00000100
00001000
00000000
00000010
00010010
00000000
00011000
,
00000000
01001000
00010000
00000000
01000000
10100000
00000000
10010000
,
00000000
00110000
00001000
00000000
00010000
00010010
00000000
00001010
,
00000000
00000101
00000010
00000000
00000100
00010100
00000000
00011000
,
00000000
01000100
00010000
00000000
00000010
00011000
00000000
00100010
,
00000000
00011000
00000100
00000000
00100000
00101000
00000000
01001000
,
00000000
10100000
00010000
00000000
00100000
10010000
00000000
10000000
,
01000000
00000000
00100000
00000000
00010000
00000000
01000000
00000000
00001000
00000000
00010000
00000000
00001000
00010000
00000010
00001000
,
00002020
00000000
00000000
00000000
,
00000000
00000000
00003030
00000000
,
00001000
00000000
00000010
00000000
,
00010000
00001000
01000000
00100000
,
01001000
00000000
00001000
01000000
00001000
00000000
01000000
00100000
,
01000000
00000000
01000000
10000000
01000000
00010000
01000000
00001000
,
00010000
00000010
00000100
00001000
00100000
10000000
00100000
00010000
,
00100000
00000000
00000100
00000000
00001000
00000000
00000010
00000000
00010000
00000000
00000001
00000000
00001000
00000100
00000010
00000001
,
00000100
00000010
00001000
00000000
00000100
00000000
00000010
00000000
00000001
00000100
00000010
00000000
00001000
00000000
00000100
00000000
,
00010000
00001000
01000000
00000000
00100000
00000000
10000000
00000000
01000000
00100000
00010000
00000000
01000000
00000000
00001000
00000000
,
00010000
00000010
00001000
00000000
00000100
00000000
00000010
00000000
00000001
00000100
00000010
00000000
00001000
00000000
00000100
00000000
,
00010000
00001000
01000000
00000000
00100000
00000000
10000000
00000000
00100000
01000000
00010000
00000000
00100000
00000000
00001000
00000000
,
00010000
00000100
00001000
00000000
00000001
00000000
00000100
00000000
00000010
00001000
00000100
00000000
00010000
00000000
00001000
00000000
,
00100000
01000000
10000000
00000000
00010000
00000000
01000000
00000000
00001000
00010000
00000010
00000000
00001000
00000000
00000001
00000000
,
00000010
00000100
00001000
00000000
00000010
00000000
00010000
00000000
00001000
01000000
00100000
00000000
10000000
00000000
01000000
00000000
,
00100000
00001000
00010000
00000000
00000100
00000000
00001000
00000000
00000010
00001000
00000100
00000000
00000010
00000000
00000001
00001000
,
00002002
00000000
00000000
00003003
,
00000010
00001000
00000010
00000000
00010000
00000000
00010000
00000000
00001000
01000000
00001000
00000000
00100000
00000000
00100000
00000000
,
00000010
00010000
00000010
00000000
00000100
00000000
00000100
00000000
00000010
00010000
00000010
00000000
00100000
00000000
00100000
00000000
,
00001000
01000000
00001000
00000000
00100000
00000000
00100000
00000000
00001000
01000000
00001000
00000000
00010000
00000000
00010000
00000000
,
10000000
00010000
10000000
00000000
01000000
00000000
01000000
00000000
00001000
00010000
00001000
00000000
00000001
00000000
00000001
00000000
,
00000100
00001000
00000010
00000000
00010000
00000000
00001000
00000000
00100000
00010000
01000000
00000000
10000000
00000000
01000000
00000000
,
00001000
00010000
00000010
00000000
00000100
00000000
00001000
00000000
00010000
00001000
01000000
00000000
00100000
00000000
10000000
00000000
,
01000000
00100000
00010000
00000000
01000000
00000000
00001000
00000000
00000010
00000100
00001000
00000000
00000001
00000000
00000100
00000000
,
00000010
00001000
00000100
00000000
00010000
00000000
00001000
00000000
00100000
00010000
01000000
00000000
00010000
00000000
00100000
00000000
,
01000000
00100000
01000000
00000000
00100000
00000000
00001000
00000000
00000100
00000010
00000100
00000000
00001000
00000000
00010000
00000000
,
00000100
01000000
00000100
00000000
00010000
00000000
00001000
00000000
00100000
00000010
00100000
00000000
00001000
00000000
00010000
00000000
,
00000100
00001000
00000100
00000000
01000000
00000000
00010000
00000000
00100000
01000000
00100000
00000000
00001000
00000000
00000100
00000000
,
00000010
00001000
00000010
00000000
01000000
00000000
00000010
00000000
00010000
00001000
00010000
00000000
00000100
00000000
00100000
00000000
,
00001000
00010000
00000010
00000000
00000100
00000000
00000010
00000000
00010000
00000010
00001000
00000000
00000100
00000000
00000010
00000000
,
00000001
00001000
00000010
00000000
00000100
00000000
00000001
00000000
00001000
00000001
00000010
00000000
00000100
00000000
00010000
00000000
,
00001000
01000000
00010000
00000000
00100000
00000000
00001000
00000000
01000000
00001000
00010000
00000000
00100000
00000000
01000000
00000000
,
00010000
10000000
01000000
00000000
00100000
00000000
00010000
00000000
01000000
00100000
01000000
00010000
01000000
00001000
00010000
00001000
,
01000000
00000000
00100000
01000000
00000000
00001000
00000000
01000000
00100000
00000000
01000000
00001000
00000000
00010000
00000000
00001000
,
00100000
00000000
00001000
00010000
00000000
00000010
00000000
00010000
00001000
00000000
00000010
00000100
00000000
00010000
00000000
00000100
,
00000010
00000000
00000001
00000100
00000000
00000010
00000000
00000100
00000001
00000000
00000010
00000100
00000000
00001000
00000000
00000010
,
00010000
00000000
00001000
00010000
00000000
00000100
00000000
00000000
00000000
00000000
00001000
01000000
00000000
00100000
00000000
00000000
,
20010000
00000000
00002000
00000000
,
30003000
00000000
00000000
00000000
;

//---------------dance-double - M. Emirzian----------------
#NOTES:
     dance-double:
     M. Emirzian:
     Hard:
     8:
     0.511,0.000,0.204,0.058,0.306:
00000000
00000000
00000000
00000000
,
00000000
00000000
00000000
00000000
,
00000000
00000000
00000000
00000000
00000000
00000000
00000000
00000000
00000000
00000000
00100000
10000000
00000000
00010000
00000000
10000000
,
00000000
00000000
00100000
01000000
00000000
00001000
00000000
01000000
00000000
00000000
00001000
00010000
00000000
00000100
00000000
00010000
,
00000000
00000000
00000100
00001000
00000000
00000001
00000000
00001000
00000000
00000000
00000010
00000100
00000000
00000010
00000000
00000100
,
00000001
00000000
00000000
00000000
00000010
00000000
00000001
00000000
00000000
00000010
00000100
00000000
00001000
00000000
00000010
00000000
,
00000000
00001000
00000010
00000000
00010000
00000000
00001000
00000000
00000000
00010000
00001000
00000000
01000000
00000000
00010000
00000000
,
00000000
00100000
00001000
00000000
00010000
00000000
00100000
00000000
00000000
00010000
00100000
00000000
10000000
00000000
01000000
00000000
,
00000000
00100000
00010000
00000000
01000000
00000000
00100000
00000000
00000000
01000000
00010000
00000000
10000000
00000000
01000000
00000000
,
00100000
00000000
00000000
01000000
00000000
01000000
00000000
00000000
00100000
00000000
00000000
00001000
00000000
00001000
00000000
00000000
,
00010000
00000000
00000000
00000010
00000000
00000010
00000000
00000000
00010000
00000000
00000000
00100000
00000000
00100000
00000000
00000000
,
00010000
00000000
00000000
00000100
00000000
00000100
00000000
00000000
00010000
00000000
00000000
01000000
00000000
01000000
00000000
00000000
,
00010000
00000000
00000000
00001000
00000000
00001000
00000000
00000000
00000100
00000000
00000000
00000000
00000001
00000000
00000000
00000000
,
00001000
00000100
00000000
00000010
00000001
00000000
00001000
00000010
,
00000000
00001100
00000000
00000100
00010000
00000000
00001000
01000000
,
00000000
00110000
00000000
01000000
00010000
00000000
00001000
00000100
,
00000000
00011000
00000000
00010000
01000000
00000000
00100000
10000000
,
00000000
11000000
00000000
00100000
00010000
00000000
01000000
00001000
,
00000000
00011000
00000000
00100000
00010000
00000000
00001000
00000010
,
00000000
00000110
00000000
00000001
00000100
00000000
00001000
00000100
,
00000000
00000101
00000000
00000010
00001000
00000100
00010000
00001000
,
00022000
00000000
00000000
00000000
,
00000000
00000000
00033000
00000000
,
00000000
00000000
00000000
00000000
,
00000000
00000000
00000000
00000000
,
01001000
00000000
01000000
00000000
,
00100000
00000000
10000000
00000000
,
01000000
00000000
00100000
00000000
,
00010000
01000000
00100000
10000000
,
01000000
00100000
01000000
00000000
10000000
00000000
00000000
00000000
00010000
00100000
00010000
00000000
10000000
00000000
00000000
00000000
,
00100000
01000000
00100000
00000000
00001000
00000000
00010000
00000000
00000010
00000000
00001000
00000000
00000100
00000000
00000000
00000000
,
00010000
00000010
00010000
00000000
00001000
00000000
00000000
00000000
00000100
00000010
00000100
00000000
00001000
00000000
00000000
00000000
,
00000100
00000010
00000100
00000000
00000001
00000000
00000100
00000000
00000010
00000000
00001000
00000000
00000100
00000000
00000000
00000000
,
00001000
00000100
00001000
00000010
00010000
00001000
00000100
00001000
,
00010000
01000000
00100000
00010000
00100000
01000000
10000000
00000000
,
10000000
01000000
00100000
00010000
01000000
00010000
00100000
00001000
,
00010000
00000010
00001000
00000100
00000010
00000001
00001000
00000010
,
00002002
00000000
00000000
00003003
,
00000010
00001000
00000010
00000000
00000100
00000000
00000001
00000000
00001000
00000000
00000100
00000000
00000010
00000000
00000001
00000000
,
00001000
00000010
00000000
00000000
00010010
00000000
00000000
00000000
00010000
00001000
00000000
00000000
01001000
00000000
00000000
00000000
,
00010000
00001000
00010000
00000000
00000100
00000000
00000000
00000000
00010000
00001000
00010000
00000000
00000010
00000000
00000000
00000000
,
00010000
00001000
01000000
00100000
01000000
00010000
10000000
00000000
,
01000000
00100000
01000000
00000000
10000000
00000000
00100000
00000000
10000000
00000000
01000000
00000000
00100000
00000000
00010000
00000000
,
01000000
00001000
00000000
00000000
01010000
00000000
00000000
00000000
00100000
00001000
00000000
00000000
00011000
00000000
00000000
00000000
,
00010000
00000100
00010000
00000000
00001000
00000000
00000000
00000000
00010000
00000010
00010000
00000000
00001000
00000000
00000000
00000000
,
00010000
00000010
00001000
00000010
00000100
00000001
00000010
00000000
,
00000100
00001000
00000100
00000000
00000010
00000000
00000001
00000000
00000100
00000000
00000010
00000000
00001000
00000000
00000100
00000000
,
00010000
00000100
00000000
00000000
00001100
00000000
00000000
00000000
00010000
00001000
00000000
00000000
00110000
00000000
00000000
00000000
,
00100000
01000000
00100000
00000000
10000000
00000000
00000000
00000000
01000000
00100000
01000000
00000000
10000000
00000000
00000000
00000000
,
01000000
00100000
00001000
00010000
00000100
00000010
00000001
00000000
,
00001000
00000001
00001000
00000000
00000010
00000000
00000100
00000000
00000010
00000000
00001000
00000000
00000100
00000000
00010000
00000000
,
00000100
00001000
00000000
00000000
00010100
00000000
00000000
00000000
00010000
00001000
00000000
00000000
01001000
00000000
00000000
00000000
,
00010000
00001000
00010000
00000000
00000100
00000000
00000000
00000000
00001000
00000010
00001000
00000000
00000100
00000000
00000000
00000000
,
00001100
00000000
00000000
00000000
00010100
00000000
00000000
00010000
00001000
00000000
00010000
00000000
00001000
00000000
00010000
00000000
,
00001000
00010000
01000000
10000000
00100000
10000000
01000000
00100000
,
00000000
00100000
00010000
01000000
00001000
00010000
00000100
00000010
,
00000000
00000010
00000100
00001000
00000001
00000100
00001000
00010000
,
00000000
00010000
00100000
10000000
01000000
10000000
00010000
00000000
,
02010000
00000000
00002000
00000000
,
03003000
00000000
00000000
00000000
;

//---------------dance-single - J. Frederick----------------
#NOTES:
     dance-single:
     J. Frederick:
     Beginner:
     1:
     0.079,0.000,0.029,0.000,0.000:
0000
0000
0000
0000
,
0000
0000
0000
0000
,
1000
0000
0000
0000
,
0001
0000
0000
0000
,
0010
0000
0000
0000
,
0110
0000
0000
0000
,
1000
0000
0000
0000
,
0001
0000
0000
0000
,
0100
0000
0000
0000
,
0010
0000
0000
0000
,
1000
0000
0000
0000
,
0001
0000
0000
0000
,
0010
0000
0000
0000
,
0100
0000
0000
0000
,
1000
0000
0000
0000
,
0001
0000
0000
0000
,
0010
0000
0000
0000
,
0100
0000
0000
0000
,
0010
0000
0000
0000
,
0001
0000
0000
0000
,
1000
0000
0000
0000
,
1001
0000
0000
0000
,
0000
0000
0000
0000
,
0000
0000
0000
0000
,
0000
0000
0000
0000
,
0100
0000
0000
0000
,
1000
0000
0000
0000
,
0001
0000
0000
0000
,
0010
0000
0000
0000
,
0100
0000
0000
0000
,
1000
0000
0000
0000
,
0001
0000
0000
0000
,
0100
0000
0000
0000
,
0010
0000
0000
0000
,
0001
0000
0000
0000
,
1000
0000
0000
0000
,
0100
0000
0000
0000
,
0010
0000
0000
0000
,
0001
0000
0000
0000
,
0100
0000
0000
0000
,
1000
0000
0000
0000
,
0010
0000
0000
0000
,
0100
0000
0000
0000
,
0001
0000
0000
0000
,
1000
0000
0000
0000
,
0100
0000
0000
0000
,
0010
0000
0000
0000
,
0001
0000
0000
0000
,
1000
0000
0000
0000
,
0100
0000
0000
0000
,
0010
0000
0000
0000
,
1000
0000
0000
0000
,
0001
0000
0000
0000
,
0010
0000
0000
0000
,
0100
0000
0000
0000
,
1000
0000
0000
0000
,
0001
0000
0000
0000
,
0010
0000
0000
0000
,
0110
0000
0000
0000
;

//---------------dance-single - J. Frederick----------------
#NOTES:
     dance-single:
     J. Frederick:
     Easy:
     4:
     0.308,0.000,0.243,0.165,0.000:
0000
0000
0000
0000
,
0000
0000
0000
0000
,
0000
0000
0000
0000
,
1000
0001
1000
0001
,
1000
0001
1000
0001
,
1000
1100
0001
0101
,
0010
0110
1000
1010
,
0100
0101
0001
0011
,
0110
1000
1001
0100
,
0010
1000
0010
0100
,
0001
0010
0001
1000
,
0100
0010
0001
0100
,
0010
1000
0010
0100
,
0001
0010
0100
1000
,
0100
0010
0001
0100
,
0010
1000
0010
0100
,
0001
0010
0100
1000
,
1100
0001
0101
0010
,
0110
1000
1010
0100
,
0101
0001
0011
0010
,
0110
1000
0010
0100
,
0002
0000
0000
0000
,
0000
0000
0000
0000
,
0000
0000
0000
0003
,
0000
0000
0000
0000
,
1000
0010
0100
0000
,
0010
0100
0001
0000
,
0010
0100
1000
0000
,
0100
0010
0001
0000
,
1001
0100
0010
0000
,
1010
0100
0001
0000
,
0011
0100
1000
0000
,
1001
0100
0010
0000
,
1000
0010
0100
0001
,
0010
0100
1000
0100
,
0010
0001
0100
0001
,
1000
0001
0100
0010
,
2002
0000
0000
3003
,
0010
0100
1000
0100
,
0010
0001
0100
0010
,
1000
0010
0100
0001
,
0010
0100
1000
0100
,
0010
0001
0100
0001
,
0010
0100
1000
0010
,
0001
0010
1000
0100
,
0010
0001
0100
0001
,
1001
0100
0010
1000
,
0100
0010
0001
0100
,
0001
0010
0100
1000
,
0010
0100
0010
1000
,
0002
0003
2000
3000
,
0010
0100
0001
0010
,
0200
0300
2000
3000
,
0001
1000
0001
1000
,
2002
0000
0000
3003
,
0220
0000
0000
0330
,
2020
0000
0000
3030
,
0202
0000
0000
0303
,
0200
0000
0020
0000
,
0000
0330
0000
0000
;

//---------------dance-single - J. Frederick----------------
#NOTES:
     dance-single:
     J. Frederick:
     Medium:
     6:
     0.375,0.000,0.155,0.058,0.000:
0000
0000
0000
0000
,
0000
0000
0000
0000
,
0000
0000
0000
0000
,
1000
0001
0100
0010
,
1000
0010
0100
0001
,
0010
0100
1000
0100
,
0010
0001
0100
0001
,
1000
0010
0100
0010
,
1000
0001
0010
0100
,
1000
0100
1000
0000
0010
0000
0100
0000
,
0001
0010
0001
0000
0100
0000
0010
0000
,
1000
0010
1000
0000
0010
0000
0100
0000
,
0001
0010
0001
0000
0100
0000
0010
0000
,
1000
0001
0010
0000
0100
0000
1000
0000
,
0100
0010
0001
0100
,
0010
1000
0001
0000
0010
0000
0100
0000
,
1000
0100
0010
0001
,
0100
0010
1000
0000
0010
0000
0100
0000
,
0001
0010
0100
1000
,
0100
0010
0001
0000
0100
0000
0001
0000
,
1000
0010
0100
0010
,
0220
0000
0000
0000
,
0000
0000
0000
0000
,
0000
0000
0000
0330
,
0000
0000
0000
0000
,
1001
0100
0010
1000
,
0010
0000
0100
0000
0001
0010
0001
0010
,
0001
1000
0010
0100
,
0001
0000
0010
0000
0100
1000
0100
1000
,
0100
0010
0001
0100
,
0010
1000
0010
1000
0010
0000
0100
0000
,
0001
0010
0100
1000
,
0010
0100
0010
0100
0010
0000
1000
0000
,
0001
0000
0010
0000
0100
1000
0100
0000
,
0010
0000
0001
0000
0100
0001
0100
0001
,
0100
0001
1000
0010
,
0100
0010
0100
0010
0100
0010
0100
0010
,
2002
0000
0000
0000
0000
0000
0000
3003
,
1001
0000
0100
0000
0010
1000
0010
0000
,
0100
0000
0001
0000
0010
0100
1000
0100
,
0010
0001
0100
0010
,
1000
0010
0100
0000
0001
0000
0010
0000
,
0100
1000
0100
0000
0010
0000
0001
0000
,
0100
0001
0010
0000
0001
0000
1000
0000
,
0010
0001
0010
0000
1000
0000
0100
0000
,
0010
0001
0100
0000
0001
0000
1000
0000
,
1100
0000
0011
0000
0100
0001
1000
0000
,
1010
0000
0101
0000
0010
0001
0010
0000
,
0110
0000
1001
0000
0100
0010
0100
0000
,
1010
0101
0011
0110
,
1000
0100
0010
0000
0001
0000
0100
0000
,
0010
1000
0001
0000
0010
0000
0100
0000
,
1000
0100
0010
0000
0001
0010
0100
0000
,
1000
0000
0010
0000
0100
0010
0100
0010
,
0110
1000
0001
0010
,
0100
1000
0100
0010
,
0001
0100
0010
1000
0000
0010
0100
0001
,
0000
0010
0100
1000
0000
0100
0010
0001
,
2002
0000
0000
0000
0000
0003
0000
0000
,
0000
3000
0000
0000
;

//---------------dance-single - J. Nordli----------------
#NOTES:
     dance-single:
     J. Nordli:
     Edit:
     9:
     0.558,0.000,0.369,0.204,0.374: // measure 1
0000
0000
0000
0000
,  // measure 2
0000
0000
0000
0000
,  // measure 3
0000
0000
0000
0000
,  // measure 4
1000
0001
0100
0010
,  // measure 5
1000
0010
0100
0001
,  // measure 6
2200
3000
1300
0000
0100
0000
0010
0000
0001
0000
0010
0000
0100
0000
0000
0000
,  // measure 7
0001
0100
0010
1000
0100
0010
0001
0000
,  // measure 8
0100
0010
1000
0100
0010
0100
0010
0000
,  // measure 9
0001
0100
0010
1000
0100
0010
0001
0000
,  // measure 10
1000
0000
0000
0100
0000
1000
0100
0000
0010
0000
0000
0001
0000
0010
0001
0000
,  // measure 11
0100
0000
0000
0010
0000
1000
0010
0000
0100
0000
0000
0010
0000
0100
0001
0000
,  // measure 12
0010
0000
0000
0001
0000
0010
0001
0000
0100
0000
0000
0010
0000
0100
0010
0000
,  // measure 13
1000
0000
0000
0010
0000
1000
0010
0000
1000
0000
0000
0100
0000
1000
0000
0001
,  // measure 14
1000
0000
0000
0100
0000
0000
0010
0000
0000
0001
0000
0000
0100
0000
0000
0000
,  // measure 15
0010
0000
0000
1000
0000
0000
0100
0000
0000
0010
0000
0000
0001
0000
0000
0000
,  // measure 16
0100
0000
0000
0010
0000
0000
1000
0000
0000
0100
0000
0000
0010
0000
0000
0000
,  // measure 17
0001
0000
0000
0100
0000
0000
0010
0000
0000
1000
0000
0000
0100
0000
0000
0000
,  // measure 18
0010
0000
0000
0001
0000
0000
0001
0000
0000
0001
0000
0000
0001
0000
0000
0000
,  // measure 19
1000
0000
0000
1000
0000
0000
1000
0000
0000
1000
0000
0000
1000
0000
0000
0000
,  // measure 20
0010
0000
0000
0010
0000
0000
0010
0000
0000
0010
0000
0000
0010
0000
0000
0000
,  // measure 21
0001
0000
0100
0000
0010
0000
1000
0000
0001
0100
0010
1000
0100
0010
0100
0000
,  // measure 22
0220
0000
000M
0000
,  // measure 23
M000
M00M
000M
M000
,  // measure 24
M00M
0000
000M
0330
,  // measure 25
M0M0
0M00
0M0M
M0M0
0M0M
00MM
M000
0M00
,  // measure 26
1111
0000
MMMM
M000
MMMM
000M
MMMM
0000
,  // measure 27
MMMM
0MM0
0MM0
0MM0
0MM0
0000
0MM0
M00M
,  // measure 28
M00M
MMMM
M00M
M00M
0000
MMM0
M00M
M00M
,  // measure 29
M0M0
0000
0000
MM00
0000
0000
MM00
0000
0000
M000
00M0
0000
M000
0000
0000
M00M
0000
0000
0000
0000
0000
0000
0000
0000
,  // measure 30
1001
1000
0100
0010
0000
0010
0000
0001
,  // measure 31
0100
0000
0010
1000
0010
0000
1000
0000
0100
1000
0100
0000
0010
0000
0001
0000
,  // measure 32
0010
0000
0101
0101
0000
1100
1100
0100
,  // measure 33
1000
0000
0100
0010
0100
0000
1000
0000
0010
0100
0001
0000
1000
0000
0100
0000
,  // measure 34
0011
0001
0100
0010
0000
0010
0000
1000
,  // measure 35
0100
0000
0010
0001
0010
0000
0001
0000
0100
0010
0100
0000
0010
0000
1000
0000
,  // measure 36
0010
0000
0110
0110
0000
1001
1001
0001
,  // measure 37
1000
0000
0100
0010
0100
0000
1000
0000
0010
0100
0010
0000
1000
0000
0100
0000
,  // measure 38
2002
0000
0000
0000
0000
0000
00M0
0000
0M20
0000
0M00
0000
0M30
0000
30M0
0003
,  // measure 39
1001
1000
0100
0010
0000
0001
0000
0001
,  // measure 40
0100
0000
0010
1000
0010
0000
1000
0000
0100
0010
0100
0000
0010
0000
0001
0000
,  // measure 41
0010
0000
1100
1100
0000
1100
1100
1000
,  // measure 42
0001
0000
0100
0001
0100
0000
0001
0000
0010
0100
0010
0000
0001
0000
0100
0000
,  // measure 43
1010
1000
0100
1000
0000
1000
0000
1000
,  // measure 44
0100
0000
0010
0001
0010
0000
0001
0000
0100
0010
0100
0000
0010
0000
1000
0000
,  // measure 45
0010
0000
0101
1010
0000
1100
0011
0001
,  // measure 46
1000
0000
0100
0010
0100
0000
1000
0000
0010
0100
0010
0000
1000
0000
0100
0000
,  // measure 47
1100
1000
0100
0010
0000
0010
0000
0001
,  // measure 48
0100
0000
0010
0100
0010
0000
0100
0000
0001
0010
0001
0000
0100
0000
0010
0000
,  // measure 49
1000
0000
1100
0011
0000
0101
1010
0010
,  // measure 50
1000
0000
0100
0010
0100
0000
1000
0000
0100
0010
0001
0000
0100
0000
0010
0000
,  // measure 51
0100
0010
0100
0010
0100
0010
0100
0010
0100
0001
0100
0001
0100
0001
0100
0001
,  // measure 52
1000
0001
1000
0001
1000
0001
1000
0001
1000
0001
0100
0001
0100
0001
0100
0000
,  // measure 53
0202
0000
0000
0000
,  // measure 54
4000
0000
0000
0000
0000
0000
0000
3303
,  // measure 55
1111
0202
1303
2200
,  // measure 56
3301
0220
1330
0220
,  // measure 57
0331
0220
1330
1001
,  // measure 58
0010
0100
0010
0100
0010
0100
0001
0100
0001
0100
0001
1000
0001
1000
0001
0000
,  // measure 59
2002
0000
0000
0000
0003
000M
0000
0000
,  // measure 60
3000
M000
0000
0000
0000
0000
0000
0000
;

//---------------dance-single - J. Nordli----------------
#NOTES:
     dance-single:
     J. Nordli:
     Hard:
     8:
     0.426,0.000,0.117,0.126,0.117: // measure 1
0000
0000
0000
0000
,  // measure 2
0000
0000
0000
0000
,  // measure 3
0000
0000
0000
0000
,  // measure 4
1000
0001
1000
0001
,  // measure 5
0010
0001
0010
0001
,  // measure 6
0001
1000
0100
0010
0001
0010
0100
0000
,  // measure 7
1000
0001
1000
0100
0010
0100
0010
0000
,  // measure 8
0100
0010
0001
0100
0010
0100
0010
0000
,  // measure 9
0010
0100
0010
1000
0100
0010
0001
0000
,  // measure 10
1000
0000
0000
0100
0000
0000
0100
0000
0010
0000
0000
0001
0000
0000
0001
0000
,  // measure 11
0100
0000
0000
0010
0000
0000
0010
0000
0100
0000
0000
0010
0000
0000
0001
0000
,  // measure 12
0010
0000
0000
0001
0000
0000
0001
0000
0100
0000
0000
0010
0000
0000
0010
0000
,  // measure 13
1000
0000
0000
0010
0000
0000
0010
0000
1000
0000
0000
0100
0000
1000
0000
0000
,  // measure 14
1000
0000
0000
0100
0000
0000
0010
0000
0000
0001
0000
0000
0100
0000
0000
0000
,  // measure 15
0010
0000
0000
0010
0000
0000
0100
0000
0000
0010
0000
0000
1000
0000
0000
0000
,  // measure 16
0100
0000
0000
0010
0000
0000
0001
0000
0000
0100
0000
0000
0010
0000
0000
0000
,  // measure 17
0010
0000
0000
0100
0000
0000
0010
0000
0000
1000
0000
0000
0100
0000
0000
0000
,  // measure 18
0010
0000
0000
0001
0000
0000
1000
0000
0000
0001
0000
0000
1000
0000
0000
0000
,  // measure 19
0001
0000
0000
1000
0000
0000
0001
0000
0000
1000
0000
0000
0001
0000
0000
0000
,  // measure 20
1000
0000
0000
0001
0000
0000
1000
0000
0000
0001
0000
0000
1000
0000
0000
0000
,  // measure 21
0001
0100
0010
1000
0001
0010
0100
0010
,  // measure 22
0220
0000
000M
0000
,  // measure 23
M000
M00M
000M
M000
,  // measure 24
M00M
0000
000M
0330
,  // measure 25
M0M0
0M00
0M0M
M0M0
0M0M
00MM
M000
0M00
,  // measure 26
1001
0000
MMMM
M000
MMMM
000M
MMMM
0000
,  // measure 27
MMMM
0MM0
0MM0
0MM0
0MM0
0000
0MM0
M00M
,  // measure 28
M00M
MMMM
M00M
M00M
0000
MMM0
M00M
M00M
,  // measure 29
M0M0
0000
0000
MM00
0000
0000
MM00
0000
0000
M000
00M0
0000
M000
0000
0000
M00M
0000
0000
0000
0000
0000
0000
0000
0000
,  // measure 30
0001
1000
0100
0010
0000
0001
0000
0001
,  // measure 31
0100
0010
0010
1000
0100
0100
0010
0001
,  // measure 32
0010
0000
0001
0100
0000
1000
0100
0010
,  // measure 33
0001
0100
0010
1000
0100
0010
0001
0010
,  // measure 34
0001
0100
0010
1000
0000
0100
0000
1000
,  // measure 35
0100
0010
0001
0100
0010
1000
0100
0010
,  // measure 36
0001
0000
0001
0100
0000
0001
0100
0010
,  // measure 37
1000
0100
0010
0001
0010
0100
0010
0000
,  // measure 38
0210
0000
0000
0000
0020
0000
0000
0330
,  // measure 39
1000
0001
0100
0010
0000
1000
0000
0100
,  // measure 40
0010
0001
0010
0100
1000
0010
0100
0001
,  // measure 41
0010
0000
0001
0010
0000
0100
1000
0100
,  // measure 42
0010
0001
0100
0010
1000
0100
0010
0001
,  // measure 43
1000
0001
0100
0010
0000
0010
0000
0010
,  // measure 44
1000
0100
0010
0001
0010
0100
1000
0010
,  // measure 45
0100
0000
0001
0100
0000
0010
1000
0100
,  // measure 46
0010
0001
0010
0100
0010
0001
0100
0010
,  // measure 47
1000
0100
0010
0001
0000
0001
0000
0001
,  // measure 48
0010
0001
0100
0001
0010
0001
0100
0010
,  // measure 49
1000
0000
0001
0010
0000
0001
1000
0001
,  // measure 50
0100
0010
0100
0001
0100
0010
0100
0001
,  // measure 51
0010
0001
0010
0001
0000
0001
0000
0001
,  // measure 52
1000
0001
0100
0010
1000
0100
0010
0001
,  // measure 53
2002
0000
0000
0000
,  // measure 54
0000
0000
0000
0000
0000
0000
0000
0000
0000
0000
3003
0000
,  // measure 55
1001
0102
0103
2100
,  // measure 56
3100
0120
1030
0120
,  // measure 57
1030
0120
1030
1001
,  // measure 58
0001
0100
0010
1000
0100
0010
0001
0010
,  // measure 59
0022
0000
0030
0000
,  // measure 60
0003
0000
MMMM
0000
;

//---------------dance-single - G. Marchan----------------
#NOTES:
     dance-single:
     G. Marchan:
     Challenge:
     10:
     0.757,0.000,0.748,0.194,0.855: // measure 1
0000
0000
0000
0000
,  // measure 2
0000
0000
0000
0000
,  // measure 3
0000
0000
0000
0000
,  // measure 4
0001
0000
1000
0100
0000
0010
0000
0110
0000
0000
0010
0001
0000
1000
0000
1001
,  // measure 5
0000
0000
0100
0001
0000
0010
0000
0011
0000
0000
1000
0001
0000
1000
0000
1000
,  // measure 6
0001
0010
0001
0000
0010
0000
0100
0000
1000
0100
0010
0100
1000
0000
0001
0000
,  // measure 7
0100
0010
0100
0000
0010
0000
1000
0000
0100
0010
0001
0010
0001
0000
0100
0000
,  // measure 8
0010
1000
0001
0000
0100
0000
0010
0000
0100
0001
0100
0001
0010
0000
0100
0000
,  // measure 9
1000
0100
1000
0000
0010
0000
0100
0000
0001
1000
0100
1000
0001
0000
0100
0000
,  // measure 10
0010
0000
0000
0110
0000
0100
0001
0000
0011
0000
0000
1001
0000
1000
0010
0000
,  // measure 11
0110
0000
0000
1010
0000
1000
0001
0000
0011
0000
0000
1100
0000
1000
0100
0000
,  // measure 12
1001
0000
0000
0110
0000
0010
0100
0000
0101
0000
0000
0011
0000
0001
1000
0000
,  // measure 13
1100
0000
0000
1010
0000
1000
0100
0000
0110
0000
0000
0011
0000
1000
0100
0000
,  // measure 14
1100
1000
0100
0000
2100
0000
3001
0010
,  // measure 15
0001
0100
0010
0000
0120
0000
1030
0001
,  // measure 16
0100
0010
0100
0000
1002
0000
0013
0001
,  // measure 17
0100
0000
0010
0000
1000
0000
0000
0000
1100
0000
0000
1010
0000
0000
0110
0000
,  // measure 18
0101
0001
0010
0000
0012
0000
0103
0001
,  // measure 19
1000
0100
1000
0000
2100
0000
3010
0100
,  // measure 20
0001
0010
0001
0000
0201
0000
0310
0100
,  // measure 21
0010
0000
1000
0000
0100
0000
0000
0000
1100
0000
0000
0110
0000
0000
0011
0000
,  // measure 22
20M2
0000
0000
0M00
0000
0000
00M0
0000
0000
0M00
0000
0000
00M0
0000
0000
0M00
,  // measure 23
0000
0000
00M0
0000
0000
0M00
0000
0000
00M0
0000
0000
0M00
0000
0000
00M0
0000
,  // measure 24
0000
0M00
0000
0000
00M0
0000
0000
0M00
0000
0000
00M0
0000
3003
0000
M00M
0000
,  // measure 25
0M00
000M
00M0
M000
00M0
000M
0M00
M00M
,  // measure 26
1001
M00M
0M00
00M0
M000
000M
0M00
00M0
,  // measure 27
1000
0100
1000
0100
0010
0001
0010
0001
,  // measure 28
1000
0010
0100
0010
1000
0001
0100
0010
,  // measure 29
1000
0100
0010
0001
0010
0100
0010
0001
,  // measure 30
1000
0100
1000
0000
0010
0000
0110
0000
0100
0001
0010
0000
0001
0000
0011
0000
,  // measure 31
1000
0100
0010
0001
0010
0000
0100
0000
0010
0001
0010
0000
0100
0000
1000
0000
,  // measure 32
0010
0100
0001
0000
0100
0000
0110
0000
0010
1000
0001
0000
0100
0000
1010
0000
,  // measure 33
1000
0001
0010
0000
0001
0000
0100
0000
0010
1000
0010
1000
0100
0000
0010
0000
,  // measure 34
0001
1000
0100
0000
1000
0000
1001
0000
0010
0100
0010
0000
1000
0000
1010
0000
,  // measure 35
0100
0001
0010
0000
0001
0000
0010
0000
0001
0010
0100
1000
0100
0000
1100
0000
,  // measure 36
0010
1000
0100
0000
0010
0000
0011
0000
0010
0001
0100
0000
0010
0000
1000
0000
,  // measure 37
0010
1000
0100
0000
0010
0000
0001
0000
1000
0010
0100
0001
0010
0100
1000
0002
,  // measure 38
2000
0000
0020
3033
,  // measure 39
1000
0010
1000
0000
0100
0000
0010
0000
0001
0100
0001
0000
0010
0000
0100
0000
,  // measure 40
1000
0001
0010
0000
0011
0000
0011
0000
0100
0010
1000
0000
1100
0000
1100
0000
,  // measure 41
1000
0010
0100
0000
0001
0000
0011
0000
0001
0100
0010
0000
1000
0000
1010
0000
,  // measure 42
0100
0010
0100
0000
0101
0000
0101
0000
0001
0010
0001
1000
0010
1000
0100
0010
,  // measure 43
0001
1000
0010
0000
1000
0000
0001
0000
0010
0001
0100
0000
0010
0000
1000
0000
,  // measure 44
0001
1000
0001
0000
0110
0000
0101
0000
0100
0010
1000
0000
1001
0000
0101
0000
,  // measure 45
0100
0010
1000
0000
0100
0000
1100
0000
0010
0001
0010
0000
0001
0000
0101
0000
,  // measure 46
0100
0010
1000
0000
1100
0000
1100
0000
1000
0001
0100
0010
1000
0001
0010
0100
,  // measure 47
1000
0100
1000
0000
0001
0000
0010
0000
0100
1000
0100
0000
0010
0000
0001
0000
,  // measure 48
0010
0100
1000
0000
1010
0000
1010
0000
1000
0100
0010
0000
0011
0000
0011
0000
,  // measure 49
0001
0100
0010
0000
0110
0000
0101
0000
0100
0010
1000
0000
1001
0000
1100
0000
,  // measure 50
0100
0010
0001
0000
0100
0000
0110
0000
0010
1000
0100
0010
0001
0010
0001
1000
,  // measure 51
0100
1000
0010
0000
0100
0000
0010
0000
1000
0001
1000
0000
0100
0000
0010
0000
,  // measure 52
0100
0010
0001
0000
1100
0000
1100
0000
0001
0010
0100
0000
0011
0000
0011
0000
,  // measure 53
1001
0000
0000
0000
0011
MM00
0011
0000
00MM
0000
1100
00MM
1100
0000
MM00
0000
,  // measure 54
1000
0001
0010
0000
0100
0000
1000
0000
0001
0010
0100
1000
0100
0010
0001
0100
,  // measure 55
0010
0000
0000
1000
000M
M000
00M1
0M00
000M
0200
M0M0
0000
030M
00M0
0M00
0010
M00M
00M0
1000
0M0M
M000
0002
00M0
M000
,  // measure 56
0003
0M00
000M
M100
00M0
0M00
001M
M000
00M0
2000
0M00
0000
300M
00M0
M000
0010
0M0M
00M0
0100
M00M
0M00
0002
00M0
0000
,  // measure 57
0003
M000
0M0M
1000
00M0
M000
0010
0M0M
00M0
0200
0000
M000
03M0
000M
0M00
0001
M000
000M
10M0
0M00
M000
0200
000M
0000
,  // measure 58
0300
M0M0
0M00
001M
0M00
00M0
0100
M000
0M0M
2000
00M0
0000
3000
000M
M0M0
0001
0M00
000M
M100
00M0
0M00
0010
M00M
00M0
,  // measure 59
2002
0000
0000
0000
0000
0000
0000
0000
3000
M000
M000
M000
M000
M000
M000
M000
,  // measure 60
M003
MMMM
0000
0000
0000
0000
0000
0000
0000
0000
0000
0000
0000
0000
0000
0000
;
