#TITLE:Southcoast Calling;
#SUBTITLE:;
#ARTIST:Street Corner Poets;
#TITLETRANSLIT:;
#SUBTITLETRANSLIT:;
#ARTISTTRANSLIT:;
#GENRE:Rap;
#CREDIT:;
#BANNER:South Coast Calling-bn.png;
#BACKGROUND:South Coast Calling-bg.png;
#LYRICSPATH:;
#CDTITLE:;
#MUSIC:Southcoast Calling.ogg;
#OFFSET:0.025;
#SAMPLESTART:33.740;
#SAMPLELENGTH:11.840;
#SELECTABLE:YES;
#BPMS:0.000=199.000,96.000=99.500,104.000=199.000;
#STOPS:;
#BGCHANGES:0.307=Southcoast Calling.mpg=1.000=1=0=0=StretchNoLoop==CrossFade==,
99999=-nosongbg-=1.000=0=0=0 // don't automatically add -songbackground-;
#KEYSOUNDS:;

//---------------dance-double - M.Emirzian----------------
#NOTES:
     dance-double:
     M.Emirzian:
     Easy:
     4:
     0.271,0.236,0.009,0.000,0.000,204.000,1.000,0.000,0.000,0.000,0.000,0.271,0.236,0.009,0.000,0.000,204.000,1.000,0.000,0.000,0.000,0.000:
00000000
00000000
00000000
00000000
,
00000000
00000000
00000000
00000000
,
00000000
00000000
00000000
00000000
,
00000000
00000000
00000000
00000000
,
10000000
00000000
00010000
00000000
,
10000000
00000000
00010000
00000000
,
10000000
00000000
01000000
00000000
,
00100000
00000000
01000000
00000000
,
00100000
00100000
00000000
00001000
,
00001000
00000000
00010000
00010000
,
00000000
00000100
00000100
00000000
,
00001000
00001000
00000000
00000001
,
00000001
00000000
00000100
00000000
,
00000010
00000000
00001000
00000100
,
00000000
00010000
00001000
00000000
,
00100000
00010000
00000000
10000000
,
00100000
00000000
01000000
00000000
,
00010000
00000000
01000000
00000000
,
00010000
00000000
00100000
00000000
,
00001000
00000000
00010000
00000000
,
00001000
00000000
00010000
00000000
,
00000100
00000000
00001000
00000000
,
00000010
00000000
00001000
00000000
,
00000001
00000100
00000010
00001000
,
00000001
00000000
00001000
00000000
,
00010000
00000000
10000000
10000000
,
10000000
00000000
00010000
00000000
,
01000000
01000000
00000000
00001000
,
00010000
00100000
00000000
01000000
,
00000000
00001000
00000000
00010000
,
00000010
00010000
00001000
00000000
,
00001000
00001000
00000000
00000001
,
00000100
00000010
00000000
00001000
,
00000000
00000100
00000000
00010000
,
00001000
00100000
00001000
00000000
,
01000000
01000000
00000000
00010000
,
10000000
00100000
00000000
01000000
,
00000000
00010000
00000000
10000000
,
01000000
10000000
00100000
00000000
,
00100000
00100000
00000000
00010000
,
00010000
00000000
01000000
00000000
,
00001000
00010000
00000100
00000000
,
00001000
00000000
00001000
00000000
,
00000010
00000010
00000010
00000000
,
00000100
00000000
00000001
00000000
,
00001000
00000100
00000010
00000000
,
00000100
00000000
00000100
00000000
,
00010000
00010000
00010000
00000000
,
00001000
01000000
00000000
00010000
,
01000000
00000000
00100000
01000000
,
00000000
10000000
01000000
00000000
,
00010000
01000000
00000000
00001000
,
00010000
00000000
00000100
00010000
,
00000000
00000010
00010000
00000000
,
00000010
00000100
00000000
00000001
,
00001000
00000000
00000100
00000100
,
00000100
00000000
00000010
00000000
,
00000100
00000000
00001000
00000000
,
00010000
00010000
00010000
00000000
,
00001000
00000000
00010000
00000000
,
00100000
00000000
10000000
00000000
,
01000000
00000000
00100000
00000000
,
00010000
00000000
00100000
00000000
,
00001000
00000000
00010000
00010000
,
00000100
00000000
00001000
00000000
,
00000010
00000010
00000010
00000000
,
00000001
00000001
00000000
00000100
,
00000100
00000000
00000010
00000010
,
00001000
00000000
00000100
00000000
,
00010000
00010000
00001000
00000000
,
01000000
01000000
00000000
00010000
,
00010000
00000000
10000000
00100000
,
01000000
00000000
00010000
00000000
,
00100000
00000000
00001000
00000000
,
00010000
00000100
00000000
00001000
,
00000100
00000000
00001000
00000100
,
00000100
00000000
00000010
00000000
,
00000001
00000000
00000100
00000100
,
00001000
00000000
00010000
00000000
,
00100000
00000000
10000000
00000000
,
01000000
00000000
10000000
00000000
,
00010000
00000000
00001000
00000000
,
00000001
00000000
00001000
00000000
,
00000100
00000100
00000100
00000000
,
00010000
00001000
00000000
01000000
,
01010000
00000000
00000000
00000000
;

//---------------dance-double - M.Emirzian----------------
#NOTES:
     dance-double:
     M.Emirzian:
     Medium:
     6:
     0.432,0.433,0.130,0.019,0.000,311.000,14.000,2.000,0.000,0.000,0.000,0.432,0.433,0.130,0.019,0.000,311.000,14.000,2.000,0.000,0.000,0.000:
00000000
00000000
00000000
00000000
,
00000000
00000000
00000000
00000000
,
00000000
00000000
00000000
00000000
,
00000000
00000000
00000000
00000000
,
00100000
00000000
00000000
00100000
00010000
00000000
00000000
00000000
,
01000000
00000000
00000000
01000000
00010000
00000000
00000000
00000000
,
00100000
00000000
00000000
00100000
00001000
00000000
00000000
00000000
,
00010000
00000000
00000000
00010000
00001000
00000000
00010000
00000000
,
00000100
00001000
00000010
00000100
,
00000001
00001000
00000010
00000000
00000100
00000000
00000010
00000000
,
00010000
00001000
01000000
00010000
,
10000000
00010000
00100000
00000000
01000000
00000000
00100000
00000000
,
00010000
01000000
00001000
00010000
,
00001000
00100000
00001000
00010000
,
00000100
00000100
00010000
00000010
,
00000010
00001000
00000100
00001001
,
00000001
00000000
00000000
00000001
00000100
00000000
00000000
00000000
,
00000100
00000000
00000000
00000100
00001000
00000000
00010000
00000000
,
00000100
00010000
00001000
01000000
,
00100000
10000000
00100000
01000000
,
00010000
00000000
00000000
00010000
01000000
00000000
00000000
00000000
,
00100000
00000000
00000000
00100000
10000000
00000000
01000000
00000000
,
00100000
00010000
01000000
00001000
,
00010000
00001000
00100000
00000000
00001000
00000000
00010000
00000000
,
00000010
00000000
00000100
00000000
00100000
00000000
01000000
00010000
,
10010000
00000000
00000100
00000000
00000010
00000000
00000001
00000100
,
00001001
00000000
00000010
00000100
,
00000001
00000000
00000000
00000001
00000100
00000000
00000000
00000000
,
00001000
00000000
00000000
00001000
00010000
00000000
00001000
00000000
,
01000000
00010000
00010000
00100000
,
10000000
01000000
01000000
00100000
,
00010000
00100000
00100000
00001000
,
00010000
00000100
00010000
00010000
,
00000010
00010000
00000100
00001000
,
00000010
00000000
00000000
00000010
00000100
00000000
00000000
00000000
,
00000001
00000000
00000000
00000001
00000010
00000000
00000000
00000000
,
00000100
00000000
00000000
00000100
00010000
00000000
00001000
00000000
,
01000000
00010000
00100000
00001000
,
00022000
00000000
00000000
00033000
,
00000100
00000000
00010000
00000000
,
00001000
00000000
00000000
00001000
00010000
00000000
00100000
00000000
,
10000000
00000000
00000000
10000000
01000000
00000000
00010000
00000000
,
00001000
00000000
00000000
00001000
00010000
00000000
00000100
00000000
,
00001000
00000010
00000100
00000000
,
00000001
00000000
00000000
00000001
00000100
00000000
00001000
00000000
,
00010000
00000000
00000000
00010000
00000100
00000000
00010000
00000000
,
00001000
00000000
00000000
00001000
01000000
00000000
00100000
00000000
,
10000000
00010000
01000000
00000000
,
01000000
00100000
00100000
10000000
,
00010000
01000000
01000000
01000000
,
00010000
00100000
00001000
00010000
,
00000100
00001000
00000001
00000100
,
00000010
00001000
00000100
00000100
,
00000100
00010000
00001000
01000000
,
01000000
00010000
01000000
00100000
,
10000000
01000000
00100000
00010000
,
00100000
01000000
01000000
10000000
,
01000000
00010000
00010000
00001000
,
00010000
00000000
00000000
00010000
00000100
00000000
00001000
00000000
,
00000010
00000000
00000000
00000010
00000100
00000000
00000001
00000000
,
00001000
00000100
00000010
00000000
,
00000100
00010000
00011000
00000000
,
00010000
00100000
10000000
01000000
,
00100000
00000000
00000000
00100000
00010000
00000000
01000000
00000000
,
00001000
00000000
00010000
00001000
01000000
00000000
00000000
00000000
,
00001100
00000000
00001000
00000100
00000010
00000000
00000000
00000000
,
00011000
00000000
00000010
00010000
00001000
00000000
01000000
00000000
,
00100000
10000000
00010000
00000000
,
00110000
00000000
00100000
00001000
00010000
00000000
00000000
00000000
,
00010100
00000000
00001000
00000010
00000100
00000000
00000000
00000000
,
00001001
00000000
00000010
00000100
00000001
00000000
00000010
00000000
,
00000100
00001000
00000010
00000000
,
00011000
00000000
00001000
00100000
00010000
00000000
00000000
00000000
,
01010000
00000000
00100000
10000000
00010000
00000000
00000000
00000000
,
11000000
00000000
00100000
00010000
10000000
00000000
01000000
00000000
,
00010000
00001000
00000100
00000000
,
00000001
00000000
00000000
00000001
00000100
00000000
00000010
00000000
,
00001000
00000100
00000010
00000100
,
00010000
00001000
00010000
00100000
,
01000000
00010000
01000000
00100000
,
10000000
01000000
00100000
00010000
,
00010000
01000000
00001000
00000000
,
00010000
00000000
00000000
00010000
00001000
00000000
00010000
00000000
,
00000100
00000000
00000000
00000100
00001000
00000000
00000010
00000000
,
00000010
00000100
00000100
00000001
,
00001001
00000000
00000000
00000000
;

//---------------dance-double - M.Emirzian----------------
#NOTES:
     dance-double:
     M.Emirzian:
     Challenge:
     10:
     0.784,1.000,0.666,0.000,0.130,521.000,72.000,0.000,0.000,0.000,0.000,0.784,1.000,0.666,0.000,0.130,521.000,72.000,0.000,0.000,0.000,0.000:
00000000
00000000
00000000
00000000
,
00000000
00000000
00000000
00000000
,
00000000
00000000
00000000
00000000
,
00011000
00000000
00000000
00100000
00001000
00010000
00000100
00000000
00000000
00011000
00000000
00000000
,
01001000
00000000
00000000
01000000
00010000
10000000
00100000
00000000
00000000
10100000
00000000
00000000
,
01010000
00000000
00000000
00100000
00010000
10000000
01000000
00000000
00000000
00110000
00000000
00000000
,
00101000
00000000
00000000
00100000
00001000
00010000
00000100
00000000
00000000
00001100
00000000
00000000
,
00000010
00000000
00000001
00001000
00000001
00000000
00000010
00000000
00000000
00000000
00000010
00000000
00000100
00000000
00000000
00000000
,
00001000
00000001
00000100
00000010
00001000
00000000
00000100
00010000
,
00001000
01000000
00000100
00010000
00001000
00000000
00001000
00010000
,
00100000
10000000
00000000
10000000
01000000
00100000
00001000
00000000
,
00010000
00000010
00010000
00000100
00001000
00000000
00000001
00000100
,
00000010
00000000
00010000
00001000
01000000
00000100
00001000
00000010
,
00010000
00000000
00100000
01000000
01010000
00000000
10010000
00000000
,
10000000
01000000
00100000
00001000
00000000
00001000
00000100
00000010
,
00000000
00000010
00010000
00000100
00001000
00000000
00001001
00000000
,
00000110
00000000
00000000
00000001
00000100
00000010
00001000
00000000
00000000
00010100
00000000
00000000
,
00011000
00000000
01001000
00000000
01000000
00001000
00100000
00000000
,
10010000
00000000
00000000
01000000
00100000
00010000
10000000
00000000
00000000
01010000
00000000
00000000
,
01001000
00000000
00011000
00000000
00001000
00000001
00000100
00000000
,
00000010
00001000
00000100
00000010
00000001
00000000
00000010
00000100
,
00001000
00000100
00010000
00000000
00100000
00010000
00001000
00010000
,
00100000
00000000
10000000
00010000
01000000
00000000
00100000
10000000
,
01000000
00000000
00100000
00010000
00100000
00000000
01000000
00000000
00000000
00000000
10000000
00000000
01000000
00000000
00100000
00000000
,
00010000
00000000
00000000
10000000
01000000
00100000
00010000
00000000
00000000
00001000
00000000
00000000
00000100
00000000
00000000
00000010
00000001
00001000
00000010
00000000
00000000
00000110
00000000
00000000
,
00001001
00000000
00000000
00000001
00000100
00000010
00001000
00000000
00000000
00010000
00000000
00000000
01000000
00000000
00000000
00100000
10000000
00010000
01000000
00000000
00000000
00110000
00000000
00000000
,
10010000
00000000
10000000
00100000
01000000
00000000
00001000
00010000
,
00000100
00000000
00000001
00000100
00000010
00000000
00000100
00010000
,
00001000
00000000
01000000
00100000
10000000
01000000
00100000
00000000
,
10010000
01100000
00101000
00011000
,
00001000
00000000
00100000
00000010
00001000
00000000
00000100
00010000
,
00000001
00000000
00000100
00001000
00010000
00000000
10000000
01000000
,
00010000
00000000
10000000
01000000
00100000
00001000
00010000
00000000
,
01100000
00101000
00010100
00001010
,
00000100
00000010
00000100
00010000
00000100
00000000
00011000
00000000
,
00100000
00010000
00100000
01000000
00100000
00000000
00011000
00000000
,
00000010
00000100
00001000
00000100
00000010
00000000
00010000
00000001
,
00000100
00000010
00001000
00000000
00000100
01000000
00001000
01000000
,
00010000
01100000
10010000
01100000
,
00100000
00000000
00010000
00100000
00010000
00000000
10000000
00000000
00000000
00000000
10000000
00000000
01000000
00000000
00100000
00000000
,
00010000
00100000
01000000
10000000
01000000
00100000
00001000
00010000
,
00000100
00001000
00000001
00000100
00000010
00000000
00010010
00000000
,
00001000
00000100
00000001
00001000
00000010
00000001
00001000
00000100
,
00000001
00000000
00000000
00011000
00000000
00000000
10010000
00000000
,
10000000
01000000
00010000
01000000
00010000
00001000
00010000
00001000
,
00000100
00000001
00000100
00000001
00001000
00000000
00010100
00000000
,
00010000
00001000
01000000
00100000
10000000
01000000
00100000
00001000
,
00010000
00000000
00000000
01100000
00000000
00010000
00001000
00010000
,
00000010
00000100
00000000
00100000
01000000
00100000
00000000
00000100
,
00000010
00000100
00000000
00100000
01000000
00100000
00000000
00000100
,
00000010
00000100
00000000
00100000
10000000
01000000
00000000
00100000
,
00001000
00010000
00000100
00000000
00000101
00000000
00001100
00000000
,
00000010
00000100
00000000
00000001
00001000
00000001
00000000
00010000
,
10000000
00010000
00000000
00001000
00000001
00001000
00000000
00010000
,
10000000
00010000
00000000
00001000
00000001
00001000
00000000
00000100
,
00000010
00000100
00010000
00000000
00001100
00000000
00010100
00000000
,
01001000
00000000
00000000
01000000
00100000
10000000
00010000
00000000
00000000
00110000
00000000
00000000
,
00100000
01000000
00100000
00001000
00000100
00000010
00000100
00000000
,
00001001
00000000
00000000
00000100
00000010
00000001
00001000
00000000
00000000
00010010
00000000
00000000
,
00000010
00000100
00000010
00010000
00100000
01000000
00100000
10000000
,
01000000
00100000
00000000
00000100
00000010
00000100
00000000
00100000
,
01000000
00100000
00000000
00000100
00000010
00000100
00010000
00000010
,
00000100
00000000
00000001
00000100
00000010
00010000
00001000
00000000
,
01001000
01010000
10010000
01100000
,
11000000
00000000
00100000
10000000
01000000
00000000
00100000
00001000
,
00010000
00000000
00000001
00000100
00001000
00000000
00010000
10000000
,
01000000
00000000
00010000
00100000
00001000
00010000
00000100
00000000
,
00110000
00101000
00011000
00000110
,
00000101
00000000
00000010
00010000
00000100
00000000
00000010
00000100
,
00010000
00000000
10000000
01000000
00010000
00000000
00001000
00000010
,
00000001
00000000
00001000
00000100
00000010
00000001
00001000
00000000
,
00000110
00001001
00010100
00011000
,
01000000
00100000
01000000
00010000
01000000
00000000
00011000
00000000
,
00000010
00000100
00000001
00000100
00000010
00000000
00010100
00000000
,
00000100
01000000
00010000
01000000
00100000
00000000
01000000
00000100
,
00010000
00000100
00001000
00000000
00000010
00010000
00000010
00100000
,
00001000
00011000
00010010
00001010
,
00000001
00000000
00000100
00000010
00000100
00000000
00000001
00000000
00000000
00000000
00000010
00000000
00000100
00000000
00001000
00000000
,
00000001
00000100
00000010
00010000
00001000
01000000
00000010
00010000
,
00001000
00100000
00010000
10000000
01000000
00010000
10000000
00100000
,
00010000
10000000
01000000
00010000
00001000
00100000
00001000
00010000
,
00000100
00010000
00000001
00000100
00000010
00001000
00000100
00000010
,
00000100
00001000
00000010
00010000
00001000
01000000
00000100
00010000
,
00001000
00100000
00010000
10000000
01000000
00100000
01000000
10000000
,
00100000
01001000
00110000
01100000
,
10010000
00000000
00000000
00000000
;

//---------------dance-double - J.Casarino----------------
#NOTES:
     dance-double:
     J.Casarino:
     Hard:
     9:
     0.711,0.629,0.287,0.037,0.019,503.000,31.000,4.000,24.000,0.000,0.000,0.711,0.629,0.287,0.037,0.019,503.000,31.000,4.000,24.000,0.000,0.000:
00000000
00000000
00000000
00000000
,
00000000
00000000
00000000
00000000
,
00000000
00000000
00000000
00000000
,
00001000
00000000
00000010
00000100
00000001
00000000
00001001
00000000
,
00000010
00000000
00000001
00000100
00001000
00000000
00000010
00000000
,
00001000
00000000
00000100
00000010
00001000
00000000
00000010
00000000
,
00000100
00000000
00001000
00010000
00100000
00000000
00100000
10000000
,
00010000
01000000
00100000
01000000
00000000
01000000
00000000
01000000
,
00100000
10000000
00100000
01000000
00010000
00000000
10000000
01000000
,
00100000
00010000
00100000
00001000
00100000
00000000
00001000
00010000
,
00000100
00001000
00000000
00001000
00000001
00000100
00000001
00000000
,
00000010
00000100
00001000
00000001
00000010
00000000
00000001
00000100
,
00000010
00000000
00000100
00000010
00010000
00000000
00000010
00000000
,
00000100
00001000
00010000
00001000
01000000
00000000
01010000
00000000
,
01000000
00001000
00010000
00000100
00001000
00000001
00000100
00000000
,
00000100
00000001
00000010
00000100
00001000
00000010
00000100
00000000
,
00000010
00010000
00001000
00000000
01000000
00001000
00010000
00000000
,
00000010
00010000
00001000
00000000
01000000
00001000
00010000
00000000
,
00010000
00001000
01000000
00000000
10010000
00000000
01010000
00000000
,
00100000
00001000
00010000
00001000
01000000
00000000
00110000
00000000
,
00100000
00001000
00010000
00000000
00000010
00010000
00001000
00000000
,
01000000
00001000
00010000
00000000
00000100
00000000
00001000
00000010
,
00000100
00000000
00000001
00000010
00000100
00000000
00001100
00000000
,
00010000
00001000
01000000
00001000
00100000
00010000
10000000
00100000
,
01000000
00000000
00000000
00100000
01000000
00000000
00010000
00000000
10000000
00000000
00000000
01000000
00010000
00000000
00000100
00000000
,
00001000
00000000
00000000
00000010
00000100
00000000
00000000
00000000
00011000
00000000
00000000
00000010
00001000
00000000
00000100
00000000
,
00001001
00000000
00000001
00000100
00000010
00000000
00000100
00000001
,
00000010
00000000
00001000
00010000
00000010
00000000
00000100
00001000
,
00010000
00000000
00001000
01000000
00010000
00000000
00100000
00000000
,
110000M0
00000000
01000M00
00100000
0001M000
00000000
000M1000
00000100
,
00M00010
00000000
0M000001
00000010
00000100
00000000
00000010
00000001
,
00000100
00000000
00000010
00001000
00000100
00000000
00000010
00000100
,
00010000
00000000
00001000
01000000
00010000
00000000
10010000
00000000
,
110000M0
00000000
00100M00
01000000
0001M000
00000000
000M0100
00000010
,
00M01000
00000000
0M000001
00000100
00000100
00000000
00001000
00000100
,
00000100
00000000
00000001
00001000
00000010
00000000
00001000
00000010
,
00010000
00000000
00001000
00001000
00100000
00000000
01000000
01000000
,
00100000
00000000
00100000
00010000
10000000
00010000
00100000
00020000
,
02000000
00000000
00000000
00000000
,
03030000
01001000
01010000
10010000
,
01100000
00000000
10000000
00100000
00000000
00010000
00100000
00000000
,
10010000
00000000
00100000
00001000
00000000
00000100
00001000
00000000
,
00011000
00000000
00000100
00001000
00000000
00000001
00000010
00000000
,
00001001
00000000
00000001
00000100
00000001
00001000
00000100
00000000
,
00000011
00000000
00000100
00010000
00000000
00001000
01000000
00000000
,
00101000
00000000
00010000
01000000
00000000
00001000
00100000
00000000
,
10100000
00000000
10000000
01000000
00000000
00100000
00001000
00000000
,
00011000
00000000
00001000
00000100
00000010
00000100
00000001
00000000
,
00001000
00000010
00000100
00000010
00001000
00000100
00010000
00000000
,
00001000
01000000
00010000
00100000
01000000
10000000
00010000
00000000
,
01000000
00100000
01000000
00010000
01000000
00001000
00010000
00001000
,
00100000
00010000
00100000
01000000
00100000
00010000
10000000
00000000
,
10000000
00100000
10000000
00100000
00010000
00001000
00010000
00001000
,
00010000
00100000
00010000
00100000
00010000
00001000
00010000
00001000
,
00010000
00000100
00010000
00000100
00001000
00000001
00001000
00000001
,
00000010
00000100
00001000
00000001
00000100
00000010
00000100
00000000
,
00000010
00000100
00001000
00000000
00010000
00001000
01000000
00000000
,
00000010
00010000
00001000
00000000
10000000
00100000
01000000
00000000
,
00010000
00100000
00010000
00100000
01000000
10000000
01000000
00100000
,
00001000
00010000
00000010
00100000
00000010
00010000
00001000
00000000
,
00000010
00000001
00001000
00000000
00001000
00000001
00000010
00000000
,
00000100
00010000
00001000
00000000
00100000
00001000
00010000
00000000
,
00010000
00001000
00010000
00001000
00000100
00001000
00000100
00001000
,
00010000
00100000
01000000
00100000
10000000
01000000
00100000
00000000
,
10010000
00000000
10000000
00100000
01000000
00000000
00100000
10000000
,
01000000
00000000
00010000
00001000
01000000
00000000
00100000
00010000
,
00001000
00000000
00010000
00000010
00001000
00000000
00000100
00000000
,
0M000011
00000000
00M00010
00000100
000M1000
00000000
0001M000
00100000
,
01000M00
00000000
100000M0
01000000
00100000
00000000
01000000
10000000
,
00100000
00000000
01000000
00010000
00100000
00000000
01000000
00100000
,
00001000
00000000
00010000
00000010
00001000
00000000
00001001
00000000
,
0M000011
00000000
00M00100
00000010
000M1000
00000000
0001M000
01000000
,
00100M00
00000000
100000M0
00100000
01000000
00000000
00001000
00010000
,
00100000
00000000
10000000
00010000
01000000
00000000
00100000
01000000
,
00001000
00000000
00010000
00001000
00000100
00000000
00000010
00001000
,
00000100
00000000
00000010
00000001
00001000
00000100
00000010
00000002
,
00000020
00000000
00000000
00000000
,
00000033
00001100
00001001
00000110
,
00000011
00000000
00001000
00000100
00000010
00000001
00000010
00000100
,
00001000
00000010
00010000
00001000
01000000
00001000
00010000
00000010
,
00001000
00000100
00000010
00000001
00000100
00000010
00000100
00000001
,
00000100
00001000
00010000
00001000
01000000
00010000
00100000
01000000
,
00100000
00010000
01000000
00010000
00100000
00001000
00010000
00001000
,
00000010
00001000
00010000
00000010
00001000
00000001
00000010
00000100
,
00000010
00000001
00000100
00000010
00001000
00000100
00010000
00000000
,
01001000
00000000
00000000
00000000
;

//---------------dance-single - J. Frederick----------------
#NOTES:
     dance-single:
     J. Frederick:
     Beginner:
     1:
     0.118,0.118,0.065,0.000,0.000,82.000,7.000,0.000,0.000,0.000,0.000,0.118,0.118,0.065,0.000,0.000,82.000,7.000,0.000,0.000,0.000,0.000:
0000
0000
0000
0000
,
0000
0000
0000
0000
,
0000
0000
0000
0000
,
0000
0000
0000
0000
,
1000
0000
0000
0000
,
0001
0000
0000
0000
,
0100
0000
0000
0000
,
0010
0000
0000
0000
,
1001
0000
0000
0000
,
0100
0000
0000
0000
,
0010
0000
0000
0000
,
1000
0000
0000
0000
,
0001
0000
0000
0000
,
0100
0000
0000
0000
,
0010
0000
0000
0000
,
1000
0000
0000
0000
,
0001
0000
0000
0000
,
0100
0000
0000
0000
,
0010
0000
0000
0000
,
1000
0000
0000
0000
,
0001
0000
0000
0000
,
0010
0000
0000
0000
,
0100
0000
0000
0000
,
1000
0000
0000
0000
,
1001
0000
0000
0000
,
0010
0000
0000
0000
,
1000
0000
0000
0000
,
0001
0000
0000
0000
,
0010
0000
0000
0000
,
0100
0000
0000
0000
,
1000
0000
0000
0000
,
0001
0000
0000
0000
,
0100
0000
0000
0000
,
0010
0000
0000
0000
,
1000
0000
0000
0000
,
0001
0000
0000
0000
,
0100
0000
0000
0000
,
0010
0000
0000
0000
,
1000
0000
0000
0000
,
0001
0000
0000
0000
,
0010
0000
0000
0000
,
0100
0000
0000
0000
,
1000
0000
0000
0000
,
0001
0000
0000
0000
,
0100
0000
0000
0000
,
0010
0000
0000
0000
,
1000
0000
0000
0000
,
0001
0000
0000
0000
,
0110
0000
0000
0000
,
0001
0000
0000
0000
,
1000
0000
0000
0000
,
0010
0000
0000
0000
,
0100
0000
0000
0000
,
0001
0000
0000
0000
,
1000
0000
0000
0000
,
0010
0000
0000
0000
,
0100
0000
0000
0000
,
0001
0000
0000
0000
,
1000
0000
0000
0000
,
0100
0000
0000
0000
,
0010
0000
0000
0000
,
0001
0000
0000
0000
,
1000
0000
0000
0000
,
0100
0000
0000
0000
,
0010
0000
0000
0000
,
0100
0000
0000
0000
,
1000
0000
0000
0000
,
0001
0000
0000
0000
,
1000
0000
0000
0000
,
0100
0000
0000
0000
,
0010
0000
0000
0000
,
0001
0000
0000
0000
,
1000
0000
0000
0000
,
0100
0000
0000
0000
,
0010
0000
0000
0000
,
0001
0000
0000
0000
,
1000
0000
0000
0000
,
0100
0000
0000
0000
,
0010
0000
0000
0000
,
1001
0000
0000
0000
,
0100
0000
0000
0000
,
0110
0000
0000
0000
,
0100
0000
0000
0000
,
1001
0000
0000
0000
,
0001
0000
0000
0000
,
0110
0000
0000
0000
;

//---------------dance-single - J. Frederick----------------
#NOTES:
     dance-single:
     J. Frederick:
     Easy:
     4:
     0.401,0.485,0.278,0.278,0.000,243.000,30.000,30.000,10.000,0.000,0.000,0.401,0.485,0.278,0.278,0.000,243.000,30.000,30.000,10.000,0.000,0.000:
0000
0000
0000
0000
,
0000
0000
0000
0000
,
0000
0000
0000
0000
,
0000
0000
0000
0000
,
2000
3000
0002
0003
,
0020
0030
0100
1000
,
0200
0300
0020
0030
,
0002
0003
0100
0010
,
1000
0001
1000
0001
,
1000
0001
1000
0001
,
0010
0100
0010
0100
,
0010
0100
0010
0100
,
1000
0100
1000
0100
,
1000
0100
1000
0100
,
0010
0001
0010
0001
,
0010
0001
0010
0001
,
0100
0001
0100
0001
,
0100
0001
0100
0001
,
1001
0000
0110
0000
,
1000
0100
0010
0000
,
0001
0100
0010
0000
,
1000
0001
0010
0000
,
0110
0000
1001
0000
,
1000
0001
1000
0001
,
1000
0001
0010
0100
,
1000
0001
0100
0010
,
1000
0010
1000
0010
,
1000
0010
1000
0010
,
1000
0010
1000
0010
,
2000
0000
0000
3000
,
0001
0100
0001
0100
,
0001
0100
0001
0100
,
0001
0100
0001
0100
,
0002
0000
0000
0003
,
0010
0000
0100
0000
,
1000
0000
0100
0010
,
0001
0000
0100
0000
,
0010
0000
1000
0010
,
0100
0001
0010
0001
,
0100
0010
1000
0100
,
0010
0001
1000
0001
,
1000
0001
1000
0001
,
2002
0000
0000
3003
,
0220
0000
0000
0330
,
2200
0000
0000
3300
,
0022
0000
0000
0033
,
0220
0000
0000
0330
,
2002
0000
0000
3003
,
1000
0001
1000
0000
,
0100
0010
0100
0000
,
1000
0100
1000
0000
,
0001
0010
0001
0000
,
0100
0010
0100
0000
,
0001
1000
0001
0000
,
1000
0100
1000
0000
,
0010
0100
0010
0000
,
1010
0000
0101
0000
,
0010
0001
0010
0000
,
0011
0000
1100
0000
,
0010
0001
0100
0000
,
1001
0000
0110
0000
,
1000
0010
1000
0000
,
0110
0000
1001
0000
,
1001
1001
1001
1001
,
0010
0000
0100
0000
,
1000
0100
0010
0000
,
0001
0100
0010
1000
,
2002
0000
0000
3003
,
0010
0100
1000
0100
,
0010
0001
0100
0001
,
1000
0001
0100
0010
,
0220
0000
0000
0330
,
1000
0010
0100
0000
,
0001
0010
0100
0000
,
1000
0100
0010
0001
,
0100
0001
1000
0001
,
2000
0000
0000
3000
,
0002
0000
0000
0003
,
1000
0010
0100
0010
,
0100
0010
0100
0010
,
1000
0001
1000
0001
,
1000
0001
1000
0001
,
1001
0000
0110
0000
,
1000
0001
1000
0001
,
1001
0000
0110
0000
,
M22M
0000
M00M
0330
,
2002
0MM0
0000
0MM0
,
3003
M00M
0000
0000
;

//---------------dance-single - J. Frederick----------------
#NOTES:
     dance-single:
     J. Frederick:
     Medium:
     7:
     0.578,0.644,0.380,0.074,0.000,388.000,41.000,8.000,0.000,1.000,0.000,0.578,0.644,0.380,0.074,0.000,388.000,41.000,8.000,0.000,1.000,0.000:
0000
0000
0000
0000
,
0000
0000
0000
0000
,
0000
0000
0000
0000
,
0000
0000
0000
0000
,
1000
0000
0001
0100
0001
0000
0010
0000
,
0100
0000
1000
0100
0010
0000
0001
0000
,
0100
0000
0001
1000
0001
0000
0100
0000
,
0010
0000
1000
0010
0100
0000
0010
0000
,
1000
0100
1000
0000
0100
0010
0100
0000
,
0010
0001
0010
0000
0001
0100
0001
0000
,
1000
0001
0100
0000
0010
0000
1000
0000
,
0010
0100
0001
0010
,
0100
1000
0100
0000
0010
0001
0010
0000
,
0001
0100
0001
0000
1000
0001
1000
0000
,
0010
0100
0010
1000
,
0001
0010
0100
1000
,
0100
0010
0001
0100
,
0001
1000
0001
1000
0001
0000
0100
0000
,
0010
1000
0010
0100
,
0010
0100
0010
0100
0010
0000
1000
0000
,
0100
0010
0001
0100
,
0001
1000
0001
1000
0001
0000
0010
0000
,
0001
1000
0100
0010
,
0011
1100
0011
0101
,
1000
0001
0100
0000
0010
0000
1000
0000
,
0010
0100
0001
0000
0010
0000
0100
0000
,
1000
0000
0100
1000
0100
0000
0010
0001
,
0010
0000
0001
0100
0001
0000
1000
0010
,
1000
0010
0100
0001
,
0020
0000
1000
0100
,
0031
0000
1000
0000
0001
0000
0100
0010
,
1000
0000
0010
0100
0001
0000
0010
0100
,
1000
0000
0100
0010
0001
0000
0100
0002
,
0000
0000
1000
0010
,
0103
0010
1000
0010
,
1000
0000
0001
0000
0010
0100
0010
0000
,
0100
0000
1000
0000
0000
0100
0010
0000
,
0001
0000
0100
0001
1000
0000
0001
0000
,
0100
0000
0010
1000
0010
0000
0100
0000
,
0001
0000
0010
0100
0010
0000
0100
0000
,
1000
0000
0100
0010
0001
0000
0100
0000
,
0001
0000
1000
0001
1000
0000
0001
0000
,
1001
0100
0110
1000
,
1010
0100
0101
0010
,
0011
0010
0110
1000
,
1100
0010
0110
0001
,
0101
1000
1001
0100
,
0110
1000
1010
0100
,
0001
0010
0100
1000
,
0100
0010
0001
0000
0100
0000
0001
0000
,
1000
0001
0100
0010
,
1000
0010
0100
0000
0001
0000
0010
0000
,
0100
1000
0100
0010
,
0001
0100
0001
0000
1000
0000
0010
0000
,
0100
0010
1000
0001
,
0010
0100
0010
0100
0010
0000
0100
0000
,
1000
0000
0100
1000
0100
0000
0010
0000
,
0001
0000
0100
0001
0100
0000
0001
0000
,
1000
0000
0010
0100
0010
0000
1000
0000
,
0100
0000
0010
0001
0010
0000
0100
0000
,
1000
0000
0100
0010
0001
0000
0100
0000
,
0001
0000
1000
0010
0100
0000
0001
0000
,
0010
0000
0001
1000
0001
0000
1000
0000
,
1001
1001
1001
1001
,
0100
0000
0001
0100
0001
0000
0010
0100
,
0010
0000
0100
1000
0100
0000
0010
0001
,
0010
0000
0001
0100
0001
0000
1000
0000
,
0002
1000
0010
0100
,
1003
0000
0010
0100
0010
0000
1000
0010
,
1000
0000
0001
0100
0001
0000
0010
0100
,
0010
0000
0100
0000
1000
0100
0010
0000
,
0002
1000
0100
0010
,
0103
0000
1000
0010
1000
0000
0001
0000
,
0100
0000
0001
0010
0001
0000
1000
0000
,
0100
0000
0010
0001
0010
0000
0001
0000
,
0100
0000
0010
0100
0010
0000
1000
0000
,
0001
0010
0100
1000
,
0100
0010
0001
0100
,
1001
1001
0110
0110
,
1001
1001
0110
0110
,
1100
1100
0011
0011
,
0101
0101
1010
1010
,
0100
0001
0010
0100
,
1000
0100
0010
0001
,
0100
0001
1000
0001
,
1001
1001
0110
0220
,
2002
0000
0000
0000
,
3333
0000
0000
0000
;

//---------------dance-single - J. Frederick----------------
#NOTES:
     dance-single:
     J. Frederick:
     Hard:
     8:
     0.677,0.644,0.111,0.148,0.000,484.000,12.000,16.000,3.000,0.000,0.000,0.677,0.644,0.111,0.148,0.000,484.000,12.000,16.000,3.000,0.000,0.000:
0000
0000
0000
0000
,
0000
0000
0000
0000
,
0000
0000
0000
0000
,
0000
0000
0000
0000
,
1000
0000
0010
0100
0020
0000
0000
0000
,
0030
0000
1000
0001
0010
0000
0100
0000
,
1000
0000
0100
0010
0002
0000
0000
0000
,
0103
0010
0100
0010
0100
0000
0110
0000
,
1000
0010
1000
0000
0001
0000
0100
0000
,
0001
0010
0001
0000
0010
0000
0100
1000
,
0100
0010
0000
0001
0100
0001
0100
0000
,
0001
1000
0010
0100
0010
0000
1000
0000
,
0001
0010
0100
0000
1000
0100
0010
0000
,
0001
0100
0010
0000
1000
0010
0100
0000
,
0001
0010
0100
1000
,
0100
0010
0001
0100
,
0001
0000
1000
0001
2000
0000
0000
0000
,
3010
0000
0100
1000
0010
0000
0001
0000
,
0010
0000
0100
1000
0200
0000
0000
0000
,
0310
0000
0001
0100
0001
0000
1000
0000
,
0010
0000
0100
0010
2000
0000
0000
0000
,
3001
0000
0010
0100
1000
0000
0100
0000
,
0010
0000
0001
1000
0001
0000
0100
0000
,
0010
0100
0010
0100
0010
0100
0010
0100
,
0010
1000
0200
0000
0300
0010
0001
0100
,
0001
1000
0020
0000
0030
0100
0010
1000
,
1001
0000
1000
0100
0010
0000
0010
0100
,
1000
0000
1000
0010
0100
0000
0100
0001
,
0010
0000
0010
0001
0100
0001
1000
0010
,
0100
0000
0100
0020
0000
0200
0000
0330
,
0110
0000
0100
0010
1000
0000
1000
0100
,
0010
0000
0010
0001
0100
0000
0100
0001
,
0010
0000
0010
0001
1000
0000
1000
0010
,
0100
0000
0100
0001
0010
0100
1000
0100
,
1100
0000
1000
0010
0100
0000
0100
0000
,
0001
0000
0010
0100
1000
0000
0010
0000
,
0100
0000
0001
0010
0001
0000
1000
0000
,
0010
0100
0001
0010
0100
0000
1000
0000
,
0100
1000
0100
1000
0100
1000
0100
0010
,
0001
0010
0001
0010
0001
0010
0001
0000
,
0100
0001
0100
0001
0100
0001
0100
0001
,
1000
0001
1000
0001
1000
0001
1000
0010
,
1000
0010
1000
0010
1000
0010
1000
0010
,
0100
0010
0100
0010
0100
0010
0100
0010
,
0100
0001
0100
0001
0100
0001
0100
0001
,
0010
0001
0010
0001
0010
0001
0010
0001
,
0010
0100
0010
0100
0010
0100
0010
0100
,
1000
0100
1000
0100
1000
0100
1000
0100
,
1000
0100
0010
0000
0010
0001
0100
0000
,
0100
0010
0000
1000
1000
0010
0100
0000
,
0100
0001
0010
0100
1000
0100
0010
0001
,
0010
0001
0011
0000
0011
0000
0011
0000
,
1000
0000
0010
0100
0001
0000
0010
0000
,
0100
0000
1000
0100
0010
0000
0001
0000
,
0100
0000
0010
1000
0010
0000
0100
0000
,
0001
0010
0001
1000
,
0010
0000
0100
0001
0020
0000
0000
0000
,
0030
0000
0100
1000
0100
0000
0010
0000
,
0001
0000
0100
0010
2000
0000
0000
0000
,
3000
0000
0100
0010
0100
0000
0100
0000
,
0001
0000
0010
0100
2000
0000
0000
0000
,
3010
0000
0100
0010
0001
0000
0100
0000
,
0001
1000
0001
0000
0100
0001
1000
0000
,
0000
0010
0100
1000
0100
0010
0100
0000
,
1001
0000
1000
0100
0010
0000
0010
0100
,
1000
0000
1000
0010
0100
0000
0100
0001
,
0010
0000
0010
0001
0100
0001
1000
0010
,
0100
0000
0100
0020
0000
0200
0000
0330
,
0110
0000
0100
0010
1000
0000
1000
0100
,
0010
0000
0010
0001
0100
0000
0100
0001
,
0010
0000
0010
0001
1000
0000
1000
0010
,
0100
0000
0100
0001
0010
0100
1000
0100
,
1100
0000
1000
0010
0100
0000
0100
0000
,
0001
0000
0010
0100
1000
0000
0010
0000
,
0100
0000
0001
0010
0001
0000
1000
0000
,
0010
0100
0001
0010
0100
0000
1000
0000
,
1000
0000
0010
0100
0001
0000
0010
0100
,
1000
0000
0100
0010
0001
0000
0100
0001
,
1000
0001
1000
0001
1000
0001
1000
0001
,
0100
0001
0100
0001
0100
0001
0100
0001
,
0010
0001
0010
0001
0010
0001
0010
0001
,
0010
0100
0010
0100
0010
0100
0010
0100
,
1000
0100
0010
0100
1000
0001
0100
0010
,
1000
0001
0000
0100
0010
0100
1000
0001
,
0100
0010
1000
0010
0100
0001
0010
0001
,
0011
0000
1000
0010
0100
0000
0100
0000
,
0220
0000
0000
M000
0000
000M
0000
M300
,
0030
0000
0000
0000
;

//---------------dance-single - J. Frederick----------------
#NOTES:
     dance-single:
     J. Frederick:
     Edit:
     10:
     0.842,1.000,0.250,0.481,0.245,557.000,27.000,52.000,10.000,2.000,2.000,0.842,1.000,0.250,0.481,0.245,557.000,27.000,52.000,10.000,2.000,2.000: // measure 1
0000
0000
0000
0000
,  // measure 2
0000
0000
0000
0000
,  // measure 3
0000
0000
0000
0000
,  // measure 4
0000
0000
0000
0000
,  // measure 5
1001
0000
0000
0010
0100
1000
0200
0000
0000
0320
0000
0000
,  // measure 6
0032
0000
0000
1003
0010
0100
0020
0000
0000
2030
0000
0000
,  // measure 7
3020
0000
0000
0130
0001
0010
0200
0000
0000
2300
0000
0000
,  // measure 8
3200
0000
0000
0000
0310
0001
0010
0000
0001
0000
0000
0000
1000
0000
0000
0000
,  // measure 9
1000
0010
0100
0001
0010
0100
1000
0100
,  // measure 10
0010
0001
0100
0001
0100
0010
0100
0010
,  // measure 11
1000
0001
0000
0001
0010
0100
1000
0000
,  // measure 12
1000
0100
0010
0001
0100
0001
1000
0000
,  // measure 13
0010
0100
0010
1000
0001
0010
0100
1000
,  // measure 14
0100
0010
0001
0100
0001
1000
0001
0000
,  // measure 15
0100
0010
1000
0010
0001
0010
1000
0100
,  // measure 16
0010
0001
1000
0001
0100
0001
0010
0000
,  // measure 17
0011
0000
0000
1000
0100
0010
0002
0000
0000
0203
0000
0000
,  // measure 18
0302
0000
0000
0013
0100
1000
0200
0000
0000
0320
0000
0000
,  // measure 19
0032
0000
0000
0013
0001
0010
0002
0000
0000
0023
0000
0000
,  // measure 20
0032
0000
0000
0013
0100
1000
0200
0000
0000
0320
0000
0000
,  // measure 21
0230
0000
0000
1300
0100
1000
0020
0000
0000
0230
0000
0000
,  // measure 22
2300
0000
0000
3100
0010
0001
0020
0000
0000
0230
0000
0000
,  // measure 23
0320
0000
0000
0000
0000
0000
0000
0000
0000
0000
0000
0000
0031
0000
0000
0000
0010
0000
0000
0000
0001
0000
0000
0000
0010
0000
0000
0000
0000
0000
1000
0000
0000
0000
0000
0000
0100
0000
0000
0000
0000
0000
0001
0000
0000
0010
0000
0000
,  // measure 24
0100
1000
0100
0010
0100
1000
0100
0010
,  // measure 25
0001
0000
0000
1000
0100
0010
0002
0000
0000
MMM0
0000
0003
0000
0000
0000
1000
0100
0010
0200
0000
0000
M0M2
0000
0303
,  // measure 26
2000
0000
0000
0100
0010
3001
0020
0000
0000
MM0M
0000
0030
0000
0000
0000
0100
1000
0100
0020
0000
0000
M20M
0000
0330
,  // measure 27
1001
0000
0100
0010
1000
0000
0100
0010
,  // measure 28
0100
0000
0001
0010
0100
0000
1000
0100
,  // measure 29
0010
0000
0000
0000
0001
0000
0100
0000
0000
0001
0000
0000
1000
0000
0000
0000
,  // measure 30
0100
0000
0010
0100
0010
0100
0010
0100
,  // measure 31
0110
0000
1000
0010
0100
0000
0100
0001
,  // measure 32
0010
0000
0010
0100
1000
0000
1000
0100
,  // measure 33
0010
0000
0010
0001
0100
0010
0100
0001
,  // measure 34
1000
0010
0100
0001
0010
0100
1000
0100
,  // measure 35
1100
0000
0010
0001
0100
0000
0100
0001
,  // measure 36
1000
0000
1000
0010
0100
0000
0100
0001
,  // measure 37
0010
0000
0010
0100
1000
0000
1000
0100
,  // measure 38
0010
0001
0100
0001
1000
0001
1000
0001
,  // measure 39
1001
0000
1000
0001
1000
0000
0010
0000
,  // measure 40
0100
0000
0010
1000
0001
0000
0010
0000
,  // measure 41
0100
0000
1000
0100
0010
0001
0100
0001
,  // measure 42
1000
0010
0100
0010
1000
0100
0010
0001
,  // measure 43
0100
0001
1000
0010
0001
0010
1000
0100
,  // measure 44
0010
0001
0010
0100
1000
0100
0010
0001
,  // measure 45
1000
0010
0001
0010
1000
0100
0001
0100
,  // measure 46
0010
1000
0100
0010
1000
0010
0100
0001
,  // measure 47
0010
0100
1000
0001
0010
0001
0100
0010
,  // measure 48
1000
0010
0100
0001
0010
0100
1000
0001
,  // measure 49
1000
0010
0100
0001
0010
0100
1000
0001
,  // measure 50
0010
0001
0100
0010
1000
0010
0100
0001
,  // measure 51
0010
0100
1000
0100
0010
0001
0100
0001
,  // measure 52
1000
1001
1001
1001
,  // measure 53
0100
0010
1000
0010
0100
0001
0010
0100
,  // measure 54
1000
0100
0010
0001
0100
0001
1000
0010
,  // measure 55
0001
0010
1000
0100
0010
0001
0100
0001
,  // measure 56
1000
0100
0010
0001
1000
0100
1000
0100
,  // measure 57
1200
0000
0000
0310
0001
0010
0002
0000
0000
0023
0000
0000
,  // measure 58
0230
0000
0000
1300
0100
1000
0200
0000
0000
0320
0000
0000
,  // measure 59
0230
0000
0000
0310
0001
0010
0200
0000
0000
2300
0000
0000
,  // measure 60
3200
0000
0000
0310
0100
0010
0002
0000
0000
0023
0000
0000
,  // measure 61
0230
0000
0000
1300
0100
1000
0200
0000
0000
0320
0000
0000
,  // measure 62
0032
0000
0000
0103
0000
0000
1000
0000
0000
0010
0100
1000
,  // measure 63
0100
1000
0100
0010
0001
0010
0001
0010
0100
1000
0100
0010
,  // measure 64
0100
0010
0100
0000
0001
0000
1001
0000
1001
0000
0000
0000
1001
0000
0000
0000
,  // measure 65
0110
0000
1000
0010
0100
0000
0001
0010
,  // measure 66
0100
0000
1000
0100
0010
0000
0001
0100
,  // measure 67
0001
1000
0010
0100
0010
1000
0001
0000
,  // measure 68
1001
1001
0110
0110
,  // measure 69
1100
0000
0010
0001
0100
0000
0010
1000
,  // measure 70
0010
0000
0001
0010
1000
0000
0100
0010
,  // measure 71
0001
0000
0010
0100
1000
0000
0010
0100
,  // measure 72
0001
0000
0010
0001
1000
0001
1000
0001
,  // measure 73
1001
0000
0100
0010
1000
0100
0010
0001
,  // measure 74
0011
0000
1000
0010
0100
0001
0010
0001
,  // measure 75
0011
0000
1000
0010
0100
0001
1000
0001
,  // measure 76
1001
0000
0100
0010
1000
0010
0100
0010
,  // measure 77
1000
0000
1000
0100
0010
0000
0010
0001
,  // measure 78
0100
0000
0100
0010
1000
0010
0001
0010
,  // measure 79
1000
0000
1000
0100
0010
0000
0010
0001
,  // measure 80
1000
0000
1000
0010
0100
0001
0010
0100
,  // measure 81
1000
0000
1000
0010
0100
0000
0100
0001
,  // measure 82
0010
0000
0010
0001
0100
0001
1001
0000
,  // measure 83
1001
0000
0100
0010
1000
0000
1000
0100
,  // measure 84
0010
0000
0010
0001
0100
0001
1000
0010
,  // measure 85
0001
0000
0001
0010
1000
0000
1110
0100
,  // measure 86
2002
0000
0000
0000
,  // measure 87
3403
0040
0000
0000
0000
0000
0000
0000
0000
0000
0000
0000
0000
0000
0000
0000
,  // measure 88
0330
0000
0000
0000
;

//---------------dance-single - D. Runberg----------------
#NOTES:
     dance-single:
     D. Runberg:
     Challenge:
     10:
     0.885,0.000,0.537,0.435,0.176:
0000
0000
0000
0000
,
0000
0000
0000
0000
,
0000
0000
0000
0000
,
0000
0000
0000
0000
,
1000
0000
0000
0000
0000
0000
0001
0000
0100
0000
0001
0000
0200
0000
0000
0000
0000
0000
0310
0000
0000
1000
0000
0000
,
0100
0000
0000
0100
1000
0010
2000
0000
0000
0002
0000
3003
,
0101
0000
0000
0000
0000
0000
0001
0000
0010
0000
0100
0000
1000
0000
0000
0000
0000
0000
0100
0000
0000
1000
0000
0000
,
0010
0100
0101
0001
0000
0010
0100
1001
,
0100
0000
0010
1000
0100
0000
1000
0100
,
0010
0010
0100
1000
0010
0000
0100
0001
,
0010
0200
0000
1300
0001
0001
0101
0000
,
0100
0010
1000
1000
1100
0000
1010
0100
,
0002
0000
0000
0000
0000
0000
1003
0000
0100
0000
0010
0000
0001
0000
0000
0000
0000
0000
1000
0000
0000
0010
0000
0000
,
0100
0100
0001
0010
220M
33M0
0M22
M033
,
0100
0000
0010
1000
0200
0000
0310
0001
,
0000
1000
0010
0010
M220
033M
2M02
30M3
,
0100
1000
0010
0100
0002
0000
1003
0100
,
0010
0010
0001
0100
0M00
0010
1000
0010
,
0100
0001
0010
M100
0M00
1100
0M00
1000
,
0010
0001
0010
1000
0000
M001
0010
0100
,
0110
0000
01M0
1000
0001
0001
0100
0010
,
0000
0100
0010
1000
2100
0000
0M01
3001
,
0101
0100
M010
0100
1001
0M01
0010
010M
,
0011
0010
0100
0100
01M0
1001
1000
0020
,
1030
0000
0000
0000
0000
0000
0001
0000
1000
0000
0001
0000
2000
0000
0000
0000
0000
0000
00M0
0000
0000
0M00
0000
0000
000M
0000
0000
0000
0000
0000
3010
0000
0100
0000
0010
0000
0200
0000
0000
0000
0000
0000
00M2
0000
0300
0000
0000
0000
,
2000
0000
0000
0003
0000
0000
3100
0000
0010
0000
0100
0000
0020
0000
0000
0000
0000
0000
M000
0000
0000
000M
0000
0000
0M00
0000
0000
0000
0000
0000
0031
0000
0100
0000
0001
0000
0200
0000
0000
0000
0000
0000
0310
0000
0000
0000
0000
0000
,
1001
0000
1000
0010
0100
0010
1000
0100
,
0001
0000
010M
1000
0010
M000
0100
0001
,
0010
0000
0000
0000
0001
0000
0010
0000
0000
0000
00M2
0000
0000
0003
0000
0000
,
1001
0000
0000
M000
0002
0000
0100
0000
0M03
0000
011M
0000
0000
M000
0M00
0000
,
1001
0000
0001
1000
0100
0000
1M00
0010
,
0100
0000
0M01
1000
000M
0010
0000
10M0
,
0100
0000
0010
0000
0001
0000
0100
0000
0M00
0000
1010
0000
0000
M00M
0000
0000
,
2002
0000
0003
0000
3100
0000
0000
0000
0010
0000
0001
0000
0200
0000
0000
0300
,
1010
0000
0010
0100
0000
0010
0100
0001
,
0021
0000
0100
0130
0000
1000
0010
0010
,
0202
0303
1010
1000
0000
0001
0010
0100
,
2000
0000
0001
3001
0200
0000
0310
1000
,
00M0
1000
0100
0100
0010
0001
1000
0000
,
0001
0100
0010
1M01
0000
0001
0010
110M
,
1000
0100
1000
0100
1000
0100
1000
0100
,
0001
0100
0001
0100
0001
0100
0001
0100
,
0010
0001
0010
0001
0010
0001
0010
0001
,
0100
0010
0100
0010
0100
0010
0100
0010
,
1000
0100
1000
0100
1000
0100
1000
0100
,
1000
0010
1000
0010
1000
0010
1000
0010
,
0100
0001
0100
0001
0100
0001
0100
0001
,
0010
0001
0010
0001
0010
0001
0010
0001
,
0010
0000
0100
0000
1000
0000
0010
0000
0100
0010
0100
0000
0001
0000
0010
0000
,
0100
0010
0100
0000
1000
0000
0010
0000
0100
0000
0001
0000
0100
0000
0001
0000
,
0100
0000
0010
1000
0000
0010
1000
0000
0001
0000
1000
0100
1000
0000
0010
0000
,
0100
0000
0001
0010
0100
0000
1100
0000
0M0M
0000
1001
0000
0M0M
0000
1000
0000
,
0001
0000
0001
0000
0100
0000
0010
0000
1000
0000
0001
1000
0000
0001
1000
0000
,
0100
0000
0100
0000
0010
0000
0001
0100
0010
0000
0100
0000
0001
0000
1000
0001
,
1000
0000
0001
0100
0001
0000
1000
0010
1000
0000
0001
0010
0001
0000
0010
0100
,
0010
0100
1000
0010
0100
0100
0001
0001
,
1000
0100
0010
0100
0001
0100
0010
0100
,
1000
0100
0001
0100
1000
0000
0010
0000
,
0100
0001
0100
0010
0100
1000
0100
0010
,
0100
0001
0100
0010
1000
1000
0100
0010
,
0002
0000
0000
0000
1003
0000
0001
M000
0001
0000
2000
0000
000M
0000
0000
0000
,
3001
0000
0100
0010
0000
0100
0010
1000
,
1100
1000
0100
0010
0001
1000
0010
0100
,
0010
1010
0100
1010
0000
1001
0010
1001
,
0001
0000
1000
0100
0010
0001
0100
1000
,
0100
0000
10M0
0100
M001
0000
01M0
0001
,
1M00
0000
000M
0000
1000
0000
0100
0000
0000
0000
0M20
0000
0000
0030
0000
0000
,
0011
0000
0000
0000
0002
0000
0010
0000
00M3
0000
110M
0000
0000
0MM0
0000
0000
,
1010
0000
1000
0010
M001
0000
0M10
1000
,
010M
0000
M010
0001
0000
010M
0000
0M10
,
1000
0000
0010
0000
0100
0000
0001
0000
0M00
0000
0101
0000
0000
0MM0
0000
0000
,
0022
0003
0130
0000
0100
1000
0020
0030
,
0101
0000
0001
1000
0000
0001
0010
0100
,
2100
0000
0001
3001
0000
0010
0100
0100
,
2002
3003
0011
0010
0000
0100
1000
0010
,
0200
0000
0001
0301
0020
0000
0031
0010
,
0000
0100
1000
1000
0010
0100
0001
0100
,
0010
0110
1000
0110
0000
1001
0010
1001
,
1000
0100
0010
0001
1000
0100
0010
0001
,
1000
0010
0100
0001
1000
0010
0100
0001
,
0010
0100
0010
0010
0011
0000
1001
0000
,
1000
1100
0100
0011
0000
1100
0100
1001
,
0001
0100
1000
0100
0001
0010
1000
0010
,
0001
0100
0010
1000
0100
0001
0100
1000
,
0010
0100
0010
0010
1M10
0000
11M0
0000
,
1000
0100
0010
0001
0201
0000
0310
0M00
,
20M0
0000
0000
0000
,
3000
0000
0000
0000
;
