#TITLE:Snow Stream;
#SUBTITLE:;
#ARTIST:Vospi;
#TITLETRANSLIT:;
#SUBTITLETRANSLIT:;
#ARTISTTRANSLIT:;
#GENRE:Drum & Bass;
#CREDIT:;
#BANNER:Snow Stream-bn.png;
#BACKGROUND:Snow Stream-bg.png;
#LYRICSPATH:;
#CDTITLE:;
#MUSIC:Snow Stream.ogg;
#OFFSET:-0.035;
#SAMPLESTART:55.660;
#SAMPLELENGTH:11.840;
#SELECTABLE:YES;
#BPMS:0.000=181.000,88.000=135.018,89.000=122.478,90.000=100.658,91.000=95.832,92.000=77.772,93.000=61.016,94.000=43.048,95.000=90.500,119.000=181.000,263.000=90.500;
#STOPS:;
#BGCHANGES:0.061=Snow Stream.mpg=1.000=1=0=0=StretchNoLoop==CrossFade==,
99999=-nosongbg-=1.000=0=0=0 // don't automatically add -songbackground-;
#KEYSOUNDS:;

//---------------dance-single - R. Konkul----------------
#NOTES:
     dance-single:
     R. Konkul:
     Easy:
     4:
     0.282,0.000,0.000,0.083,0.000:
0000
0000
0000
0000
,
0000
0000
0000
0000
,
0000
0000
0000
0000
,
0001
0000
0000
0000
,
0010
0000
0010
0000
,
0100
0000
0000
0000
,
1000
0000
0001
0000
,
0100
0000
0001
0000
0100
0001
0100
0000
,
0001
0000
0010
0000
,
0001
0000
1000
0000
0001
1000
0000
0000
,
0010
0000
1000
0000
0010
1000
0000
0000
,
0100
0000
0010
0000
0100
0010
0000
0000
,
0001
0000
0100
0000
,
0001
0000
1000
0000
0001
1000
0000
0000
,
0100
0000
0010
0000
0100
0010
0000
0000
,
0001
0100
0000
0010
,
0100
0000
0001
0000
,
0010
0000
0000
0000
,
0001
0100
0001
0000
,
1000
0000
0000
0100
,
1000
0001
0010
0001
,
0100
0000
0010
0100
0010
0000
0100
0000
,
0001
0000
0000
0010
,
0000
0000
0100
0000
,
1000
0000
0000
0001
,
0000
0000
0000
0100
,
0000
0001
0010
0100
,
1000
0010
0000
0100
,
0000
0000
0001
0010
,
0000
0100
1000
0001
,
0000
0000
0100
0000
,
0001
0000
0010
0001
,
0010
0001
0010
0000
0100
0000
1000
0100
,
1000
0000
0010
1000
0010
0000
0000
0000
,
0100
0100
0000
0001
,
0010
0001
0010
0000
0000
0000
0001
0000
,
0100
0000
0010
0000
0000
0000
0100
0010
,
0100
0001
0000
1000
,
0100
0000
1000
0001
0010
0000
0001
0000
,
0000
1000
0000
0001
,
0100
0000
0010
0100
,
0000
0001
0000
0010
,
0001
1000
0100
0000
0000
0000
1000
0000
,
0000
0000
0010
0000
1000
0010
1000
0000
,
0000
0001
0010
0001
,
0000
0000
1000
0100
1000
0000
0001
0000
,
0000
0100
0000
0001
,
0000
0000
0010
0100
0010
0000
0001
0000
,
0000
0000
0100
0010
0100
0000
0010
0000
,
0000
1000
0000
0001
,
0000
0000
0010
0000
0001
0000
1000
0100
,
1000
0002
0000
0013
,
0001
0100
0010
0000
0100
0000
0010
1000
,
0100
1000
0200
0000
0000
0000
0010
0000
,
0310
0001
0000
1000
,
0001
1000
0010
0000
0000
0000
1000
1000
,
1000
0000
0100
0000
1000
0000
0001
0010
,
0001
0010
0000
0001
,
0100
0000
0020
0000
0000
0030
0100
0000
,
0001
0000
0020
0000
0000
0030
0100
0000
,
0000
0000
1000
0000
0000
0000
0001
0100
,
0010
0000
0100
0000
0000
0000
0001
1000
,
0100
0000
1000
0000
0001
0000
0010
0001
,
0010
0001
0000
0100
,
0000
0000
0010
0000
0100
0000
0001
1000
,
0001
1000
0100
0010
,
0000
0002
0000
0203
,
0000
0320
0000
2030
,
0000
0000
0000
0002
,
0000
0000
3003
0000
;

//---------------dance-single - R. Konkul----------------
#NOTES:
     dance-single:
     R. Konkul:
     Hard:
     8:
     0.544,0.000,0.138,0.193,0.188:
0000
0000
0000
0000
,
0000
0000
0000
0000
,
0000
0000
0000
0000
,
0000
0000
0000
0000
,
0000
0000
0000
0000
,
0001
0000
0000
0000
0000
0000
0000
0010
0001
0000
0100
0000
0000
0000
0000
0000
,
0010
0000
0000
0000
1000
0000
0000
0001
0010
0000
0100
0000
0000
0000
0000
0000
,
1000
0001
0000
0000
0010
0000
0100
0000
1000
0000
0010
0000
0100
0000
0001
0000
,
0100
0000
0000
0000
0010
0000
0000
1000
0001
0000
0000
0000
0010
0000
0000
0000
,
0100
0000
0000
0000
0010
0000
0000
0100
1000
0000
0010
0000
0000
0000
0100
0000
,
0001
0000
0000
0000
0001
0000
0000
0010
0100
0000
0000
0000
0010
0000
0000
0000
,
0100
0000
0000
0000
1000
0000
0000
0001
0100
0000
0010
0000
0000
0000
0010
0000
,
1000
0000
0000
0000
0100
0000
0000
0100
0010
0000
0001
0000
0100
0000
0010
0000
,
1000
0000
0000
0000
0011
0000
0000
0100
1000
0000
1000
0000
0000
0000
0010
0000
,
0100
0001
0010
0010
0100
1000
0100
0010
,
0001
0010
0010
0100
0001
0001
0001
0010
,
0020
0000
0000
0000
,
0000
0000
0030
1000
0000
0001
0010
0000
,
0002
0000
0000
0000
,
0000
0000
0000
0000
0000
0003
0010
0000
0100
0000
1000
0000
0100
0000
0000
0000
,
1000
0000
1010
0000
0011
0001
0010
0100
,
1000
0010
0010
0100
0010
1000
0100
0100
,
2000
0000
0000
0010
0000
0000
0000
0010
0000
0000
0000
0000
0000
0010
0000
0000
,
0010
0000
0000
0000
0000
0000
0000
0000
0000
0001
0000
0000
0000
0001
0000
0000
3000
0000
0000
0000
0000
0000
0000
0000
0200
0000
0000
0000
0000
0000
0010
0000
,
0000
0000
0302
0000
1000
0000
0000
1000
0000
0000
0100
0000
1000
0000
0000
0100
,
0000
0000
0100
0003
2000
0000
0000
0000
3200
0000
0010
0000
0320
0000
0000
0001
,
0000
0000
0032
0000
1000
0000
0000
0100
0000
0000
0100
0000
1000
0000
0000
1000
,
0000
0100
0203
0000
0320
0000
2030
0000
,
0000
0000
3200
0000
1000
0000
0000
1000
0000
0000
0000
0000
0010
0000
0000
0000
,
0000
0000
0000
0000
0000
0000
0000
0000
2300
0000
0000
0000
0000
0000
0000
0000
0000
3000
0000
0000
0000
0000
0000
0000
0001
0000
0000
0000
0010
0000
0000
0000
,
0100
0000
1000
0001
0000
0000
0100
0000
0010
0000
0000
0000
1001
0000
0000
0000
,
1000
0000
1000
0001
0000
0000
0010
0000
0100
0000
0000
0000
0010
0000
0100
0000
,
1000
0000
0001
0100
0010
0000
1000
0001
,
0010
0000
0010
0100
1000
0000
0010
0100
,
0010
1000
1000
0010
0100
0001
0001
0100
,
0010
1000
1000
0001
0010
0100
0010
0001
,
0100
0010
0010
1000
0100
0000
0010
0000
,
0001
0000
1000
0001
1000
0000
0100
0010
,
0100
0000
1000
0100
1000
0000
0010
0000
0100
0000
0000
0000
0010
0000
0000
0000
,
0100
0001
1000
0100
0010
0000
0001
0010
,
0100
1000
0010
0100
0001
0000
0001
0010
,
0100
1000
1000
0000
0101
0000
0001
0010
,
0100
0000
0000
0100
1000
0000
0100
0000
0010
0000
0000
0000
0011
0000
0000
0000
,
0110
0000
1100
1000
0100
0010
0001
0100
,
0100
0000
0000
0000
0010
0100
0000
0000
0001
0000
0000
0000
1000
0000
0100
0000
,
0010
0000
0000
0000
0001
0100
0000
0000
0010
0000
1000
0000
1000
0000
0100
0000
,
0010
0000
0000
0000
0001
0100
0000
0000
0010
0000
1000
0000
0100
0000
1000
0000
,
1000
0000
0000
0000
0011
0010
0100
0000
,
1000
0000
0001
0000
0100
0010
0100
0000
0001
0000
1000
0000
0000
0000
0100
0000
,
0010
0000
0001
0100
0010
0100
0001
0010
,
0100
0000
0000
1000
0100
0000
0010
0000
0001
0000
0000
0000
0101
0000
0000
0000
,
0010
0000
1000
0000
0010
0100
0010
0000
0100
0000
0000
0000
0100
0000
0100
0000
,
0010
0000
0000
0000
0010
1000
0010
0000
1000
0000
0000
0000
0001
0010
0001
0000
,
0010
0000
0100
1000
0010
0100
0001
0010
,
0100
0100
1000
1000
0010
0000
0010
0100
,
0101
0000
0001
0010
0100
1000
0001
0100
,
0010
0000
0000
0000
0010
1000
0000
0000
0010
0000
0000
0000
0100
0000
0001
0000
,
0010
0000
0000
0000
0100
1000
0000
0000
0100
0000
0000
0000
0011
0000
0001
0000
,
0100
0000
0000
0000
0010
1000
0000
0000
0010
0000
0000
0000
0010
0000
0100
0000
,
0001
0000
0010
0000
0000
0100
1000
0000
1000
0000
0000
0000
1100
0000
0000
0000
,
0011
0000
0000
0000
0001
0100
0000
0000
0010
0000
1000
0000
0010
0000
0100
0000
,
0001
0010
0100
0001
0100
1000
0010
0001
,
0010
0000
0100
0010
1000
0000
0001
0010
,
0100
0000
0000
0000
0010
0100
0010
0000
0001
0000
0000
0000
0110
0000
0010
0000
,
1000
0000
0000
0000
0100
0010
0000
0000
0001
0000
0100
0000
0001
0000
0100
0000
,
0010
1000
0100
0010
0001
0001
0200
0000
,
0000
0320
0000
0000
1000
0000
1000
0000
,
0100
2030
3002
2003
,
0000
0000
0000
0000
0000
3020
0000
0000
0000
0000
0000
0000
0230
0000
0000
0000
,
0000
0000
0300
0000
;

//---------------dance-single - D. Renzetti----------------
#NOTES:
     dance-single:
     D. Renzetti:
     Challenge:
     10:
     0.669,0.000,0.083,0.340,0.395:
0000
0000
0000
0000
,
0000
0000
0000
0000
,
0000
0000
0000
0000
,
0000
0000
0000
0000
,
0001
0000
0000
0000
0101
0000
0000
0010
1000
0000
0002
0000
0MM0
0000
0000
0000
,
1003
0000
0000
0000
1010
0000
0000
0100
0001
0000
0020
0000
0000
0000
0100
0000
,
0130
0000
0000
0000
1100
0000
0000
0010
0100
0000
0002
0000
0MM0
0000
0000
0000
,
0103
0010
1000
0000
0100
0000
0010
0001
0100
0000
0010
0000
1000
0000
0100
0000
,
0100
0000
0000
0000
0110
0000
0000
0010
0001
0010
0002
0000
MM00
0000
0000
0000
,
0103
0000
0000
0000
0110
0000
0000
0010
1000
0010
2000
0000
00MM
0000
0100
3000
,
0100
0000
0000
0000
0011
0000
0000
0100
0010
0100
0020
0000
MM00
0000
0000
0000
,
0130
0000
0000
0000
0101
0000
0000
0001
0010
0001
0020
0000
MM00
0000
0001
0000
,
0130
0000
0000
0000
1100
0000
0000
1000
0001
1000
0002
0000
0MM0
0000
0000
0000
,
0103
0000
0000
0000
0110
0000
0000
0010
0100
0010
0200
0000
0000
0000
0010
0000
,
0301
0000
0000
0000
0000
0001
1000
0000
0000
0010
0000
0000
0100
0000
0000
0002
0000
0000
0010
0000
0000
0010
0000
0000
,
0013
0000
0000
0100
0000
0000
1000
0000
0000
0000
0000
0001
0100
0000
0000
0010
0000
0000
1000
0000
0000
0010
0000
0000
,
0020
0000
0000
0000
,
0000
0000
0000
1000
0000
1000
1000
0000
,
2000
0000
0030
0000
,
0000
0000
0000
0000
0000
0001
0000
0000
3000
0000
0001
0000
0001
0000
0000
0000
,
0002
0000
0000
0000
0100
0000
0000
0100
,
0000
0000
0100
0000
0000
0100
0000
0000
,
0000
0000
0000
0100
0000
0000
0000
0100
0000
0000
0000
0000
0000
0100
0000
0000
,
0100
0000
0000
0000
0000
0000
0000
0000
0000
0000
0000
0000
0000
0000
0000
0000
0100
0000
0000
0000
0000
0000
0000
0000
0100
0000
0000
0000
0000
0000
0000
0000
0003
0000
0000
0000
0000
1000
0100
0000
0010
0000
0001
0000
0100
0000
0000
0000
0020
0000
0000
0000
0000
0000
0000
0000
0000
0000
0000
0000
1000
0000
0000
0000
,
000M
0000
0100
0000
2030
0000
0000
0001
0000
0000
0010
0000
320M
0000
0000
0010
,
0000
0000
1000
0300
0002
0000
0000
0100
0200
0000
0000
0300
0020
0003
0000
0100
,
0000
0000
0001
0000
0200
0030
0000
1000
0000
0000
0001
0000
0020
0000
0300
0001
,
0030
0002
0020
0003
0200
003M
2000
03M0
,
0000
0M20
0000
0000
0000
0000
0000
0000
,
3000
0000
2000
3000
0001
0030
1000
0100
,
0010
0000
0001
0010
0001
0000
0100
0000
0100
0000
0000
0000
0010
0000
1000
0000
,
0100
0000
0010
0001
0010
0000
0100
0000
0100
0000
0000
0000
0001
0000
0100
0000
,
1000
0000
0010
1000
0010
0000
0100
0000
0100
0000
0000
0000
1000
0000
0100
0000
,
0001
0000
0010
0001
0010
0000
0100
0000
0100
0000
1000
0100
1000
0000
0001
0000
,
0010
0000
0100
1000
0100
0000
0010
0000
0010
0000
0000
0000
0001
0000
0010
0000
,
0100
0000
1000
0100
1000
0000
0010
0000
0010
0000
0000
0000
1000
0000
0100
0000
,
0001
0000
0100
1000
0100
0000
0010
0000
0010
0000
0000
0000
0001
0000
0100
0000
,
1000
0000
0100
0001
0100
0000
0010
0000
0010
0000
1000
0100
1000
0000
0100
0000
,
0010
0000
0001
0010
0001
0000
0100
0000
0100
0000
0000
0000
0001
0000
0010
0000
,
0100
0000
1000
0100
1000
0000
0010
0000
0010
0000
0000
0000
1000
0000
0100
0000
,
0001
0000
0100
1000
0100
0000
0010
0000
0010
0000
0000
0000
0001
0000
0100
0000
,
1000
0000
0100
0001
0100
0000
0010
0000
0010
0000
1000
0100
0010
0000
0001
0000
,
0010
0000
0100
1000
0100
0000
0010
0000
0010
0000
0000
0000
0001
0000
0010
0000
,
0100
0000
1000
0010
1000
0000
0100
0000
0100
0000
0000
0000
0001
0000
0100
0000
,
1000
0000
0100
0010
0100
0000
1000
0000
1000
0000
0000
0000
0001
0000
0100
0000
,
1000
0000
0100
0010
0100
0000
0001
0000
0001
0000
0010
0100
1000
0000
0100
0000
,
0010
0000
0001
0100
0010
0000
1000
0000
1000
0000
0000
0000
0001
0000
0010
0000
,
0100
0000
1000
0010
0100
0000
0001
0000
0001
0000
0000
0000
1000
0000
0010
0000
,
0001
0000
0010
1000
0010
0000
1000
0000
1000
0000
0000
0000
0001
0000
0010
0000
,
1000
0000
0010
0001
0010
0000
0001
0000
0010
0100
1000
0100
0010
0000
0001
0000
,
0100
0000
0010
1000
0100
0000
0010
0000
0010
0000
0000
0000
0001
0000
1000
0000
,
0010
0000
0100
0001
0010
0000
0100
0000
0100
0000
0000
0000
0010
0000
0100
0000
,
0001
0000
0100
1000
0100
0000
0010
0000
0010
0000
0000
0000
0100
0000
0010
0000
,
1000
0000
0010
0001
0010
0000
0100
0000
0100
0000
0010
0100
1000
0000
0001
0000
,
0100
0000
0010
1000
0100
0000
0010
0000
0010
0000
0000
0000
0001
0000
1000
0000
,
0010
0000
0100
0001
0010
0000
0100
0000
0100
0000
0000
0000
1000
0000
0100
0000
,
0001
0000
0100
1000
0010
0000
0100
0000
0100
0000
0000
0000
0001
0000
0100
0000
,
1000
0000
0100
0001
0010
0000
0100
0000
0100
0000
1000
0100
0010
0000
0001
0000
,
0010
0000
0100
1000
0010
0100
0001
0000
0001
0000
0001
0000
1000
0000
0100
0000
,
0010
0000
0001
0100
0010
1000
0100
0000
0100
0000
0100
0000
1000
0000
0100
0000
,
0010
0000
0001
0100
0010
1000
0100
0000
0100
0000
0100
0000
1000
0000
0010
0000
,
0100
0000
0001
0010
0100
1000
0001
0000
0001
0000
1000
0000
0100
0000
0010
0000
,
0001
0000
0100
0010
1000
0100
0010
0000
0010
0000
0010
0000
0001
0000
1000
0000
,
0100
0000
0010
0001
0100
0010
1000
0000
1000
0000
1000
0000
0100
0000
0010
0000
,
0001
0000
0010
0100
1000
0100
0010
0000
0010
0000
0010
0000
0001
0000
0010
0000
,
0100
0000
1000
0100
0010
0001
0100
0000
0100
0000
0010
0000
2000
0000
0000
0000
,
0000
0000
0200
0000
0000
0000
0300
0000
0100
0000
3200
0000
0010
0000
0020
0300
,
0001
0000
0002
0030
2000
0000
0000
0003
0200
0000
0000
0000
0002
0000
0000
0000
,
0000
0020
0003
0002
,
0000
0000
0000
3333
0000
0000
0000
0000
;

//---------------dance-single - Rynker----------------
#NOTES:
     dance-single:
     Rynker:
     Medium:
     6:
     0.377,0.000,0.028,0.174,0.000: // measure 1
0000
0000
0000
0000
,  // measure 2
0000
0000
0000
0000
,  // measure 3
0000
0000
0001
0000
,  // measure 4
0010
0000
0001
0000
0100
0001
0000
0000
,  // measure 5
0100
0000
0010
0000
1000
0010
0000
0000
,  // measure 6
1000
0000
0100
0000
0010
0100
0010
0000
,  // measure 7
0001
0000
0010
0000
0001
1000
0000
0010
,  // measure 8
1000
0000
0010
0000
0100
0010
0100
0001
,  // measure 9
0100
0000
0001
0000
1000
0100
0000
1000
,  // measure 10
0001
0000
0010
0000
0001
0100
0000
0010
,  // measure 11
0100
0000
0001
0000
1000
0100
0000
0100
,  // measure 12
0010
0000
0010
0000
0010
0001
0000
0001
,  // measure 13
0100
0000
0100
0000
0001
1000
0000
1000
,  // measure 14
0100
0000
1000
0000
0001
0010
0000
0001
,  // measure 15
1000
0000
0010
0000
0100
0010
0000
1000
,  // measure 16
0001
0010
0000
0100
,  // measure 17
0000
1000
0001
0000
,  // measure 18
0100
0000
0000
0001
0000
0001
0010
0000
,  // measure 19
0110
0200
0000
0300
,  // measure 20
0000
0000
1000
0001
1001
1000
1000
0000
,  // measure 21
0001
0000
0010
0000
0100
0000
1000
0001
,  // measure 22
1000
0000
0001
0100
0010
0000
0100
0000
,  // measure 23
0010
2000
0000
0000
0000
0000
0002
0000
,  // measure 24
0000
0000
0000
3003
,  // measure 25
0000
0002
0000
0023
,  // measure 26
0000
0030
0100
1000
0000
0000
0001
0000
,  // measure 27
0100
0010
0100
0002
,  // measure 28
0000
0000
0000
0000
2000
0003
0000
0000
,  // measure 29
0000
0000
0200
0000
0000
3000
0020
0000
,  // measure 30
0000
0300
0002
0000
0000
0030
1003
0000
,  // measure 31
0000
0000
0001
0000
0000
0000
0100
0001
,  // measure 32
0100
0010
0100
0010
1000
0000
0010
0000
,  // measure 33
1000
0001
1000
0000
0001
0010
0001
1000
,  // measure 34
0100
0000
1000
0001
0010
0001
1000
0000
,  // measure 35
0000
0000
0010
1000
0010
0000
0100
0010
,  // measure 36
0100
0000
0001
0100
0001
1000
0100
0000
,  // measure 37
0000
0000
1000
0001
0010
0000
0001
1000
,  // measure 38
0010
0000
1000
0010
0100
0100
0001
0000
,  // measure 39
0000
0010
0001
0000
1000
0000
0100
1000
,  // measure 40
0000
0100
1000
0000
0001
0000
0010
0001
,  // measure 41
1000
0000
0010
1000
0001
0000
0100
0001
,  // measure 42
0100
0100
0010
0000
0000
0010
1000
0000
,  // measure 43
0100
0000
1000
0100
0010
0000
0100
0010
,  // measure 44
0100
0000
0100
0000
0000
0000
0100
0010
,  // measure 45
0100
0000
0010
0000
0001
0000
1000
0001
,  // measure 46
1000
0001
0000
0001
,  // measure 47
0000
0000
0100
0000
0000
0000
0010
0100
,  // measure 48
0010
0000
0100
0000
0000
0000
0001
1000
,  // measure 49
0100
1000
0001
0010
0001
0000
0010
0000
,  // measure 50
0010
0010
0001
0000
0000
0000
0001
0100
,  // measure 51
0010
0000
0100
0000
0000
0000
0010
1000
,  // measure 52
0010
2000
0000
3001
,  // measure 53
0000
0000
0010
0000
0000
0000
0001
0100
,  // measure 54
0010
0100
0001
1000
,  // measure 55
0000
0100
0000
0020
,  // measure 56
0000
0031
0000
0100
,  // measure 57
0001
0000
1000
0010
1000
0000
0001
0000
,  // measure 58
0100
0001
0010
0200
,  // measure 59
0000
0000
0000
0000
0000
0300
2000
0000
,  // measure 60
0000
0000
0000
0000
0000
0000
3000
0001
,  // measure 61
0000
0000
0000
0000
,  // measure 62
0100
0000
0001
0000
0010
0000
0001
1000
,  // measure 63
0100
0000
1000
0000
0001
0000
0010
0001
,  // measure 64
1000
0010
1000
0000
0000
0000
0010
0100
,  // measure 65
0010
0000
0100
0000
0001
0000
1000
0100
,  // measure 66
1000
0100
0010
0002
,  // measure 67
0000
0000
0000
0000
0203
0000
0000
0300
,  // measure 68
0010
0000
0100
0100
1100
0000
0020
0000
,  // measure 69
0000
0000
0000
0000
0032
0000
0000
0200
,  // measure 70
0000
0000
0303
0000
;

//---------------dance-single - R. Konkul----------------
#NOTES:
     dance-single:
     R. Konkul:
     Beginner:
     1:
     0.066,0.000,0.000,0.000,0.000:
0000
0000
0000
0000
,
0000
0000
0000
0000
,
0001
0000
0000
0000
,
0000
0010
0000
0000
,
0000
0000
0100
0000
,
0000
0000
0000
0000
,
0000
1000
0000
0000
,
0000
0000
0001
0000
,
0000
0000
0000
0000
,
0010
0000
0000
0000
,
0000
0001
0000
0000
,
0000
0000
0100
0000
,
0000
0000
0100
0000
,
0000
0000
0000
0000
,
0000
0001
0000
0000
,
0000
0000
0000
0010
,
0000
0000
0000
0000
,
0000
0000
0000
0100
,
0000
0000
0000
0000
,
0000
0000
0000
1000
,
0000
0000
0000
0000
,
0000
0001
0000
0000
,
0100
0000
0000
0000
,
0010
0000
0000
0100
,
0000
0000
0000
0000
,
0001
0000
0000
0000
,
0000
0000
0010
0000
,
0000
0100
0000
0000
,
0000
0000
1000
0000
,
0000
0000
0000
0001
,
0000
0000
0000
0000
,
0000
0100
0000
0000
,
0000
0000
0000
0000
,
0000
0000
0001
0000
,
0000
0000
0000
0000
,
0000
0010
0000
0000
,
0000
0000
0000
0000
,
0100
0000
0000
0000
,
0000
1000
0000
0000
,
0000
0000
0000
0000
,
0010
0000
0000
0000
,
0000
0000
0000
0000
,
0100
0000
0000
0000
,
0000
0000
0001
0000
,
0000
0000
0000
0000
,
0000
0000
0000
0010
,
0000
0000
0000
0000
,
0000
0100
0000
0000
,
0000
0000
0000
0000
,
0000
0000
0000
1000
,
0000
0000
0000
0000
,
0001
0000
0000
0000
,
0000
0000
0100
0000
,
0000
0000
0000
0010
,
0000
0000
0000
0000
,
0100
0000
0000
0000
,
0000
0001
0000
0000
,
0000
0000
0000
1000
,
0000
0000
0000
0000
,
1000
0000
0000
0000
,
0001
0000
0000
0000
,
0000
0001
0000
0000
,
0000
0000
0000
0010
,
0000
0000
0000
0010
,
0000
0000
0000
0000
,
0100
0000
0000
1000
,
0000
0000
0001
0000
,
0000
0100
0000
0000
,
0001
0000
0000
0000
,
0010
0000
0000
0000
;

//---------------dance-double - M. Cerna----------------
#NOTES:
     dance-double:
     M. Cerna:
     Challenge:
     10:
     0.708,0.796,0.119,0.239,0.413,501.000,13.000,26.000,36.000,0.000,0.000:
00000000
00000000
00000000
00000000
,
00000000
00000000
00000000
00000000
,
00000000
00000000
00000000
00000000
,
00000000
00000000
00000000
00000000
,
00010000
00000000
00000000
00000000
00000100
00000000
00000000
00001000
00000010
00000000
00000100
00000000
00000000
00000000
00010000
00000000
,
00001000
00000000
00000000
00000000
01000000
00000000
00000000
00010000
00100000
00000000
01000000
00000000
00000000
00000000
10000000
00000000
,
00010000
00000000
00000000
00000000
00100000
00000000
00000000
00001000
00010000
00000000
00001000
00000000
00000000
00000000
00010000
00000000
,
00000001
00000000
00000001
00000000
00000100
00000000
00000010
00000000
00001000
00000000
00000100
00000000
00010000
00000000
00001000
00010000
,
00001000
00000000
00000000
00000000
00101000
00000000
00100000
00000000
00010000
00000000
01000000
00100000
01000000
00000000
00010000
00000000
,
00100000
00000000
00000000
00000000
01000000
00000000
10000000
00000000
01000000
00000000
00100000
00010000
00100000
00000000
00010000
00000000
,
10000000
00000000
00000000
00000000
00010000
00000000
00100000
00000000
00001000
00000000
00010000
00000100
00010000
00000000
00000100
00000000
,
00001000
00000000
00000010
00000000
00000100
00000000
00000010
00000000
00001000
00000000
00000100
00000000
00010000
00000000
00001000
00010000
,
00001000
00000000
00000000
00000000
00010000
00000000
00001000
00000000
00100000
00000000
00010000
00100000
00010000
00000000
01000000
00000000
,
00100000
00000000
00000000
00000000
01000000
00000000
00100000
00000000
00010000
00000000
00001000
00010000
00001000
00000000
00010000
00000000
,
00000100
00000000
00000000
00000000
00001000
00000000
00000010
00000000
00000100
00000000
00000001
00000010
00000001
00000000
00001000
00000000
,
00000100
00000000
00000100
00000000
00010000
00000000
00001000
00000000
00100000
00000000
00010000
00000000
01000000
00010000
01000000
00010000
,
02000000
00000000
00000000
00000000
M0000000
M0000000
03M00000
00M00000
,
000M0000
000M0000
0000M000
0100M000
00000M00
01000M00
0100M000
0000M000
,
010M0000
000M0000
0000M000
0000M000
00000M00
00000M00
000M0000
000M0000
,
00M00000
00000000
00M00000
00000000
M1000000
00010000
01M00000
00000000
0010M000
00000000
010000M0
00000000
01000000
00000000
00000000
00000000
,
01000000
00000000
00000000
00000000
10010000
00000000
10000000
00000000
00010000
10000000
00010000
00000000
10000000
00000000
01000000
10000000
,
01000000
00100000
00110000
00000000
00000000
00202000
00000000
00000000
,
00000000
00000000
00000000
00000000
00000000
00000000
00000000
00000000
00000000
00000000
00000000
00000000
00000000
00000000
00000000
00000000
00000000
00000000
00000000
00000000
00000000
00000000
00000000
00000000
00000000
00000000
00000000
00000000
00000000
00000000
00000000
00000000
00000000
00000000
00000000
00000000
00000000
00000000
00000000
00000000
00000000
00000000
003M0000
00000000
00000000
00000000
00000000
00000000
00000000
00000000
00000000
00000000
00000000
00000000
00000000
00000000
00000000
00000000
00000000
00000000
00000000
00000000
00000000
00000000
00000000
00000000
00000000
00000000
00000000
00000000
00000000
00000000
00000000
00000000
00000000
00000000
00000000
00000000
00003M00
00000000
00000000
00000000
00000000
00000000
00000000
00000000
00000000
00000000
00000000
00000000
00000000
00000000
00000000
00000000
00000000
00000000
00000000
00000000
00000000
00000000
00000000
00000000
00000000
00000000
00000000
00000000
00000000
00000000
00000000
00000000
00000000
00000000
00000000
00000000
00000000
00000000
00000000
00000000
00000000
00000000
00000000
00000000
00000000
00000000
00000000
00000000
00000000
00000000
00000000
00000000
00000000
00000000
00000000
00000000
00000000
00000000
00000000
00000000
00000000
00000000
00000000
00000000
00000000
00000000
00000000
00000000
00000000
00000000
00000000
00000000
00000000
00000000
00MM0000
00000000
00000000
00000000
00000000
00000000
00000000
00000000
00000000
00000000
00000000
00000000
00000000
00000000
00000000
00000000
00000000
00000000
00000000
00000000
00000000
00000000
00000000
00000000
00000000
00000000
00000000
00000000
0000MM00
00000000
00000000
00000000
00000000
00000000
00000000
00000000
00000000
00000000
00000000
00000000
,
00000000
00000000
00000000
00000000
00MM0000
00000000
0000MM00
00000000
00000000
00000000
00000000
00000000
00020000
00000000
00031000
00010000
,
00000000
00000100
00001000
00000010
00010000
00001000
00000000
00100000
00010000
10000000
00100000
01000000
00010000
00000000
10000000
01000000
,
00000000
00000000
00100000
00000000
00010000
00100000
00010000
10000000
01000000
00100000
00001000
00010000
00000100
00000000
00001000
00000010
,
00000000
00000000
00000100
00001000
00010000
00001000
00000100
00000010
00001000
00000100
00010000
00001000
00100000
00000000
00010000
01000000
,
00000000
00000000
00100000
01000000
00010000
00100000
01000000
00100000
00001000
00010000
00000100
00001000
00000020
00000000
00000000
00000000
,
00000000
00000000
00002030
00000000
00000000
00000000
00000000
00000000
00000000
00000000
00000000
00000000
00003100
00000000
00000000
00010000
,
00000000
00000000
00000000
00000000
00001000
00000000
00000000
00000000
00100000
00000000
00010000
00000000
00100000
00000000
01000000
00000000
10000000
00000000
00010000
00000000
10000000
00010000
10000000
00010000
10000000
00000000
00000000
00000000
00010000
00000000
00000000
00000000
,
10000000
00000000
00100000
00000000
01000000
00000000
00100000
01000000
00100000
00000000
10000000
00000000
11000000
00000000
01000000
00000000
,
00100000
00000000
00010000
00000000
00100000
00000000
00001000
00010000
00001000
00000000
00010000
00000000
00010010
00000000
00000010
00000000
,
00001000
00000000
00000100
00000000
00010000
00000000
00000100
00001000
00000100
00000000
00010000
00000000
00010100
00000000
00010000
00000000
,
00000010
00010000
00000010
00010000
00000010
00010000
00010020
00000000
,
00001030
00000100
00010000
00001000
00000000
00100000
00010000
01000000
,
00100000
00000000
10000000
00000000
01000000
00000000
00100000
00000000
00010000
00000000
10000000
00010000
10000000
00000000
00000000
00000000
,
10000000
00100000
01000000
00000000
00010000
00000000
00100000
00001000
,
00010000
00000000
00001000
00000000
00100000
00000000
00001000
00000000
00010000
00001000
00010000
00000000
00011000
00000000
00000000
00000000
,
00001000
00100000
00010000
01000000
00000000
00010000
00100000
00001000
,
00010000
00000000
00000100
00000000
00001000
00000000
00000100
00000000
00010000
00000000
00001000
00010000
00001000
00000000
00000000
00000000
,
00010000
00001000
00000100
00000000
00000010
00000000
00001000
00000001
,
00000100
00000000
00000010
00000000
00001000
00000100
00001000
00000000
00000010
00000000
00000100
00000010
00000200
00000000
00000000
00000000
,
00000301
00001000
00000100
00000010
00000001
00000010
00000100
00010000
,
00000100
00000000
00010000
00000000
00001000
00000000
00100000
00000000
00001000
00000000
00010000
00000100
00010000
00000000
00000000
00000000
,
00010000
00000000
00000020
00000000
00000000
00000000
00000000
00000000
00000000
00000000
00000000
00000000
00010030
00001000
00010000
00000000
,
00001000
00000000
00100000
00000000
01000000
00100000
01000000
10000000
00010000
00000000
10000000
00000000
20010000
00000000
30010000
00000000
,
00100000
00000000
00001000
00000000
00010000
00000000
00000100
00001000
00000010
00000000
00010000
00000000
00000020
00000000
00010030
00000000
,
00000100
00000000
00010000
00000000
00001000
00000000
00010000
00001000
00100000
00000000
00010000
00000000
20000000
00000000
30100000
00000000
,
01000000
00000000
00100000
00000000
10000000
00000000
01000000
00100000
01000000
00000000
00100000
00000000
00010000
00000000
00100000
00000000
,
00001000
00000000
00010000
00000000
00000100
00001000
00000100
00001000
00000001
00000000
00000100
00000000
00000120
00000000
00000000
00000000
,
00001030
00000010
00001000
00000000
00000100
00000000
00010000
00000000
00001000
00000000
00100000
00001000
00100000
00000000
00000000
00000000
,
00010000
01000000
00010000
00000000
01000000
00000000
00100000
00000000
10000000
00000000
01000000
10000000
01000000
00000000
00000000
00000000
,
00100000
00001000
00010000
00000000
00001000
00000000
00010000
00000000
00000010
00000000
00001000
00000100
00001000
00000000
00000010
00000000
,
00000100
00000000
00000001
00000000
00001000
00000000
00000001
00000000
00001000
00000100
00001000
00000010
00010000
00000000
00000000
00000000
,
00001000
00000000
00100000
00000000
00010000
00000000
00100000
00000000
00001000
00000000
00010000
00001000
00010000
00000000
00000000
00000000
,
00001000
00000000
01000000
00000000
00100000
00000000
01000000
00000000
00010000
00000000
00100000
01000000
00100000
00000000
00000000
00000000
,
01000000
10000000
00200000
00000000
10300000
00010000
10000000
00100000
,
01000000
00000000
00010000
00000000
00100000
00000000
00001000
00000000
00010000
00000000
00000100
00001000
00000200
00000000
00000000
00000000
,
00001300
00000010
00000100
00001000
00000100
00000010
00001000
00000100
,
00010000
00000000
00001000
00000000
00010000
00000000
00000100
00001000
00000001
00000000
00000010
00000000
00000100
00000000
00000000
00000000
,
00000010
00000100
00001000
00000100
00010000
00001000
00000100
00000010
,
00001000
00000000
00000100
00000000
00010000
00001000
00010000
00001000
00100000
00000000
00001000
00000000
00011000
00000000
00001000
00000000
,
01000000
00000000
00100000
00000000
01000000
00000000
00010000
00100000
00010000
00000000
00100000
00000000
00001000
00000000
00010000
00000000
,
00000200
00000000
00002300
00000000
00003020
00000000
00000230
00000000
00000320
00000000
00001030
00000100
00001000
00000000
00000100
00000000
,
00010000
00001000
00000100
00000010
00000100
00001000
00010000
00001000
,
00100000
00000000
00010000
00000000
10000000
00000000
00010000
00000000
10000000
00010000
10000000
00010000
20000000
00000000
00000000
00000000
,
00000000
00000000
30020000
00000000
00000000
00000000
00000000
01030000
00010000
00000000
00100000
00000000
00001000
00000000
00010000
00001000
,
00000100
00000000
00000010
00000000
00001000
00000100
00000010
00000100
00001000
00000000
00000001
00000000
00000200
00000000
00000000
00000000
,
00000000
00000000
00002300
00000000
00000000
00003000
00022000
00000000
,
00000000
00000000
00000000
00033000
00000000
00000000
00000000
00000000
;

//---------------dance-double - M. Cerna----------------
#NOTES:
     dance-double:
     M. Cerna:
     Hard:
     9:
     0.575,0.573,0.193,0.331,0.060,381.000,21.000,36.000,6.000,0.000,0.000:
00000000
00000000
00000000
00000000
,
00000000
00000000
00000000
00000000
,
00000000
00000000
00000000
00000000
,
0000000M
000000M0
00000M00
0000M000
00000000
00000000
00000000
00000000
,
00010000
00000000
10000000
00000000
00100000
01000000
00000000
00001000
,
00010000
00000000
00000100
00000000
00001000
00000010
00000000
00000100
,
00000001
00000000
00001000
00000000
00000100
00010000
00000000
00001000
,
00100000
00000000
00010000
01000000
00100000
01000000
00010000
00100000
,
01000000
00000000
01000000
00100000
00000000
00010000
10000000
00010000
,
01000000
00000000
00100000
01000000
00000000
01000000
00100000
10000000
,
00010000
00000000
01000000
00001000
00000000
00010000
00000100
00001000
,
00000100
00000000
00001000
00000010
00000100
00001000
00010000
00001000
,
00010000
00000000
00010000
00000100
00000000
00001000
00000100
00000010
,
00000001
00000000
00000100
00000010
00000000
00000100
00001000
00010000
,
00001000
00000000
00100000
00010000
00000000
00100000
01000000
10000000
,
10000000
00010000
01000000
00100000
10000000
00010000
00100000
00001000
,
00020000
00000000
00000000
00000000
,
00000000
00000000
00000000
00001000
00000000
00001000
00001000
00000000
,
00001000
00000000
00000000
00000000
,
00000000
00000000
00000000
00000000
00031000
00100000
00001000
00000000
00100000
00000000
00010000
00000000
01000000
00000000
00000000
00000000
,
00100000
00000000
10010000
00000000
01000000
01100000
00000000
00000000
,
11000000
00000000
00101000
00000000
00000000
00020200
00000000
00000000
,
00000000
00000300
00000000
00030M00
00000000
000M0000
00000000
00000000
,
00000000
00000000
00000000
00020000
,
00000000
00000000
02030000
00000000
00000000
00000000
00000000
00000000
03000000
00000000
00000000
00000000
00011000
00000000
00000000
00001100
,
00000000
00000000
00000110
00000000
00000010
00000000
00000001
00000100
00000010
00000000
00000010
00001000
00000200
00000000
00000000
00000000
,
00000000
00000000
00020300
00000000
00000000
00000000
00000000
00000000
00030000
00000000
00000000
00000000
00011000
00000000
00000000
00110000
,
00000000
00000000
10010000
00000000
00020000
00000000
10030000
00010000
01000000
00000000
00010000
10000000
02000000
00000000
00000000
00000000
,
00000000
00000000
03200000
00000000
00000000
00000000
00000000
00000000
00300000
00000000
00000000
00000000
10010000
00000000
00000000
00101000
,
00000000
00000000
00011000
00000000
00020000
00000000
00031000
00010000
00000100
00000000
00010000
00001000
00100000
00000000
00001000
00000000
,
00010000
00001000
00000100
00000010
00001000
00000000
00000100
00010000
,
00001000
00100000
00010000
01000000
00100000
00000000
01000000
00010000
,
10000000
01000000
00100000
00010000
10000000
00000000
00010000
00100000
,
00001000
00010000
00001000
00000100
00000010
00001000
00000002
00000000
,
00001003
00000100
00010000
00001000
00200000
00000000
00301000
00000000
,
00010000
00000010
00000100
00000010
00010000
00001000
00100000
00000000
,
00010000
01000000
00200000
00000000
10300000
00000000
02000000
00000000
,
03100000
00001000
00020000
00000000
00030100
00001000
00000020
00000000
,
00001030
00000001
00001000
00000001
00000200
00000000
00000310
00000000
,
00001000
00000000
00000100
00010000
00001000
00100000
00001000
00000000
,
00010000
00000000
00001000
00100000
01000000
00000000
00100000
00010000
,
01000000
00100000
10000000
00010000
00100000
01000000
20000000
00000000
,
30100000
01000000
00010000
00100000
00002000
00000000
00013000
00000000
,
00000010
00000100
00000010
00001000
00000100
00000010
00000001
00000000
,
00000100
00000020
00000000
00000000
00000000
00000000
00002000
00000000
,
00003030
00000000
00000002
00000000
00000003
00000000
00001001
00000001
,
00000100
00001000
00010000
00001000
00010000
00000000
00011000
00001000
,
00100000
00010000
01000000
00100000
01000000
00000000
01100000
00100000
,
10000000
01000000
00100000
01000000
00100000
00000000
10020000
00000000
,
10030000
00010000
01000000
00000000
01000000
00010000
00110000
00100000
,
00001000
00010000
00000100
00001000
00000010
00000100
00000010
00001000
,
00000100
00000010
00000001
00000100
00000010
00001000
00000100
00000000
,
00001000
00000010
00000100
00000010
00010000
00001000
00010000
00000100
,
00001000
00000010
00000100
00001000
00010000
00001000
00100000
00000000
,
00010000
00100000
01000000
10000000
00100000
01000000
00100000
10000000
,
00010000
00100000
00001000
00010000
00000100
00001000
00000010
00000000
,
00001000
00000001
00000100
00000000
00000010
00000000
00002000
00000000
,
00003001
00001000
00000200
00000000
00010300
00000010
00001010
00000000
,
00001000
00000100
00010000
00001000
00100000
00010000
01000000
00100000
,
01000000
00010000
00100000
00001000
00010000
00000000
00000100
00000000
,
00001000
00000010
00000100
00001000
00000100
00000010
00020000
00000000
,
00031000
00000100
00002000
00000000
00013000
00100000
00020000
00130000
,
10000000
01000000
00100000
00010000
00100000
01000000
20000000
30100000
,
01000000
00010000
00100000
00001000
00010000
00000100
00002000
00003010
,
00000100
00000001
00000010
00000100
00000010
00000001
00000100
00001000
,
00010000
00000000
00000100
00000000
00010000
00000000
00001000
00000000
00100000
00000000
00001000
00000000
00011000
00000000
00000000
00001000
,
01000000
00000000
00100000
00000000
01000000
00000000
00000000
00010000
00100000
00000000
00001000
00010000
00000100
00000000
00001000
00000000
,
00000010
00000100
00000002
00000000
00002003
00000000
00003200
00000000
,
00000000
00020300
00000000
00032000
,
00000000
00000000
00000000
00003000
00000000
00000000
00000000
00000000
;

//---------------dance-double - M. Cerna----------------
#NOTES:
     dance-double:
     M. Cerna:
     Easy:
     4:
     0.352,0.446,0.083,0.340,0.000,222.000,9.000,37.000,10.000,0.000,0.000: // measure 1
00000000
00000000
00000000
00000000
,  // measure 2
00000000
00000000
00000000
00000000
,  // measure 3
00000000
00000000
00000000
00000000
,  // measure 4
00000000
00000000
00000000
00000000
,  // measure 5
00001000
00000000
00010000
00000000
00000000
00010000
00000000
00000000
,  // measure 6
00001000
00000000
00100000
00000000
00000000
00100000
00000000
00000000
,  // measure 7
00001000
00000000
01000000
00000000
00000000
01000000
00000000
00000000
,  // measure 8
00010000
00100000
01000000
10000000
,  // measure 9
10010000
00000000
00000000
00020000
00000000
00000000
00000000
00000000
,  // measure 10
10030000
00000000
00010000
00000000
00000000
00010000
00000000
00000000
,  // measure 11
00100000
00000000
00001000
00000000
00000000
00001000
00000000
00000000
,  // measure 12
00010000
00000000
00000100
00000000
00000000
00000100
00000000
00000000
,  // measure 13
00001000
00000000
00000010
00000000
00000000
00000010
00000000
00000000
,  // measure 14
00000100
00000000
00000001
00000000
00000000
00000001
00000000
00000000
,  // measure 15
00000100
00000000
00000010
00000000
00000000
00000010
00000000
00000000
,  // measure 16
00010000
00000000
00001000
00000000
00100000
00000000
00001000
00010000
,  // measure 17
00002000
00000000
00000000
00000000
,  // measure 18
00000000
00000000
00000000
000M0000
00000000
000M0000
000M0000
00000000
,  // measure 19
000M0000
00000000
00000000
00000000
,  // measure 20
00000000
00003000
00000000
00000000
,  // measure 21
00001000
00000000
00022000
00000000
00000000
00030000
00000000
00000000
,  // measure 22
00000000
00000000
00000M00
00000000
00000000
00000M00
00000000
00000000
,  // measure 23
00000000
000M0000
00000000
000M3000
00000000
00000000
M0000000
00000000
,  // measure 24
0000000M
00000000
00000000
00020000
,  // measure 25
00000000
00000200
00030300
00000000
00000000
00000000
00001000
00000000
,  // measure 26
00000100
00000000
00000010
00000000
00000100
00000010
00000002
00000000
,  // measure 27
00000000
00002000
00003003
00000000
00000000
00000000
00000010
00000000
,  // measure 28
00001000
00000000
00000100
00000000
00010000
00001000
00020000
00000000
,  // measure 29
00000000
00002000
00033000
00000000
00000000
00000000
00001000
00000000
,  // measure 30
00100000
00000000
00010000
00000000
01000000
00100000
02000000
00000000
,  // measure 31
03010000
00100000
00001000
00020000
,  // measure 32
00030100
00001000
00000010
00000200
,  // measure 33
00000310
00001000
00000100
00020000
,  // measure 34
00031000
00010000
00001000
00011000
,  // measure 35
00010000
00001000
00100000
00010000
,  // measure 36
01000000
00100000
01000000
00010000
,  // measure 37
00100000
01000000
00100000
00010000
,  // measure 38
00100000
00001000
00010000
00000100
,  // measure 39
00001000
00000010
00000100
00000010
,  // measure 40
00001000
00000100
00000010
00000001
,  // measure 41
00000010
00000100
00001000
00000010
,  // measure 42
00000100
00001000
00010000
00011000
,  // measure 43
00001000
00100000
00010000
01000000
,  // measure 44
00100000
10000000
01000000
00100000
,  // measure 45
00010000
00100000
00001000
00020000
,  // measure 46
00031000
00002000
00013000
00021000
,  // measure 47
00031000
00010000
00000100
00002000
,  // measure 48
00003010
00000100
00000010
00002000
,  // measure 49
00003100
00010000
00001000
00200000
,  // measure 50
00310000
02000000
03100000
10010000
,  // measure 51
00010000
00000000
00100000
00010000
00100000
00000000
00001000
00000000
,  // measure 52
00010000
00000100
00001000
00000010
,  // measure 53
00000100
00000010
00001000
00000100
,  // measure 54
00000010
00000001
00001000
00000200
,  // measure 55
00010300
00000000
00000100
00001000
00000100
00000000
00001000
00000000
,  // measure 56
00000010
00000100
00000010
00010000
,  // measure 57
00001000
00010000
00000100
00001000
,  // measure 58
00000010
00010000
00001000
00200000
,  // measure 59
00310000
00000000
01000000
00010000
01000000
00000000
00100000
00000000
,  // measure 60
10000000
01000000
00100000
00001000
,  // measure 61
00010000
00000100
00001000
00000020
,  // measure 62
00000130
00000200
00000310
00001002
,  // measure 63
00001000
00001003
00001000
00000210
,  // measure 64
00000010
00000010
00000310
00002001
,  // measure 65
00000001
00000001
00003001
00002000
,  // measure 66
00003100
00020000
00031000
00200000
,  // measure 67
00000000
00020000
00330000
00000000
00100000
00001000
00010000
00000000
,  // measure 68
00001000
00000000
00020000
00030100
00002000
00003010
00000200
00000000
,  // measure 69
00000000
00000320
00000000
00002030
,  // measure 70
00000000
00000000
00000000
00003000
00000000
00000000
00000000
00000000
;

//---------------dance-double - M. Cerna----------------
#NOTES:
     dance-double:
     M. Cerna:
     Medium:
     6:
     0.451,0.669,0.156,0.349,0.023,289.000,17.000,38.000,2.000,0.000,0.000: // measure 1
00000000
00000000
00000000
00000000
,  // measure 2
00000000
00000000
00000000
00000000
,  // measure 3
00000000
00000000
00000000
00000000
,  // measure 4
00000000
00000000
00000000
00000000
,  // measure 5
00010000
00000000
00000100
00001000
00000000
00000100
00001000
00000000
,  // measure 6
00000010
00000000
00000100
00000010
00000000
00000100
00000010
00000000
,  // measure 7
00001000
00000000
00000001
00001000
00000000
00000001
00001000
00000000
,  // measure 8
00000100
00000000
00010000
00001000
00010000
00000100
00001000
00000010
,  // measure 9
00000100
00000000
00000010
00001000
00000000
00000100
00010000
00000000
,  // measure 10
00001000
00000000
00100000
00010000
00000000
00100000
00010000
00000000
,  // measure 11
01000000
00000000
00100000
01000000
00000000
00100000
10000000
00000000
,  // measure 12
01000000
00000000
00100000
00010000
00000000
00100000
00001000
00000000
,  // measure 13
00010000
00000000
00000100
00001000
00000000
00000010
00000100
00000000
,  // measure 14
00000010
00000000
00001000
00000100
00000000
00000010
00000100
00000000
,  // measure 15
00000010
00000000
00000001
00000100
00000000
00000010
00001000
00000000
,  // measure 16
00000100
00000000
00010000
00001000
00100000
00010000
01000000
00100000
,  // measure 17
02000000
00000000
00000000
00000000
,  // measure 18
00000000
00000000
00000000
00100000
00000000
00100000
00100000
00000000
,  // measure 19
00100000
00000000
00000000
00000000
,  // measure 20
00000000
00000000
00000000
00000000
,  // measure 21
03000000
00000000
10010000
00000000
00000000
22000000
00000000
00000000
,  // measure 22
00000000
00000000
03000000
00000000
00000000
30000000
00000000
00000000
,  // measure 23
00000000
0M000000
00000000
M0000000
00000000
00000000
00000000
00000000
,  // measure 24
00000000
00000000
00000000
00020000
,  // measure 25
00000000
00000000
00230000
00000000
00000000
00000000
00000000
00000000
00301000
00000000
00010000
00000000
00000100
00000000
00001000
00000010
,  // measure 26
00000100
00000010
00002000
00000000
00000002
00003003
00000120
00000000
,  // measure 27
00000000
00000000
00002000
00000000
00000000
00000000
00003030
00000000
00000010
00000000
00001000
00000000
00000100
00000000
00010000
00001000
,  // measure 28
00100000
00010000
02000000
00000000
00200000
03300000
20010000
00000000
,  // measure 29
00000000
00000000
00020000
00000000
00000000
00000000
30030000
00000000
00000000
00000000
00000000
00000000
10000000
00000000
00000000
00010000
,  // measure 30
00000000
10000000
00200000
00000000
01300000
00000000
10010000
00000000
,  // measure 31
00010000
00100000
00001000
00010100
,  // measure 32
00010000
00000100
00001000
00001010
,  // measure 33
00000010
00000100
00000010
00002000
,  // measure 34
00003100
00000000
00010000
00000000
00001000
00100000
00020000
00000000
,  // measure 35
01030000
00100000
10000000
00100000
,  // measure 36
01000000
00010000
00100000
00000000
00100000
00010000
01000000
00000000
,  // measure 37
00100000
10000000
01000000
00010000
,  // measure 38
00001000
00000000
00010000
00000000
00000100
00001000
00000020
00000000
,  // measure 39
00000130
00000010
00002000
00003100
,  // measure 40
00010000
00000000
00000100
00000000
00001000
00000100
00000010
00000000
,  // measure 41
00000001
00000100
00000010
00020000
,  // measure 42
00031000
00002000
00013000
00011000
,  // measure 43
00001000
00100000
00010000
01000000
,  // measure 44
00100000
10000000
01000000
00000000
01000000
10000000
00100000
00000000
,  // measure 45
10000000
01000000
00100000
00002000
,  // measure 46
00013000
00002000
00103000
10010000
,  // measure 47
10000000
01000000
00100000
10010000
,  // measure 48
00010000
01000000
00100000
10010000
,  // measure 49
10000000
00010000
10000000
00020000
,  // measure 50
10030000
00010000
02000000
00000000
03100000
10000000
00010000
00000000
,  // measure 51
10000000
01000000
00100000
00001000
,  // measure 52
00010000
00000100
00001000
00000000
00001000
00000100
00000010
00000000
,  // measure 53
00000001
00000100
00001000
00000100
,  // measure 54
00000010
00001000
00000100
00000000
00000100
00010000
00001000
00000000
,  // measure 55
00010000
00001000
00100000
00010000
,  // measure 56
01000000
00100000
10000000
00100000
01000000
00010000
00100000
00000000
,  // measure 57
00010000
00100000
00001000
00020000
,  // measure 58
00030100
00002000
00003010
00000110
,  // measure 59
00000100
00000001
00001000
00000100
,  // measure 60
00010000
00001000
00100000
00010000
,  // measure 61
01000000
00100000
00010000
00002000
,  // measure 62
00013000
00000100
00002000
00000000
00003010
00000100
00000002
00000000
,  // measure 63
00001003
00000100
00001000
00000100
00001000
00000000
00000010
00000000
,  // measure 64
00000100
00000010
00000100
00000010
00000100
00000000
00000001
00000000
,  // measure 65
00001000
00000001
00001000
00000001
00001000
00000000
00000100
00010000
,  // measure 66
00000100
00010000
00001000
00010000
00001000
00100000
00020000
00000000
,  // measure 67
00000000
20000000
30030000
00000000
00020000
01030000
01100000
00010000
,  // measure 68
10010000
00000000
10000000
01000000
00100000
00000000
00100000
01000000
10000000
00000000
00010000
00000000
00220000
00000000
00000000
00000000
,  // measure 69
00330000
00022000
00033000
00002200
,  // measure 70
00000000
00000000
00000000
00003300
00000000
00000000
00000000
00000000
;
