#TITLE:Smells Like a Chocolate;
#SUBTITLE:;
#ARTIST:Vospi;
#TITLETRANSLIT:;
#SUBTITLETRANSLIT:;
#ARTISTTRANSLIT:;
#GENRE:Lounge'n'Rock;
#CREDIT:;
#BANNER:Smells Like a Chocolate-bn.png;
#BACKGROUND:Smells Like a Chocolate-bg.png;
#LYRICSPATH:;
#CDTITLE:;
#MUSIC:Smells Like a Chocolate.ogg;
#OFFSET:-0.428;
#SAMPLESTART:76.681;
#SAMPLELENGTH:11.840;
#SELECTABLE:YES;
#BPMS:0.000=176.000,64.000=88.000,80.000=176.000,144.000=88.000,176.000=176.000;
#STOPS:;
#BGCHANGES:-0.285=Smells Like A Chocolate.mpg=1.000=1=0=0=StretchNoLoop==CrossFade==,
99999=-nosongbg-=1.000=0=0=0 // don't automatically add -songbackground-;
#KEYSOUNDS:;

//---------------dance-single - D. D'Amato----------------
#NOTES:
     dance-single:
     D. D'Amato:
     Hard:
     9:
     0.526,0.000,0.262,0.126,0.086:
0000
0000
0000
0000
,
0000
0000
0000
0000
,
0000
0000
0000
0000
,
0000
0000
0000
0000
,
1000
0100
0010
0001
0000
0100
0000
0001
,
0000
0001
0100
0010
1000
0001
0100
0000
,
0001
0100
0010
1000
0000
0100
0000
1000
,
0000
0000
0000
0000
0010
1000
0100
0000
,
1000
0100
1000
0000
0001
0100
0001
0000
,
1000
0010
0100
0001
0010
0100
1000
0000
,
0001
0010
0001
0000
1000
0010
1000
0000
,
0001
0000
1010
0000
0100
0010
1000
0100
,
0010
0000
0100
1000
0100
0000
0010
0001
,
0010
0000
0100
0000
0011
0000
1000
0001
,
0100
0010
0000
1010
0000
0110
0000
0101
,
0000
0010
0001
0100
,
2001
0000
0000
0200
0000
0000
0002
0000
0000
0000
0000
0000
3303
0000
0000
0000
,
0010
0000
1000
0000
0100
0000
1000
0001
0000
0010
0000
0001
0100
0000
0000
0000
,
0002
0000
0000
0200
0000
0000
2000
0000
0000
0000
0000
0000
3303
0000
0000
0000
,
0010
0001
0100
0001
1000
0000
0010
1000
,
0100
1000
0000
1100
0000
0101
0000
0001
,
0100
0010
0000
0110
0000
1001
0000
0001
,
0100
0001
0000
0011
0000
1010
0000
1000
,
0100
0010
0000
0110
0000
1001
0000
1000
,
0010
1000
0000
1100
0000
1010
0000
0010
,
1000
0100
0000
0110
0000
1001
0000
0001
,
0010
0001
0000
0101
0000
0011
0000
0010
,
0001
0100
0000
0110
0000
1001
0000
1000
,
0100
0010
0001
1000
0010
0100
0000
1000
,
0010
0100
0001
1000
0100
0010
0000
1000
,
0001
0010
0100
1000
0010
0100
0000
1000
,
0001
0100
0010
1000
0100
0010
0000
1000
,
0100
0010
0001
1000
0010
0100
0001
0010
,
0100
1000
0010
0100
0001
0010
0000
1000
,
0100
0010
0000
0001
0000
0100
0000
0001
,
0100
0010
0000
1000
0000
0100
0000
0000
,
1002
0000
0000
2000
0000
0000
0020
0000
0000
0000
0000
0000
3033
0000
0000
0000
,
1000
0001
0100
0010
,
2000
0000
0000
0002
0000
0000
0020
0000
0000
0000
0000
0000
3033
0000
0000
0000
,
0001
1000
0100
0010
,
0001
0010
0001
0100
0001
0000
1000
0000
1000
0010
1000
0100
1000
0000
0001
0000
,
0001
0010
0100
0010
0001
0000
1000
0000
1000
0010
0100
0010
1000
0000
0001
0000
,
0001
0010
0100
1000
0001
0000
1000
0000
1000
0010
0100
0001
1000
0000
0001
0000
,
1000
0010
0100
0001
0010
0000
0001
0010
,
0001
0100
0001
0100
0000
0010
0000
1000
,
0000
0100
1000
0001
1000
0001
0000
0100
,
0010
1000
0100
1000
0100
0010
0001
0100
,
0010
1000
0100
1001
,
1000
0100
1000
0100
0000
0010
0000
0001
,
0000
0100
0001
1000
0001
1000
0000
0100
,
0010
0001
0100
0001
0100
0010
1000
0100
,
0010
0001
0100
1001
,
0001
0000
0100
0010
0000
1000
0010
1000
,
0000
0001
0100
0001
0000
0010
0001
0010
,
0000
0100
1000
0100
0010
0001
0100
0001
,
0100
0001
0010
1001
,
1000
0100
0001
0100
1000
0010
0001
0010
,
1000
0100
0010
0001
0100
0010
0100
0010
,
1000
0001
0100
1010
,
0001
1000
0100
0010
0001
0100
0010
0000
,
2002
0000
0000
0000
,
0000
0000
3003
0000
,
0001
0100
0001
1000
0000
0010
1000
0100
,
0000
0010
0000
0001
1000
0100
1000
0001
,
1000
0010
0100
0001
0000
0010
0000
0001
,
0000
0001
0010
0100
1000
0001
0010
0000
,
0001
0010
0100
1000
0000
0010
0000
1001
;

//---------------dance-single - D. D'Amato----------------
#NOTES:
     dance-single:
     D. D'Amato:
     Medium:
     6:
     0.407,0.000,0.171,0.126,0.018:
0000
0000
0000
0000
,
0000
0000
0000
0000
,
0000
0000
0000
0000
,
0000
0000
0000
0000
,
0001
0010
0000
0001
0000
1000
0000
0010
,
0000
2000
0000
0000
3000
0000
0000
0000
,
1000
0010
0000
1000
0000
0001
0000
0010
,
0000
0000
0000
0000
0000
0001
0000
0100
,
0001
0000
1000
0000
0100
0100
1000
0010
,
0000
0200
0000
0000
0300
0000
0000
0100
,
0001
0001
0000
1000
1000
0001
0000
0010
,
0000
0000
1001
0000
0010
0100
0001
0000
,
1000
0000
0001
0000
0010
0010
0001
0100
,
0000
0020
0000
0000
0030
0000
0000
0010
,
1000
1000
0000
0001
0001
1000
0000
0100
,
0000
0010
0001
0100
,
0101
0000
0000
0110
0000
0000
2020
0000
0000
0000
0000
0000
3030
0000
0000
0000
,
0010
1000
0001
0000
0010
0001
1000
0000
,
1100
0000
0000
0110
0000
0000
0022
0000
0000
0000
0000
0000
0033
0000
0000
0000
,
0010
0001
1000
0000
0010
1000
0001
0000
,
0100
0010
0000
1000
0000
0100
0000
0001
,
0000
0010
0000
0001
0000
0100
0000
1000
,
0000
0010
0000
1000
0000
0100
0000
0001
,
0000
0010
0000
0001
0000
0100
0000
1000
,
0100
0010
0000
1000
0000
0100
0000
0001
,
0100
0010
0000
0001
0000
0100
0000
1000
,
0100
0010
0000
1000
0000
0100
0000
0001
,
0100
0010
0000
0001
0000
0100
0000
1000
,
0100
0010
0100
0000
0010
0100
0010
0000
,
1000
0100
1000
0000
0001
0010
0001
0000
,
1000
0010
1000
0000
0001
0100
0001
0000
,
1000
0001
1000
0000
0001
1000
0001
0000
,
0100
0100
0010
1000
0010
0100
0001
0000
,
0010
0010
0100
1000
0100
0010
0001
0000
,
0100
0100
0000
0010
0000
1000
0000
0001
,
0010
0010
0000
0100
0000
1000
0000
0000
,
0011
0000
0000
1001
0000
0000
2200
0000
0000
0000
0000
0000
3300
0000
0000
0000
,
0100
1000
0001
1000
,
1010
0000
0000
1001
0000
0000
0202
0000
0000
0000
0000
0000
0303
0000
0000
0000
,
0100
0001
1000
0001
,
1000
0000
0001
0001
0010
0000
0100
0100
,
1000
0000
0010
0010
0100
0010
1000
1000
,
0001
0000
1000
1000
0010
0000
0100
0100
,
0001
0000
0010
0010
0100
0010
0001
0001
,
1001
0000
0001
0100
0000
0010
0000
1000
,
0000
0010
1000
0000
0001
0100
0000
0010
,
0000
1000
0100
0000
0010
0000
0001
0000
,
0100
0010
1000
0100
,
1001
0000
1000
0100
0000
0010
0000
0001
,
0000
0010
0001
0000
1000
0100
0000
0010
,
0000
0001
0100
0000
0010
0000
1000
0000
,
0100
0010
0001
0100
,
1001
0000
0100
0010
0000
1000
0000
1000
,
0000
0001
0000
0001
0000
1000
0010
1000
,
0000
0001
0010
0001
0000
1000
0001
1000
,
0000
0001
1000
0000
0010
0000
1001
0000
,
0100
0010
0000
1000
0001
0000
0010
0001
,
0000
1000
0100
0000
0010
0001
1000
0000
,
0010
1000
0100
1001
,
0010
0001
0100
0010
,
2002
0000
0000
0000
,
0000
0000
3003
0000
,
0010
1000
0100
0010
,
0000
0010
0001
0000
,
1000
0010
0000
1000
0000
0001
0000
0010
,
0000
0002
0000
0000
0003
0000
0000
0000
,
0001
0010
0000
0001
0000
1000
0000
0010
;

//---------------dance-single - D. D'Amato----------------
#NOTES:
     dance-single:
     D. D'Amato:
     Easy:
     4:
     0.289,0.000,0.117,0.198,0.000:
0000
0000
0000
0000
,
0000
0000
0000
0000
,
0000
0000
0000
0000
,
0000
0000
0000
0000
,
0010
0010
1000
0100
,
0010
0002
0000
0003
,
0010
0010
0001
0100
,
0010
0000
0000
1000
,
1001
0001
0100
0010
,
0000
0100
0000
0010
,
1000
0100
0010
0000
,
0100
1000
0010
1000
,
0001
0010
0100
0010
,
0000
0001
0000
1000
,
1000
0010
0100
0010
,
0000
1000
0001
0001
,
1002
0000
0000
0020
0000
0000
0033
0000
,
0010
0000
0001
1000
,
2100
0000
0000
0020
0000
0000
3030
0000
,
0010
0000
1000
0001
,
0100
0010
0010
0000
,
1000
0100
0100
0000
,
0010
0001
0001
0000
,
0100
0001
0001
0000
,
1000
0010
0010
0000
,
0100
0010
0010
0000
,
1000
0100
0100
0010
,
0001
0100
0100
0010
,
1001
0100
0010
0010
,
0001
0001
1000
1000
,
0010
0010
1000
1000
,
0001
0001
0010
0010
,
0100
1000
0001
0000
,
0100
0001
1000
0000
,
0010
0000
0000
0000
,
0100
0000
0000
0000
,
0210
0000
0000
0002
0000
0000
0303
0000
,
0001
0010
0100
0000
,
0210
0000
0000
2000
0000
0000
3300
0000
,
1000
0010
0100
0000
,
1002
0000
0000
2000
0000
0000
3003
0000
,
0002
0203
0320
1030
,
2001
0000
0000
0002
0000
0000
3003
0000
,
2000
3200
0320
0031
,
1001
1000
0000
0100
,
0000
1000
0010
0000
,
0100
0100
0010
0010
,
1000
0100
0010
0001
,
1001
0001
0000
0100
,
0000
0001
0010
0000
,
0100
0100
0010
0010
,
0001
0100
0010
1000
,
1001
1000
0000
0010
,
0000
0100
0000
0001
,
0001
1000
1000
0100
,
0000
0010
0010
0001
,
1001
0001
1000
0100
,
0000
0010
0001
0100
,
0010
1000
0010
0100
,
0001
0010
0100
0010
,
2002
0000
0000
0000
,
0000
0000
3003
0000
,
0010
0000
0100
0000
,
0010
0000
0001
0000
,
0010
0010
0001
0100
,
0010
2000
0000
3000
,
0010
0010
1000
0100
,
0010
0000
0000
0000
;

//---------------dance-double - M.Emirzian----------------
#NOTES:
     dance-double:
     M.Emirzian:
     Challenge:
     9:
     0.460,0.000,0.036,0.018,0.045:
00000000
00000000
00000000
00000000
,
00000000
00000000
00000000
00000000
,
00100000
10000000
00000000
01000000
00000000
00010000
00000000
00000010
,
00000000
00000100
00000000
00000000
00001000
00000000
00100000
00000000
,
00000100
00000010
00000000
00001000
00000000
01000000
00000000
00100000
,
00000000
00010000
00000000
00000000
00000100
00000000
00000010
00000000
,
00001000
00100000
00000000
00001000
00000000
00000100
00000000
00000002
,
00000000
00000000
00000000
00000000
00000000
00001003
00000000
00001000
,
00000010
00000100
00001000
00010000
00001000
00000010
00000100
00000000
,
00010000
00000000
00100000
00010000
00000000
00000100
00000010
00000000
,
00001000
01000000
00000000
00100000
00010000
00001000
00000000
00100000
,
00000000
00001000
00000000
00000100
00001000
00000000
00100000
00000000
,
01000000
00100000
00001000
00010000
01000000
00010000
00001000
00000010
,
00000100
00000000
00010000
00001000
00000000
00000001
00000100
00000000
,
00010000
00001000
00000000
00000100
00000000
00001000
00000000
01000000
,
00100000
10000000
01000000
00010000
00001000
01000000
00100000
00000000
,
00010000
00000000
01000000
00100000
00000000
00100000
10000000
00000000
01000000
00000000
00010000
00000000
00000100
00000000
00000000
00000000
,
00001000
00000000
00000001
00000000
00000100
00001000
01000000
00000000
,
00100000
00000000
01000000
00001000
00000000
00001000
00010000
00000000
01000000
00000000
00010000
00000000
00000010
00000000
00000000
00000000
,
00000100
00001000
00100000
00000000
00100010
00000000
00011000
00000000
,
00000000
00010000
00001000
00000100
00001000
00010000
01000000
10000000
,
00000000
00100000
10000000
01000000
00010000
01000000
10000000
00100000
,
00000000
10000000
00100000
00010000
00001000
00000100
00001000
00010000
,
00000000
00000001
00000010
00001000
00000001
00000100
00001000
00000001
,
00000000
00000001
00000010
00001000
00010000
00001000
00000100
00000001
,
00000000
00000010
00000100
00010000
00000100
00000001
00000100
00001000
,
00000000
00000010
00010000
00001000
01000000
00100000
00010000
00100000
,
00000000
10000000
01000000
00100000
01000000
10000000
00001000
10000000
,
00000000
10000000
01000000
00010000
00001000
00000100
00000001
00000010
,
00000000
00000010
00000100
00001000
00000100
00000010
00000001
00000100
,
00000000
00000001
00000010
00001000
00010000
00100000
10000000
01000000
,
00000000
01000000
00010000
01000000
10000000
00001000
00010000
00100000
,
00000000
01000000
00100000
00010000
00001000
00000010
00001000
00010000
,
00000000
00100000
00010000
00001000
00000100
00000001
00000010
00000100
,
00010000
00000100
00001000
00000010
00000000
00000100
00000000
00000000
,
00000000
00000000
00000000
00000000
,
00000010
00000000
00000000
00001000
00000000
00000000
00010000
00000000
00000000
00000000
00000000
00000000
00000000
00000000
00000000
00000000
,
00000000
00000000
00000000
00000000
,
00100000
00000000
00000000
00010000
00000000
00000000
00001000
00000000
00000000
00000000
00000000
00000000
00000000
00000000
00000000
00000000
,
00000000
00000000
00000000
00000000
,
01000000
00000000
00000000
00000000
00100000
00000000
00000000
00100000
00010000
00000000
00100000
00000000
01000000
00000000
00000000
01000000
,
10000000
00000000
00010000
00000000
01000000
00000000
00000000
01000000
00001000
00000000
00010000
00000000
00001000
00000000
00000010
00000000
,
00000001
00000000
00000100
00000000
00000010
00000000
00000000
00000010
00000100
00000000
00001000
00000000
00010000
00000000
00100000
00000000
,
02000000
00000000
00000000
00000000
00000000
00000000
00010000
00010000
,
03010000
01000000
00100000
10000000
00000000
01000000
00000000
00010000
,
00000000
00000100
00010000
00100000
00010000
00000000
00000100
00000000
,
00000010
00000001
00000010
00000100
00010000
00001000
00000100
00001000
,
00010000
00100000
10000000
01000000
00010000
01000000
10000000
00010000
,
01000000
00001000
01000000
00010000
00100000
01000000
00010000
00001000
,
00000000
01000000
00001000
00000100
00001000
00000000
00010000
00001000
,
00000010
00001000
00010000
00100000
00010000
00001000
00000010
00000100
,
00010000
00001000
00000010
00000001
00001000
00000010
00010000
00001000
,
00000100
00000000
00000010
00010000
00000000
01000000
00010000
00001000
,
00000000
00000100
00001000
01000000
00000000
00001000
00000010
00000100
,
00000000
00010000
00001000
00000100
00000000
00001000
00100000
01000000
,
00000000
10000000
00100000
00010000
00000100
00000000
00000110
00000000
,
00001000
00010000
00100000
00010000
00001000
00000100
00001000
00010000
,
00100000
10000000
01000000
00010000
00001000
00000100
00000001
00000010
,
00000100
00001000
00000001
00000100
00001000
00010000
00100000
10000000
,
01000000
00010000
00001000
00000100
00001000
00010000
00100000
00000000
,
00101000
00000000
00000000
00000000
,
00000000
00000000
00000000
00000000
,
00000000
00000000
00000000
00000000
,
00000000
00000000
00000000
00000000
,
00000001
00000000
00000000
00000100
00000000
00001000
00000000
00100000
,
00000000
00000000
00000000
00000000
,
10000000
00000000
00000000
01000000
00000000
00010000
00000000
00000010
;

//---------------dance-double - D. D'Amato----------------
#NOTES:
     dance-double:
     D. D'Amato:
     Hard:
     8:
     0.494,0.000,0.072,0.144,0.045:
00000000
00000000
00000000
00000000
,
00000000
00000000
00000000
00000000
,
00000000
00000000
00000000
00010000
00000000
00001000
00000000
00010000
,
00000000
00000000
00000000
00100000
10000000
00000000
01000000
00000000
,
10000000
01000000
10000000
00100000
00000000
00010000
00000000
00001000
,
00000000
00020000
00000000
00000000
00030100
00000000
00000010
00000000
,
00000001
00000100
00000001
00000010
00000000
00001000
00000000
00010000
,
00000000
00000000
00000000
00000000
00000000
00011000
00000000
00011000
,
00001000
00100000
00001000
00000000
00010000
00000100
00010000
00000000
,
00000010
00001000
00000010
00000100
00000001
00000000
00001000
00000100
,
00010000
00000010
00010000
00000000
00001000
01000000
00001000
00000000
,
00100000
00010000
00100000
01000000
10000000
01000000
00100000
00010000
,
01000000
00100000
01000000
00000000
00100000
01000000
00100000
00000000
,
10000000
00010000
10000000
00000000
00100000
01000000
00100000
10000000
,
00010000
10000000
00000000
01000000
00000000
00010000
00000000
00001000
,
00000000
00010000
00000100
00000010
,
00000210
00000000
00000000
00020000
00000000
00000000
00002000
00000000
00000000
00000000
00000000
00000000
00033300
00000000
00000000
00000000
,
00000100
00010000
00001000
00100000
00010000
10000000
00100000
00000000
,
02100000
00000000
00000000
00002000
00000000
00000000
00020000
00000000
00000000
00000000
00000000
00000000
03033000
00000000
00000000
00000000
,
01000000
00001000
00010000
00000010
00001000
00000001
00000100
00000010
,
00001000
00000100
00000000
00000010
00000000
00000001
00000000
00000010
,
00001000
00000100
00000000
00010000
00000000
00001000
00000000
00100000
,
00010000
01000000
00000000
00100000
00000000
10000000
00000000
00100000
,
00010000
01000000
00000000
00001000
00000000
00010000
00000000
00000100
,
00001000
00000010
00000000
00000100
00000000
00000001
00000000
00000100
,
00001000
00000010
00000000
00010000
00000000
00001000
00000000
01000000
,
00010000
00100000
00000000
01000000
00000000
10000000
00000000
01000000
,
00010000
00100000
00000000
00001000
00000000
00010000
00000000
00000010
,
00001000
00000100
00001000
00000010
00000000
00000100
00000000
00000010
,
00000001
00000100
00000001
00000010
00000000
00000100
00000000
00000010
,
00001000
00000100
00010000
00000010
00000000
00001000
00000000
00100000
,
00010000
01000000
00001000
00100000
00000000
01000000
00000000
00100000
,
00010000
01000000
00010000
00100000
00000000
01000000
00000000
00100000
,
10000000
01000000
10000000
00100000
00000000
01000000
00000000
00100000
,
00010000
01000000
00001000
00100000
00000000
00010000
00000000
00000010
,
00001000
00000100
00010000
00000010
00000000
00000100
00000000
00000000
,
00001020
00000000
00000000
00020000
00000000
00000000
00000002
00000000
00000000
00000000
00000000
00000000
00030033
00000000
00000000
00000000
,
00010000
00001000
00100000
00010000
,
00210000
00000000
00000000
00002000
00000000
00000000
20000000
00000000
00000000
00000000
00000000
00000000
30303000
00000000
00000000
00000000
,
00001000
00010000
00000010
00001000
,
00000001
00000100
00000001
00000000
00001000
00000000
00000100
00000000
00010000
00001000
00010000
00000000
00000010
00000000
00010000
00000000
,
00001000
00010000
00001000
00000000
00100000
00000000
00010000
00000000
10000000
01000000
10000000
00000000
00010000
00000000
01000000
00000000
,
00001000
00010000
00001000
00000000
00100000
00000000
00001000
00000000
00010000
00001000
00010000
00000000
00000010
00000000
00001000
00000000
,
00000001
00000100
00000001
00001000
00000100
00000000
00001000
00000100
,
00001000
00000010
00000100
00000010
00000000
00001000
00000000
00000100
,
00000000
00010000
00001000
00010000
00001000
01000000
00000000
00100000
,
10000000
00100000
10000000
00010000
01000000
00010000
00000000
10000000
,
00100000
10000000
00000000
00010000
00000000
10000000
01000000
10000000
,
00010000
00100000
01000000
00100000
00000000
00010000
00000000
01000000
,
00000000
00001000
00010000
00001000
00010000
00000100
00000000
00000010
,
00000001
00000010
00000001
00001000
00000100
00001000
00000000
00000001
,
00000010
00000001
00000000
00001000
00000000
00000001
00000100
00000001
,
00001000
00000000
00000010
00001000
00000000
00000001
00000010
00000001
,
00000000
00001000
00000100
00001000
00000000
00000010
00001000
00000001
,
00000000
00000100
00000001
00001000
00000100
00010000
00001000
00010000
,
00000000
00000100
00000000
00010000
00000000
00001000
00000000
00100000
,
00010000
01000000
00010000
01000000
00100000
10000000
00100000
10000000
,
00010000
01000000
00010000
01000000
00001000
00010000
00001000
00010000
,
00000100
00000000
00000010
00000001
00001000
00000000
00000010
00000000
,
00001000
00000000
00000001
00001000
00000100
00010000
00001000
00000000
,
00022000
00000000
00000000
00000000
,
00000000
00000000
00033000
00000000
,
00001000
00010000
00001000
00100000
00000000
00010000
00000000
01000000
,
00100000
10000000
00000000
00010000
00100000
01000000
10000000
00010000
,
10000000
00100000
10000000
01000000
00000000
00010000
00000000
00001000
,
00000000
00020000
00000000
00000000
00030010
00000000
00000100
00000000
,
00000001
00000010
00000001
00000100
00000000
00001000
00000000
00011000
;

//---------------dance-double - D. D'Amato----------------
#NOTES:
     dance-double:
     D. D'Amato:
     Medium:
     6:
     0.424,0.000,0.235,0.207,0.018:
00000000
00000000
00000000
00000000
,
00000000
00000000
00000000
00000000
,
00000000
00000000
00000000
00000000
,
00000000
00000000
00000000
00000000
,
00001000
00010000
00000000
00000100
00000000
00000010
00000000
00000100
,
00000000
00020000
00000000
00000000
00030000
00000000
00000000
00000000
,
00010000
00001000
00000000
01000000
00000000
00100000
00000000
01000000
,
00000000
00000000
00000000
00000000
00000000
00001000
00000000
00010000
,
00000100
00000000
00001000
00000001
00000000
00000001
00001000
00000100
,
00000000
00001200
00000000
00000000
00000300
00000000
00000000
00001000
,
00000010
00010000
00000000
00010010
00000000
00001010
00000000
00000120
,
00000000
00000030
00010000
00000000
00001000
00000000
00100000
00010000
,
01000000
00000000
00010000
10000000
00000000
10000000
00010000
01000000
,
00000000
02010000
00000000
00000000
03000000
00000000
00000000
00010000
,
00100000
00001000
00000000
00101000
00000000
00110000
00000000
01200000
,
00000000
00300000
00001000
00000000
00010000
00000000
00000100
00000000
,
00001100
00000000
00000000
00010100
00000000
00000000
00022000
00000000
00000000
00000000
00000000
00000000
00033000
00000000
00000000
00000000
,
00010000
00100000
00010000
00000000
00001000
00000010
00001000
00000000
,
01010000
00000000
00000000
01001000
00000000
00000000
00022000
00000000
00000000
00000000
00000000
00000000
00033000
00000000
00000000
00000000
,
00010000
01000000
00010000
00000000
00001000
00000100
00001000
00000000
,
00010000
00000100
00000000
00001000
00000000
00000010
00000000
00001000
,
00000000
00000100
00000000
00010000
00000000
00001000
00000000
00100000
,
00000000
00010000
00000000
01000000
00000000
00010000
00000000
00100000
,
00000000
00001000
00000000
00010000
00000000
00000100
00000000
00000010
,
00000100
00001000
00000000
00000100
00000000
00000010
00000000
00000001
,
00000100
00000010
00000000
00010000
00000000
00001000
00000000
00100000
,
01000000
10000000
00000000
00100000
00000000
01000000
00000000
00010000
,
01000000
00100000
00000000
01000000
00000000
00001000
00000000
00010000
,
00001000
00010000
00010000
00000000
00000100
00001000
00001000
00000000
,
00000001
00000100
00000100
00000000
00000010
00001000
00001000
00000000
,
00000100
00010000
00010000
00000000
00001000
01000000
01000000
00000000
,
00100000
10000000
10000000
00000000
01000000
01000000
00100000
00000000
,
00001000
00001000
00010000
00001000
00100000
00001000
00010000
00000000
,
00010000
00010000
00001000
00010000
00000010
00010000
00001000
00000000
,
00010000
00010000
00000000
00000100
00001000
00000100
00000000
00010000
,
00001000
00001000
00000000
01000000
00010000
01000000
00000000
00000000
,
10100000
00000000
00000000
10010000
00000000
00000000
02020000
00000000
00000000
00000000
00000000
00000000
03030000
00000000
00000000
00000000
,
00001000
00010000
00000100
00001000
,
00000011
00000000
00000000
00001001
00000000
00000000
00002200
00000000
00000000
00000000
00000000
00000000
00003300
00000000
00000000
00000000
,
00010000
00001000
01000000
00010000
,
10000000
00000000
00010000
00010000
00100000
00000000
00001000
00001000
,
00020000
00030200
00002300
00003020
,
00000130
00000000
00000001
00000001
00000010
00000000
00000100
00000100
,
00010000
00001000
00010000
00000100
00001000
00000000
00000001
00000001
,
00001001
00000000
00000001
00000100
00000000
00001000
00000000
00010000
,
00000000
00000100
00010000
00000000
00001000
00100000
00000000
00010000
,
00000000
10000000
01000000
00000000
00010000
00000000
00001000
00000000
,
01000000
00100000
10000000
01000000
,
10010000
00000000
10000000
01000000
00000000
00010000
00000000
00001000
,
00000000
01000000
00001000
00000000
00010000
00000010
00000000
00001000
,
00000000
00000001
00000100
00000000
00001000
00000000
00010000
00000000
,
00000100
00000010
00000001
00000100
,
00001001
00000000
00001000
00000100
00000000
00010000
00000000
00010000
,
00000000
00001000
00000000
00001000
00000000
00010000
00100000
00010000
,
00000000
00001000
00000010
00001000
00000000
00010000
00001000
00010000
,
00000000
00001000
01000000
00000000
00100000
00000000
10010000
00000000
,
00010000
01000000
00000000
00001000
00010000
00000000
00000010
00000100
,
00000000
00000001
00001000
00000000
00000010
00000100
00000001
00000000
,
00002000
00000100
00003200
00010000
,
00020300
00000100
00031000
00011000
,
00022000
00000000
00000000
00000000
,
00000000
00000000
00033000
00000000
,
00100000
00010000
01000000
00001000
,
00000000
00000000
00010000
00000000
00000000
00000010
00000000
00000000
,
00010000
00001000
00000000
00100000
00000000
01000000
00000000
00100000
,
00000000
00002000
00000000
00000000
00003000
00000000
00000000
00000000
,
00001000
00010000
00000000
00000010
00000000
00000100
00000000
00000010
;

//---------------dance-double - D. D'Amato----------------
#NOTES:
     dance-double:
     D. D'Amato:
     Easy:
     4:
     0.232,0.000,0.045,0.072,0.000:
00000000
00000000
00000000
00000000
,
00000000
00000000
00000000
00000000
,
00000000
00000000
00000000
00000000
,
00000000
00000000
00000000
00000000
,
00100000
00100000
00000000
01000000
,
00000000
00010000
00001000
00010000
,
00000010
00000010
00000000
00000100
,
00000000
00001000
00010000
00001000
,
00100000
00100000
00010000
00010000
,
01000000
01000000
00010000
10000000
,
01000000
01000000
10000000
10000000
,
00100000
00100000
10000000
00010000
,
00100000
00100000
00001000
00001000
,
00010000
00010000
00000100
00000100
,
00000010
00000001
00000100
00000000
,
00000010
00010000
00001000
00010000
,
00012000
00000000
00000000
00003000
,
00100000
00010000
01000000
00001000
,
00021000
00000000
00000000
00030000
,
00000010
00001000
00000100
00010000
,
00001000
00000000
00000000
00000000
,
00100000
00000000
00000000
00000000
,
00010000
00000000
00000000
00000000
,
01000000
00000000
00000000
00000000
,
00100000
00000000
00000000
00000000
,
10000000
00000000
00000000
00000000
,
01000000
00000000
00000000
00000000
,
00100000
00000000
00000000
00000000
,
00001000
00001000
00000000
00000000
,
00010000
00010000
00000000
00000000
,
00000100
00000100
00000000
00000000
,
00000010
00000010
00000000
00000000
,
00000001
00000001
00000000
00000000
,
00001000
00001000
00000000
00000000
,
00000010
00000010
00000000
00000000
,
00000100
00000100
00000000
00000000
,
00001020
00000000
00000000
00002000
00000000
00000000
00003030
00000000
,
00010000
00001000
00100000
00010000
,
00210000
00000000
00000000
00020000
00000000
00000000
00330000
00000000
,
00001000
00010000
00000010
00001000
,
00000001
00001000
00000100
00010000
,
00001000
00100000
00010000
10000000
,
00010000
01000000
00001000
00010000
,
00000010
00001000
00000100
00010000
,
00001000
00010000
00000000
00001000
,
00000000
00100000
00010000
00000000
,
10000000
01000000
00100000
00000000
,
00010000
00000000
01000000
00001000
,
00010000
00001000
00000000
00010000
,
00000000
00000010
00001000
00000000
,
00000001
00000100
00000010
00000000
,
00001000
00000000
00000100
00010000
,
00001000
00010000
00000000
00000010
,
00000000
00000100
00000000
00000010
,
00000000
00001000
00000100
00010000
,
00000000
00001000
00100000
00001000
,
00010000
00001000
00100000
00100000
,
00010000
00010000
01000000
01000000
,
00001000
00010000
00000010
00001000
,
00000001
00000100
00000010
00010000
,
00022000
00000000
00000000
00000000
,
00000000
00000000
00033000
00000000
,
00001000
00000000
00100000
00000000
,
00010000
00000000
00000000
00000000
,
01000000
01000000
00000000
00100000
,
00000000
00010000
00001000
00010000
,
00000100
00000100
00000000
00000010
;

//---------------dance-single - J. Frederick----------------
#NOTES:
     dance-single:
     J. Frederick:
     Beginner:
     1:
     0.094,0.000,0.027,0.000,0.000:
0000
0000
0000
0000
,
0000
0000
0000
0000
,
0000
0000
0000
0000
,
0000
0000
0000
0000
,
0001
0000
0000
0000
,
0000
0000
0000
0000
,
0010
0000
0000
0000
,
0000
0000
0000
0000
,
1000
0000
0000
0000
,
0001
0000
0000
0000
,
0010
0000
0000
0000
,
0100
0000
0000
0000
,
1000
0000
0000
0000
,
0001
0000
0000
0000
,
0100
0000
0000
0000
,
0010
0000
0000
0000
,
1000
0000
0001
0000
,
0010
0000
0100
0000
,
1000
0000
0001
0000
,
0100
0000
0010
0000
,
1000
0000
0000
0000
,
0001
0000
0000
0000
,
0010
0000
0000
0000
,
0100
0000
0000
0000
,
1000
0000
0000
0000
,
0001
0000
0000
0000
,
0100
0000
0000
0000
,
0010
0000
0000
0000
,
1001
0000
0000
0000
,
0100
0000
0000
0000
,
0010
0000
0000
0000
,
1000
0000
0000
0000
,
0001
0000
0000
0000
,
0010
0000
0000
0000
,
0100
0000
0000
0000
,
1000
0000
0000
0000
,
0001
0000
0100
0000
,
0010
0000
1000
0000
,
0001
0000
0010
0000
,
0100
0000
0001
0000
,
1000
0000
0010
0000
,
0100
0000
0001
0000
,
0010
0000
0100
0000
,
1000
0000
0000
0000
,
1001
0000
0000
0000
,
0010
0000
0000
0000
,
0100
0000
0000
0000
,
1000
0000
0000
0000
,
0001
0000
0000
0000
,
0010
0000
0000
0000
,
0100
0000
0000
0000
,
0001
0000
0000
0000
,
1000
0000
0000
0000
,
0010
0000
0000
0000
,
0100
0000
0000
0000
,
0001
0000
0000
0000
,
0010
0000
0000
0000
,
0100
0000
0000
0000
,
1000
0000
0000
0000
,
0001
0000
0000
0000
,
0110
0000
0000
0000
,
1000
0000
0000
0000
,
0001
0000
0000
0000
,
0000
0000
0000
0000
,
0100
0000
0000
0000
,
0000
0000
0000
0000
,
0010
0000
0000
0000
;

//---------------dance-single - zero1dude----------------
#NOTES:
     dance-single:
     zero1dude:
     Challenge:
     10:
     0.634,0.000,0.424,0.361,0.433: // measure 1
0000
0000
0000
0000
,  // measure 2
0000
0000
0000
0000
,  // measure 3
1000
0100
0010
0002
0000
1000
0003
0011
,  // measure 4
0000
0000
0000
0000
1000
1000
0010
0010
,  // measure 5
0100
0001
0010
0200
0000
1000
0300
1100
,  // measure 6
0000
0000
0M00
0000
,  // measure 7
0001
0010
0100
2000
0000
0010
3000
1020
,  // measure 8
0000
1000
0000
4030
0000
3000
0000
0000
,  // measure 9
0001
0100
0010
2000
0000
0100
3000
0011
,  // measure 10
0000
MMMM
0000
0000
0000
0000
0000
0000
,  // measure 11
0001
0010
0100
0020
0000
0001
0030
0101
,  // measure 12
0000
0000
MMMM
0000
0000
0000
0000
0000
0001
0000
0001
0010
0001
0000
0010
0000
,  // measure 13
0100
1000
0010
0200
0000
0001
0300
0011
,  // measure 14
0000
MMMM
0000
0000
0000
0000
0000
0000
,  // measure 15
1000
0001
0100
0020
0000
1000
0030
0011
,  // measure 16
0000
0000
0000
0000
,  // measure 17
1010
0000
1000
1100
0000
0001
0022
0000
0000
0000
0000
0000
0033
0000
0000
0000
,  // measure 18
0001
0010
0000
0010
0000
0010
0000
0100
1000
0010
0000
0010
0000
0010
0000
0000
,  // measure 19
1001
0000
0010
1001
0000
0100
2002
0000
0000
0000
0000
0000
0000
0000
3003
0000
,  // measure 20
0001
0010
0100
1000
0001
0010
0100
0000
1000
0100
0010
0001
1000
0100
0010
0000
,  // measure 21
0001
1000
0010
0000
0000
0000
1000
0000
0000
0000
0100
0000
0000
0000
0001
0000
,  // measure 22
0100
1000
0000
0220
0000
0331
0000
0000
,  // measure 23
1000
0001
0010
0000
0000
0000
0100
0000
0000
0000
0010
0000
0000
0000
0001
0000
,  // measure 24
0100
1000
0000
0202
0000
0313
0000
0000
,  // measure 25
1000
0100
1000
0000
0000
0000
0001
0000
0000
0000
0100
0000
0000
0000
0010
0000
,  // measure 26
1000
0100
0000
2002
0000
3013
0000
0000
,  // measure 27
1000
0100
0010
0000
0000
0000
0001
0000
0000
0000
0100
0000
0000
0000
1000
0000
,  // measure 28
0100
0010
0000
2200
0000
3301
0000
0000
,  // measure 29
1000
0001
0010
0100
1000
0000
0010
0000
0100
0000
0001
0000
0100
0010
1000
0100
,  // measure 30
0010
0001
1000
0010
1M1M
1M1M
1M1M
0000
,  // measure 31
1000
0100
0010
0001
1000
0000
0010
0000
0100
0000
0001
0000
0100
0010
1000
0100
,  // measure 32
0010
0001
0010
0001
MM11
MM11
MM11
0000
,  // measure 33
0100
1000
0010
1000
0100
0000
0010
0000
0001
0000
0100
0000
0010
1000
0100
1000
,  // measure 34
0010
0100
0010
0100
M11M
M11M
M11M
0000
,  // measure 35
1000
0010
1000
0100
1000
0000
0100
0000
0010
0000
0001
0000
0100
0001
0100
0001
,  // measure 36
0100
0002
0100
0103
0100
010M
0100
0000
,  // measure 37
0110
0000
1000
0110
0000
0001
0220
0000
0000
0000
0000
0000
0000
0000
0330
0000
,  // measure 38
0010
1000
0000
0100
0000
0010
0000
0001
0100
0010
0000
0010
0000
1000
0000
0100
,  // measure 39
0011
0000
0100
0011
0000
0100
0022
0000
0000
0000
0000
0000
0000
0000
0033
0000
,  // measure 40
0010
0100
0000
0010
0000
0001
0000
0100
0010
1000
0000
0100
0000
0010
0000
0000
,  // measure 41
1100
0000
0010
1100
0000
0010
2200
0000
0000
0000
0000
0000
0000
0000
3300
0000
,  // measure 42
1000
0100
0010
0000
0001
0010
0100
0000
1000
0010
0100
0000
0001
0100
0010
0000
,  // measure 43
1100
0000
0001
0011
0000
0010
0220
0000
0000
0000
0000
0000
0000
0000
0330
0000
,  // measure 44
0100
1000
0010
0100
0001
0000
0000
0000
,  // measure 45
0001
0000
0000
0000
0010
0000
0100
1000
0100
0000
0010
0000
0001
0000
0000
0000
,  // measure 46
0010
0100
1000
0100
1000
0000
0010
1000
0010
1000
0100
0000
0010
0000
0001
0000
,  // measure 47
0010
0000
0000
0000
0100
0000
1000
0010
1000
0000
0100
0000
0010
0000
0000
0000
,  // measure 48
0001
0010
0001
0010
0001
0100
0001
0100
0001
0010
0001
0010
0001
0000
1000
0000
,  // measure 49
0020
0200
0002
1333
,  // measure 50
0010
0000
0000
0000
1000
0000
0100
0010
0001
0000
0010
0000
0100
0000
0000
0000
,  // measure 51
1000
0100
1000
0100
0010
0000
0001
0010
0001
0010
0100
0000
1100
0000
1010
0000
,  // measure 52
0010
0100
0001
0010
,  // measure 53
0100
0000
0000
0000
1000
0000
0100
0010
0001
0000
0100
0000
0010
0000
0000
0000
,  // measure 54
0100
0010
0100
0010
1000
0000
0100
1000
0100
0000
0010
0000
0001
0000
0000
0000
,  // measure 55
0001
0010
0011
0000
1000
0100
1100
0000
,  // measure 56
1000
0010
0110
0100
0001
0010
0110
0000
,  // measure 57
1000
0000
0000
0000
0010
0000
0100
0001
0010
0000
0001
0000
0010
0000
0000
0000
,  // measure 58
0100
1000
0100
1000
0100
0000
1000
0010
1000
0000
0010
0000
0100
0000
0000
0000
,  // measure 59
0001
0100
0010
0000
0100
0000
0000
0000
0010
1000
0100
0000
1000
0000
0000
0000
,  // measure 60
0010
0100
0001
0100
0010
0100
0001
0100
0010
0000
1000
0000
0100
0000
0000
0000
,  // measure 61
2002
0000
0000
0000
,  // measure 62
0000
0000
0000
0000
,  // measure 63
0000
0000
0000
0000
,  // measure 64
0000
0000
0000
3003
,  // measure 65
0100
0010
0100
0002
0000
0010
0003
1002
,  // measure 66
0000
0020
0000
0000
0000
0033
0000
0000
,  // measure 67
0100
1000
0100
0020
0000
1000
0030
0022
,  // measure 68
0000
0000
0000
0000
0000
0000
0000
0033
;
