#TITLE:STOP! & Go;
#SUBTITLE:;
#ARTIST:Onyx;
#TITLETRANSLIT:;
#SUBTITLETRANSLIT:;
#ARTISTTRANSLIT:;
#GENRE:Destruction;
#CREDIT:;
#BANNER:Stop! & Go.png;
#BACKGROUND:Stop! & Go-bg.png;
#LYRICSPATH:;
#CDTITLE:;
#MUSIC:Stop! & Go.ogg;
#OFFSET:-0.003;
#SAMPLESTART:6.960;
#SAMPLELENGTH:11.840;
#SELECTABLE:YES;
#BPMS:0.000=137.000,202.375=137.000;
#STOPS:13.000=0.876
,44.000=0.438
,51.000=0.438
,58.000=0.438
,65.000=0.438
,80.000=0.438
,85.000=0.438
,102.500=0.438
,109.500=0.438
,118.000=5.246
,126.000=0.438
,131.000=0.438
,132.000=0.438
,140.000=0.219
,144.500=0.219
,145.000=0.219
,146.000=0.219
,154.500=2.623
,169.750=0.438
,184.750=0.438
,199.875=0.438;
#BGCHANGES:0.093=Stop! & Go.mpg=1.000=1=0=0=StretchNoLoop==CrossFade==,
99999=-nosongbg-=1.000=0=0=0 // don't automatically add -songbackground-;
#KEYSOUNDS:;

//---------------dance-single - K. Ward----------------
#NOTES:
     dance-single:
     K. Ward:
     Easy:
     3:
     0.247,0.280,0.168,0.065,0.000,160.000,18.000,7.000,0.000,0.000,0.000,0.247,0.280,0.168,0.065,0.000,160.000,18.000,7.000,0.000,0.000,0.000:
0000
0000
0000
0000
,
0000
0000
0000
0000
,
0000
0000
0000
0000
,
0000
0011
0100
0100
,
1001
0100
0100
0100
,
0010
0100
1000
0001
,
1001
0100
0100
0010
,
0100
0011
0000
1000
,
0000
0001
0000
0100
,
0000
0010
0000
1000
,
0000
0001
0000
0010
,
1001
0100
1000
0010
,
0001
1000
0001
1001
,
0010
0001
0100
1000
,
0001
1000
1001
0100
,
0010
0100
1000
0010
,
0001
1001
0010
0100
,
0001
0100
1000
0010
,
2002
0000
3003
0010
,
0100
0100
0000
0002
,
0003
0000
1000
0100
,
0010
0200
0300
0000
,
1000
0001
1000
0001
,
1000
0000
0000
0000
0000
0010
0100
0000
,
0001
1000
0001
1000
,
0200
0000
0300
0010
,
0001
0100
1000
0001
,
1000
0000
0001
0001
0100
0000
0010
0000
,
0100
0000
0001
0000
1001
0000
0000
0110
,
0000
1001
1001
0000
,
0100
0100
0000
0000
,
1000
0001
1000
0000
,
0010
0100
0001
0011
,
1100
0010
0001
0100
,
1000
0001
1000
0001
,
0000
0100
0000
1000
0000
0100
0000
0010
,
0000
1000
0001
1000
0000
0000
0010
0000
,
0100
0010
0100
1000
,
0001
0000
1000
0001
0000
0000
0000
0000
,
0010
0100
0001
1000
,
0010
0100
0001
0000
,
0010
0100
1000
0010
,
0100
1000
0000
0001
,
1000
0001
0000
0100
,
0100
0100
0000
0010
,
0001
0100
1000
0001
,
1001
0000
0100
1000
,
0010
0001
1000
0100
,
1010
0000
0100
1000
0010
0001
1000
0001
,
0000
2002
0000
0000
0000
0000
0000
3003
;

//---------------dance-single - K. Ward----------------
#NOTES:
     dance-single:
     K. Ward:
     Hard:
     8:
     0.471,0.430,0.159,0.168,0.206,318.000,17.000,18.000,1.000,0.000,0.000,0.471,0.430,0.159,0.168,0.206,318.000,17.000,18.000,1.000,0.000,0.000:
0000
0000
0000
0000
,
0000
0000
0000
0000
,
0000
0000
0000
0011
,
0000
0000
0000
0000
1100
0000
0000
0000
0000
0000
0010
0100
0000
0000
0010
0001
,
0000
0000
0010
0100
0000
0000
0001
0010
0000
0000
0100
0010
0000
0000
0100
1000
,
0000
0000
0010
0100
0001
0000
1000
0000
0000
0000
0010
0100
0000
0000
0001
0010
,
0000
0000
0100
0010
0000
0000
0100
1000
0000
0000
0010
0100
0000
0000
0001
0010
,
0000
0000
0001
1000
0001
0000
0000
0000
0200
0000
0000
0000
1300
0000
0000
0000
,
0020
0031
0200
1300
,
0020
0000
0031
0000
0100
1000
0100
0010
,
0100
0001
0010
0100
1000
0100
0010
0100
,
1001
0000
0000
0000
0100
0000
0010
0000
0100
0000
0000
1010
0000
0000
0010
0000
,
0100
0000
0000
0011
0000
0000
0100
0000
0010
0000
0000
0000
1001
0000
0000
0000
,
0100
0000
0010
0000
0100
0000
0000
0011
0000
0000
0100
0000
0010
0000
0000
1100
,
0000
0010
0100
0000
1001
0000
0100
0010
,
0100
0001
0000
0000
0010
0000
0100
0000
1000
0100
0000
0000
0010
0000
0100
0000
,
1000
0000
0010
0000
0001
0000
0000
0000
0010
0000
0100
0000
0001
0010
0000
0000
,
0100
0000
0010
0000
0100
1000
0000
0000
0010
0000
0100
0000
0001
0000
0010
0000
,
0022
0000
0000
0000
0000
0000
0000
0000
0033
0000
1000
0000
0100
0000
0010
0100
,
0000
0100
1000
0000
0010
0000
0000
0000
0000
0000
0001
0000
0010
0000
0100
0001
,
0000
0000
0000
0000
0010
0000
0100
0000
1000
0000
0010
0100
0000
0100
1000
0000
,
0100
0000
0000
0000
1010
0000
0100
0000
0001
0000
0010
0001
0000
0000
0000
0000
,
0001
1000
0100
1000
0010
0100
0001
0010
,
0100
0000
0010
0000
0001
0000
1000
0000
0001
0000
0010
0001
0000
0000
0000
0000
,
0100
0010
0100
1000
0100
0010
0100
0001
,
0010
0100
0010
0200
1000
1300
0000
0001
,
1000
0001
0000
0100
0010
0100
0000
1000
,
0001
1000
0010
1001
0000
0100
0010
0100
,
0000
1000
0001
1000
0100
0010
0001
0100
,
0000
0010
0100
0000
1001
0000
0000
0000
,
0001
0100
1000
0100
0001
0100
1000
0100
,
0002
0000
0100
0000
0013
0000
0100
1000
,
0100
0010
0100
1000
0100
0001
0010
0100
,
1010
0000
0010
0001
0010
0100
0001
0010
,
0100
0010
0200
0000
1000
0000
0310
0000
,
0011
0100
0010
0100
1000
0100
0001
0010
,
0100
0000
0010
0000
0100
0000
2000
0000
3001
0000
0000
0010
0200
0000
0000
0000
,
1300
0000
0100
0010
0100
0001
0020
0000
,
0130
0000
0010
0001
0100
1000
0000
0000
,
0010
0000
0100
0000
0001
0010
0000
0001
0000
1000
0000
0000
0000
0000
0000
0000
,
0100
0000
0010
0000
0100
1000
0000
0010
0000
0000
0100
0000
0000
1001
0000
0000
,
0100
0000
1000
0000
0100
0010
0000
0100
0000
0000
2000
0000
0000
0000
3001
0000
,
0100
0000
0010
0000
0010
0000
0100
0001
0000
0000
0000
0000
0100
0000
1000
0000
,
0100
0010
0100
0001
0010
0100
1000
0100
,
0010
0000
0002
0000
2003
0000
3100
0010
,
0100
0000
0010
0000
0001
0000
1000
0000
0001
0000
0000
1000
0100
0000
0010
0000
,
0100
0000
1000
0002
0000
0003
000M
0000
0001
0000
1000
0000
0001
0000
1000
0000
,
0010
0100
0010
0100
1000
0100
0001
0010
,
0100
0010
0001
0001
0010
0001
0001
0100
,
1000
0000
1000
0000
0100
0000
0001
0000
0001
0010
0000
0100
1000
0000
0010
0001
,
0000
2002
0000
0000
,
0000
3003
0000
0000
0000
0000
0000
0000
;

//---------------dance-single - K. Ward----------------
#NOTES:
     dance-single:
     K. Ward:
     Medium:
     5:
     0.326,0.349,0.187,0.168,0.019,206.000,20.000,18.000,0.000,0.000,0.000,0.326,0.349,0.187,0.168,0.019,206.000,20.000,18.000,0.000,0.000,0.000:
0000
0000
0000
0000
,
0000
0000
0000
0000
,
0000
0000
0000
1001
,
0000
0100
0001
1000
,
0001
1000
0001
1000
,
0001
1000
0001
0000
0100
0000
0010
0000
,
0100
0010
0100
0010
,
0000
0011
0000
2000
,
3000
0002
0003
2000
,
0000
0000
3001
0000
0100
1000
0100
0010
,
0100
1000
0100
0010
0100
0010
0001
0010
,
0100
0000
1001
0000
,
0110
0000
1001
1001
,
0000
0011
0000
1100
,
0000
0000
1001
0000
1001
0000
0010
0001
,
0100
1000
0010
0001
0100
1000
0010
0001
,
0100
0000
1001
0000
0100
1000
0010
0001
,
0100
1000
0010
0001
0100
1000
0010
0000
,
2002
0000
3003
0000
,
0100
0000
0100
0000
0100
0000
0000
0000
0000
0000
0000
0000
1000
0000
0000
1001
,
0000
0000
0000
0000
0001
0000
0001
1000
,
0001
1100
0000
0000
,
0001
1000
0001
0000
0010
0100
0010
0000
,
1000
0001
1000
0000
0100
0010
0100
0000
,
0001
1000
0001
0000
0010
0100
0010
0000
,
1000
0001
1000
0000
1000
0001
0000
0100
,
0000
0100
0000
0010
0000
0010
0000
0100
,
0000
0002
0000
0003
0000
1000
0000
0001
,
0000
1000
0000
1000
0000
0010
0100
0010
,
0000
0010
0100
0000
1001
0000
0000
0000
,
0100
0000
0010
0000
,
1000
0001
1000
2000
,
3100
0000
0010
0100
0001
0010
0200
0000
,
0310
0002
1003
2000
,
3001
0002
1003
2000
,
3001
0020
0000
0130
0000
0200
0000
0310
,
0000
0020
0000
0130
0000
0000
0010
0000
,
0001
0100
1000
0100
,
0001
0000
0010
0000
0100
1001
0000
0000
,
0001
0001
0001
0000
0000
0000
0000
0000
,
1000
1000
1000
0000
0000
0000
0000
0000
,
0100
0100
0100
0000
0000
0000
0000
0000
,
0010
0000
0100
0000
0010
0000
0000
1001
0000
0000
0000
0000
0100
0000
0010
0000
,
0100
0001
0100
0010
0100
1000
0100
0010
,
0100
0001
2000
0000
3100
0000
0010
0100
,
0010
0001
0010
0100
0010
0001
0010
0000
,
0100
1001
0000
0000
0100
0000
1000
0000
,
0010
0001
0100
0100
,
0100
0010
0100
0000
0001
0000
0100
0000
1000
0000
0010
0000
0001
0000
0000
1001
,
0000
0220
0000
0000
0000
0000
0000
0330
;

//---------------dance-single - K. Ward----------------
#NOTES:
     dance-single:
     K. Ward:
     Beginner:
     1:
     0.104,0.138,0.047,0.000,0.000,73.000,5.000,0.000,0.000,0.000,0.000,0.104,0.138,0.047,0.000,0.000,73.000,5.000,0.000,0.000,0.000,0.000:
0000
0000
0000
0000
,
0000
0000
0000
0000
,
0000
0000
0000
0000
,
0000
0000
1000
0000
,
0000
0000
0000
0000
,
0000
0000
0001
0000
,
0000
0000
0000
0000
,
0000
0000
0100
0000
,
0000
0000
0010
0000
,
0000
0000
0100
0000
,
0000
0000
1001
0000
,
1001
0001
0000
1000
,
0000
0001
0000
1000
,
0010
0000
0100
0000
,
0010
0000
0100
1000
,
0000
0001
0000
1000
,
0000
1001
0100
0000
,
1000
0000
0010
0000
,
0001
0000
0100
0000
,
0000
0000
0010
0000
,
0000
1000
0000
0000
,
0000
1001
0000
0000
,
0001
0000
0001
0000
,
0001
0000
0000
0000
,
1000
0000
1000
0000
,
1000
0000
0000
0010
,
0000
0100
0000
0001
,
0000
1000
0100
0000
,
0010
0000
0100
0000
,
0000
0000
1001
0000
,
0010
0000
0000
0000
,
0001
0000
0000
0100
,
0000
0000
0000
1000
,
0000
0010
0000
0010
,
0000
0100
0000
0100
,
0000
0001
0000
0000
0000
0001
0000
0000
,
0000
0001
0000
0000
0000
0000
0100
0000
,
0000
0100
0000
0010
,
0000
0010
0000
0000
,
1000
0000
0000
0000
,
1000
0000
0000
0000
,
0001
0000
0000
0000
,
0001
0000
0000
0100
,
0000
0100
0000
0100
,
0000
0000
0000
0010
,
0000
0010
0000
0010
,
0000
0000
1000
0000
,
0001
0000
1000
0000
,
0000
0010
0100
0001
,
0000
1000
0000
0000
0000
0000
0000
0000
;

//---------------dance-single - C. Foy----------------
#NOTES:
     dance-single:
     C. Foy:
     Challenge:
     9:
     0.490,0.643,0.252,0.187,0.425,320.000,27.000,20.000,20.000,1.000,4.000,0.490,0.643,0.252,0.187,0.425,320.000,27.000,20.000,20.000,1.000,4.000:
0000
0000
0000
0000
,
0000
0000
0000
0000
0000
0000
0000
0000
0000
0000
0000
0001
1000
0000
0000
0000
,
0000
0000
0000
0000
0000
0000
0000
0000
0000
0000
0000
0000
0000
0000
0000
0001
,
1000
0000
0000
0000
0000
0000
0000
0000
0000
0000
0000
0000
0010
0000
0000
0000
2000
00M0
0000
0000
3000
0000
0000
0000
0000
0000
0000
0000
0000
0000
0000
0000
1100
0000
0000
0000
0000
0000
0000
0000
0010
0000
0000
0000
0001
0000
0000
0000
0010
0000
0000
0000
0000
0000
0000
0000
0000
0000
0000
0000
0000
0000
0000
0000
,
1100
0000
0010
0001
0010
0000
0000
0000
MM1M
0000
0000
0000
M1MM
0000
0000
0000
,
0001
0000
0100
0000
1000
0000
0000
0000
0101
0000
1000
0010
1000
0000
0000
0000
,
0101
0000
1000
0010
1000
0000
0000
0000
MM1M
0000
0000
0000
M1MM
0000
0000
0000
,
1000
0000
0100
0000
0002
0000
0003
1000
0100
1000
0100
0010
0100
0010
0100
1000
,
0100
1000
0000
0200
2000
0000
0000
3300
1000
0000
0100
0000
0001
0000
0100
0000
,
1000
0000
0000
0002
0200
0000
0000
0303
0001
0010
0100
1000
0001
0010
0100
1000
,
0001
0000
0000
2000
0200
0000
0000
3300
0000
0000
0000
1000
0100
0000
0100
0000
,
2002
3003
0000
0000
1001
0000
0000
0000
1000
0000
0000
0010
0000
0000
0010
0000
,
0001
0000
0000
0010
0000
0000
0010
0000
1000
0000
0000
0000
1400
0000
0300
0000
,
1000
0000
0000
0000
0100
0000
0000
0001
0000
0000
0001
0000
0100
0000
0000
1000
,
0000
1000
0010
0000
0401
0300
0100
0000
,
1000
0000
0000
0100
0000
0000
0100
0000
0010
0000
0000
0001
0000
0000
0001
0000
,
0010
0000
0000
0000
4010
0000
3000
0000
1000
0000
0000
0000
0100
0000
0000
1000
,
0000
0000
1000
0000
0010
0000
0000
0100
0000
0000
0100
0000
0001
0000
0000
0000
,
2200
0000
0000
0000
0000
0000
3300
0000
0011
0000
0000
0000
1001
0000
1000
0001
,
0000
0001
1000
0000
0001
0000
0000
0000
0100
0000
0100
0000
0010
0000
0100
0020
,
0000
0M30
0000
0000
0000
0000
0000
0000
1000
0000
0000
0000
1000
0000
0000
0000
0100
0000
0000
0000
1000
0000
0100
0000
0000
0000
0100
0000
1000
0000
0000
0000
,
0100
0000
0000
0000
0022
0033
0001
0000
0010
0000
0100
0000
1000
0000
0000
0000
,
1100
0000
0000
0000
0010
0000
0000
0010
0000
0001
0000
0000
0100
0000
0000
0000
,
1000
0000
0100
0000
0001
0010
0001
0000
,
1100
0000
0000
0000
0010
0000
0000
0001
0000
1000
0000
0000
0010
0000
0000
0000
,
0101
0000
0000
0000
0010
0000
0000
0000
1000
0000
0202
0303
0100
0000
0000
0000
,
0100
0000
0000
0010
0000
0010
0000
0000
1000
0000
0000
0000
0100
0000
0000
0000
,
0010
0000
0000
0000
0001
0000
0010
0001
0010
0000
0000
0000
0001
0000
0000
0100
,
0000
0100
0000
0000
0010
0000
0000
0000
0100
0000
0001
0000
0011
0000
0010
0000
,
0000
0000
0100
0000
0100
0000
0000
0000
2004
3MM3
0000
0000
0000
0000
0000
0000
,
1000
0100
1000
0100
1000
0100
1000
0100
1000
0001
1000
0001
1000
0001
1000
0001
,
0010
0001
0010
0001
0010
0001
0010
0001
1000
0000
0000
0000
0001
0000
0100
0000
,
1000
0100
0001
0010
1000
0010
0001
1000
,
0001
0000
0000
1000
0100
0000
0000
0000
0011
0000
0000
0000
0100
0000
0001
0000
,
1010
0000
0001
0000
0000
1000
0100
0000
,
0011
0000
1000
0010
0100
0001
1000
0010
0100
0001
1000
0010
0100
0001
1000
0010
,
0100
0001
1000
0000
0001
0000
0001
0000
0100
0000
0000
0100
0001
0000
0000
0000
,
1000
0000
0000
0000
0100
0000
0000
0100
0010
0000
0000
0000
0001
0000
0000
0001
,
0100
0000
0000
0100
0010
0000
0010
0000
1000
0000
1000
MMMM
0000
0000
0000
0000
,
1001
0000
0000
0000
0100
0000
0000
0010
0000
0010
0000
0000
1000
0000
0000
0000
,
0100
0000
0000
0000
0010
0000
0000
0000
0001
0000
0001
0000
0000
0010
0000
0000
,
0100
0000
0000
0000
1000
0000
0000
0001
0000
0000
0001
0000
0000
0000
0100
0000
,
0000
0000
0010
0000
0000
1000
0001
0000
0000
0000
0000
0000
1001
0000
0000
0000
,
0001
0000
0000
0100
0000
0000
0000
0100
0010
0000
0000
0000
1000
0000
0000
0000
,
0001
0000
0000
0000
0010
0001
0100
0000
0100
0010
0000
0010
1000
0000
0000
0000
,
0100
0000
0000
0010
0000
0000
0000
0000
0000
0000
0010
0000
0000
0000
0001
0000
,
0001
0100
0000
0000
0010
0100
0010
0000
1001
0000
1000
0000
0001
0000
0010
0000
,
0001
0000
0000
0001
0100
0000
0000
0000
1010
0000
1000
0000
0100
0000
0010
0000
,
0001
0000
0000
0001
0100
0000
0000
0000
0011
0000
0010
0000
1000
0000
0010
0000
,
0001
0000
0000
0001
0100
0000
0010
1000
0010
0000
0100
0001
0100
0000
0200
0002
,
0000
1000
0000
0000
,
0303
0000
0000
0000
;

//---------------dance-double - M.Emirzian----------------
#NOTES:
     dance-double:
     M.Emirzian:
     Easy:
     3:
     0.212,0.213,0.093,0.065,0.000,142.000,10.000,7.000,0.000,0.000,0.000,0.212,0.213,0.093,0.065,0.000,142.000,10.000,7.000,0.000,0.000,0.000:
00000000
00000000
00000000
00000000
,
00000000
00000000
00000000
00000000
,
00000000
00000000
00000000
00000000
,
00000000
01100000
00000000
10000000
,
00000000
00010000
01000000
00100000
,
00000000
00001000
00000000
00010000
,
00001000
00000100
00000000
00000010
,
00000000
00001000
00000001
00001000
,
00000100
00000010
00000001
00001000
,
00000100
00010000
00001000
01000000
,
00010000
10000000
00100000
01000000
,
10010000
00000000
10000000
00000000
,
10000000
00000000
01000000
10010000
,
00000000
00010000
00000000
00010000
,
00000000
00010000
00010100
00000000
,
00000010
00000000
00000010
00000000
,
00000010
00001010
00000000
00000001
,
00000000
00000001
00000000
00000001
,
00000220
00000330
00000001
00000001
,
00000001
00000000
00001000
00001000
,
00001000
00000000
00010000
00010000
,
00001000
00002000
00000000
00003000
,
00010000
00001000
01000000
00000000
,
00100000
10000000
01000000
00000000
,
00100000
00100000
00010000
00000000
,
00001000
00001000
00010000
00000000
,
00001000
00001000
00000000
00010000
,
00010000
01000000
00000000
10000000
,
10000000
00000000
00010000
00010000
,
01000000
00100000
20020000
30030000
,
10000000
10000000
01000000
01000000
,
00010000
00010000
00001000
00000000
,
00000100
00000100
00000001
00000001
,
00001000
00000000
00000010
00000010
,
00001000
00001000
00000100
00000100
,
00010000
00000000
00000000
00001000
00000000
00001000
00000000
01000000
,
00000000
01000000
00000000
00000000
00000000
00000000
00010000
00000000
,
00010000
00100000
00000000
10000000
,
01000000
00000000
00100000
00000000
00000000
00110000
00000000
00000000
,
10000000
01000000
00100000
00000000
,
01000000
00100000
00001000
00000000
,
00010000
00001000
00000100
00000000
,
00000001
00000100
00001001
00000000
,
00000010
00000010
00000100
00000000
,
00001000
00001000
00000100
00000100
,
00000000
00010000
00010000
00001000
,
00001000
00000000
00010000
00010000
,
00000000
01000000
01000000
10000000
,
00000000
00100000
00100000
01000000
,
01000000
00001000
00001000
00010000
,
00000000
00022000
00000000
00033000
;

//---------------dance-double - M.Emirzian----------------
#NOTES:
     dance-double:
     M.Emirzian:
     Medium:
     6:
     0.372,0.305,0.336,0.019,0.005,241.000,36.000,2.000,0.000,0.000,0.000,0.372,0.305,0.336,0.019,0.005,241.000,36.000,2.000,0.000,0.000,0.000:
00000000
00000000
00000000
00000000
,
00000000
00000000
00000000
00000000
,
00000000
00000000
00000000
00000000
,
00000000
00000000
01010000
00000000
00000000
10000000
01000000
00100000
,
00000000
10000000
01000000
00010000
00000000
00100000
00001000
00010000
,
00000000
00100000
00010000
00001000
00000000
00000100
00010000
00001000
,
00000000
00000100
00001000
00010000
00000000
00001000
00000100
00000010
,
00000000
00000001
00001000
00000000
00001100
00000000
00000010
00000000
,
00000101
00000010
00001100
00010000
,
00101000
00010000
01010000
00100000
,
11000000
00000000
00100000
00000000
01000000
00010000
10000000
00000000
,
10010000
00000000
00100000
10000000
00010000
00000000
01000000
00001000
,
00010000
00000000
00000100
00001000
00000001
00000000
00001100
00000000
,
00000010
00000100
00001000
00000000
00010000
00100000
01000000
00000000
,
00100000
01000000
10000000
00000000
01010000
00000000
10000000
00010000
,
01000000
00000000
00100000
00001000
00010000
00000000
00001000
00000100
,
00000010
00000000
00000101
00000000
00000010
00001000
00000001
00000000
,
00000010
00000100
00001000
00000000
00010000
00000100
00001000
00000000
,
00020200
00030300
00010000
00001000
,
00100000
00010000
01000000
00000000
00100000
10000000
01000000
00000000
,
00011000
00000000
00000010
00001000
00000100
00000000
00000010
00000001
,
00000100
00000000
00011000
00000000
00010000
00001000
01000000
00000000
,
00100000
00000000
01000000
00000000
00010000
10000000
01000000
00000000
,
00010000
00000000
00001000
00000000
00000001
00001000
00000100
00000000
,
00000010
00000000
00000100
00000000
00001000
00000010
00000100
00000000
,
00001000
00000000
00010000
00000000
00010000
01001000
00100000
00000000
,
10000000
00000000
01000000
10000000
00100000
00000000
01000000
00000000
,
00010000
00000000
00100000
00001000
00010000
00000000
00100000
00000000
,
00010000
00100000
01000000
00000000
00001000
00010000
00000000
00010100
,
00000000
00001000
00000010
00000100
00000001
00000000
00000010
00000000
,
00000010
00000100
00001000
00000010
,
00010010
00000000
00011000
00000000
01001000
00000000
01000000
00010000
,
00100000
00000000
00010000
00000000
01000000
00000000
10100000
01000000
,
10010000
00000000
00100000
00000000
00001000
00000000
00010000
00000100
,
00001000
00001100
00010100
00010010
,
00000100
00000001
00000000
00000100
00000000
00000010
00000000
00010000
,
00000000
00001000
01000000
00000000
10010000
00000000
00100000
10000000
,
01000000
00100000
00010000
00101000
,
00011000
00000000
00010000
00000010
00001000
00000100
00000000
00000000
,
00000010
00000100
00001000
00000000
00001001
00000000
00000101
00000000
,
00000010
00000100
00001000
00000000
00011000
00000000
00010100
00000000
,
00001000
00010000
00100000
00000000
01000000
00001000
00010000
00000000
,
00100000
01000000
10000000
00000000
01010000
00000000
10000000
00100000
,
01000000
00000000
00010000
10000000
01000000
00000000
00100000
00001000
,
00010000
01001000
00011000
00000100
,
00000100
00000000
00000010
00000100
00001000
00000000
00000100
00000000
,
00000010
00000000
00000000
00000001
00000000
00000000
00000000
00000000
00001000
00000000
00000010
00000000
00000100
00000000
00000000
00000000
,
00000001
00000000
00000100
00000000
00000010
00001000
00000100
00000000
,
00011000
00000000
00100000
00000000
10000000
00010000
01000000
00000000
,
00001000
00010000
00000100
00000000
00010000
00000000
00010000
00000000
,
00100000
10010000
00000000
00000000
;

//---------------dance-double - M.Emirzian----------------
#NOTES:
     dance-double:
     M.Emirzian:
     Hard:
     8:
     0.538,0.493,0.374,0.056,0.332,357.000,40.000,6.000,5.000,0.000,2.000,0.538,0.493,0.374,0.056,0.332,357.000,40.000,6.000,5.000,0.000,2.000:
00000000
00000000
00000000
00000000
,
00000000
00000000
00000000
00000000
,
00120000
00000000
00000000
00000000
10030000
00000000
00000000
00000000
02010000
00000000
00000000
00000000
03100000
00000000
01000000
00010000
,
00000000
00000000
00010000
01000000
00001000
00000000
000000M0
00000000
00000010
00000000
00000100
00001000
00000000
00000000
00001000
00000001
,
00000000
00000000
00000001
00000100
00000000
00000000
00000100
00000010
00000000
00000000
00000010
00010000
00000000
00000000
00010000
00001000
,
00000000
00000000
00001000
01000000
00001000
00000000
01010000
00000000
00000000
00000000
01000000
00100000
00000000
00000000
00100000
10000000
,
00000000
00000000
10000000
00010000
00000000
00000000
00010000
00001000
00000000
00000000
00001000
00000001
00000000
00000000
00000001
00000100
,
00000000
00000000
00000100
00000010
00000100
00000000
00000001
00000000
00001000
00000000
00000100
00000000
00010000
00000000
00000010
00000000
,
00001000
00000000
00000100
00010000
00000000
00000000
00010000
00000000
00001000
00000000
01000000
00000000
00010000
00000000
00100000
00000000
,
00001000
00000000
00010000
00001000
00000000
00000000
00001000
00000000
01000000
00000000
00100000
00000000
10000000
00000000
00010000
00000000
,
00100000
00000000
00001000
00010000
00000000
00000000
00010000
00000000
00000100
00000000
00001000
00000010
00000000
00000000
00000100
00000000
,
00001001
00000000
00000000
00000000
00000001
00000000
00010000
00000000
00001000
00000000
00000000
01001000
00000000
00000000
00001000
00000000
,
00010000
00000000
00000000
00010010
00000000
00000000
00001000
00000000
00000100
00000000
00000000
00000000
00000011
00000000
00000000
00000000
,
00000100
00000000
00001000
00000000
00000010
00000000
00000000
00010010
00000000
00000000
00000100
00000000
00001000
00000000
00000000
01001000
,
00000000
01000000
00000000
00010000
01000000
00000000
00000000
00000000
10100000
00000000
00000000
00000000
00000100
00000000
00000010
00000000
,
00000001
00000000
00000100
00000000
00000010
00000000
00010000
00000000
00000100
00000000
00000000
00001100
00000000
00000000
00010000
00000000
,
00100000
00000000
01100000
00000000
00000001
00000010
00000100
00010000
,
00001000
00000000
00100000
00000000
01000000
00000000
00000000
10010000
00000000
00100000
00000000
00000000
10100000
00000000
00000000
00000000
,
02020000
00000000
00000000
00000000
03030000
00000000
00000000
00000000
00100000
00000000
10000000
00000000
00010000
00000000
00000000
10000000
,
00000000
01000000
00100000
00000000
00010000
00000000
00000000
00000000
00000100
00000000
00000010
00000000
00000001
00000000
00001000
00000100
,
00000000
00000000
00000000
00000000
01000000
00000000
10000000
00000000
00010000
00000000
00000000
00100000
00000000
00010000
01000000
00000000
,
00100000
00000000
00000000
00000000
00000110
00000000
10000000
00000000
00100000
00000000
01000000
00000000
00010000
10000000
00000000
01000000
,
00100000
00000000
00010000
00000000
01000000
00000000
00001000
00000000
00100000
00000000
00001000
00010000
00000000
00000000
00010000
00000000
,
00000010
00000000
00001000
00000000
00000100
00000000
00000010
00000000
00000001
00000000
00000100
00000010
00000100
00000000
00000010
00000000
,
00001000
00000000
00000100
00000000
01000000
00000000
00001000
00000000
00010000
00000000
00000100
00010000
00000000
00000000
00010000
00000000
,
00001000
00000000
00100000
00000000
01000000
00000000
10000000
00000000
00010000
00000000
10010000
0000MM00
00000100
00000000
00001000
00000000
,
00000100
00000000
00000010
00000000
00001000
00000000
00000100
00010000
00000000
00000000
00010000
00000000
00000010
00000000
00001000
00000000
,
00000100
00000000
00010000
00000000
00001000
00000000
01001000
0MM00000
01000000
00000000
00100000
00000000
10000000
00000000
01000000
00000000
,
00100000
00000000
00010000
01000000
00000000
00000000
01000000
00000000
00000100
00000000
00010000
00000000
00000000
00000000
01001000
00000000
,
00000000
00010000
00000100
00001000
00040400
00030300
00001010
00000000
,
00000100
00000001
00001000
00000100
00010000
00001000
10000000
01000000
,
00100000
00010000
00000000
00000000
01000000
00001000
00000000
00000000
00011000
00000000
00000000
00000000
00010000
00000000
00000100
00000000
,
00010000
00000010
00000100
00000001
00001000
00000100
00000110
00010000
,
01100000
00000000
00000000
00010000
10000000
00000000
00000000
01000000
00100000
00000000
00001000
00000000
00010000
00000000
00001000
00000000
,
01000000
00000100
00010000
00001000
00010000
00000010
00001000
00000100
,
00010100
00001000
01000000
00100000
10000000
01000000
00010000
00001000
,
00100000
00000000
00110000
00000000
00001010
01000000
00010000
00000000
00011000
00000000
00000000
00000100
00000010
00000000
00000001
00000000
,
00001000
00000000
00000010
00000000
00000100
00000000
00000001
00001000
00000000
00000000
00001000
00000000
00000100
00000000
00010000
00001000
,
00000000
00000000
00001000
01000000
00000000
00000000
01000000
00000000
00100000
00000000
20020000
00000000
30030000
00000000
00000000
00000000
,
00010000
00000000
00001000
00000000
01000000
00000000
00000000
00011000
00000000
00010000
00000100
00000000
00010000
00000000
00000010
00000000
,
00001000
00000000
00000100
00000000
00000010
00000000
00000000
00001001
00000000
00000000
00001100
00000000
00000000
00010100
00000000
00000000
,
00001000
00000000
01000000
00000000
00100000
00000000
00000000
01010000
00000000
00000000
00101000
00000000
00000000
00000000
00010000
00000000
,
10000000
00000000
01000000
00000000
00000000
01000000
00100000
00000000
10010000
00000000
00000000
00000000
00001000
00000000
00100000
00000000
,
00010000
00000000
01000000
00001000
00000000
00000000
00001000
00010000
00000000
00001000
00010000
00000000
00000010
00000000
00001000
00000000
,
00000100
00000000
00000010
00000100
00000000
00000000
00001100
00000000
00000000
00010010
00000000
00000000
00001000
00000000
00000001
00000000
,
00000100
00000000
00000010
00001000
00000000
00000000
00001000
00000000
00000100
00000000
00010000
00000000
00100000
00000000
01000000
00000000
,
00010000
10000000
00000000
01000000
00000000
00100000
00000000
00000000
00010000
00000000
00100000
00000000
01000000
00000000
10000000
00000000
,
00010000
00000000
01000000
00001000
00000000
00000000
00001000
00000000
00010000
00000000
00000010
00000000
00001000
00000000
00000100
00000000
,
00000010
00000000
00000001
00001000
00000000
00000000
00001000
00000000
00000010
00000000
00010000
00000000
00001000
00000000
01000000
00000000
,
00010000
00000000
00100000
00001000
00000000
00000000
00010000
00000000
00100000
00000000
10000000
00000000
00100000
00000000
01000000
00010000
,
00001001
00011000
00000000
00000000
;

//---------------dance-double - M.Emirzian----------------
#NOTES:
     dance-double:
     M.Emirzian:
     Challenge:
     9:
     0.613,0.540,0.467,0.037,0.500,405.000,50.000,4.000,23.000,0.000,2.000,0.613,0.540,0.467,0.037,0.500,405.000,50.000,4.000,23.000,0.000,2.000:
00000000
00000000
00000000
00000000
,
00000000
00000000
00000000
00000000
,
00000100
00000000
00001000
00000100
00000000
00000000
01000000
00010000
00000000
00000000
00001000
00000100
00000000
00000000
00010000
00001000
,
00000000
00000000
00100000
00010000
00100000
00000000
0MM00000
00000000
01000000
00000000
10000000
00100000
00000000
00000000
01000000
00001000
,
00000000
00000000
00010000
00000100
00000000
00000000
00001000
00000010
00000000
00000000
00100000
00010000
00000000
00000000
00000010
00001000
,
00000000
00000000
00000001
00000100
00000010
00000000
00001000
00000010
00000000
00000000
01000000
00010000
00000000
00000000
00001000
00010000
,
00000000
00000000
00000100
00001000
00000000
00000000
00100000
00010000
00000000
00000000
01000000
00100000
00000000
00000000
00001000
00010000
,
00000000
00000000
00000010
00000100
00000000
00000000
00000001
00000100
00000010
00000000
00001000
00000000
00000010
00000000
00000100
00000000
,
00000001
00000100
00000010
00001000
00000000
00001000
00000100
00000000
00010000
00000000
00001000
00000000
01000000
00000000
00010000
00000000
,
01000000
00100000
10000000
00010000
00000000
00010000
01000000
00000000
00100000
00000000
10000000
00000000
01000000
00000000
00100000
00000000
,
00010000
00100000
00001000
00010000
00000000
00010000
00000100
00000000
00010100
00000000
00000000
00001100
00000000
00000000
00000010
00000000
,
00000101
00000000
00000MM0
00000000
00000010
00000000
00001000
00000000
00000010
00000000
00000100
00000001
00000000
00000001
00000100
00000000
,
00000010
00000000
00001000
00000100
00000000
00000100
00010000
00000000
00001000
00000000
00000000
00000000
11000000
00000000
00000M00
00000000
,
00000100
00000000
00001000
00000000
00001010
00000000
00000000
00000110
00000000
00000000
00000001
00000000
00000100
00000000
00000010
00001000
,
00000000
00000100
00000000
00000100
00001000
00000000
0000M000
00000000
01100000
00000000
00000000
00000000
00000010
00001000
00000010
00000000
,
00010000
00001000
00010000
00000000
00100000
00000000
01000000
00000000
00010000
00000000
01000000
00100000
00000000
00100000
10000000
00000000
,
00010000
00000000
00000000
00000000
00110000
00000000
00000000
00000000
00000010
00000001
00000010
00000000
00000100
00000000
00001000
00000001
,
00000000
00000001
00000100
00000000
00001000
00000000
00010000
00001000
00000000
01000000
00000000
00100000
01000000
00000000
00010000
00000000
,
00220000
00000000
00000000
00000000
00330000
00000000
00000000
00000000
00100000
00000000
00010000
00000000
00100000
00000000
01000000
10000000
,
00000000
10000000
01000000
00000000
00010000
00000000
00000000
00000000
00000010
00000000
00000100
00000000
00000001
00001000
00000100
00000010
,
00000100
00000000
M0M00000
00000000
10000000
00000000
00100000
00000000
10000000
00000000
00010000
01000000
00000000
01000000
00100000
00000000
,
10100000
00000000
00000000
00000000
00011000
0000000M
00000001
00000000
00000010
00000000
00000100
00000000
00001000
00000100
00000000
00000100
,
00000010
00000000
00000001
00000000
00000100
00000000
00000010
00000000
00010000
00000000
00001000
00010000
00000000
00010000
00100000
00000000
,
10000000
00000000
01000000
00000000
00100000
00000000
00010000
00000000
10000000
00000000
01000000
00100000
00000000
00100000
00001000
00000000
,
00010000
00000010
00001010
00000100
00001000
00000001
00000101
00000010
,
00001000
00000000
00000100
00000000
00011000
00000000
00000100
00000000
00010000
00000000
00010100
M0000000
10000000
00000000
00100000
00000000
,
10000000
00000000
01000000
00000000
00100000
00000000
00001000
00010000
00000000
00010000
00000100
00000000
00001000
00000000
00000010
00000000
,
00100000
00000000
00001000
00000000
00010000
00000000
01001000
0000000M
00000001
00000000
00000100
00000000
00000110
00000000
00001000
00000000
,
00000010
00010000
00011000
00000100
00001000
00010100
00000000
01100000
,
00000000
00000000
10000000
00000000
01000000
00000000
00110000
00000000
44000000
33000000
00000000
00000000
00001000
00000000
00010000
00000000
,
00000100
00010000
00000100
00000000
00001000
00000100
00001000
00000000
00000010
00000000
00010000
00000000
00000010
00000000
00000100
00000000
,
00000001
00001000
00000000
00001000
00000100
00000000
00000010
00000000
00001001
00000000
00M00000
00000000
00100000
00000000
01000000
00000000
,
01010000
00000000
00100000
00000000
10000000
00000000
01000000
00000000
00110000
00000000
00100000
00000000
00100010
000MM000
00011000
00000000
,
01000100
00000000
000MM000
00010000
00001000
00010000
00001000
00000000
01000000
00001000
01000000
00000000
00010000
00000000
00100000
00000000
,
01000000
00000000
10000000
00000000
00010000
01000000
00000000
01000000
00001000
00000000
00010000
00000000
00000100
00000000
00000010
00000000
,
00001100
00000000
10000000
00010000
10000000
00000000
01000000
00100000
01000000
00000000
00100000
00000000
00001000
00000000
00010000
00000000
,
00000100
00000000
00000110
00000000
01100000
00010000
00001000
00000000
00000110
00000000
00000M0M
00000001
00000100
00000000
00000010
00000000
,
00001000
00000000
00000100
00000000
00010000
00000100
00010000
00001000
00000000
00001000
01000000
00000000
00100000
00000000
01000000
00010000
,
00000000
00000000
00010000
01000000
00100000
00000000
10010000
00000000
01100000
00000000
00220000
00000000
00330000
00000000
00000000
00000000
,
01000000
00000000
00010000
00000000
01001000
00000000
00000000
00011000
00000000
00010000
00000010
00000000
00001000
00000000
00000100
00000000
,
00000001
00000000
00000100
00000000
00001010
00000000
00000000
00010010
00000000
00000000
00100010
00000000
00000000
00011000
00000000
00000000
,
00001000
00000000
01000000
00000000
01001000
00000000
00000000
01010000
00000000
00000000
10100000
00000000
000M0000
00000000
00010000
00000000
,
01000000
00000000
01001000
00000000
00000000
00010000
00001000
00000000
00010010
00000000
00000000
0000M0M0
00001000
00000010
00001000
00000000
,
00000100
00000000
00000010
00000001
00000000
00000000
00001000
00000100
00000000
00000100
00010000
00000000
00010000
00000000
00100000
00000000
,
10000000
00000000
00010000
00000000
01000000
00000000
00001000
00000000
00100000
00000000
00000010
00000000
00010000
00001000
00010000
00000000
,
00000100
00010000
00000010
00000100
00000001
00001000
00000100
00000010
,
00000100
00001000
00000000
00010100
000MM000
00011000
00000000
00000000
00010000
00000000
00001000
00000000
01000000
00000000
00100000
00000000
,
01000000
00010000
01000000
00100000
00000000
00100000
10000000
00000000
01000000
00000000
00100000
00000000
00001000
00000000
00010000
00000000
,
00000100
00001000
00000001
00000010
00000000
00000010
00000100
00000000
00001000
00000000
00000010
00000000
00010000
00000000
01000000
00000000
,
10000000
00000000
00010000
00000000
01000000
00000000
00100000
00000000
10000000
00000000
00010000
00000000
00100000
00000000
00100000
01000000
,
00001001
00011000
00000000
00000000
;

//---------------dance-single - D. Kincel----------------
#NOTES:
     dance-single:
     D. Kincel:
     Edit:
     11:
     0.782,0.765,0.383,0.532,1.000,484.000,41.000,57.000,110.000,8.000,14.000,0.782,0.765,0.383,0.532,1.000,484.000,41.000,57.000,110.000,8.000,14.000:
0000
0000
0000
0000
,
0000
0000
0000
0000
,
0000
0000
0000
0000
,
0000
0000
0000
0000
1111
0000
0000
0000
2002
0000
0003
0000
310M
0000
0010
0001
,
0010
0000
0100
0010
0100
0000
1000
0001
1000
0000
0001
0100
0001
0000
1000
0010
,
1000
0000
0010
0100
0010
0000
1000
0002
2000
0000
3000
0000
M103
0000
0001
0010
,
0100
0000
1000
0100
0010
0000
0100
1000
0010
0000
0001
0010
1000
0000
0001
0100
,
1000
0000
0000
0000
0000
0000
0000
0000
0000
0000
0000
0000
0000
0000
0000
0000
0000
0000
0000
0000
0000
0000
0000
0000
0100
0000
0000
0000
0000
0000
0000
0000
0000
0000
0000
0000
0001
0000
0000
0000
0000
0000
0000
0000
0000
0000
0000
0000
2000
0000
0000
0000
0000
0000
0000
0000
0000
0000
0000
0000
0010
0000
0000
0000
3000
0000
0000
0000
0000
0000
0000
0000
0000
0000
0000
0000
0000
0000
M000
0000
0000
0000
0000
0000
0010
0000
0000
0000
0000
0000
0000
0000
0000
0000
0000
0000
0100
0000
0000
0000
0000
0000
0000
0000
0000
0000
0000
0000
0001
0000
0000
0000
0000
0000
0000
0000
0000
0000
0000
0000
0010
0000
0000
0000
0000
0000
0000
0000
0000
0000
0000
0000
0100
0000
0000
0000
0000
0000
0000
0000
0000
0000
0000
0000
1000
0000
0000
0000
0000
0000
0000
0000
0000
0000
0000
0000
0010
0000
0000
0000
0000
0000
0000
0000
0000
0000
0000
0000
0100
0000
0000
0000
0000
0000
0000
0000
0000
0000
0000
0000
0001
0000
0000
0000
0000
0000
0000
0000
0000
0000
0000
0000
,
0010
0000
1000
0000
0010
0000
0100
0000
0000
00M0
0100
0000
1000
0000
0001
0000
1000
0000
0010
0000
0100
0000
0001
0000
1000
0000
0100
0000
0010
0000
0100
0000
,
1000
0000
0010
0000
0100
0000
1000
0000
0000
0M00
1000
0000
0001
0000
0010
0000
1000
0000
0001
0000
0010
0000
0001
0000
1000
0000
0010
0000
0100
0000
0010
0000
,
1000
0000
0100
0000
0010
0000
0001
0000
0000
00M0
0001
0000
0100
0000
0010
0000
1000
0000
0001
0000
0010
0000
M100
0000
0000
0000
1000
0000
01M0
0000
0000
0000
,
2002
3003
0000
0000
0000
M00M
0000
0000
0101
0000
0000
0000
0001
0000
0000
0000
0010
0000
0000
0000
0100
0000
2000
0000
0M00
0000
0000
0000
3001
0000
0000
0000
,
0100
0000
0000
0000
0001
0000
0020
0000
000M
0000
0000
0000
0130
0000
0000
0000
1000
0000
0010
0000
0000
0000
0200
0000
0002
0303
0000
0000
0000
0M0M
0000
0000
,
1010
0000
1000
0000
0100
0000
0010
0002
00M0
0000
1003
0000
0001
0000
0200
0010
,
0000
0000
0310
0000
0M00
0000
1000
0000
0001
0000
0000
0000
0010
0000
0200
0000
2000
3300
0000
0000
0000
MM00
0000
0000
0011
0000
0000
0000
0001
0000
0000
0000
,
1000
0040
M000
0000
0130
0000
0001
0000
0010
0400
00M0
0000
1300
0000
0010
0000
,
0100
0000
0004
0000
0M00
0000
0000
0000
0023
0030
0000
0000
0000
00MM
0000
0000
1001
0000
0000
0000
1000
0000
0010
0000
0100
0000
0004
0000
0M00
0000
0000
0000
,
0013
0100
1000
0001
0100
0040
0M00
0000
0130
0001
0010
0400
0001
0000
0010
0000
,
4000
0000
0000
0000
0000
0000
0000
0000
3300
0000
0000
0000
0000
MMMM
0000
0000
1001
0000
0000
0000
0001
0000
0000
0000
0100
0000
0000
0000
1000
0000
0100
0000
,
0000
0100
0001
0000
0021
0000
0000
0000
1030
0000
0010
0000
0001
0000
0400
0040
,
0300
0030
0000
0000
0000
0000
0000
0000
0000
0000
0000
0000
0000
0000
0000
0000
0000
0000
0000
0000
0000
0000
0000
0000
0000
0000
0000
0000
0000
0000
0MM0
0000
0000
0000
0000
0000
0000
0000
0000
0000
0000
0000
0000
0000
0000
0000
0000
0000
1010
0000
0000
0000
0000
0000
0000
0000
0000
0000
0000
0000
0000
0000
0000
0000
0000
0000
0000
0000
0000
0000
0000
0000
0001
0000
0000
0000
0000
0000
0000
0000
0000
0000
0000
0000
0000
0000
0000
0000
0000
0000
0000
0000
0000
0000
0000
0000
0010
0000
0000
0000
0000
0000
0000
0000
0000
0000
0000
0000
0000
0000
0000
0000
0000
0000
0000
0000
0000
0000
0000
0000
1000
0000
0000
0000
0000
0000
0000
0000
0000
0000
0000
0000
0010
0000
0000
0000
0000
0000
0000
0000
0000
0000
0000
0000
0000
0000
0000
0000
0000
0000
0000
0000
0000
0000
0000
0000
0010
0000
0000
0000
0000
0000
0000
0000
0000
0000
0000
0000
0100
0000
0000
0000
0000
0000
0000
0000
0000
0000
0000
0000
0000
0000
0000
0000
0000
0000
0000
0000
0000
0000
0000
0000
,
0201
0000
0000
0000
0310
0000
0000
0000
2100
0M00
0000
0000
3001
0000
0000
0000
0001
0000
1000
0000
0100
0000
0000
0000
0010
0000
0001
0000
0000
0000
0000
0000
,
M1MM
0000
0010
1000
0010
0000
1000
0001
0000
0001
0100
0020
0M00
0000
1030
0000
,
0001
0000
0010
0100
0010
0000
0100
0000
1000
0100
0010
0200
00M0
0001
0300
0M01
,
0100
0000
1000
0001
1000
0000
0001
0000
0100
0010
0000
0020
1030
0000
00M0
0000
,
M010
0000
0000
0000
0100
0000
1000
0000
0100
0000
0010
0000
0100
0000
0000
0000
0101
0000
0000
0000
0022
0033
0000
0000
00M1
0000
0100
0000
0001
0000
0010
0000
,
0001
0000
0000
0000
1000
0000
0100
0000
1000
0000
0010
0000
0100
0000
0202
0000
0303
M0M0
0000
0000
1010
0000
0000
0000
1000
0000
0100
0000
0010
0000
0001
0000
,
0010
0000
0000
0000
0100
0000
0000
0000
0011
0000
0000
0000
0201
0300
0010
0M00
1000
00M0
0001
0000
0010
0000
0001
0000
1000
0000
0000
0000
0001
0000
0100
0000
,
0001
0000
1000
0000
0010
0000
2020
0000
3030
0M0M
0000
0000
0001
0000
0000
0000
0110
0000
0000
0000
1200
0000
M300
0000
0000
0000
0000
0000
2001
0000
300M
0000
,
0000
0000
0000
0000
0000
0000
0000
0000
0000
0000
0000
0000
0000
0000
0000
0000
0000
0000
0000
0000
0000
0000
0000
0000
0102
0000
0000
0000
0000
0000
0000
0000
0000
0000
0000
0000
0M03
0000
0000
0000
0000
0000
0000
0000
0000
0000
0000
0000
2010
0000
0000
0000
0000
0000
0000
0000
0000
0000
0000
0000
30M0
0000
0000
0000
0000
0000
0000
0000
0000
0000
0000
0000
1100
0000
0000
0000
0000
0000
0000
0000
0000
0000
0000
0000
M000
0000
0000
0000
0000
0000
0000
0000
0000
0000
0000
0000
4M04
0000
0000
0000
0000
0000
0000
0000
3003
0000
0000
0000
0000
0000
0000
0000
0000
0000
0000
0000
0000
0000
0000
0000
0101
0000
0000
0000
0000
0000
00M0
0000
0000
0000
0000
0000
0000
0000
0000
0000
0000
0000
0000
0000
0000
0000
0000
0000
1010
0000
0000
0000
0000
0000
000M
0000
0000
0000
0000
0000
0000
0000
0000
0000
0000
0000
0000
0000
0000
0000
0000
0000
1001
0000
0000
0000
0000
0000
0000
0000
0000
0000
0000
0000
0000
0000
0000
0000
0000
0000
M000
0000
0000
0000
0000
0000
,
0010
1000
0001
0100
0010
1000
0001
0010
0100
1000
0001
0010
0001
1000
0010
0100
,
0002
0000
0000
0000
0000
0000
0000
0000
2000
0000
0000
0000
0000
0000
0000
0000
0010
0000
3003
0000
0000
0MMM
M000
0000
0001
0000
0010
0000
0100
0000
0010
0000
,
0001
1000
0010
0100
0010
1000
0001
0010
0100
1000
0100
0000
2200
0000
0001
0000
,
0001
3300
0000
0000
00MM
MM00
0000
0000
1000
0000
0100
0000
0010
0000
0001
0000
0100
0000
0010
0000
1000
0000
0001
0000
0010
0000
0001
0000
1000
0000
0100
0000
,
1000
0001
0010
0000
0100
0000
1000
0000
0010
0000
0200
0000
0002
0000
0000
0000
,
13M3
0000
0100
0010
0100
0001
0010
0100
0010
0001
1000
0010
0100
1000
0100
0001
,
0010
0000
0100
0000
1000
0000
0000
0000
2002
0000
0000
0000
0010
0000
0000
0000
3M13
0000
0000
00M0
0000
0000
1000
0000
0001
0000
0000
0000
0100
0000
0001
0000
,
0010
0000
0001
0000
0100
0000
0000
0000
1010
0000
0000
0000
0000
0000
2002
0000
3003
0000
0010
0000
0001
0000
0000
0000
0M00
0000
0000
0000
1000
0000
0002
0003
,
0010
0000
0000
0000
0000
0000
0020
0030
0100
0000
0000
0000
1000
0000
1001
0000
0000
0000
0000
0000
1111
0000
MMMM
0000
0000
0000
0000
0000
0000
M00M
0000
0000
,
1001
0000
0001
0000
0100
0000
0002
0010
0000
0010
0003
000M
0110
0000
0000
0MM0
,
1001
0000
0000
0000
0001
0000
0000
0000
1000
0000
0000
0000
0020
0000
0100
0000
0000
0000
0000
0000
0230
0000
0000
00M0
0000
0000
0310
0000
0000
0M00
0000
0000
,
0101
0000
0000
0000
0001
0000
0000
0000
0010
0000
0000
0000
0100
0000
0002
0000
0000
0000
0000
0000
2000
0000
0003
0000
0000
000M
0000
0000
3010
0000
0000
0000
,
0001
M000
0100
0000
0000
0000
1000
0000
0000
0000
M001
0000
0010
0000
0000
0000
000M
0000
0000
0000
MMMM
0000
0000
0000
1001
0000
0000
0000
1000
0000
0010
0000
,
1000
0001
1000
0100
1000
0010
1000
0001
1000
0010
0100
0001
0010
0001
1000
0001
,
0100
0000
0001
0000
1000
0000
0001
0000
0010
0000
0001
0000
0200
000M
0000
0000
0310
0000
2000
0000
00M0
0000
3001
0000
0010
0000
0100
0000
1000
0000
0001
0000
,
1000
0100
0010
0001
1000
0010
1000
0100
0010
0100
1000
0010
0100
0001
0010
0001
,
0100
0000
0010
0000
4000
0000
04M0
3300
000M
0000
0000
0000
0100
0000
M000
0000
1001
0000
0000
0000
0000
0000
0001
0000
0100
0000
0000
0000
0000
0000
0100
0000
,
0010
0000
0000
0020
1030
010M
10M0
0001
0010
0000
0000
0010
0100
0000
0000
0100
,
1000
0000
0000
2000
3010
M100
00M1
0010
0001
0000
0000
0001
1000
0000
0000
1000
,
0100
0000
0000
0200
0301
01M0
001M
1000
0010
0000
0001
0100
M000
0001
0M10
0004
,
01M0
0000
M013
0002
2M00
0000
00M0
0000
0000
0000
0000
0000
0000
0000
0000
0000
,
3003
M00M
0MM0
M00M
0000
0000
0000
0000
0000
0000
0000
0000
0000
0000
0000
0000
;
