#TITLE:Round and Round;
#SUBTITLE:;
#ARTIST:Eskimo & Icebird;
#TITLETRANSLIT:;
#SUBTITLETRANSLIT:;
#ARTISTTRANSLIT:;
#GENRE:Pop;
#CREDIT:;
#BANNER:Round and Round-bn.png;
#BACKGROUND:Round and Round-bg.png;
#LYRICSPATH:;
#CDTITLE:;
#MUSIC:Round and Round.ogg;
#OFFSET:0.005;
#SAMPLESTART:15.000;
#SAMPLELENGTH:11.840;
#SELECTABLE:YES;
#BPMS:0.000=128.000;
#STOPS:;
#BGCHANGES:0.101=Round and Round.mpg=1.000=1=0=0=StretchNoLoop==CrossFade==,
99999=-nosongbg-=1.000=0=0=0 // don't automatically add -songbackground-;
#KEYSOUNDS:;

//---------------dance-double - M. Cerna----------------
#NOTES:
     dance-double:
     M. Cerna:
     Challenge:
     9:
     0.598,0.574,0.370,0.213,0.393,390.000,40.000,23.000,0.000,0.000,0.000: // measure 1
00000000
00000000
00000000
00000000
,  // measure 2
00000000
00000000
00000000
00000000
,  // measure 3
00000000
00000000
00000000
00000000
,  // measure 4
00000000
00000000
00000000
00000000
,  // measure 5
00002000
00010000
00000100
00000001
,  // measure 6
00000010
00000000
00013000
00000000
00001000
00010000
00001000
00000000
,  // measure 7
00020000
00001000
01000000
10000000
,  // measure 8
00100000
00000000
00031000
00000000
00101000
00001000
00010010
00000000
,  // measure 9
00011000
00000000
00001000
00000000
00010000
00000000
00000100
00001000
00000100
00000000
00001000
00000010
00000000
00000010
00000000
00000010
,  // measure 10
00000000
00000000
00001000
00000100
00010000
00000000
00001000
00100000
00010000
00000000
01000000
00100000
00000000
00000000
10000000
00100000
,  // measure 11
01000000
00000000
00010000
00000000
00100000
00000000
00001000
00010000
00001000
00000000
00000100
00000010
00000000
00001000
00000000
00000100
,  // measure 12
00000000
00000000
00001000
00000001
00000100
00000000
00000010
00001000
00000100
00000000
00010000
00001000
00000000
00000000
00010000
00000000
,  // measure 13
00011000
00000000
00001000
00000000
00100000
00000000
00010000
01000000
00100000
00000000
00100000
01000000
00000000
00010000
00000000
00100000
,  // measure 14
00000000
00000000
00001000
00010000
00000100
00000000
00001000
00000010
00000100
00000000
00000010
00001000
00000000
00000000
00000100
00010000
,  // measure 15
00001000
00000000
00010000
00000000
00001000
00000000
00100000
00010000
01000000
00000000
00100000
01000000
00000000
00000000
00100000
00000000
,  // measure 16
01000000
00000000
00010000
00100000
00001000
00000000
00010000
00001000
00000100
00000000
00001000
00000100
00000010
00000000
00001000
00000000
,  // measure 17
00001002
00000000
00000000
00000000
00001003
00000000
00000100
00000000
00000000
00000000
00000010
00000001
00000100
00000000
00000010
00001000
,  // measure 18
00000100
00000000
00000000
00000000
00010000
00000000
00001000
00000000
00011000
00000000
00001000
00100000
00000000
00000000
00010000
00000000
,  // measure 19
02010000
00000000
00000000
00000000
03010000
00000000
00100000
00000000
00000000
00000000
00010000
10000000
01000000
00000000
00100000
00010000
,  // measure 20
10000000
00000000
00000000
00000000
01000000
00000000
00100000
00000000
10010000
00000000
00010000
10000000
00000000
00000000
01000000
00000000
,  // measure 21
02100000
00000000
00000000
00000000
03100000
00000000
00010000
00000000
00000000
00000000
00100000
00001000
00010000
00000000
00001000
00000100
,  // measure 22
00000010
00000000
00000000
00000000
00001000
00000000
00000001
00000000
00001000
00000000
00000100
00000010
00000000
00000000
00000001
00000000
,  // measure 23
00000021
00000000
00000000
00000000
00000031
00000000
00001000
00000000
00000000
00000000
00000100
00010000
00001000
00000000
00010000
00001000
,  // measure 24
00200000
00310000
02000000
03001000
00020000
00030100
00020000
00031000
,  // measure 25
00012000
00000000
00000000
00000000
00010000
00000000
00000000
00000000
00013000
00000000
00000000
00000100
00000000
00000000
00001000
00000001
,  // measure 26
00000000
00000000
00000100
00000000
00000010
00000000
00000000
00000000
00000010
00000000
00000000
00000010
00000000
00000000
00001000
00000100
,  // measure 27
00010000
00000000
00001000
00000000
00010000
00001000
00000000
00100000
00010000
00000000
01000000
00100000
00000000
01000000
00010000
10000000
,  // measure 28
01000000
00000000
00100000
00000000
00010000
10000000
00000000
00010000
10000000
00000000
00100000
01000000
00000000
00010000
00100000
00000000
,  // measure 29
10020000
00000000
00000000
00000000
10030000
00000000
00010000
00100000
00010000
00000000
00100000
00001000
00000000
00010000
00000000
00001000
,  // measure 30
00000000
00000000
00010000
00000100
00001000
00000000
00000010
00000100
00000010
00000000
00001000
00000001
00000000
00000000
00001000
00000100
,  // measure 31
00010000
00000000
00001000
00000000
00100000
00000000
00010000
01000000
00100000
00000000
10000000
01000000
00000000
10000000
00000000
00100000
,  // measure 32
00000000
00000000
01000000
00010000
00100000
00000000
00001000
00010000
00000100
00000000
00001000
00000010
00000000
00000000
00001000
00000000
,  // measure 33
00001001
00000110
00001001
00000110
,  // measure 34
00001001
00000000
00001000
00000000
00000100
00000000
00010000
00001000
,  // measure 35
00100000
00000000
00010000
01000000
00100000
00000000
10000000
01000000
,  // measure 36
10010000
01000000
10010000
00100000
01100000
00010000
00011000
00001000
,  // measure 37
10002000
00000000
00003000
00000000
00011000
00000000
00010000
00000100
,  // measure 38
00000000
00000000
00001000
00000010
00000100
00000000
00000010
00001000
00000100
00000000
00000000
00000000
00001000
00000000
00000010
00000000
,  // measure 39
00000100
00000000
00000010
00001000
00000000
00000000
00000100
00000000
00001001
00000000
00000000
00000000
00000001
00000000
00001000
00000000
,  // measure 40
00000000
00000000
00000100
00010000
00001000
00000000
00010000
00001000
00100000
00000000
00000000
00000000
00001000
00000000
00100000
00000000
,  // measure 41
00010000
00000000
01000000
00100000
00000000
00000000
01000000
00000000
01010000
00000000
00000000
00000000
01000000
00000000
00001000
00000000
,  // measure 42
00000000
00000000
00010000
01000000
00100000
00000000
01000000
00010000
00001000
00000000
00000000
00000000
00010000
00000000
00000100
00000000
,  // measure 43
00001000
00000000
00000010
00000100
00000000
00000000
00000010
00000000
00001001
00000000
00000000
00000000
00000001
00000000
00000010
00000000
,  // measure 44
00000000
00000000
00000100
00010000
00001000
00000000
00001000
00000100
00000010
00000000
00000000
00000000
00001000
00000000
00000001
00000000
,  // measure 45
00001000
00000000
00000100
00010000
00000000
00000000
00001000
00000000
00101000
00000000
00000000
00000000
00010100
00000000
00000000
00000000
,  // measure 46
00001010
00000000
00000000
00000000
01001000
00000000
00000000
00000000
00011000
00000000
00000000
00000000
00010000
00000000
00001000
00010000
,  // measure 47
00001000
00000000
00010000
00001000
00000000
00000000
00001000
00000000
00101000
00000000
00000000
00000000
01001000
00000000
00000000
00000000
,  // measure 48
00010010
00000000
00000000
00000000
00010100
00000000
00000000
00000000
00011000
00000000
00000000
00000000
00001000
00000000
00010000
00001000
,  // measure 49
00010000
00000000
00001000
00010000
00000000
00000000
00000000
00000000
00000002
00000000
00000000
00000000
00000203
00000000
00000000
00000000
,  // measure 50
00002300
00000000
00000000
00000000
00003020
00000000
00000000
00000000
00000032
00000000
00000000
00000000
00010003
00000000
00001000
00010000
,  // measure 51
00001000
00000000
00001000
00100000
00000000
00000000
00000000
00000000
00020000
00000000
00000000
00000000
02030000
00000000
00000000
00000000
,  // measure 52
23000000
30200000
00320000
10030000
,  // measure 53
10010000
00100000
01100000
10000000
10010000
00010000
00100000
00001000
,  // measure 54
00010000
00001000
00000100
00001000
00100000
00001000
00010000
00001000
,  // measure 55
00000100
00000010
00001000
00000100
00000010
00000001
00001000
00000100
,  // measure 56
00010000
00001000
00000100
00001000
00010000
00100000
10000000
00010000
,  // measure 57
10000000
01000000
10000000
00010000
10010000
00000000
00000000
00000000
;

//---------------dance-double - M.Emirzian----------------
#NOTES:
     dance-double:
     M.Emirzian:
     Easy:
     2:
     0.129,0.104,0.000,0.000,0.000,98.000,0.000,0.000,0.000,0.000,0.000:
00000000
00000000
00000000
00000000
,
00000000
00000000
00000000
00000000
,
00000000
00000000
00000000
00000000
,
00000000
00000000
00000000
00000000
,
00100000
00000000
00000000
00000000
,
10000000
00000000
00000000
00000000
,
00010000
00000000
00000000
00000000
,
00000100
00000000
00000000
00001000
,
00000001
00000000
00000100
00000000
,
00000010
00000000
00001000
00000000
,
00000100
00000000
00010000
00000000
,
00001000
00000000
01000000
00000000
,
00010000
00000000
00100000
00000000
,
10000000
00000000
01000000
00000000
,
00001000
00000000
00010000
00000000
,
01000000
00000000
00000000
10000000
,
00010000
00000000
00100000
00000000
,
00001000
00000000
00000001
00000000
,
00000100
00000000
00000010
00000000
,
00010000
00000000
00001000
00000000
,
01000000
00000000
00100000
00000000
,
00010000
00000000
00000010
00000000
,
00001000
00000000
00000100
00000000
,
00010000
00000000
00001000
00000000
,
01000000
00000000
00010000
00000000
,
10000000
00000000
00000000
00000000
,
01000000
00000000
00000000
00000000
,
00000100
00000000
00000000
00000000
,
00010000
00000000
00000000
00000000
,
00001000
00000000
01000000
00000000
,
00100000
00000000
10000000
00000000
,
00010000
00000000
01000000
00000000
,
00100000
00000000
00001000
00000000
,
00000010
00000000
00000100
00000000
,
00010000
00000000
00001000
00000000
,
01000000
00000000
00100000
00000000
,
00000000
10000000
00010000
00000000
,
00100000
00000000
00001000
00000000
,
00000010
00000000
00000001
00000000
,
00001000
00000000
00000010
00000000
,
00010000
00000000
00001000
00000000
,
01000000
00000000
00010000
00000000
,
00100000
00000000
00001000
00000000
,
00010000
00000000
00000010
00000000
,
00010000
00000000
00001000
00000000
,
01000000
00000000
00010000
00000000
,
10000000
00000000
01000000
00000000
,
00100000
00000000
00010000
00000000
,
01000000
00000000
00001000
00000000
,
00010000
00000000
00000100
00000000
,
00001000
00000000
00000001
00000000
,
00000100
00000000
00000010
00000000
,
00000000
00001000
00000001
00000000
,
00001000
00000000
00000100
00000000
,
00000000
00000000
00000010
00000000
,
00010000
00000000
00001000
00000000
,
01000000
00000000
00100000
00000000
;

//---------------dance-double - M.Emirzian----------------
#NOTES:
     dance-double:
     M.Emirzian:
     Medium:
     4:
     0.232,0.235,0.074,0.000,0.000,168.000,8.000,0.000,0.000,0.000,0.000:
00000000
00000000
00000000
00000000
,
00000000
00000000
00000000
00000000
,
00000000
00000000
00000000
00000000
,
00000000
00000000
00000000
00000000
,
10000000
00000000
00010000
00000000
,
10000000
00000000
00010000
00000000
,
00100000
00000000
00001000
00000000
,
00000010
00000000
00000001
00001000
,
00000010
00000100
00000001
00001000
,
00000010
00000000
00000100
00000000
00000010
00001000
00000100
00000000
,
00010000
00001000
00000010
00000000
,
00001000
00010000
01000000
00000000
,
01000000
00010000
10000000
00100000
,
00010000
00000000
01000000
00000000
00100000
10000000
01000000
00000000
,
00100000
00001000
00000100
00000010
,
00000001
00000000
00000000
00000001
,
00001000
00000000
00000000
00010010
00000000
00000000
00000100
00000000
,
00010000
00001000
01000000
00100000
,
10000000
00000000
00000000
01001000
00000000
00000000
00100000
00000000
,
00010000
00001000
00000001
00000010
,
00000100
00000000
00000000
00001001
00000000
00000000
00000010
00000000
,
00010000
00100000
10000000
00010000
,
01000000
00000000
00000000
00101000
00000000
00000000
00010000
00000000
,
00000100
00000000
00000010
00000010
,
00000010
00000000
00000001
00000000
,
00001000
00000000
00010000
00000000
,
10000000
00000000
00010000
00000000
,
00001000
00000000
00000001
00000000
,
00001000
00000000
00010000
00000000
,
00000100
00000000
01000000
00000000
,
00100000
00000000
00000000
00000000
00001000
00010000
00000100
00000000
,
00001000
00000000
00000001
00000000
,
00000100
00000100
00000000
01000000
,
01000000
00000000
00010000
00010000
,
00000000
00000010
00000010
00010000
,
00001000
01000000
00010000
00000000
00100000
00000000
00000000
00000000
,
00000000
00000000
10000000
00000000
00010000
00000000
00000000
01001000
,
00000000
01000000
00010000
10000000
,
00100000
00000000
01000000
00000000
00001000
00000000
00000000
00110000
,
00000000
00001000
00010000
00000010
,
00010000
00000000
00001000
00000000
01000000
00000000
00000000
00011000
,
00000000
00000010
00010000
00001000
,
00100000
00000000
00010000
00000000
01000000
00000000
00000000
01001000
,
00000000
00010000
00000100
00001000
,
00000001
00000000
00001000
00000100
,
00000010
00000001
00001000
00000010
,
00000100
00000000
00000001
00000000
00001000
00000100
00010000
00000000
,
00000010
00000010
00000010
00000000
,
00001000
10000000
01000000
01000000
,
00100000
00100000
00010000
01000000
,
10000000
00000000
00100000
00000000
01000000
10000000
00100000
00000000
,
01000000
00010000
00100000
00001000
,
00000000
00010000
00000010
00000000
,
00001000
00000000
00000100
00000000
,
00000010
00000010
00000010
00000000
,
00010000
00000000
00001000
00000000
,
01000000
01000000
01000000
00000000
;

//---------------dance-double - M.Emirzian----------------
#NOTES:
     dance-double:
     M.Emirzian:
     Hard:
     6:
     0.338,0.313,0.286,0.000,0.088,225.000,31.000,0.000,0.000,0.000,0.000:
00000000
00000000
00000000
00000000
,
00000000
00000000
00000000
00000000
,
00000000
00000000
00000000
00000000
,
00100000
00000000
00100000
00000000
,
00010000
01000000
10000000
00100000
,
00010000
00000000
00001000
00010000
,
00000100
00000000
00000000
00000010
00000000
00000000
00000000
00000001
,
00000000
00001000
00000010
00001001
,
00000010
00000100
00001000
00000001
,
00000100
00000010
00001000
00000000
00010010
00000000
00001000
00000000
,
00011000
01000000
01010000
00100000
,
01000000
00000000
00010000
00000000
00100000
00000000
00000000
00000000
01000000
00000000
00000000
10000000
00000000
00000000
00010000
00000000
,
01000000
10000000
00100000
00010000
,
10000000
01000000
00100000
00000000
00110000
00000000
00001000
00000000
,
00011000
00000010
00010010
00001000
,
00001100
00000010
00000000
00000001
,
00000100
00000000
00000000
00000010
00000000
00000000
00001000
00000000
00000000
00000000
00000001
00000000
00000001
00000000
00000000
00000000
,
00001010
00000100
00000011
00000100
,
00001000
00000000
00000000
00000010
00000000
00000000
00010000
00000000
00000000
00000000
00001000
00000000
00001000
00000000
00000000
00000000
,
01001000
00100000
01010000
00100000
,
10000000
00000000
00000000
01000000
00000000
00000000
00010000
00000000
00000000
00000000
01000000
00000000
10000000
00000000
00000000
00000000
,
00110000
01000000
00110000
00001000
,
00010000
00000000
00000000
00001000
00000000
00000000
00000010
00000000
00000000
00000000
00000001
00000000
00000001
00000000
00000000
00000000
,
00000110
00000000
00000000
00000000
00001000
00000000
00000000
00000000
00000010
00000000
00000000
00000010
00000000
00000000
00000000
00000000
,
00001000
00000000
00000000
00001000
00000000
00000000
00000000
00000000
10000000
00000000
00000000
10000000
00000000
00000000
00000000
00000000
,
01000000
00000000
00000000
01000000
00000000
00000000
00000000
00000000
00001000
00000000
00000000
00001000
00000000
00000000
00000000
00000000
,
00010000
00000100
00010000
00001000
,
01000000
00001000
00010000
00000010
,
00010000
00000000
00000000
00000000
00001000
00000000
00000000
00000000
00100000
00000000
00000000
00100000
00000000
00000000
00000000
00000000
,
00001000
00000000
00000000
00000000
00010000
00000000
00000000
00000000
00000001
00000000
00000000
00001000
00000000
00000000
00000000
00000000
,
00000010
00000000
00000000
00000000
00010000
00000000
00000000
00000000
00100000
00000000
00000000
00100000
00000000
00000000
00000000
00000000
,
10000000
01000000
00100000
00010000
,
10000000
01000000
00100000
00001000
,
00010000
00000100
00001000
00000000
00000010
00000000
00001000
00000000
,
00000100
00000010
00000001
00000100
,
00000010
00001000
00000100
00000000
00000000
00000000
00001010
00000000
,
00000000
00000000
00000000
00000000
00000000
00000000
00000000
00000000
00001000
00000000
00000000
00000100
00000000
00000000
00010000
00000000
,
00000000
00001000
00001000
00000000
01001000
00000000
00010000
00000000
,
00110000
00000000
00000000
00000000
01000000
00000000
00000000
00000000
00100000
00000000
00000000
01000000
00000000
00000000
00010000
00000000
,
00000000
10000000
10000000
00000000
11000000
00000000
00100000
00000000
,
01010000
00000000
00000000
00000000
00100000
00000000
00000000
00000000
01000000
00000000
00000000
00001000
00000000
00000000
00010000
00000000
,
00000000
00000010
00000010
00000000
00001010
00000000
00000100
00000000
,
00000011
00000000
00000000
00000000
00000100
00000000
00000000
00000000
00000010
00000000
00000000
00001000
00000000
00000000
00000001
00000000
,
00000000
00000100
00000100
00000000
00001010
00000000
00010000
00000000
,
00011000
00001000
01000000
00001000
,
00010000
00000000
10000000
00000000
01000000
00010000
00100000
00000000
,
11000000
00100000
10010000
00100000
,
00101000
00000000
00010000
00000000
00001000
01000000
00010000
00000000
,
00100000
00000000
00000000
00001000
00000000
00000000
00010000
00000000
00010000
00000000
00000000
00000000
00001000
00000000
00000000
00000000
,
00000010
00000000
00000001
00000000
00000100
00000010
00001000
00000000
,
00001100
00010000
00011000
00000010
,
00001100
00000010
00000101
00000010
,
00000000
00000000
00001000
00000000
00000100
00001000
00000010
00000000
,
00010000
00001000
01000000
10000000
,
00100000
00000000
00000000
00100000
00000000
00000000
00000000
00000000
01000000
00000000
10000000
00000000
00100000
00000000
00000000
00000000
,
01000000
00001000
00010000
00000010
,
00000001
00000100
00001000
00000000
;

//---------------dance-double - M.Emirzian----------------
#NOTES:
     dance-double:
     M.Emirzian:
     Challenge:
     9:
     0.034,0.392,0.018,0.055,0.009,18.000,2.000,6.000,0.000,3.000,0.000:
00000000
00000000
00000000
00000000
,
00000000
00000000
00000000
00000000
,
00000000
00000000
00000000
00000000
,
10000000
00000000
10000000
00000000
10000000
00000000
10000000
10000000
10000000
00000000
10000000
10000000
00000000
00000000
00000000
00000000
,
00000000
00000000
00000000
00000000
,
00000000
00000000
00000000
00000000
,
00000000
00000000
00000000
00000000
,
00000000
00000000
00000000
00000000
,
20000000
02000000
33100000
20000000
,
02000000
33200000
00020000
11330000
,
10000000
00000000
00000000
00000000
,
00000000
00000000
00000000
00000000
,
00000000
00000000
00000000
00000000
,
00000000
00000000
00000000
00000000
,
00000000
00000000
00000000
00000000
,
00000000
00000000
00000000
00000000
,
00000000
00000000
00000000
00000000
,
00000000
00000000
00000000
00000000
,
00000000
00000000
00000000
00000000
,
00000000
00000000
00000000
00000000
,
00000000
00000000
00000000
00000000
,
00000000
00000000
00000000
00000000
,
00000000
00000000
00000000
00000000
,
00000000
00000000
00000000
00000000
,
00000000
00000000
00000000
00000000
,
00000000
00000000
00000000
00000000
,
00000000
00000000
00000000
00000000
,
00000000
00000000
00000000
00000000
,
00000000
00000000
00000000
00000000
,
00000000
00000000
00000000
00000000
,
00000000
00000000
00000000
00000000
,
00000000
00000000
00000000
00000000
,
00000000
00000000
00000000
00000000
,
00000000
00000000
00000000
00000000
,
00000000
00000000
00000000
00000000
,
00000000
00000000
00000000
00000000
,
00000000
00000000
00000000
00000000
,
00000000
00000000
00000000
00000000
,
00000000
00000000
00000000
00000000
,
00000000
00000000
00000000
00000000
,
00000000
00000000
00000000
00000000
,
00000000
00000000
00000000
00000000
,
00000000
00000000
00000000
00000000
,
00000000
00000000
00000000
00000000
,
00000000
00000000
00000000
00000000
,
00000000
00000000
00000000
00000000
,
00000000
00000000
00000000
00000000
,
00000000
00000000
00000000
00000000
,
00000000
00000000
00000000
00000000
,
00000000
00000000
00000000
00000000
,
00000000
00000000
00000000
00000000
,
00000000
00000000
00000000
00000000
,
00000000
00000000
00000000
00000000
,
00000000
00000000
00000000
00000000
,
00000000
00000000
00000000
00000000
,
00000000
00000000
00000000
00000000
,
00000000
00000000
10010000
00000000
;

//---------------dance-single - M.Emirzian----------------
#NOTES:
     dance-single:
     M.Emirzian:
     Easy:
     2:
     0.129,0.104,0.000,0.000,0.000,98.000,0.000,0.000,0.000,0.000,0.000:
0000
0000
0000
0000
,
0000
0000
0000
0000
,
0000
0000
0000
0000
,
0000
0000
0000
0000
,
0010
0000
0000
0000
,
1000
0000
0000
0000
,
0001
0000
0000
0000
,
0100
0000
0000
1000
,
0001
0000
0100
0000
,
0010
0000
1000
0000
,
0100
0000
0001
0000
,
1000
0000
0100
0000
,
0001
0000
0010
0000
,
1000
0000
0100
0000
,
1000
0000
0001
0000
,
0100
0000
0000
1000
,
0001
0000
0010
0000
,
1000
0000
0001
0000
,
0100
0000
0010
0000
,
0001
0000
1000
0000
,
0100
0000
0010
0000
,
0001
0000
0010
0000
,
1000
0000
0100
0000
,
0001
0000
1000
0000
,
0100
0000
0001
0000
,
1000
0000
0000
0000
,
0100
0000
0000
0000
,
0100
0000
0000
0000
,
0001
0000
0000
0000
,
1000
0000
0100
0000
,
0010
0000
1000
0000
,
0001
0000
0100
0000
,
0010
0000
1000
0000
,
0010
0000
0100
0000
,
0001
0000
1000
0000
,
0100
0000
0010
0000
,
0000
1000
0001
0000
,
0010
0000
1000
0000
,
0010
0000
0001
0000
,
1000
0000
0010
0000
,
0001
0000
1000
0000
,
0100
0000
0001
0000
,
0010
0000
1000
0000
,
0001
0000
0010
0000
,
0001
0000
1000
0000
,
0100
0000
0001
0000
,
1000
0000
0100
0000
,
0010
0000
0001
0000
,
0100
0000
1000
0000
,
0001
0000
0100
0000
,
1000
0000
0001
0000
,
0100
0000
0010
0000
,
0000
1000
0001
0000
,
1000
0000
0100
0000
,
0000
0000
0010
0000
,
0001
0000
1000
0000
,
0100
0000
0010
0000
;

//---------------dance-single - M.Emirzian----------------
#NOTES:
     dance-single:
     M.Emirzian:
     Medium:
     4:
     0.232,0.235,0.074,0.000,0.000,168.000,8.000,0.000,0.000,0.000,0.000:
0000
0000
0000
0000
,
0000
0000
0000
0000
,
0000
0000
0000
0000
,
0000
0000
0000
0000
,
1000
0000
0001
0000
,
1000
0000
0001
0000
,
0010
0000
1000
0000
,
0010
0000
0001
1000
,
0010
0100
0001
1000
,
0010
0000
0100
0000
0010
1000
0100
0000
,
0001
1000
0010
0000
,
1000
0001
0100
0000
,
0100
0001
1000
0010
,
0001
0000
0100
0000
0010
1000
0100
0000
,
0010
1000
0100
0010
,
0001
0000
0000
0001
,
1000
0000
0000
0011
0000
0000
0100
0000
,
0001
1000
0100
0010
,
1000
0000
0000
1100
0000
0000
0010
0000
,
0001
1000
0001
0010
,
0100
0000
0000
1001
0000
0000
0010
0000
,
0001
0010
1000
0001
,
0100
0000
0000
1010
0000
0000
0001
0000
,
0100
0000
0010
0010
,
0010
0000
0001
0000
,
1000
0000
0001
0000
,
1000
0000
0001
0000
,
1000
0000
0001
0000
,
1000
0000
0001
0000
,
0100
0000
0100
0000
,
0010
0000
0000
0000
1000
0001
0100
0000
,
1000
0000
0001
0000
,
0100
0100
0000
0100
,
0100
0000
0001
0001
,
0000
0010
0010
0001
,
1000
0100
0001
0000
0010
0000
0000
0000
,
0000
0000
1000
0000
0001
0000
0000
1100
,
0000
0100
0001
1000
,
0010
0000
0100
0000
1000
0000
0000
0011
,
0000
1000
0001
0010
,
0001
0000
1000
0000
0100
0000
0000
1001
,
0000
0010
0001
1000
,
0010
0000
0001
0000
0100
0000
0000
1100
,
0000
0001
0100
1000
,
0001
0000
1000
0100
,
0010
0001
1000
0010
,
0100
0000
0001
0000
1000
0100
0001
0000
,
0010
0010
0010
0000
,
1000
1000
0100
0100
,
0010
0010
0001
0100
,
1000
0000
0010
0000
0100
1000
0010
0000
,
0100
0001
0010
1000
,
0000
0001
0010
0000
,
1000
0000
0100
0000
,
0010
0010
0010
0000
,
0001
0000
1000
0000
,
0100
0100
0100
0000
;

//---------------dance-single - M.Emirzian----------------
#NOTES:
     dance-single:
     M.Emirzian:
     Hard:
     6:
     0.338,0.313,0.286,0.000,0.088,225.000,31.000,0.000,0.000,0.000,0.000:
0000
0000
0000
0000
,
0000
0000
0000
0000
,
0000
0000
0000
0000
,
0010
0000
0010
0000
,
0001
0100
1000
0010
,
0001
0000
1000
0001
,
0100
0000
0000
0010
0000
0000
0000
0001
,
0000
1000
0010
1001
,
0010
0100
1000
0001
,
0100
0010
1000
0000
0011
0000
1000
0000
,
1001
0100
0101
0010
,
0100
0000
0001
0000
0010
0000
0000
0000
0100
0000
0000
1000
0000
0000
0001
0000
,
0100
1000
0010
0001
,
1000
0100
0010
0000
0011
0000
1000
0000
,
1001
0010
0011
1000
,
1100
0010
0000
0001
,
0100
0000
0000
0010
0000
0000
1000
0000
0000
0000
0001
0000
0001
0000
0000
0000
,
1010
0100
0011
0100
,
1000
0000
0000
0010
0000
0000
0001
0000
0000
0000
1000
0000
1000
0000
0000
0000
,
1100
0010
0101
0010
,
1000
0000
0000
0100
0000
0000
0001
0000
0000
0000
0100
0000
1000
0000
0000
0000
,
0011
0100
0011
1000
,
0001
0000
0000
1000
0000
0000
0010
0000
0000
0000
0001
0000
0001
0000
0000
0000
,
0110
0000
0000
0000
1000
0000
0000
0000
0010
0000
0000
0010
0000
0000
0000
0000
,
1000
0000
0000
1000
0000
0000
0000
0000
1000
0000
0000
1000
0000
0000
0000
0000
,
0100
0000
0000
0100
0000
0000
0000
0000
1000
0000
0000
1000
0000
0000
0000
0000
,
0001
0100
0001
1000
,
0100
1000
0001
0010
,
0001
0000
0000
0000
1000
0000
0000
0000
0010
0000
0000
0010
0000
0000
0000
0000
,
1000
0000
0000
0000
0001
0000
0000
0000
0001
0000
0000
1000
0000
0000
0000
0000
,
0010
0000
0000
0000
0001
0000
0000
0000
0010
0000
0000
0010
0000
0000
0000
0000
,
1000
0100
0010
0001
,
1000
0100
0010
1000
,
0001
0100
1000
0000
0010
0000
1000
0000
,
0100
0010
0001
0100
,
0010
1000
0100
0000
0000
0000
1010
0000
,
0000
0000
0000
0000
0000
0000
0000
0000
1000
0000
0000
0100
0000
0000
0001
0000
,
0000
1000
1000
0000
1100
0000
0001
0000
,
0011
0000
0000
0000
0100
0000
0000
0000
0010
0000
0000
0100
0000
0000
0001
0000
,
0000
1000
1000
0000
1100
0000
0010
0000
,
0101
0000
0000
0000
0010
0000
0000
0000
0100
0000
0000
1000
0000
0000
0001
0000
,
0000
0010
0010
0000
1010
0000
0100
0000
,
0011
0000
0000
0000
0100
0000
0000
0000
0010
0000
0000
1000
0000
0000
0001
0000
,
0000
0100
0100
0000
1010
0000
0001
0000
,
1001
1000
0100
1000
,
0001
0000
1000
0000
0100
0001
0010
0000
,
1100
0010
1001
0010
,
1010
0000
0001
0000
1000
0100
0001
0000
,
0010
0000
0000
1000
0000
0000
0001
0000
0001
0000
0000
0000
1000
0000
0000
0000
,
0010
0000
0001
0000
0100
0010
1000
0000
,
1100
0001
1001
0010
,
1100
0010
0101
0010
,
0000
0000
1000
0000
0100
1000
0010
0000
,
0001
1000
0100
1000
,
0010
0000
0000
0010
0000
0000
0000
0000
0100
0000
1000
0000
0010
0000
0000
0000
,
0100
1000
0001
0010
,
0001
0100
1000
0000
;

//---------------dance-single - J. Bolt----------------
#NOTES:
     dance-single:
     J. Bolt:
     Edit:
     9:
     0.682,0.705,0.286,0.333,0.494,450.000,31.000,36.000,50.000,1.000,6.000:
0000
0000
0000
0000
,
0000
0000
0000
0000
,
0000
0000
0000
0000
,
1000
0000
1000
0000
1000
0000
0100
0010
0100
0000
0001
0001
0000
0000
0000
0000
,
1000
0000
1000
0000
1000
0000
0010
0100
0001
0000
0010
0100
0000
1000
0010
1000
,
0100
0000
0100
0000
0100
0000
0010
0001
0100
0000
0010
1000
0000
0100
1000
0001
,
0010
0000
0010
0000
0100
0000
0001
0010
0100
0000
1000
0010
0000
1000
0000
0000
,
0001
0010
0100
1000
0010
0100
0001
0001
,
2000
0000
0000
0000
0200
0000
0000
3000
0020
0000
0300
0000
0031
0000
2000
0000
,
0000
3000
0200
0000
0301
0010
1100
2000
,
0020
3000
0000
0000
0200
0030
0000
0000
0301
0000
0010
0000
0100
0000
1000
0000
,
0002
0000
0000
0000
0100
0003
0010
0000
1000
0000
0100
0000
1010
0000
0M0M
0000
,
0001
0000
0010
0000
0100
0000
1000
0010
0100
0000
0001
0010
0000
0100
0010
0001
,
0100
0000
0010
0000
1000
0000
0100
0010
0001
0000
0001
0100
0000
0010
0100
0010
,
1000
0000
0100
1000
0100
0000
0010
0001
0010
0000
0010
0100
0000
0001
1000
0010
,
1000
0000
0100
0000
0010
0000
0001
0010
0100
0000
1010
0000
1100
0000
0011
0000
,
0002
0000
0103
0010
2000
0000
3100
0010
,
0001
0000
0100
0000
0010
0000
1000
0000
0100
0000
0010
0002
0000
0000
0103
0000
,
0001
0000
1000
0010
1000
0000
0100
0010
0001
0000
0100
0010
1000
0000
0100
0010
,
0001
0000
0100
0010
0100
0000
0001
0000
1000
0000
0010
0100
0000
0000
MMMM
0000
,
0001
0000
0010
0100
1000
0000
0100
1000
0001
0000
0010
0001
0010
0000
0100
1000
,
0010
0000
0100
0001
0100
0000
1000
0000
0100
0000
0001
0010
0000
0000
MMMM
0000
,
1000
0000
0001
0010
0100
0000
0010
0001
1000
0000
0010
0100
0001
0000
0010
0000
,
0010
0100
1000
0001
0010
0100
0010
0001
0100
0010
1000
0100
0010
0001
0100
0010
,
2000
0000
0000
0000
3200
0000
0000
0000
0320
0000
0000
0032
0000
0000
0103
0000
,
0020
0000
0000
0000
2030
0000
0000
0000
3100
0000
0010
0002
0000
0000
0103
0000
,
0101
0000
0MM0
0000
1010
0000
M00M
0000
1100
0000
0MM0
0011
M00M
0000
MMMM
0000
,
1010
M0M0
0110
0MM0
0101
0M1M
1100
MM00
,
0011
00MM
0110
0MM0
1100
MM00
0011
00MM
,
0110
0000
0MM0
0000
1MM1
0000
0100
0000
0010
0000
0001
0100
0000
0000
1010
0000
,
1100
0001
0110
0001
0110
0100
1010
0010
,
0101
0100
0110
0001
1010
0100
0110
0000
,
1001
0000
0100
0010
0001
0000
0010
0100
1000
0000
0010
0100
0001
0000
0010
0000
,
0100
0000
1000
0000
0010
0000
0100
0001
0010
0000
0100
1000
0000
0010
0100
0001
,
0010
0000
0100
1000
0010
0000
0100
0001
1000
0000
0010
0100
0001
0000
0010
0100
,
1000
0010
0100
0001
0010
0000
2000
0200
,
0000
0000
0011
3300
MM04
0000
0M00
0003
,
040M
0000
0000
0300
0M40
0000
0000
0031
,
1000
0000
0020
0100
0000
0030
1000
0000
0004
0000
0000
0000
0000
0000
0003
0000
,
040M
0000
0000
0300
4M00
0000
0000
3010
,
M100
0000
0020
0001
0000
0030
0001
0000
0100
0000
0010
1000
0100
0000
0010
0001
,
0100
0000
1000
0100
0010
0000
0100
0001
1000
0000
0100
0010
1000
0000
0010
0000
,
0001
0000
0020
1000
0030
0000
0010
0001
0010
0000
1000
0010
0001
0000
0100
0010
,
0001
0100
1000
0001
0010
0000
0100
0001
1000
0000
0100
0010
0000
0000
0010
0000
,
0001
0000
0100
0020
0000
0000
1030
0000
0200
0000
0000
0000
0310
0000
0002
0000
,
0200
0003
0000
0000
0310
0000
1000
0000
0002
0000
0000
0000
0103
0000
0010
0100
,
0001
0000
1000
0100
0000
0010
0001
0000
0002
0000
0100
0000
0103
0000
1000
0000
,
1000
0000
0010
0000
0010
0000
0001
0000
0100
0000
0100
0010
0001
0000
1000
1000
,
0010
0100
0001
0010
0100
0000
1000
0000
0001
0000
1000
0010
0100
0000
0001
0010
,
0100
0000
0010
0001
0000
1000
0010
0100
0001
0000
0001
0100
0010
0000
0010
1000
,
0100
0000
1000
0010
0000
0100
0001
0010
0100
1000
0001
0100
0010
1000
0001
0000
,
0010
0100
0010
0001
0100
0010
1000
0000
0001
0000
0010
0000
0100
0000
1000
0000
,
0010
0100
0001
0010
0200
0000
1300
0020
,
0200
0030
0000
0000
0301
0000
0010
0000
0200
0000
0000
0000
1300
0000
0001
0000
,
0100
0000
1000
0000
0010
0000
0001
0000
0200
0000
0000
0300
1000
0000
0100
0000
,
0020
0000
0000
0000
0031
0000
0010
0000
0100
0000
1000
0000
0001
0000
0010
1000
,
0100
0000
0100
0001
0000
0000
1000
0000
1001
0000
0000
0000
0000
0000
0000
0000
;

//---------------dance-single - S. Bauer----------------
#NOTES:
     dance-single:
     S. Bauer:
     Beginner:
     1:
     0.125,0.131,0.102,0.000,0.000,84.000,11.000,0.000,0.000,0.000,0.000:
0000
0000
0000
0000
,
0000
0000
0000
0000
,
0000
0000
0000
0000
,
0000
0000
0000
0000
,
0010
0000
0000
0000
,
1000
0000
0000
0000
,
0001
0000
0000
0000
,
0100
0000
0000
0000
,
0001
0000
0000
0000
,
0010
0000
0000
0000
,
0100
0000
0000
0000
,
1000
0000
0000
0000
,
0001
0000
0000
0000
,
1000
0000
0000
0000
,
1000
0000
0000
0000
,
0100
0000
0000
0010
,
0100
0000
0000
0000
,
1000
0000
1001
0000
,
0100
0000
0010
0000
,
1001
0000
0000
0000
,
0100
0000
0100
0000
,
0101
0000
1000
0000
,
1000
0000
1000
0000
,
1001
0000
1000
0000
,
0100
0000
1000
0000
,
0100
0000
0000
0000
,
0110
0000
0000
0000
,
0110
0000
0000
0000
,
0010
0000
0000
0000
,
0010
0000
0100
0000
,
0010
0000
0001
0000
,
0001
0000
0110
0000
,
1000
0000
1000
0000
,
0010
0000
0100
0000
,
0001
0000
0100
0000
,
0100
0000
0100
0000
,
0000
1000
1000
0000
,
0100
0000
0001
0000
,
0000
0000
0001
0000
,
1000
0000
0000
0000
,
0001
0000
0000
0000
,
0100
0000
0010
0000
,
0010
0000
0010
0000
,
0001
0000
1000
0000
,
0001
0000
0100
0000
,
0101
0000
0001
0000
,
1000
0000
0100
0000
,
0010
0000
0001
0000
,
0110
0000
1000
0000
,
0001
0000
0010
0000
,
0100
0000
1000
0000
,
0100
0000
0010
0000
,
0000
1000
0000
0000
,
0001
0000
0100
0000
,
0000
0000
0010
0000
,
0001
0000
1001
0000
,
0100
0000
0110
0000
;

//---------------dance-single - N. Colley----------------
#NOTES:
     dance-single:
     N. Colley:
     Challenge:
     9:
     0.614,0.522,0.055,0.379,0.578,418.000,6.000,41.000,5.000,0.000,6.000: // measure 1
0000
0000
0000
0000
,  // measure 2
0000
0000
0000
0000
,  // measure 3
0000
0000
0000
0000
,  // measure 4
0000
0000
0000
0000
,  // measure 5
0100
0000
0000
0100
0001
0000
0000
0001
0010
0000
0000
0010
1000
0000
0000
1000
,  // measure 6
0100
0000
0000
0100
1000
0000
0000
1000
0010
0000
0000
0010
0001
0000
0000
0001
,  // measure 7
0200
0320
2030
3020
,  // measure 8
2030
0000
3200
0000
2000
3300
0011
MM00
,  // measure 9
1000
0000
0100
0000
1000
0000
0010
0000
0100
0000
0001
0010
0000
0100
0000
0010
,  // measure 10
0000
0000
0001
0000
0100
0000
1000
0000
0100
0000
0001
1000
0000
0000
0100
0000
,  // measure 11
1000
0000
0010
0000
0100
0000
0001
0000
0010
0000
1000
0010
0000
0001
0000
0100
,  // measure 12
0000
0000
0010
1000
0100
0000
1000
0000
0010
0000
0100
0010
0000
1000
0010
0100
,  // measure 13
0001
0000
0010
0000
0100
0000
0010
0000
0001
0000
0100
0010
0000
1000
0000
0010
,  // measure 14
0000
0000
0100
0001
0010
0000
0100
0000
0010
0000
0001
0100
0000
0010
1000
0100
,  // measure 15
1000
0000
0010
0000
0100
0000
0001
0000
0010
0000
1000
0010
0000
0001
0000
0100
,  // measure 16
0000
0000
0010
0000
1000
0000
0100
0000
1000
0000
0010
0100
0000
0001
0010
0001
,  // measure 17
0200
0000
0000
0000
0000
0000
0310
0000
1000
0100
0010
0100
1000
0000
0010
0000
,  // measure 18
0100
0000
0100
0020
0000
0000
1030
0000
0100
0000
0100
0020
0000
0000
0031
0000
,  // measure 19
0200
0000
0000
0000
0000
0000
0310
0000
1000
0010
0100
0010
1000
0000
0001
0000
,  // measure 20
0010
0000
0100
0020
0000
0000
0031
0000
0100
0000
0010
0200
0000
0000
0301
0000
,  // measure 21
0020
0000
0000
2030
0000
0000
3002
0000
0000
0203
0000
0000
1300
0000
0010
0000
,  // measure 22
0100
0000
0001
0010
0000
0100
0010
0000
0001
0000
0100
0010
0000
0100
0001
0000
,  // measure 23
0020
0000
0000
0032
0000
0000
0203
0000
0000
2300
0000
0000
3001
0000
0010
0000
,  // measure 24
1000
0000
0100
1000
0000
0010
1000
0000
0100
0000
0010
0001
0000
0100
0001
0000
,  // measure 25
0040
0000
0000
0000
0130
0000
0000
0000
0010
0000
0001
0100
0000
0001
0010
0100
,  // measure 26
0010
0000
0001
0000
0100
0000
1000
0100
0010
0000
0100
0001
0000
1000
0100
0010
,  // measure 27
0400
0000
0000
0000
0310
0000
0000
0000
0001
0000
0100
0010
0000
0100
0001
1000
,  // measure 28
0100
0000
0010
0000
0100
1000
0000
1000
0100
0000
0010
0000
0001
0000
0100
0000
,  // measure 29
0020
2030
3200
0302
,  // measure 30
0023
0032
0203
2300
,  // measure 31
3040
0430
0304
4003
,  // measure 32
3100
0010
0001
0010
0100
1000
0100
0010
,  // measure 33
0001
0000
0000
0001
0100
0000
0000
0100
1000
0000
0000
1000
0100
0000
0000
0100
,  // measure 34
0001
0010
0100
1000
0010
1000
0100
0010
,  // measure 35
0001
0100
0010
1000
0100
0010
0001
0100
,  // measure 36
0110
1010
0011
1002
,  // measure 37
M000
0000
0M00
0000
0103
0000
0010
0100
,  // measure 38
0001
0010
0100
0010
0001
0000
0100
0000
0010
0000
1000
0200
0000
0000
0310
0000
,  // measure 39
0001
0000
0100
0020
0000
0000
1030
0000
0001
0000
0000
0000
1000
0000
0010
0000
,  // measure 40
0100
0010
1000
0010
0100
0000
0001
0000
0010
0000
0100
0010
0000
0001
0100
0000
,  // measure 41
0010
0000
1000
0100
0000
0010
0100
0000
1000
0000
0000
0000
0010
0000
0100
0000
,  // measure 42
0001
0010
0100
0010
0001
0000
0100
0000
0010
0000
1000
0200
0000
0000
0310
0000
,  // measure 43
0001
0000
0100
0020
0000
0000
1030
0000
0001
0000
0000
0000
0010
0000
0100
0000
,  // measure 44
0010
0001
0010
0100
0010
0000
0001
0000
0100
0000
1000
0100
0000
0001
0100
0000
,  // measure 45
0010
0000
1000
0100
0000
0001
0100
0000
1000
0000
0010
0000
0100
0000
0001
0000
,  // measure 46
0100
0000
0001
0010
0000
0100
0000
0010
0000
0000
0001
0100
0010
0000
0100
0000
,  // measure 47
0001
0000
1000
0100
0000
0010
0100
1000
0100
0000
0010
0000
0001
0000
0100
0000
,  // measure 48
1000
0000
0100
0001
0000
1000
0000
0100
0000
0000
0010
0100
1000
0000
0010
1000
,  // measure 49
0100
0000
0010
0001
0000
0100
0001
0010
0100
0000
0010
0000
0001
0000
0100
0000
,  // measure 50
0010
0000
1000
0010
0000
0100
0000
0010
0000
0000
0100
0001
0010
0000
0100
0000
,  // measure 51
0010
0000
0001
0010
0000
0100
0010
0001
0010
0000
0100
0000
1000
0000
0010
0000
,  // measure 52
0100
0000
0001
0010
0000
0100
0000
0010
0000
0000
0001
0000
0100
0000
0010
0100
,  // measure 53
0001
0000
0010
0100
0000
1000
0100
0010
0100
0000
0000
0100
1000
0000
0000
1000
,  // measure 54
0010
0000
0000
0010
0001
0000
0000
0001
1000
0000
0000
1000
0100
0000
0000
0100
,  // measure 55
0001
0000
0000
0001
1000
0000
0000
1000
0200
0000
0000
0000
0320
0000
0000
0000
,  // measure 56
0032
0203
2300
3020
,  // measure 57
0230
0301
1M01
0000
;
