#TITLE:Ra;
#SUBTITLE:;
#ARTIST:Banzai;
#TITLETRANSLIT:;
#SUBTITLETRANSLIT:;
#ARTISTTRANSLIT:;
#GENRE:Techno;
#CREDIT:;
#BANNER:Ra-bn.png;
#BACKGROUND:Ra-bg.png;
#LYRICSPATH:;
#CDTITLE:;
#MUSIC:Ra.ogg;
#OFFSET:-0.957;
#SAMPLESTART:62.388
#SAMPLELENGTH:15.300;
#SELECTABLE:YES;
#OFFSET:-0.957;
#BPMS:0.000=125.000;
#STOPS:;
#BGCHANGES:-1.625=Ra.mpg=1.000=1=0=0=StretchNoLoop==CrossFade==,
99999=-nosongbg-=1.000=0=0=0 // don't automatically add -songbackground-;
#KEYSOUNDS:;

//---------------dance-single - J. Carroll----------------
#NOTES:
     dance-single:
     J. Carroll:
     Beginner:
     2:
     0.150,0.198,0.093,0.000,0.000:
0000
0000
0000
0000
,
0000
0000
0000
0000
,
1000
0000
0001
0000
,
0100
0000
0010
0000
,
1001
0000
0010
0000
,
0100
0000
0010
0000
,
1001
0000
0100
0000
,
0110
0000
0010
0000
,
1001
0000
0001
0000
,
1000
0000
0001
0000
,
1001
0000
1000
0000
,
0001
0000
1000
0000
,
0010
0000
0100
0000
,
0001
0000
0100
0000
,
0010
0000
0100
0000
,
1000
0000
0100
0000
,
0010
0000
1000
0000
,
0100
0000
0010
0000
,
0010
0000
0001
0000
,
0100
0000
0010
0000
,
1000
0000
0100
0000
,
0001
0000
0100
0000
,
1000
0000
0010
0000
,
0001
0000
0010
0000
,
0100
0000
1000
0000
,
0010
0000
0100
0000
,
0100
0000
0001
0000
,
0010
0000
0100
0000
,
1001
0000
1000
0000
,
0010
0000
0100
0000
,
1001
0000
0001
0000
,
0010
0000
0100
0000
,
1000
0000
1000
0000
,
1000
0000
1000
0000
,
0001
0000
0001
0000
,
0001
0000
0001
0000
,
0100
0000
0010
0000
,
0100
0000
0010
0000
,
1000
0000
0001
0000
,
1000
0000
0100
0000
,
0110
0000
0001
0000
,
0010
0000
0001
0000
,
0100
0000
0010
0000
,
0100
0000
0001
0000
,
1000
0000
0100
0000
,
0001
0000
0100
0000
,
0010
0000
0001
0000
,
0100
0000
0010
0000
,
1001
0000
0000
0000
;

//---------------dance-single - J. Carroll----------------
#NOTES:
     dance-single:
     J. Carroll:
     Easy:
     4:
     0.306,0.327,0.134,0.227,0.000:
0000
0000
0000
0000
,
0000
0000
0000
0000
,
1000
0100
0010
0100
,
1000
0010
0100
0001
,
1001
0000
0100
0001
,
0010
1000
0100
1000
,
1001
0000
0100
1000
,
0001
0010
0100
0010
,
1001
0100
0010
1000
,
1001
1000
0010
0100
,
1001
0001
0100
0010
,
0220
0000
0000
0330
,
1000
0100
0001
0100
,
1000
0020
0200
0330
,
0001
0100
0010
0100
,
0001
2000
0020
3030
,
0100
0001
1000
0001
,
0010
0200
2000
3300
,
0100
0010
0001
0100
,
0010
0200
0002
0303
,
1000
0100
0010
0001
,
0100
0010
1000
1001
,
0001
0010
0100
1000
,
0010
0100
0001
1001
,
0010
0001
0100
1000
,
0100
0001
0010
0110
,
1000
0010
0100
0010
,
0001
0010
0110
1001
,
1000
0001
0010
0001
,
1000
1000
0010
1000
,
0001
0100
0010
0100
,
2002
0000
0000
3003
,
2000
0100
0001
0100
,
0001
0010
0001
3100
,
0002
1000
2003
0100
,
3200
0010
0320
0001
,
0032
0100
1000
0100
,
0010
0100
0010
1000
,
1003
0010
0100
0001
,
0010
0001
1000
0100
,
0020
0100
0001
0001
,
0100
0001
0130
0010
,
0001
0100
0010
0100
,
0001
1000
0010
0100
,
0020
1000
0100
1000
,
0100
0100
1000
0130
,
1000
0100
1000
0001
,
0100
0010
1000
0100
,
2002
0000
0000
3003
;

//---------------dance-single - J. Carroll----------------
#NOTES:
     dance-single:
     J. Carroll:
     Medium:
     7:
     0.454,0.428,0.134,0.258,0.000: // measure 1
0000
0000
0000
0000
,  // measure 2
0000
0000
0000
0000
0000
0000
0000
0010
,  // measure 3
1000
0000
0001
0000
0100
0000
0010
0100
,  // measure 4
0001
0000
0010
0000
0100
0000
1000
0001
,  // measure 5
0100
0001
0100
1000
,  // measure 6
0010
0000
0100
0000
1000
0000
0010
1000
,  // measure 7
0001
0000
1000
0000
1000
0100
0010
0100
,  // measure 8
1000
0000
0010
0100
0001
0000
1000
0100
,  // measure 9
0010
0100
1000
0010
,  // measure 10
0101
0100
0001
0010
,  // measure 11
1100
1000
0010
0100
,  // measure 12
2002
0000
0000
0000
0000
0000
3003
M00M
,  // measure 13
1000
0100
1000
0100
0010
0001
0010
0001
,  // measure 14
0100
0010
0100
0010
1000
0000
1001
0000
,  // measure 15
0001
0100
0001
0100
1000
0100
1000
0100
,  // measure 16
0001
0100
0001
0100
0010
0000
0110
0000
,  // measure 17
0010
1000
0100
0010
0001
0010
0100
1000
,  // measure 18
0010
0100
0001
0100
0010
0000
1001
0000
,  // measure 19
0100
1000
0001
1000
0100
0010
0001
1000
,  // measure 20
0001
0010
0100
1000
0001
0000
0110
0000
,  // measure 21
0001
0100
0010
1000
0100
0010
0001
0100
,  // measure 22
0010
1000
0100
0010
0001
0000
0101
0000
,  // measure 23
0001
0010
0100
1000
0010
0100
0001
0010
,  // measure 24
0100
1000
0010
0100
0001
0000
0011
0000
,  // measure 25
1000
0100
0001
0100
1000
0001
1000
0100
,  // measure 26
0010
0001
0010
0100
0010
0000
1100
0000
,  // measure 27
0010
0001
1000
0001
0100
0010
0100
0001
,  // measure 28
1000
0001
0010
0100
1000
0010
1000
0001
,  // measure 29
0100
0000
0010
1000
0010
0000
0101
0000
,  // measure 30
0001
0000
0010
0001
0010
0000
1100
0000
,  // measure 31
1000
0000
0001
0100
0001
0000
1000
0100
,  // measure 32
2000
0000
0001
0000
0100
0000
3010
0001
,  // measure 33
2000
3200
0320
0032
,  // measure 34
0203
2300
3200
0320
,  // measure 35
2030
0000
0100
0000
0001
0000
3010
M000
,  // measure 36
0002
0000
0100
0000
1000
0000
0013
000M
,  // measure 37
2000
3020
0230
0302
,  // measure 38
0023
0230
2300
3002
,  // measure 39
0203
0000
0010
0000
1000
0000
0301
0M00
,  // measure 40
0020
0000
0100
0000
1000
0000
0001
0030
,  // measure 41
0100
0001
0100
0010
1000
0100
1000
0000
,  // measure 42
0010
0100
0001
0010
0001
0100
0010
0000
,  // measure 43
1000
0100
0010
0100
1000
0001
0010
0000
,  // measure 44
0001
0100
0001
1000
0010
0100
0001
0000
,  // measure 45
1000
0100
0001
0100
1000
0010
0100
0000
,  // measure 46
0010
0100
0001
0100
1000
0100
0001
0000
,  // measure 47
1000
0100
0001
1000
0001
0100
1000
0010
,  // measure 48
0001
1000
0001
0010
1000
0100
0001
0000
,  // measure 49
2002
0000
0000
0000
0000
0000
3003
M00M
;

//---------------dance-single - J. Carroll----------------
#NOTES:
     dance-single:
     J. Carroll:
     Hard:
     9:
     0.570,0.504,0.309,0.155,0.284,342.000,30.000,15.000,13.000,0.000,2.000,0.570,0.504,0.309,0.155,0.284,342.000,30.000,15.000,13.000,0.000,2.000: // measure 1
0000
0000
0000
0000
,  // measure 2
0000
0000
0000
0000
0000
0000
0000
1001
,  // measure 3
0110
0000
0000
0000
0010
0000
0000
0000
0100
0000
0000
0010
0000
0000
0001
0000
,  // measure 4
1000
0000
0000
0000
0010
0000
0000
0000
0100
0000
0000
0001
0000
0000
1000
0000
,  // measure 5
1100
0000
0000
0000
0010
0000
0000
0000
0001
0000
0000
0100
0000
0000
0001
0000
,  // measure 6
0010
0000
0000
0000
1000
0000
0000
0000
0100
0000
0000
1000
0000
0000
0011
0000
,  // measure 7
1100
0000
0000
0000
1000
0000
0000
0000
0100
0000
0000
0001
0000
0000
0010
0000
,  // measure 8
0100
0000
0010
0100
1000
0100
0010
0001
,  // measure 9
1001
0000
0000
0000
0001
0000
0100
0000
0001
0000
0000
0011
0000
0000
1001
0000
,  // measure 10
0000
0000
0000
0000
1000
0000
0010
0000
0100
0000
0000
1010
0000
0000
0110
0000
,  // measure 11
0000
0000
0000
0000
1000
0000
0100
0000
1000
0000
0000
1010
0000
0000
0110
0000
,  // measure 12
0004
0000
0000
0000
0000
0000
0000
0003
,  // measure 13
100M
0000
0100
0000
1000
0000
0010
0100
0000
0002
0000
0000
0103
0000
0010
0000
,  // measure 14
0100
0000
0001
0000
0010
0000
0001
2000
0000
0000
3010
0000
1010
0000
0000
0000
,  // measure 15
0100
0000
0001
0000
0100
0000
0010
1000
0000
0200
0000
0000
0310
0000
0001
0000
,  // measure 16
0100
0000
0001
0000
0010
0000
0100
2000
0000
0000
3100
0000
1100
0000
0000
0000
,  // measure 17
0001
0100
0010
0000
1000
0000
0100
1000
0000
1000
0010
0000
0001
0000
0100
0000
,  // measure 18
1000
0000
0100
0000
0010
0000
1000
0200
0000
0000
0310
0000
0011
0000
0000
0000
,  // measure 19
1000
0000
0100
0000
0001
0000
0100
2000
0000
0000
3010
0000
1000
0000
0100
0020
,  // measure 20
0000
0000
0130
0000
0001
0000
0100
2000
0000
0000
3001
0000
1001
0000
0001
0000
,  // measure 21
1000
0100
1000
0000
0010
0000
0010
0100
0000
0001
0000
0001
0010
0000
0100
0000
,  // measure 22
1000
0000
0001
0000
0100
0000
0010
0100
0000
0000
0010
0000
1001
0000
0000
0000
,  // measure 23
0001
0010
0001
0000
1000
0000
0010
0001
0000
0100
0000
1000
0100
0000
0010
0000
,  // measure 24
1000
0000
0001
0000
1000
0000
0100
0010
0000
0000
0001
0000
1100
0000
0000
0000
,  // measure 25
0010
0001
0010
0000
0100
0000
1000
0001
0000
1000
0000
0100
0001
0000
0010
0000
,  // measure 26
1000
0000
0001
0000
0100
0000
1000
0001
0000
0000
0100
0000
0110
0000
0000
0000
,  // measure 27
0100
0000
0010
0000
0001
0000
0010
0200
0000
0000
1300
0000
0010
0000
1000
0100
,  // measure 28
0000
0100
0001
0000
0100
0000
0010
0000
1001
0000
0000
0000
1001
0000
0100
0000
,  // measure 29
0010
0000
1000
0000
0001
0000
1000
0000
0010
0000
0000
0101
0000
0000
1001
0000
,  // measure 30
M00M
0000
0000
0000
0001
0000
0100
0000
1000
0000
0000
1100
0000
0000
0110
0000
,  // measure 31
0MM0
0000
0000
0000
0010
0000
0100
0000
0001
0000
0000
1010
0000
0000
0101
0000
,  // measure 32
4M0M
0000
0000
0000
0010
0000
0000
0000
0001
0000
0000
0000
0100
0000
3000
0001
,  // measure 33
1000
0000
0100
0000
0010
0000
0001
0000
0100
0000
0010
0000
0100
0000
0001
0010
,  // measure 34
0001
0000
1000
0000
0100
0000
0010
0000
0100
0000
1000
0000
0010
0000
0100
0001
,  // measure 35
0100
0000
0010
0000
1000
0000
0100
1000
0100
0000
0010
0000
0100
0000
0010
0001
,  // measure 36
0010
0001
0100
1000
0100
0001
0011
0000
,  // measure 37
1010
0000
0010
0000
0100
0000
0001
0000
0010
0000
0001
0000
0100
0000
0010
1000
,  // measure 38
0010
0000
1000
0000
0100
0000
0001
0000
0100
0000
1000
0000
0001
0000
0010
0001
,  // measure 39
0010
0000
0100
0000
1000
0000
0010
0100
0010
0000
0100
0000
0001
0000
1000
0001
,  // measure 40
1000
0000
0100
0000
1000
0000
0001
0010
0001
0000
0010
0000
0100
0000
1000
0000
,  // measure 41
0002
0000
0100
0000
0010
0000
0100
0000
1000
0000
0100
0000
0010
0000
0103
0010
,  // measure 42
200M
0000
0010
0000
0100
0000
0010
0000
0001
0000
0010
0000
0100
0000
3001
0010
,  // measure 43
M200
0000
0001
0000
0010
0000
0001
0000
1000
0000
0001
0000
0010
0000
0301
1000
,  // measure 44
0M20
0100
1000
0100
0001
0100
1000
0130
,  // measure 45
00M1
0010
1000
0010
0001
0100
0010
0100
,  // measure 46
0001
0010
1000
0001
0100
1000
0010
1000
,  // measure 47
0100
0001
0100
1000
0010
0001
0010
1000
,  // measure 48
0100
0010
0100
0001
1000
0001
0100
0010
,  // measure 49
2002
0000
0000
0000
0000
0000
3003
M00M
;

//---------------dance-single - J. Frederick + J. Bolt----------------
#NOTES:
     dance-single:
     J. Frederick + J. Bolt:
     Challenge:
     10:
     0.739,0.050,0.245,0.184,0.877:
0000
0000
0000
0000
,
0000
0000
0000
0000
0000
0000
0000
1001
,
0110
0000
0000
1000
0100
0000
0010
0000
0001
0100
0000
0100
0001
0000
1000
0000
,
0010
0000
0000
0100
0010
0000
1000
0000
0100
0010
0000
0010
0001
0000
0100
0000
,
1001
0000
0000
0100
0010
0000
1000
0000
0010
0100
0000
0100
0001
0000
0010
0000
,
0100
0000
0000
1000
0100
0000
0010
0000
0001
0100
0000
0100
0001
0000
1001
0000
,
0110
0000
0000
1000
0010
0000
0100
0000
0001
0010
0000
0010
0100
0000
1000
0000
,
0100
0000
0000
0010
0001
0000
0001
0000
0101
0000
1010
0000
0101
0000
0110
0000
,
1001
0000
0001
0100
0000
0100
0010
0000
1000
0100
0000
0100
0010
0000
0001
0000
,
0100
0000
0001
1000
0000
1000
0010
0000
0001
0010
0000
0010
1000
0000
0100
0000
,
0010
0000
0001
0010
0000
0010
1000
0000
0010
0001
0000
0001
0100
0000
0010
0000
,
2020
0000
0000
0000
0000
0000
0000
0000
3030
0100
0001
0000
0010
0000
0100
0000
,
1000
0100
1000
0000
0100
0000
0010
0001
0000
0100
0000
0000
0001
0000
1000
0000
,
0001
0000
0100
0000
0010
0000
2000
0200
0000
0000
0000
0000
0011
0000
3300
0000
,
0100
0001
1000
0000
0001
0000
0100
0010
0000
1000
0000
0000
0010
0000
0100
0000
,
0001
0010
0100
0002
0020
0000
1100
0033
,
0100
0001
1000
0000
0001
0000
0100
0010
0000
0000
1000
0010
0001
0000
0010
0000
,
1000
0000
0100
0000
0010
0000
0002
0200
0000
0000
0000
0000
1010
0000
0303
0000
,
0100
0001
0010
0000
0100
0000
1000
0100
0000
0000
0010
0001
0100
0000
0001
1000
,
0000
0000
0010
0000
0100
0000
0010
0001
0000
0000
0000
0000
0000
0100
0010
0001
,
0010
0100
1000
0000
0100
0000
0010
0001
0000
0100
0000
0000
0001
0000
1000
0000
,
0010
0000
0001
0000
0010
0000
2000
0200
0000
0000
0000
0000
0011
0000
3300
0000
,
0010
0001
0100
0000
0001
0000
1000
0001
0000
0100
0000
0000
0010
0000
1000
0000
,
0100
0000
0010
0000
0001
0000
0200
0020
0000
0000
0000
0000
1001
0000
1331
0000
,
1000
0001
0010
0000
0100
0000
1000
0100
0000
0000
0010
0001
0100
0000
0001
1000
,
0000
0000
0010
0000
0100
0000
0020
2000
0000
0000
0000
0000
0101
0000
3030
0000
,
1000
0100
0010
0000
0001
0000
0100
0001
0000
0000
1000
0001
1000
0000
0001
0000
,
0010
0100
1000
0000
1000
0000
0100
0000
1011
0000
0000
0000
1101
0000
1000
0000
,
0110
0000
1000
0010
0000
0010
0100
0000
0001
0010
0000
0010
0100
0000
1000
0000
,
0010
0000
0001
0010
0000
0010
1000
0000
0100
0010
0000
0010
0001
0000
0100
0000
,
0001
0000
1000
0010
0000
0010
0100
0000
0001
0010
0000
0010
0100
0000
1000
0000
,
2200
0000
0000
0000
0000
0000
0000
0000
0000
0010
3301
0000
0100
0000
0001
0000
,
1000
0010
0100
0010
0001
0010
1000
0100
0010
0001
0010
0100
0010
0100
1000
0100
,
0010
0001
0100
0001
1000
0001
0100
0010
0001
0010
0100
0010
1000
0100
0010
0001
,
0010
0000
0100
0000
1000
0000
0100
0010
0000
0010
0001
0000
0100
0001
0000
0001
,
1000
0000
0010
0000
0100
0000
0010
0001
0000
0001
0010
0000
1000
0100
0000
0100
,
0010
0001
0100
0001
1000
0010
0100
0010
0001
0010
0100
0010
1000
0100
0010
0001
,
0010
0100
1000
0100
0010
0001
0010
0100
1000
0010
0100
0010
0001
0010
0100
0010
,
1000
0000
0100
0000
0010
0000
0001
1000
0000
1000
0100
0000
0010
0001
0000
0001
,
0100
0000
0001
0000
1000
0000
0010
0001
0000
0001
0010
0000
1000
0100
0000
0100
,
0010
0100
0010
0001
1000
0001
0100
0010
1000
0010
0100
0010
1000
0001
0010
0100
,
1000
0100
0010
0001
0100
0001
1000
0010
0100
0010
0001
0010
0100
0010
0100
1000
,
0010
0000
0001
0000
0100
0000
0001
1000
0000
1000
0010
0000
0100
0001
0000
0001
,
0010
0000
0100
0000
1000
0000
0100
0010
0000
0010
0001
0000
0001
0100
0000
0100
,
1000
0010
0100
0010
0001
0010
1000
0100
0010
0001
0010
0100
0010
0100
1000
0100
,
0010
0001
0100
0001
1000
0001
0100
0010
0001
0010
0100
0010
1000
0100
0010
0001
,
0010
0000
0001
0000
0100
0000
0001
1000
0000
1000
0001
0000
0010
0100
0000
0100
,
1000
0000
0000
0000
0100
0000
0000
0000
0010
0000
0000
0000
0001
0000
0000
0000
0100
0000
0000
0000
0001
0010
0001
0010
0001
0000
0000
0000
1100
0000
0000
0000
,
2002
0000
0000
0000
,
3003
0000
0000
0000
;

//---------------dance-double - O. Ramirez----------------
#NOTES:
     dance-double:
     O. Ramirez:
     Edit:
     10:
     0.530,0.000,0.083,0.331,0.424:
00000000
00000000
00000000
00000000
,
00000000
00000000
00000000
00000000
,
00000000
00000000
00000000
00000000
,
00000000
00000000
00000000
00000000
,
00000000
00000000
10000000
00000000
00000000
01000000
00000000
00000000
00200000
00000000
00000000
00020000
00000000
00000000
00331000
00000000
,
00000000
00000000
00100000
00000000
00000000
00001000
00000000
00000000
00020000
00000000
00000000
00000020
00000000
00000000
00031030
00000000
,
00000000
00000000
00000010
00000000
00000000
00000100
00000000
00000000
00000002
00000000
00000000
00002000
00000000
00000000
00003013
00000000
,
00000000
00000000
00000001
00000000
00000000
00000100
00000000
00000000
00001000
00000000
00010000
00000000
00100000
00000000
00100000
00000000
,
10000000
00000000
10000000
00100000
00000000
00100000
10000000
00000000
00010000
00000000
00000000
01000000
00000000
00000000
00001000
00000000
,
00010000
00000000
00001000
00010000
00000000
00010000
00000010
00000000
00000100
00000000
00000000
00000001
00000000
00000000
00001000
00000000
,
00000100
00000000
00010000
00001000
00000000
00001000
01000000
00000000
00100000
00000000
00000000
10000000
00000000
00000000
00010000
00000000
,
01000000
00000000
00100000
10000000
00000000
00100000
00010000
00000000
00001000
00000000
00000000
00000100
00000000
00000000
00000000
00000000
,
00000001
00000010
00001000
00000000
00000010
00000000
00000001
00000100
00000000
00000010
00000000
00000000
00000001
00000000
00001000
00000000
,
00000100
00000000
00000010
00000000
00010000
00000000
01000000
20000000
00000000
00000000
00000000
00000000
00000000
00000000
00000000
00000000
,
30100000
00010000
M0100000
00000000
01000000
00000000
00001000
00010000
00000000
00000010
00000000
00000000
00000001
00000000
00001000
00000000
,
00000100
00000000
00000010
00000000
00010000
00000000
00001000
00020000
00000000
00000000
00000000
00000000
00000000
00000000
00000000
00000000
,
00031000
00100000
010M0000
00000000
10000000
00000000
01000000
00010000
00000000
00000000
00001000
00000000
00000010
00000000
00000001
00000000
,
00000100
00000000
00000001
00001000
00000001
00000000
00000010
00002000
00000000
00000000
00000000
00000000
00000000
00000000
00000000
00000000
,
00003010
00000001
0000M100
00000000
00000010
00000000
00001000
00000100
00000000
00000000
00010000
00000000
00001000
00000000
00000000
00010000
,
00100000
00000000
00010000
00000000
10000000
00000000
01000000
00200000
00000000
00000000
00000000
01000000
00300000
01000000
00100000
01000000
,
00010000
00100000
00001000
00011000
00010000
00000100
00001000
00001100
,
00001000
00000000
00000010
00000000
00000100
00000000
00002000
00000200
00000000
00000000
00000000
00000000
00000000
00000000
00003300
00000000
,
00000100
00000001
00001000
00001001
00001000
00000100
00010000
00010010
,
00010000
00000000
00001000
00000000
00100000
00000000
00200000
00002000
00000000
00000000
00000000
00000000
00000000
00000000
00303000
00000000
,
00001000
01000000
00010000
00000000
10000000
00000000
10000000
00100000
00000000
00000000
01000000
00000000
00010000
00000000
01000000
00100000
,
00000000
00000000
00100000
00000000
01000000
00000000
00200000
00020000
00000000
00000000
00000000
00000000
00000000
00000000
00330000
00000000
,
001M0000
01000000
00010000
00000000
00020000
00000000
00000000
00000000
01030000
00000000
00001000
00000000
00010000
00000000
00000010
00000000
,
00000001
00000010
00001000
00000000
00000002
00000000
00000000
00000200
00000000
00000000
00000000
00001313
00000000
00000000
00000000
00000000
,
00000101
00000000
00000000
00000100
00000001
00000000
00001000
00000000
00000100
00000000
00000000
00000010
00001000
00000000
00010000
00000000
,
00001000
00000000
00000000
00010000
01000000
00000000
10000000
00000000
00100000
00000000
00000000
00010000
00100000
00000000
01000000
00000000
,
10000000
00000000
00000000
00010000
00100000
00000000
01000000
00000000
00001000
00000000
00000000
00010000
00000100
00000000
00010000
00000000
,
00010000
00001000
00100000
00001000
00010000
00001000
01000000
00001000
00100000
01000000
10000000
00010000
01000000
00100000
10000000
00000000
,
20020000
00000000
00000000
00000000
00000000
00000000
00000000
00000000
00000000
00000000
00000000
00000000
00000000
00000000
00000000
00000000
30030000
00000000
00000000
00000000
00000000
01000000
10000000
01000000
10000000
00000000
00000000
00000000
01000000
00000000
00000000
00000000
,
00200000
00000000
00000000
00000000
00000000
00000000
00000000
00000000
00302000
00000000
00000000
00000000
00000000
00000000
00000000
00000000
00023000
00000000
00000000
00000000
00000000
00030100
00001000
00000100
00001000
00000000
00000000
00000000
00001000
00000000
00000000
00000000
,
00000020
00000000
00000000
00000000
00000000
00000000
00000000
00000000
00000130
00000001
00000100
00000000
00000010
00001000
00000000
00000100
,
00001000
00000000
00000100
00010000
00000000
00001000
00000000
00000000
00010000
00001000
00010000
00000010
00000100
00000001
00001000
00000001
,
00002000
00000000
00000000
00000000
00000000
00000000
00000000
00000000
00000000
00000000
00000000
00000000
00000000
00000000
00000000
00000000
00000000
00000000
00000000
00000000
00000000
00003010
00000100
00000010
00000100
00000000
00000000
00000000
00000001
00000000
00000000
00000000
,
00000200
00000000
00000000
00000000
00000000
00000000
00000000
00000000
00000310
00000000
00000000
00000000
00000001
00000000
00000000
00000000
00000020
00000000
00000000
00000000
00000000
00001030
00000100
00001000
00000200
00000000
00000000
00000000
00002000
00000000
00000000
00000000
,
00000000
00000000
00000000
00000000
,
00000000
00000000
00000000
00003300
,
00001000
01000000
10000000
00100000
00010000
10000000
01000000
00010000
,
10000000
01000000
00100000
00001000
00010000
00000010
00010000
00001000
,
01000000
00010000
01000000
00001000
00010000
00000010
00000001
00001000
,
00000100
00000010
00001000
00000100
00001000
00000001
00000010
00000100
,
00001000
00000100
00010000
00001000
00100000
01000000
10000000
00100000
,
01000000
00010000
01000000
00001000
00010000
00000010
00000100
00000001
,
00000010
00001000
00000010
00000001
00000100
00001000
00000001
00001000
,
00000100
00000010
00010000
00001000
01000000
00001000
02000000
00200000
,
10010000
00000000
03300000
00000000
;

//---------------dance-double - M. Cerna----------------
#NOTES:
     dance-double:
     M. Cerna:
     Challenge:
     10:
     0.684,0.650,0.165,0.093,0.779,439.000,16.000,9.000,2.000,2.000,0.000: // measure 1
00000000
00000000
00000000
00000000
,  // measure 2
00000000
00000000
00000000
00000000
00000000
00000000
00000000
01000000
,  // measure 3
10010000
00000000
00000000
10000000
01000000
00000000
00100000
00000000
00010000
10000000
00000000
00010000
00100000
00000000
01000000
00000000
,  // measure 4
00100000
00000000
00000000
00010000
00100000
00000000
00001000
00000000
00000100
00000010
00000000
00001000
00000100
00000000
00010000
00000000
,  // measure 5
00010100
00000000
00000000
00000100
00010000
00000000
00001000
00000000
00100000
00010000
00000000
01000000
00010000
00000000
01000000
00000000
,  // measure 6
00100000
00000000
00000000
01000000
00001000
00000000
00010000
00000000
00001000
00000100
00000000
00000100
00000010
00000000
00010000
00000000
,  // measure 7
00010100
00000000
00000000
00000100
00010000
00000000
00001000
00000000
00100000
00010000
00000000
00010000
01000000
00000000
00100000
00000000
,  // measure 8
01000000
00000000
00000000
00010000
00100000
00000000
00010000
00000000
00100000
00000000
01000000
00000000
00010000
00000000
00001000
00000000
,  // measure 9
00010010
00000000
00000010
00000100
00000000
00000001
00000000
00000000
00000100
00000010
00000000
00000010
00000000
00001000
00000100
00000000
,  // measure 10
00010000
00000000
00001000
00100000
00000000
01000000
00000000
00000000
00100000
00010000
00000000
01000000
00000000
00100000
00010000
00000000
,  // measure 11
00001000
00000000
00010000
00001000
00000000
00010000
00000000
00000000
00000010
00000100
00000000
00000010
00000000
00001000
00000100
00000000
,  // measure 12
00020200
00000000
00000000
00000000
00000000
00000000
00030300
000M0M00
,  // measure 13
00010000
00001000
00100000
00000000
01000000
00000000
00100000
00010000
00000000
01000000
00000000
00000000
00100000
00000000
01000000
00000000
,  // measure 14
00010000
00000000
00100000
00000000
00001000
00000000
00010000
00001000
00000000
00000000
00010000
00000000
00010010
00000000
00000000
00000000
,  // measure 15
00000010
00000100
00000001
00000000
00000010
00000000
00000100
00001000
00000000
00000010
00000000
00000000
00001000
00000000
00000100
00000000
,  // measure 16
00010000
00000000
00001000
00000000
00010000
00000000
01000000
00100000
00000000
00000000
00010000
00000000
10010000
00000000
00000000
00000000
,  // measure 17
10000000
01000000
00010000
00000000
00001000
00000000
00010000
00000100
00000000
00000000
00001000
00000010
00000100
00000000
00001000
00000000
,  // measure 18
00010000
00000000
00000100
00000000
00001000
00000000
00000010
00000100
00000000
00000000
00000000
00000000
00001001
00000000
00000000
00000000
,  // measure 19
00001000
00000010
00000100
00000000
00001000
00000000
00010000
00001000
00000000
00000000
00001000
00100000
00010000
00000000
01000000
00100000
,  // measure 20
00000000
00000000
10000000
00000000
01000000
00000000
00100000
00001000
00000000
00000000
00000000
00000000
00000000
00010000
00001000
00000100
,  // measure 21
00000010
00000000
00001000
00000000
00000100
00000000
00010000
00001000
00000000
00100000
00000000
00000000
01000000
00000000
10000000
00000000
,  // measure 22
00100000
00000000
01000000
00000000
00010000
00000000
00100000
00001000
00020000
00000000
00000000
00000200
00000000
00000000
00031310
00000000
,  // measure 23
00010000
00000010
00000100
00000000
00000010
00000000
00001000
00000100
00000000
00001000
00000000
00000000
00000100
00000000
00010000
00000000
,  // measure 24
00001000
00000000
00100000
00000000
00010000
00000000
01000000
00100000
20000000
00000000
00000000
02000000
00000000
00000000
33110000
00000000
,  // measure 25
01000000
10000000
00010000
00000000
00100000
00000000
00001000
00010000
00000000
00000000
00001000
00100000
01000000
00000000
00100000
00010000
,  // measure 26
00000000
00000000
10000000
00000000
01000000
00000000
00010000
00001000
00000000
00000000
00000000
00000000
00001001
00000000
00000000
00000000
,  // measure 27
00000001
00001000
00000100
00000000
00010000
00000000
00001000
00100000
00000000
00000000
00010000
10000000
01000000
00000000
00100000
00000000
,  // measure 28
00010000
00100000
01000000
00000000
00100000
00000000
00001000
00010000
00000000
00000000
00000000
00001000
10000000
00000000
00010000
00000000
,  // measure 29
10010000
00000000
10000000
01000000
00000000
10000000
00000000
00000000
00100000
01000000
00000000
00010000
00000000
00100000
00001000
00000000
,  // measure 30
00011000
00000000
00010000
00001000
00000000
00000100
00000000
00000000
00000010
00010000
00000000
00000100
00000000
00001000
00000010
00000000
,  // measure 31
00001001
00000000
00000001
00000100
00000000
00000010
00000000
00000000
00001000
00000100
00000000
00010000
00000000
00001000
00000100
00000000
,  // measure 32
00000220
00000000
00000000
00000330
,  // measure 33
00000001
00000100
00000010
00001000
00000001
00000100
00000010
00001000
00000001
00000100
00000010
00001000
00000001
00000000
00010000
00000000
,  // measure 34
00000100
00010000
00001000
00100000
00001000
00000000
00100000
00000000
00010000
01000000
00100000
01000000
00100000
00000000
10000000
00000000
,  // measure 35
00010000
01000000
00010000
00000000
00100000
00000000
00001000
00010000
00001000
00000000
00100000
00000000
00010000
10000000
00010000
00000000
,  // measure 36
10000000
01000000
10000000
00000000
01000000
00000000
00100000
00001000
00010000
00000000
00001000
00000000
00100000
01000000
00100000
00000000
,  // measure 37
00010000
10000000
00100000
01000000
00100000
10000000
00100000
01000000
00010000
00100000
00001000
00010000
00001000
00000000
00000100
00000000
,  // measure 38
00000010
00001000
00000100
00010000
00001000
00000000
00010000
00000000
01000000
00100000
00010000
00100000
01000000
00000000
00010000
00000000
,  // measure 39
00001000
00100000
00010000
00000000
10000000
00000000
01000000
00100000
00010000
00000000
01000000
00000000
00100000
01000000
00100000
00000000
,  // measure 40
01000000
00010000
10000000
00000000
01000000
00000000
00010000
00001000
00010000
00000000
00001000
00000000
00010000
00001000
01000000
00000000
,  // measure 41
00010000
10000000
01000000
00100000
00001000
00010000
00000100
00001000
00000100
00010000
00000010
00001000
00000100
00000000
00001000
00000000
,  // measure 42
00000010
00001000
00000010
00000100
00000001
00000000
00001000
00000000
00000100
00010000
00001000
00100000
00010000
00000000
01000000
00000000
,  // measure 43
00100000
10000000
00010000
00000000
10000000
00000000
01000000
00100000
00010000
00000000
00100000
00000000
00001000
00010000
00001000
00000000
,  // measure 44
00010000
00001000
00010000
00000000
00000010
00000000
00000100
00000010
00001000
00000000
00000100
00000000
00010000
00001000
00100000
00000000
,  // measure 45
00010000
10000000
01000000
00100000
00010000
00100000
01000000
00100000
00001000
00010000
00000010
00001000
00000100
00000000
00010000
00000000
,  // measure 46
00000010
00000100
00001000
00010000
00001000
00000000
00100000
00000000
00010000
01000000
00100000
01000000
00001000
00000000
01000000
00000000
,  // measure 47
00010000
10000000
00010000
00000000
01000000
00000000
00100000
01000000
00100000
00000000
00010000
00000000
00001000
00010000
00001000
00000000
,  // measure 48
00010000
00000000
00000100
00000000
00001000
00000000
00000000
00000000
00000010
00000000
00000000
00000000
00001000
00000000
00000100
00000000
00010000
00000000
00000000
00000000
00001000
00100000
00001000
00100000
00001000
00000000
00000000
00000000
00010000
00000000
00000000
00000000
,  // measure 49
00012000
00000000
00003000
00000000
;

//---------------dance-double - M. Cerna----------------
#NOTES:
     dance-double:
     M. Cerna:
     Hard:
     6:
     0.424,0.371,0.021,0.093,0.072,277.000,2.000,9.000,2.000,0.000,0.000:
00000000
00000000
00000000
00000000
,
00000000
00000000
00000000
00000000
00000000
00000000
00000000
10000000
,
00010000
00000000
10000000
00100000
00010000
00000000
00010000
00001000
,
00000100
00000000
00000100
00001000
00010000
00000000
00010000
01000000
,
10000000
00000000
00010000
00000000
10000000
00100000
01000000
00010000
,
00100000
00000000
00001000
00000000
00010000
00000100
00001000
00000010
,
00000100
00000000
00000001
00000000
00000010
00000100
00001000
00000010
,
00000100
00000000
00001000
00000000
00010000
01000000
00100000
00010000
,
00001000
00000000
00000000
00000000
00010000
00000000
00000000
00000000
00001000
00010000
00000000
00001000
00010000
00000000
00001000
00000000
,
00000000
00000000
00000000
00000000
00010000
00000000
00000000
00000000
00000010
00000100
00000000
00000010
00000100
00000000
00000010
00000000
,
00000000
00000000
00000000
00000000
00010000
00000000
00000000
00000000
00001000
00100000
00000000
00001000
00100000
00000000
00010000
00000000
,
20000000
00000000
00000000
30000000
,
10000000
00010000
10000000
00000000
00010000
00000000
10000000
00000000
00010000
00000000
00000000
00000000
01000000
00000000
00000000
00000000
,
00100000
01000000
00001000
00010000
00000100
00000000
00001000
00000000
,
00000010
00000100
00000010
00000000
00001000
00000000
00000100
00000000
00001000
00000000
00000000
00000000
00000001
00000000
00000000
00000000
,
00000100
00000010
00001000
00000100
00010000
00000000
00001000
00000000
,
00100000
00010000
00100000
00000000
00001000
00000000
00010000
00000000
00001000
00000000
00000000
00000000
00010000
00000000
01000000
00000000
,
00100000
00010000
00001000
00000100
00001000
00000000
00000001
00000000
,
00010000
00001000
00010000
00000000
00001000
00000000
00010000
00000000
00001000
00000000
00000000
00000000
00100000
00000000
00010000
00000000
,
00100000
01000000
10000000
01000000
10000000
00000000
10010000
00000000
,
01000000
10000000
00100000
00000000
01000000
00010000
00100000
00001000
,
00010000
00000000
00001000
00000000
00010000
00000010
00000100
00000001
,
00000010
00000000
00000100
00000000
00001000
00000010
00000100
00001000
,
00010000
00000000
00001000
00000000
00100000
00010000
00100000
01000000
,
10000000
00010000
10000000
00000000
01000000
00000000
00000000
00000000
10000000
00000000
00100000
00000000
01000000
00000000
00010000
00000000
,
00100000
00000000
00001000
00000000
00010000
00000010
00000100
00000001
,
00000010
00000001
00000010
00000000
00000100
00000000
00000000
00000000
00001000
00000000
00000100
00000000
00010000
00000000
00001000
00000000
,
00100000
00010000
00100000
00000000
01000000
00000000
10000000
00010000
00000000
00000000
00000000
00000000
M00M0000
00000000
00000000
00000000
,
10000000
00000000
00010000
00000000
10000000
01000000
00010000
00001000
,
00010000
00000000
00001000
00000000
00010000
00000100
00001000
00000010
,
00000100
00000000
00000001
00000000
00001000
00000100
00010000
00001000
,
00010000
00000000
00000100
00000000
00001000
00000010
00000100
00001000
,
00020000
00000000
00001000
00000000
00001000
00000000
00031000
01000000
,
00200000
00000000
01000000
00000000
01000000
00000000
01300000
00001000
,
00010000
00000000
00001000
00000000
00010000
00000100
00001000
00000010
,
00000100
00000000
00000100
00000000
00000100
00000010
00000100
00001000
,
00020000
00000000
00001000
00000000
00001000
00000000
00031000
00100000
,
02000000
00000000
00010000
00000000
00010000
00000000
03010000
01000000
,
10000000
00000000
00100000
00000000
01000000
00010000
00100000
00001000
,
00010000
00000000
00010000
00000000
00010000
00001000
00000100
00000010
,
00000200
00000000
00000010
00000000
00000001
00000000
00000310
00000100
,
00000002
00000000
00000010
00000000
00001000
00000000
00000013
00000001
,
00010000
00000000
00001000
00000000
00010000
00000100
00001000
00000010
,
00000100
00000000
00000001
00000000
00000100
00001000
00010000
00001000
,
00020000
00000000
00001000
00000000
01000000
00000000
00031000
00010000
,
00002000
00000000
00010000
00000000
00000100
00000000
00013000
00001000
,
00100000
00000000
01000000
00000000
00100000
00010000
00001000
00000100
,
00000010
00000000
00000001
00000000
00000100
00001000
00010000
00100000
,
10010000
00000000
00000000
00000000
;

//---------------dance-double - M. Cerna----------------
#NOTES:
     dance-double:
     M. Cerna:
     Easy:
     2:
     0.214,0.200,0.186,0.134,0.000,114.000,18.000,13.000,0.000,0.000,0.000:
00000000
00000000
00000000
00000000
,
00000000
00000000
00000000
00000000
,
00011000
00000000
00001000
00000000
,
00001000
00000000
00001000
00000000
,
10001000
00000000
10000000
00000000
,
00001000
00000000
10000000
00000000
,
10010000
00000000
10000000
00000000
,
10000000
00000000
10000000
00000000
,
10010000
10000000
01000000
00000000
,
00100000
00000000
00001000
00000000
,
00010000
00000100
00001000
00000000
,
00000002
00000000
00000003
00000000
,
00001000
00001000
00000001
00000000
,
00010000
00001000
00010000
00000000
,
00001000
00001000
00100000
00000000
,
00010000
10000000
00010000
00000000
,
10000000
10000000
10000000
00000000
,
00010000
00000000
10000000
00000000
,
00001000
00001000
00001000
00000000
,
00010000
00000000
00010000
00000000
,
00001001
00000000
00001000
00000000
,
00000001
00001000
00000001
00000000
,
00011000
00000000
00010000
00000000
,
00001000
00010000
00001000
00000000
,
10010000
00000000
10000000
00000000
,
00010000
10000000
00010000
00000000
,
01100000
00000000
01000000
00000000
,
01000000
01000000
01000000
00000000
,
00010000
00001000
00010000
00000000
,
00001000
00010000
00001000
00000000
,
00010000
00000001
00010000
00000000
,
00000220
00000000
00000330
00000000
,
00021000
00000000
00030000
00001000
,
01200000
00000000
01300000
00000000
,
01000000
00010000
00100000
00000000
,
00100000
00000000
00001000
00010000
,
00012000
00000000
00003000
00010000
,
00001002
00000000
00001003
00000000
,
00000001
00001000
00000100
00000000
,
00010000
00000000
00001000
00100000
,
10020000
00000000
00030000
10000000
,
02100000
00000000
03100000
00000000
,
00001000
00010000
00001000
00000000
,
00010000
00000000
00000100
00001000
,
00000120
00000000
00000030
00000100
,
00021000
00000000
00031000
00000000
,
00010000
00001000
00100000
00000000
,
00100000
00000000
00100000
00001000
,
00022000
00000000
00033000
00000000
;

//---------------dance-double - M. Cerna----------------
#NOTES:
     dance-double:
     M. Cerna:
     Medium:
     4:
     0.281,0.272,0.134,0.113,0.000,167.000,13.000,11.000,0.000,0.000,0.000:
00000000
00000000
00000000
00000000
,
00000000
00000000
00000000
00000000
,
10000000
00000000
00010000
00000000
,
10000000
00000000
00000000
00000000
00010000
00000000
00100000
00001000
,
00010000
00000000
00001000
00000000
,
00010000
00000000
00000000
00000000
00001000
00000000
00010000
00000010
,
00001000
00000000
00000001
00000000
,
00001000
00000000
00000000
00000000
00000001
00000000
00001000
00000010
,
00000100
00000100
00000010
00001000
,
00000100
00000100
00010000
00001000
,
00100000
00100000
00010000
01000000
,
00200000
00000000
00000000
00300000
,
10000000
00010000
10000000
00000000
01000000
00000000
00000000
00000000
,
00100000
00010000
00001000
00000100
,
00000010
00000001
00000010
00000000
00000001
00000000
00000000
00000000
,
00000100
00001000
00010000
00001000
,
00010000
00001000
00010000
00000000
00001000
00000000
00000000
00000000
,
00010000
01000000
00100000
00010000
,
10000000
00010000
10000000
00000000
00100000
00000000
00000000
00000000
,
01000000
00010000
00100000
00100000
,
10010000
00010000
10000000
00000000
,
01100000
01000000
00100000
00000000
,
00011000
00001000
00010000
00000000
,
00010100
00000100
00001000
00000000
,
00000110
00000010
00000100
00001000
,
00000100
00000010
00010000
00000000
,
00011000
00001000
00100000
01000000
,
00100000
00000000
00010000
00000000
10000000
00000000
10000000
00010000
,
10010000
00010000
00010000
00000000
,
10000000
10000000
10000000
00000000
,
01000000
01000000
01000000
00000000
,
00022000
00000000
00033000
00000000
,
00010200
00000000
00000000
00000000
00000300
00000000
00001000
00000010
,
00000200
00000000
00000010
00000000
00000010
00000000
00000310
00001000
,
00000100
00010000
00001000
00010000
,
00000100
00001000
00000010
00000100
,
00001002
00000000
00000000
00000000
00000003
00000000
00001000
00000100
,
00020000
00000000
00001000
00000000
00001000
00000000
00031000
00100000
,
01000000
00100000
01000000
00010000
,
00001000
00100000
00010000
01000000
,
20100000
00000000
00000000
00000000
30000000
00000000
01000000
10000000
,
00020000
00000000
00100000
00000000
00100000
00000000
00130000
00001000
,
00010000
00001000
00010000
00000100
,
00001000
00000010
00000100
00000001
,
00002010
00000000
00000000
00000000
00003000
00000000
00000010
00010000
,
00002000
00000000
00010000
00000000
00010000
00000000
00013000
00001000
,
00100000
01000000
00100000
00001000
,
00100000
00000000
00001000
00000000
00010000
00000000
00001000
00010000
,
00011000
00000000
00000000
00000000
;
