#TITLE:RE-RAVE;
#SUBTITLE:;
#ARTIST:KURi-ZiLL;
#TITLETRANSLIT:;
#SUBTITLETRANSLIT:;
#ARTISTTRANSLIT:;
#GENRE:Rave;
#CREDIT:;
#BANNER:Re-Rave-bn.png;
#BACKGROUND:;
#LYRICSPATH:;
#CDTITLE:;
#MUSIC:Re-Rave.ogg;
#OFFSET:-0.040;
#SAMPLESTART:12.680;
#SAMPLELENGTH:11.860;
#SELECTABLE:YES;
#BPMS:0.000=146.000;
#STOPS:;
#BGCHANGES:0.056=Re-Rave.mpg=1.000=1=0=0=StretchNoLoop==CrossFade==,
99999=-nosongbg-=1.000=0=0=0 // don't automatically add -songbackground-;
#KEYSOUNDS:;

//---------------dance-single - D. D'Amato----------------
#NOTES:
     dance-single:
     D. D'Amato:
     Challenge:
     10:
     0.808,0.835,0.559,0.235,0.901,496.000,57.000,24.000,16.000,0.000,0.000:
0000
0000
0000
0000
,
0000
0000
0000
0000
,
0000
0000
0000
0000
,
0000
0000
0000
0000
,
0110
0011
0101
1001
,
0110
1010
1100
1001
,
0110
0110
0011
0011
1100
1100
0110
0110
,
0001
1000
0000
0001
1000
0000
0010
0000
0100
0000
0000
0000
1001
0000
0000
0000
,
0010
0010
0000
1000
1000
0000
0001
0001
0000
0100
0100
0000
0010
0000
0010
0000
,
1000
1000
0000
0100
0100
0000
0010
0010
0000
0001
0001
0000
0100
0000
0100
0000
,
0001
0001
0000
1000
1000
0000
0100
0100
0000
0010
0010
0000
0001
0000
0001
0000
,
0100
0000
0100
0000
0001
0001
0000
1000
1000
0000
0010
0010
0000
1000
0100
0010
,
0100
0100
0000
1000
1000
0000
0001
0001
0000
0010
0010
0000
0100
0000
0100
0000
,
1000
1000
0000
0010
0010
0000
0100
0100
0000
0001
0001
0000
0010
0000
0010
0000
,
0001
0001
0000
1000
1000
0000
0010
0010
0000
0100
0100
0000
0001
0000
0001
0000
,
0010
0000
0010
0000
0001
0001
0000
1000
1000
0000
0001
0001
0000
1000
1000
0000
,
0001
0000
0000
0000
1001
0000
0000
1000
0000
0000
0100
0000
0010
0000
0001
0000
,
0010
0000
0000
0000
0110
0000
0000
0100
0000
0000
1000
0000
0010
0000
0100
0000
,
0001
0000
0000
0000
1001
0000
0000
1000
0000
0000
0001
0000
0100
0000
0010
0000
,
0100
0000
0000
0001
0000
0000
0100
0000
0010
0000
0000
1000
0100
0000
0010
0000
,
1001
0000
0000
0000
0101
0000
0000
0100
0000
0001
0100
0000
0010
0000
1000
0100
,
0010
0000
0000
0000
0011
0000
0000
0001
0000
0100
0001
0000
1000
0000
0100
1000
,
0001
0000
0000
0000
1001
0000
0000
1000
0000
0010
1000
0000
0001
0000
0010
0000
,
0100
0000
0010
0100
0000
1000
0100
0000
0010
0001
0000
0010
0100
0000
0010
0000
,
1001
0000
0000
0000
1100
0000
0000
0100
0000
1000
0100
0000
0010
0000
0001
0100
,
0010
0000
0000
0000
1010
0000
0000
1000
0000
0100
1000
0000
0001
0000
0100
0001
,
1000
0000
0000
0000
1001
0000
0000
0001
0000
0010
0001
0000
1000
0000
0010
0000
,
0100
0000
0010
0100
0000
0001
0100
0000
0010
1000
0000
0010
0100
0000
0010
0000
,
1001
0000
0100
0000
0010
0001
0000
0000
1000
0100
0000
0000
0010
0000
0001
0010
,
0100
0000
1000
0000
0010
1000
0000
0000
0001
0100
0000
0000
0010
0000
1000
0010
,
0100
0000
0001
0000
1000
0001
0000
0000
0100
0010
0000
0000
1000
0000
0010
0100
,
0001
0000
1000
0000
0001
0000
0000
1000
0000
0001
0000
1000
0000
0100
0000
0010
,
0001
0000
0100
0000
0010
1000
0000
1000
0100
0000
0100
0010
0000
0010
0100
0010
,
0100
0000
1000
0000
0010
0100
0000
0100
0001
0000
0001
1000
0000
1000
0001
1000
,
0001
0000
0010
0000
0100
1000
0000
1000
0010
0000
0010
0100
0000
0100
0010
0100
,
0010
0000
1000
0000
0001
1000
0000
1000
000M
0010
0100
0000
0100
00M1
0000
0001
,
1000
0000
0001
0000
0010
0100
0000
0100
1000
0000
1000
0001
0000
0001
1000
0001
,
1000
0000
0010
0000
0100
0001
0000
0001
0010
0000
0010
0100
0000
0100
0010
0100
,
0010
0000
0001
0000
1000
0001
0000
0001
M000
0010
0100
0000
0100
10M0
0000
1000
,
0002
0000
0000
0100
0000
0000
1003
0000
0000
0011
0000
0000
0010
0000
0001
0000
,
0200
0000
0000
0010
0000
0000
0301
0000
0000
1010
0000
0000
1000
0000
0001
0000
,
2000
0000
0000
0010
0000
0000
3001
0000
0000
0100
0001
0000
0010
0000
0100
0000
,
0020
0000
0000
0100
0000
0000
0031
0000
0000
1000
0010
0000
0100
0000
0001
0000
,
0110
1010
0101
1001
,
0110
0011
1100
1001
,
0110
0000
0001
0000
0010
0001
0000
0010
0100
0000
1000
0100
0000
1000
0010
0000
,
0100
0010
0000
0100
0001
0000
0010
0000
0100
0000
1000
0010
0000
0100
0001
0000
,
1001
1001
1010
1010
0101
0101
1001
1001
,
0010
0100
0000
0010
0100
0000
1000
0000
0001
0000
0000
0000
0110
0000
0000
0000
,
2100
0100
0000
0001
0001
0000
0010
0010
0000
0001
3001
0000
0010
0000
0100
0000
,
0012
0010
0000
1000
1000
0000
0100
0100
0000
1000
1003
0000
0010
0000
0100
0000
,
0001
0002
0000
0103
020M
0000
0310
0M20
0000
1030
20M0
0000
3001
M000
0010
0000
,
0100
0000
0100
0000
1000
1000
0000
0001
0001
0000
0100
0100
0000
0001
0100
0010
,
0120
0100
0000
0001
0001
0000
0100
0100
0000
1000
1030
0000
0100
0000
0010
0000
,
0120
0100
0000
1000
1000
0000
0100
0100
0000
0001
0031
0000
0100
0000
0010
0000
,
1000
2000
0000
3100
M200
0000
0310
0M20
0000
0031
00M2
0000
1003
000M
0010
0000
,
0100
0000
0100
0000
0001
0001
0000
1000
1000
0000
0100
0100
0000
1000
0100
0010
,
0120
0100
0000
0001
0031
0000
0102
0100
0000
1000
1003
0000
0010
0000
0100
0000
,
0120
0100
0000
1000
1030
0000
2100
0100
0000
0001
3001
0000
0010
0000
0100
0000
,
0010
0020
0000
0130
02M0
0000
1300
2M00
0000
3001
M002
0000
0103
000M
0010
0000
,
0100
0000
0100
0000
0001
0001
0000
1000
1000
0000
0001
0001
0000
1000
1000
0000
;

//---------------dance-single - D. D'Amato----------------
#NOTES:
     dance-single:
     D. D'Amato:
     Hard:
     8:
     0.575,0.596,0.206,0.069,0.372,383.000,21.000,7.000,0.000,0.000,0.000:
0000
0000
0000
0000
,
0000
0000
0000
0000
,
0000
0000
0000
0000
,
0000
0000
0000
0000
,
0102
0010
1000
0103
,
2010
0100
0001
3010
,
0100
0001
1000
0100
0010
0001
1000
0010
,
0100
0000
0010
1000
0100
0000
1001
0000
,
0001
0000
0000
0100
0000
0000
0001
0000
0000
0100
0000
0000
0001
0000
0100
0000
,
0010
0000
0000
1000
0000
0000
0010
0000
0000
1000
0000
0000
0010
0000
1000
0000
,
0100
0000
0000
0010
0000
0000
0100
0000
0000
0010
0000
0000
0001
0000
0100
0000
,
0010
0000
1000
0000
0010
0000
0000
0100
0000
0000
0001
0000
0100
0000
0010
0000
,
1000
0000
0000
0100
0000
0000
1000
0000
0000
0100
0000
0000
1000
0000
0100
0000
,
0010
0000
0000
0001
0000
0000
0010
0000
0000
0001
0000
0000
0010
0000
0001
0000
,
0100
0000
0000
0010
0000
0000
0100
0000
0000
0010
0000
0000
1000
0000
0100
0000
,
0010
0000
0001
0000
0010
0000
0000
0100
0000
0000
1000
0000
0000
0001
0000
0000
,
0100
0000
1010
0000
0100
0001
0010
0100
,
0010
0000
1100
0000
0010
0001
0100
0010
,
0100
0000
1001
0000
0010
0100
0010
1000
,
0100
0000
0000
0010
0000
0000
0001
0000
0100
0000
0000
0000
0010
0000
1000
0000
,
0100
0000
0011
0000
0100
1000
0010
0100
,
0010
0000
0101
0000
0010
1000
0100
0010
,
0100
0000
1001
0000
0010
0100
0010
0001
,
0100
0000
0000
0010
0000
0000
1000
0000
0100
0000
0000
0000
0010
0000
0001
0000
,
0100
0000
1010
0000
0001
0010
1000
0010
,
0100
0000
0011
0000
1000
0010
0001
0010
,
0100
0000
1001
0000
0010
1000
0010
0001
,
0100
1000
0100
0001
0010
0000
1000
0010
,
0002
0000
0100
0000
0010
0000
0103
0100
,
0200
0000
0010
0000
0001
0000
0310
0010
,
0020
0000
1000
0000
0100
0000
1030
1000
,
1000
0000
0001
0000
1000
0000
0000
0001
0000
0100
0000
0000
0010
0000
1000
0000
,
0001
0000
0001
0000
1000
0100
0000
0000
0010
0000
0001
0100
0000
0000
0010
0000
,
1000
0000
1000
0000
0100
0010
0000
0000
0001
0000
0100
0010
0000
0000
1000
0000
,
0001
0000
0001
0000
0010
0001
0000
0000
0100
0000
0010
1000
0000
0000
0001
0000
,
1000
1000
0100
0000
0010
0001
0100
0001
,
1000
0000
1000
0000
0001
0100
0000
0000
0010
0000
1000
0100
0000
0000
0010
0000
,
0001
0000
0001
0000
0100
0010
0000
0000
1000
0000
0100
0010
0000
0000
0001
0000
,
1000
0000
1000
0000
0100
1000
0000
0000
0010
0000
1000
0000
0100
0000
1000
0000
,
0001
0000
0000
0101
0000
0000
0100
0000
0000
0101
0000
0000
0001
0000
0010
0000
,
0100
0000
0000
0110
0000
0000
0010
0000
0000
0110
0000
0000
0100
0000
1000
0000
,
0010
0000
0000
1010
0000
0000
1000
0000
0000
0000
0010
0000
0100
0000
0001
0000
,
1000
0000
0000
1001
0000
0000
0001
0000
0000
0000
1000
0000
0100
0000
0010
0000
,
0012
0100
1000
0013
,
2100
0010
0001
3100
,
0010
0000
0001
0000
1000
0000
0000
0001
0000
0000
1000
0000
0000
0001
0000
0000
,
1000
0000
0001
0000
1000
0000
0100
0000
0010
0000
0000
0100
0000
0000
0010
0000
,
0100
1000
0001
0100
0010
1000
0001
0010
,
0100
0000
0010
0001
0100
0000
1001
0000
,
1000
0010
0000
1000
0010
0000
1000
0010
0000
1000
0010
0000
1000
0000
0010
0000
,
0100
0001
0000
0100
0001
0000
0100
0001
0000
0100
0001
0000
0100
0000
0001
0000
,
0010
0000
0000
0100
0000
0000
0010
0000
0000
0100
0000
0000
1000
0000
0010
0000
,
0100
0000
0001
0000
0100
0000
0000
0010
0000
0000
1000
0000
0010
0000
0100
0000
,
0001
0010
0000
0001
0010
0000
0001
0010
0000
0001
0010
0000
0001
0000
0010
0000
,
0100
1000
0000
0100
1000
0000
0100
1000
0000
0100
1000
0000
0100
0000
1000
0000
,
0010
0000
0000
0100
0000
0000
0010
0000
0000
0100
0000
0000
0001
0000
0010
0000
,
0100
0000
1000
0000
0100
0000
0000
0010
0000
0000
0001
0000
0010
0000
0100
0000
,
0010
0100
0000
0010
0100
0000
0010
0100
0000
0010
0100
0000
0010
0000
0100
0000
,
1000
0001
0000
1000
0001
0000
1000
0001
0000
1000
0001
0000
1000
0000
0001
0000
,
0100
0010
0000
0100
0010
0000
0100
0010
0000
0100
0010
0000
0100
0000
0010
0000
,
1000
0000
0010
0000
0100
0000
0000
0010
0100
0000
0001
0100
0000
0001
1000
0000
;

//---------------dance-single - D. D'Amato----------------
#NOTES:
     dance-single:
     D. D'Amato:
     Medium:
     6:
     0.482,0.447,0.127,0.020,0.093,329.000,13.000,2.000,0.000,0.000,0.000:
0000
0000
0000
0000
,
0000
0000
0000
0000
,
0000
0000
0000
0000
,
0000
0000
0000
0000
,
1000
1100
0100
0110
,
0010
0011
0001
1001
,
1000
0001
1000
0001
0010
0100
0010
0100
,
2000
0000
3010
0101
,
1000
0000
0001
0000
0010
0100
0010
0000
,
0001
0000
1000
0000
0010
0100
0010
0000
,
1000
0100
0010
0100
0010
0000
0001
0000
,
0100
0001
1000
0000
0100
1000
0001
1000
,
0001
0000
1000
0000
0100
0010
0100
0000
,
1000
0000
0001
0000
0100
0010
0100
0000
,
0001
0010
0100
0010
0100
0000
1000
0000
,
0001
0000
0000
0000
1000
0000
0000
0001
0000
0000
1000
0000
0000
0001
0000
0000
,
1000
0000
0100
0000
1000
0100
0010
0100
,
0010
0000
0001
0000
0010
0001
0010
0001
,
0100
0000
0010
0000
0100
0010
0100
0001
,
1000
0001
1000
0100
0010
0000
0100
0010
,
0001
0000
0100
0000
0001
0100
0010
0100
,
0010
0000
1000
0000
0010
1000
0010
1000
,
0100
0000
0010
0000
0100
0010
0100
1000
,
0001
1000
0001
0100
0010
0000
0100
0010
,
1000
0000
0001
0000
1000
0001
1000
0001
,
0100
0000
0010
0000
0100
0010
0100
0010
,
1000
0000
0100
0000
0010
0001
1000
0100
,
0010
0001
1000
0010
0100
0000
0010
0100
,
0001
0000
0100
0000
0001
0000
1000
0100
,
1000
0000
1000
0000
1000
0000
0001
0100
,
0001
0000
0001
0000
0001
0000
0010
0100
,
0010
0001
0100
0000
0010
1000
0100
1000
,
1000
0000
1000
0000
1000
0001
0100
0001
,
0001
0000
0001
0000
0001
1000
0100
1000
,
1000
0000
1000
0000
1000
0001
0100
0001
,
0001
1000
0100
0000
0010
0001
0100
0001
,
1000
0000
0001
0000
0000
0001
0000
0000
0001
0000
1000
0000
0100
0000
1000
0000
,
0001
0000
1000
0000
0000
1000
0000
0000
1000
0000
0001
0000
0100
0000
0001
0000
,
0001
1000
0100
1000
0010
1000
0100
1000
,
1000
0000
0000
0100
0000
0000
0010
0000
0000
0001
0000
0000
0010
0000
0100
0000
,
1000
0000
0000
0100
0000
0000
0010
0000
0000
0001
0000
0000
0010
0000
0100
0000
,
1000
0000
0000
0010
0000
0000
0100
0000
0000
0000
0001
0000
0100
0000
0010
0000
,
1000
0000
0000
0010
0000
0000
0100
0000
0000
0000
0001
0000
0100
0000
0010
0000
,
1000
1010
0010
0110
,
0100
0101
0001
1001
,
1000
0001
0100
0010
,
1000
0001
0100
0000
0010
0100
0001
0100
,
0001
1000
0001
1000
0010
0100
0010
0100
,
0002
0000
0013
1100
,
0001
0000
0000
1000
0000
0000
0100
0000
0000
0000
0010
0000
0100
0000
0000
0000
,
1000
0000
0000
0001
0000
0000
0100
0000
0000
0000
0010
0000
0100
0000
0000
0000
,
0001
0000
0000
0010
0000
0000
0100
0000
0010
0000
0100
0000
1000
0000
0000
0000
,
0010
1000
0001
0000
0010
0001
1000
0001
,
1000
0000
0000
0001
0000
0000
0010
0000
0000
0000
0100
0000
0010
0000
0000
0000
,
0001
0000
0000
1000
0000
0000
0010
0000
0000
0000
0100
0000
0010
0000
0000
0000
,
1000
0000
0000
0100
0000
0000
0010
0000
0100
0000
0010
0000
0001
0000
0000
0000
,
0100
0001
1000
0000
0100
1000
0001
1000
,
0001
0000
0100
0000
0010
1000
0001
0000
,
0010
0000
0100
0000
0010
0001
1000
0000
,
0010
0000
0000
0100
0000
0000
0010
0000
0000
0100
0000
0000
0010
0000
1000
0000
,
0001
0000
0010
0000
0100
0000
0000
0000
0110
0000
0000
0011
0000
0000
1001
0000
;

//---------------dance-single - D. D'Amato----------------
#NOTES:
     dance-single:
     D. D'Amato:
     Easy:
     3:
     0.255,0.269,0.147,0.245,0.000,142.000,15.000,25.000,0.000,0.000,0.000:
0000
0000
0000
0000
,
0000
0000
0000
0000
,
0000
0000
0000
0000
,
0000
0000
0000
0000
,
0010
0010
0010
0010
,
0010
0010
0010
0010
,
0020
0000
0000
0030
,
0202
0000
0303
1001
,
1000
0000
1000
0000
,
0100
0000
0100
0000
,
1000
0000
1000
0000
,
0010
0010
0100
0000
,
0001
0000
0001
0000
,
0100
0000
0100
0000
,
0001
0000
0001
0000
,
0010
0010
0000
0100
,
2100
0000
3000
0001
,
2010
0000
3000
0100
,
0120
0000
0031
0001
,
0001
0100
0010
0100
,
0102
0000
0003
1000
,
0012
0000
0003
0100
,
0120
0000
1030
1000
,
1000
0100
0010
0100
,
0210
0000
0300
0010
,
1002
0000
0003
1000
,
0210
0000
0301
1000
,
0001
0001
1000
1000
,
0100
0000
0000
0100
,
0010
0000
0000
0010
,
0001
0000
0000
0001
,
1000
0000
0001
0100
,
0001
0001
0001
0000
,
0010
0010
0010
0000
,
0100
0100
0100
0000
,
2000
0000
3020
0000
,
1030
1000
1000
0000
,
0010
0010
0010
0000
,
2000
0000
3002
0000
,
0023
0000
0000
0000
,
0230
0000
0000
0000
,
2300
0000
0000
0000
,
3002
0000
0000
0000
,
0103
0100
0100
0100
,
0100
0100
0100
0100
,
0100
0010
1000
0100
,
0010
0001
0100
0010
,
0200
0000
0000
0300
,
2020
0000
3030
1001
,
0001
0000
0001
0000
,
0010
0000
0010
0000
,
0001
0001
0001
0000
,
0100
0100
0010
0000
,
1000
0000
1000
0000
,
0010
0000
0010
0000
,
1000
1000
1000
0000
,
0100
0100
0010
0000
,
0100
0000
1000
0000
,
0001
0000
0100
0000
,
0010
0010
0010
0000
,
1001
0000
0220
0000
,
0330
0000
0000
0000
;

//---------------dance-double - M.Emirzian----------------
#NOTES:
     dance-double:
     M.Emirzian:
     Easy:
     4:
     0.329,0.358,0.225,0.059,0.000,206.000,23.000,6.000,0.000,0.000,0.000:
00000000
00000000
00000000
00000000
,
00000000
00000000
00000000
00000000
,
00000000
00000000
00000000
00000000
,
01010000
00000000
00110000
00000000
,
01000000
00100000
10000000
00100000
,
01000000
00010000
01000000
00100000
,
11000000
10010000
01010000
01001000
,
00022000
00000000
00000000
00033000
,
00010000
00000100
00010000
00001000
,
00010000
00000010
00001000
00000100
,
00000010
00000001
00001000
00000100
,
00000010
00000001
00000010
00000100
,
00001000
00000100
00010000
00001000
,
01000000
00100000
10000000
00100000
,
01000000
00010000
01000000
00100000
,
10000000
01000000
00100000
00001000
,
00010000
00000000
00001000
00000000
00010000
00000100
00000000
00000000
,
00001000
00000000
00000010
00000000
00000100
00000001
00000000
00000000
,
00000100
00000000
00000010
00000000
00001000
00000001
00000000
00000000
,
00000010
00000000
00000100
00000000
00010000
00001000
00000000
00000000
,
01000000
00000000
00010000
00000000
01000000
00001000
00000000
00000000
,
01000000
00000000
00100000
00000000
01000000
00010000
00000000
00000000
,
10000000
00000000
01000000
00000000
00100000
00010000
00000000
00000000
,
00100000
00000000
00001000
00000000
00010000
00000100
00000000
00000000
,
00010000
00000000
00001000
00000000
01000000
00001000
00000000
00000000
,
00010000
00000000
00000010
00000000
00001000
00000001
00000000
00000000
,
00001000
00000000
00000100
00000000
00000010
00000001
00000000
00000000
,
00000100
00000000
00000010
00000000
00001000
00000001
00000000
00000000
,
00001000
00001000
00001000
00000000
,
00010000
00010000
00010000
00000000
,
00100000
00100000
10000000
10000000
,
01000000
01000000
00100000
00100000
,
00010000
10000000
01000000
00000000
,
00100000
00100000
00010000
00000000
,
01000000
01000000
00001000
00000000
,
00011000
00000000
00010100
00000000
,
00001000
00001000
00001000
00000000
,
00000001
00000001
00000100
00000000
,
00000010
00000010
00000010
00000000
,
00010010
00000000
00001100
00000000
,
00011000
00000000
01001000
00000000
,
00110000
00000000
10010000
00000000
,
11000000
00000000
00110000
00000000
,
00100000
00010000
00100000
01000000
,
10000000
01000000
00100000
00010000
,
00100000
00001000
00010000
00000100
,
00001000
00000010
00000100
00000001
,
00001001
00000101
00000110
00001010
,
00020020
00000000
00000000
00030030
,
00010000
00001000
00010000
00010000
,
00001000
01000000
00010000
00010000
,
10000000
01000000
00100000
00100000
,
00010000
01000000
00001000
00001000
,
00010000
00000100
00001000
00001000
,
00000010
00000100
00000001
00000001
,
00000010
00000100
00001000
00000001
,
00000100
00000010
00001000
00000010
,
00010000
00001000
00010000
00010000
,
00100000
01000000
00010000
00010000
,
00100000
00001000
00010000
00010000
,
00000100
00000000
00000000
00000000
00001000
00000000
00000000
00000000
00000010
00000000
00000000
00000000
00002002
00000000
00000000
00003003
;

//---------------dance-double - M.Emirzian----------------
#NOTES:
     dance-double:
     M.Emirzian:
     Medium:
     7:
     0.504,0.418,0.617,0.020,0.005,295.000,63.000,2.000,0.000,0.000,0.000:
00000000
00000000
00000000
00000000
,
00000000
00000000
00000000
00000000
,
00000000
00000000
00000000
00000000
,
01001000
00000000
00000000
00011000
00000000
00000000
00010000
00000100
,
00001000
00000100
00001010
00001100
,
00000001
00000100
00000011
00000101
,
00000010
00001000
00000010
00001000
00000100
00010000
00001000
00000000
,
00022000
00000000
00000000
00033000
,
00010000
00001000
00000000
01001000
00000000
01000000
00010000
01000000
,
00100000
10000000
00000000
11000000
00000000
00100000
00010000
00100000
,
00001000
00010000
00000000
00101000
00000000
00001000
00010000
00000100
,
00010000
00001000
00010000
00000000
00000010
00001000
00000100
00000000
,
00001000
00000010
00000000
00000101
00000000
00000010
00001000
00000010
,
00000100
00000001
00000000
00001100
00000000
00000100
00010000
00001000
,
00010000
00001000
00000000
01001000
00000000
00100000
00010000
00100000
,
00010000
10000000
01000000
00000000
00100000
00010000
01000000
00000000
,
00100000
00000000
01010000
00000000
10010000
00000000
01000000
00100000
,
00010000
00000000
00110000
00000000
00101000
00000000
00001000
00010000
,
00000010
00000000
00011000
00000000
00010010
00000000
00001000
00000100
,
00000010
00000100
00000010
00000000
00000001
00000100
00000010
00001000
,
00000100
00000000
00001100
00000000
00010100
00000000
00010000
00001000
,
01000000
00000000
01010000
00000000
01001000
00000000
00010000
00100000
,
00010000
00000000
11000000
00000000
10100000
00000000
01000000
00010000
,
01000000
00010000
10000000
00000000
01000000
00100000
00010000
00100000
,
00001000
00000000
00011000
00000000
01001000
00000000
01000000
00001000
,
00010000
00000000
00010010
00000000
00001010
00000000
00000010
00001000
,
00000100
00000000
00000011
00000000
00000101
00000000
00000010
00000100
,
00001000
00000100
00000010
00000000
00001000
00000100
00000010
00000100
,
00010000
00000000
00001000
00100000
00010000
00000000
00000000
00000000
,
00110000
00000000
10000000
01000000
00010000
00000000
00000000
00000000
,
00000110
00000000
00000001
00001000
00000100
00000000
00000000
00000000
,
00010000
00001000
01001000
01010000
,
00100000
00000000
01000000
10000000
00100000
00000000
00000000
00000000
,
00001100
00000000
00000010
00000001
00000100
00000000
00000000
00000000
,
00011000
00000000
00000100
00001000
00010000
00000000
00000000
00000000
,
10000000
01000000
00110000
01010000
,
01000000
00000000
00100000
01000000
00001000
00000000
00000000
00000000
,
00110000
00000000
00001000
00010000
00000010
00000000
00000000
00000000
,
00001100
00000000
00000001
00000100
00001000
00000000
00000010
00000000
,
00001100
00000000
00010100
00001000
,
01001000
00000000
01010000
10000000
,
00110000
00000000
00101000
00010000
,
01001000
00000000
01000000
00010000
,
00100000
00001000
00011000
00010010
,
00001000
00000100
00000011
00000101
,
00000010
00001000
00000100
00000000
00000010
00000001
00000100
00000000
,
00000010
00001000
00000010
00010000
00001000
00000000
01000000
00000000
,
00001000
00010000
00001000
00010000
00100000
01000000
00100000
01000000
,
00010000
10000000
11000000
10100000
,
01000000
00010000
00000000
00110000
00000000
10000000
01000000
00100000
,
01000000
00100000
00000000
00110000
00000000
00001000
01000000
00001000
,
00010000
00001000
00000000
00010010
00000000
00001000
00000010
00001000
,
00000100
00001000
00000001
00000000
00000010
00000100
00001000
00000000
,
00000010
00001000
00000000
00010010
00000000
00000100
00001000
00000100
,
00010000
00001000
00000000
01001000
00000000
00100000
00001000
00010000
,
00001000
01000000
00000000
01010000
00000000
00100000
10000000
00100000
,
01000000
00010000
10000000
00000000
01000000
00100000
00010000
00000000
,
01000000
00001000
00000000
00011000
00000000
00010000
00000010
00001000
,
00000100
00001000
00000000
00000110
00000000
00000001
00000100
00000010
,
00001000
00000100
00000000
00010100
00000000
00001000
00010000
00000100
,
00010000
00000000
00001000
00000000
01000000
00000000
00000000
00000000
00100000
00000000
00000000
01000000
00000000
00000000
00010000
00000000
;

//---------------dance-double - M.Emirzian----------------
#NOTES:
     dance-double:
     M.Emirzian:
     Hard:
     9:
     0.673,0.596,0.333,0.078,0.588,439.000,34.000,8.000,1.000,0.000,4.000:
00000000
00000000
00000000
00000000
,
00000000
00000000
00000000
00000000
,
10000000
00000000
00000000
01000000
00000000
00000000
00100000
00000000
00000000
00010000
10000000
00000000
00100000
00000000
01000000
00000000
,
01100000
00000000
00000000
01010000
00000000
00000000
01000000
00000000
00000000
00010000
01000000
00000000
00100000
00000000
10000000
00000000
,
01000000
00120000
01030000
02001000
,
03010000
00010200
00001300
00010020
,
00010030
00001000
00010000
00000010
00001000
00000100
00000010
00001001
,
00000044
00000000
00000000
00000000
00000033
00000000
00001000
00000010
,
00001000
00000100
00000000
00000100
00000010
00000000
00000010
00000001
00000000
00000001
00000010
00000000
00000100
00000000
00001000
00000000
,
00000100
00010000
00000000
00010000
00001000
00000000
00001000
01000000
00000000
01000000
00010000
00000000
01000000
00000000
00100000
00000000
,
01000000
00010000
00000000
00010000
10000000
00000000
10000000
01000000
00000000
01000000
10000000
00000000
00010000
00000000
00100000
00000000
,
01000000
00000000
10000000
00000000
00010000
00000000
00100000
00000000
00001000
00000000
00010000
00000100
00000000
00010000
00000000
00000000
,
00010000
00001000
00000000
00001000
00010000
00000000
00010000
00000100
00000000
00000100
00001000
00000000
00000010
00000000
00000100
00000000
,
00000010
00001000
00000000
00001000
00000010
00000000
00000010
00000100
00000000
00000100
00000001
00000000
00001000
00000000
00000100
00000000
,
00001000
00000001
00000000
00000001
00000100
00000000
00000100
00000010
00000000
00000010
00001000
00000000
00000100
00000000
00001000
00000000
,
00000010
00000000
00010000
00000000
00001000
00000000
01000000
00000000
00010000
00000000
00100000
00010000
00000000
00100000
00000000
00000000
,
10010000
00000000
00000000
00000000
01100000
00000000
00000000
00100000
00000000
00100000
10000000
00000000
01000000
00000000
00100000
00000000
,
01000000
00000000
00000000
00000000
01100000
00000000
00000000
00010000
00000000
00010000
01000000
00000000
00001000
00000000
00010000
00000000
,
00001000
00000000
00000000
00000000
00010100
00000000
00000000
00000100
00000000
00000100
00010000
00000000
00001000
00000000
00010000
00000000
,
00000010
00010000
00001000
01000000
00001000
00010000
00000010
00000000
,
00001100
00000000
00000000
00000000
00001001
00000000
00000000
00001000
00000000
00001000
00000100
00000000
00000010
00000000
00000001
00000000
,
00000010
00000000
00000000
00000000
00001100
00000000
00000000
00001000
00000000
00001000
00000001
00000000
00000100
00000000
00000010
00000000
,
00000100
00000000
00000000
00000000
00011000
00000000
00000000
00010000
00000000
00010000
00001000
00000000
01000000
00000000
00001000
00000000
,
00100000
00010000
10000000
00100000
10000000
01000000
00100000
00000000
,
10010000
00000000
00000000
00000000
11000000
00000000
00000000
01000000
00000000
01000000
00100000
00000000
00010000
00000000
10000000
00000000
,
00010000
00000000
00000000
00000000
01001000
00000000
00000000
00001000
00000000
00001000
00010000
00000000
00000100
00000000
00001000
00000000
,
00000100
00000000
00000000
00000000
00000110
00000000
00000000
00000100
00000000
00000100
00001000
00000000
00000010
00000000
00000100
00000000
,
00000001
00000000
00000100
00000010
00000000
00000010
00001000
00000000
00000100
00010000
00000000
00010000
00001000
00000000
00010000
00000000
,
00000000
00000000
00011000
00000000
00000000
00000000
00001000
00000000
01000000
00000000
00010000
01000000
00000000
01000000
00001000
00000000
,
00000000
00000000
10100000
00000000
00000000
00000000
10000000
00000000
01000000
00000000
00100000
01000000
00000000
01000000
00100000
00000000
,
00000000
00000000
00110000
00000000
00000000
00000000
00100000
00000000
00001000
00000000
00010000
00001000
00000000
00001000
01000000
00000000
,
00000100
00001000
0000M000
00001000
00000100
00000010
00000001
00000000
,
00001000
00000000
00000010
00000000
00000100
00000001
00000000
00000000
00000001
00000000
00000100
00000000
00000010
00000000
00000000
00000000
,
00010000
00000000
00000100
00000000
00001000
00000100
00000000
00000000
00000100
00000000
00010000
00000000
00011000
00000000
00000000
00000000
,
00001000
00000000
01000000
00000000
00010000
01000000
00000000
00000000
01000000
00000000
00100000
00000000
10000000
00000000
00000000
00000000
,
01000000
00100000
00001000
00010000
00001000
01000000
00010000
00000000
,
00100000
00000000
00001000
00000000
00010000
00001000
00000000
00000000
00001000
00000000
00010000
00000000
00010100
00000000
00000000
00000000
,
00001000
00000000
00000010
00000000
00001000
00000001
00000000
00000000
00000001
00000000
00001000
00000000
00000100
00000000
00000000
00000000
,
00000010
00000000
00000001
00000000
00001000
00000010
00000000
00000000
00000010
00000000
00001000
00000000
00000100
00000000
00000000
00000000
,
00001010
00000000
00000000
00000010
00000000
00000000
00010000
00000000
00000000
00001000
00000000
00000000
01000000
00000000
00010000
00000000
,
00110000
00000000
00000000
00010000
00000000
00000000
01000000
00000000
00000000
10000000
00000000
00000000
01000000
00000000
00010000
00000000
,
10010000
00000000
00000000
01000000
00000000
00000000
00100000
00000000
00000000
00100000
00010000
00000000
01000000
00000000
00001000
00000000
,
00010000
00000000
00000000
00000100
00000000
00000000
00001000
00000000
00000000
00001000
00000100
00000000
00000010
00000000
00000001
00000000
,
00001000
00000201
00000310
00001200
,
00010300
00020010
00031000
02001000
,
03001000
00000000
01000000
00000000
00010000
01000000
00000000
01000000
00010000
00000000
00010000
10000000
00000000
10000000
01000000
00000000
,
01000000
00100000
00000000
00100000
00010000
00000000
01000000
00000000
00001000
00000000
00010000
00000100
00000000
00000100
00001000
00000000
,
00000001
00001000
00000100
00000010
00000001
00001000
00000100
00010100
,
00044000
00000000
00000000
00000000
00033000
00000000
01000000
00010000
,
01000000
00100000
00000000
00100000
10000000
00000000
10000000
01000000
00000000
01000000
10000000
00000000
00010000
00000000
00100000
00000000
,
01000000
00100000
00000000
00100000
00010000
00000000
00010000
00100000
00000000
00100000
00001000
00000000
00010000
00000000
00000010
00000000
,
00001000
00000010
00000000
00000010
00000100
00000000
00000100
00000010
00000000
00000010
00001000
00000000
00000100
00000000
00000010
00000000
,
00000001
00000000
00001000
00000000
00000010
00000000
00000100
00000000
00000001
00000000
00000100
00000010
00000000
00001000
00000000
00000000
,
00001000
00000100
00000000
00001000
00000001
00000000
00001000
00000010
00000000
00001000
00000001
00000000
00000100
00000000
00000010
00000000
,
00001000
00000010
00000000
00010000
00000010
00000000
00010000
00001000
00000000
01000000
00001000
00000000
01000000
00000000
00010000
00000000
,
00100000
00010000
00000000
00100000
01000000
00000000
10000000
00010000
00000000
00100000
01000000
00000000
10000000
00000000
00010000
00000000
,
01000000
00000000
00100000
00000000
10000000
00000000
00100000
00000000
01000000
00000000
00010000
10000000
00000000
01000000
00000000
00000000
,
01000000
00000000
00000000
00100000
00000000
00000000
00010000
00000000
00000000
10000000
00000000
00000000
01000000
00000000
00000000
00000000
,
00010000
00000000
00000000
00001000
00000000
00000000
00000010
00000000
00000000
00000001
00000000
00000000
00001000
00000000
00000000
00000000
,
00000010
00000000
00000000
00000100
00000000
00000000
00000001
00000000
00000000
00001000
00000000
00000000
00000100
00000000
00010000
00000000
,
00001000
00000000
01000000
00000000
00001000
01000000
00000000
01000000
00010000
00000000
00010000
10000000
00000000
10000000
01000000
00000000
;

//---------------dance-double - M.Emirzian----------------
#NOTES:
     dance-double:
     M.Emirzian:
     Challenge:
     10:
     0.796,0.656,0.480,0.000,0.921,520.000,49.000,0.000,0.000,0.000,4.000:
00000000
00000000
00000000
00000000
,
00000000
00000000
00000000
00000000
,
00000001
00000000
00000000
00000010
00000000
00000000
00001000
00000000
00000000
00000100
00000010
00000000
00000001
00000000
00001000
00000000
,
00001100
00000000
00000000
00010100
00000000
00000000
00011000
00000000
00000000
00001000
00010000
00000000
00001000
00000000
01000000
00000000
,
01010000
00110000
11000000
10100000
,
10010000
01100000
00011000
00000110
,
00001000
00000001
00001001
00001100
00001000
00000010
00001010
00010010
,
00044000
00000000
00000000
00000000
00000000
00000000
00000000
00000000
00000000
00000000
00033000
00000000
00001000
00010000
00001000
00010000
,
00001000
01000000
00000000
01000000
00010000
00000000
00010000
00100000
00000000
00100000
01000000
00000000
10000000
00000000
00100000
00000000
,
01000000
00001000
00000000
00010000
00001000
00000000
00010000
00000010
00000000
00001000
00000010
00000000
00000100
00000000
00000001
00000000
,
00001000
00000010
00000000
00001000
00000001
00000000
00001000
00000100
00000000
00000010
00000001
00000000
00000100
00000000
00000010
00000000
,
00001000
00000000
00000100
00000000
00010000
00001000
00000000
00010000
00000100
00000000
00010000
00001000
00000000
01000000
00001000
01000000
,
00010000
00100000
00000000
00100000
01000000
00000000
01000000
10000000
00000000
10000000
00100000
00000000
01000000
00000000
00001000
00000000
,
00100000
00010000
00000000
00010000
01000000
00000000
01000000
00001000
00000000
00001000
00010000
00000000
00000100
00000000
00001000
00000000
,
00000010
00010000
00000000
00000010
00001000
00000000
00000010
00000100
00000000
00000010
00000001
00000000
00000010
00000000
00001000
00000000
,
00000100
00000000
00000010
00000000
00000001
00000001
00000000
00000100
00000100
00000000
00000010
00000010
00000000
00010000
00010000
00000000
,
00001000
00000000
00000000
00000000
01001000
00000000
00000000
00010000
00000000
01000000
00100000
00000000
10000000
00000000
10000000
00100000
,
01000000
00000000
00000000
00000000
01001000
00000000
00000000
00001000
00000000
00001000
00010000
00000000
00000100
00000000
00000100
00010000
,
00001000
00000000
00000000
00000000
00010010
00000000
00000000
00001000
00000000
00001000
00000100
00000000
00000010
00000000
00000010
00000100
,
00001000
00000000
00000010
00000100
00000000
00000001
00001000
00000000
00000100
00000010
00000000
00000100
00010000
00000000
00001000
00000000
,
00010000
00000000
00000000
00000000
01000100
00000000
00000000
00010000
00000000
00010000
00001000
00000000
01000000
00000000
01000000
00001000
,
00010000
00000000
00000000
00000000
00110000
00000000
00000000
00100000
00000000
00100000
10000000
00000000
01000000
00000000
01000000
10000000
,
00100000
00000000
00000000
00000000
01010000
00000000
00000000
00001000
00000000
00001000
00010000
00000000
00000100
00000000
00000100
00010000
,
00001000
00000000
00001000
00000100
00000000
00000100
00000001
00000000
00000001
00001000
00000000
00001000
00000100
00000000
00000010
00000000
,
00000001
00000100
00000010
00001000
00000100
00010000
00100000
01000000
,
00010000
00100000
01000000
10000000
01000000
00100000
00001000
00000100
,
00000010
00000001
00000010
00000100
00000010
00001000
00000001
00000010
,
00000001
00001000
00000100
01000000
00000100
00010000
00001000
00100000
,
00001000
00000000
00010000
00000000
00001000
01000000
00000000
00100000
10000000
00000000
00010000
01000000
00000000
00100000
10000000
00010000
,
01000000
00000000
01000000
00000000
00010000
00100000
00000000
00100000
00001000
00000000
00001000
00010000
00000000
00010000
00000100
00001000
,
00000100
00000000
00000010
00000000
00000001
00001000
00000000
00000010
00000100
00000000
00000001
00001000
00000000
00000001
00001000
00000100
,
00000010
00000000
00000100
00000000
00000000
00001010
00000000
00001100
00000000
00000100
00010000
00000000
00001000
00010000
00000000
00001000
,
01000000
00000000
00010000
00000000
10000000
00100000
00000000
01000000
00010000
00000000
10000000
00100000
00000000
10000000
00010000
01000000
,
00100000
00000000
10000000
00000000
01000000
00100000
00000000
00100000
00001000
00000000
00001000
00010000
00000000
00010000
00000010
00001000
,
00000010
00000000
00001000
00000000
00000100
00000010
00000000
00000100
00001000
00000000
00000100
00000010
00000000
00000100
00001000
00000100
,
00000010
00000000
00000001
00000000
00000000
00001100
00000000
00000101
00000000
00000001
00000100
00000000
00000010
00001000
00000000
00000010
,
00010000
00000000
00001000
00000000
01000000
00001000
00000000
00010000
00000010
00000000
00010000
00001000
00000000
01000000
00001000
00010000
,
00000010
00000000
00010000
00000000
00001000
01000000
00000000
00010000
01000000
00000000
00001000
00010000
00000000
00001000
01000000
00010000
,
01000000
00000000
00100000
00000000
00000000
10000000
00000000
01000000
00000000
00100000
00010000
00000000
10000000
00100000
00000000
01000000
,
00010000
00000000
00000000
00110000
00000000
00000000
00101000
00000000
00000000
01001000
00000000
00000000
01000000
00000000
00001000
00000000
,
00010000
00000000
00000000
00100010
00000000
00000000
00011000
00000000
00000000
00010100
00000000
00000000
00001000
00000000
00000010
00000000
,
00000100
00000000
00000000
00001001
00000000
00000000
00010001
00000000
00000000
00001000
00000100
00000000
00000010
00000000
00000100
00000000
,
00001000
00000000
00000000
00010010
00000000
00000000
00011000
00000000
00000000
01000000
00001000
00000000
00010000
00000000
00000100
00000000
,
00001100
00001010
00000101
00000011
,
00001001
00000110
00011000
01100000
,
10000000
00000000
01000000
00000000
00100000
00010000
00000000
00100000
00001000
00000000
00100000
00010000
00000000
01000000
00001000
00000000
,
00010000
00001000
00000000
00010000
00000010
00000000
00001000
00000000
00000100
00000000
00000010
00000001
00000000
00001000
00000100
00000000
,
00000010
00000001
00001001
00001100
00001000
00000010
00010010
00011000
,
00040400
00000000
00000000
00000000
00000000
00000000
00000000
00000000
00000000
00000000
00030300
00000000
00001000
00010000
00000100
00010000
,
00001000
00010000
00000000
00010000
00000100
00000000
00000100
00001000
00000000
00001000
00000010
00000000
00000100
00000000
00000001
00000000
,
00001000
00000100
00000000
00000010
00000100
00000000
00001000
00000100
00000000
00010000
00001000
00000000
00000100
00000000
00001000
00000000
,
00010000
00001000
00000000
00001000
01000000
00000000
01000000
00100000
00000000
00100000
10000000
00000000
01000000
00000000
00100000
00000000
,
00010000
00000000
10000000
00000000
01000000
00010000
00000000
01000000
10000000
00000000
01000000
00010000
00000000
01000000
10000000
01000000
,
10000000
00010000
00000000
00010000
01000000
00000000
01000000
00001000
00000000
00001000
00010000
00000000
00000010
00000000
00010000
00000000
,
00000010
00100000
00000000
00100000
00001000
00000000
00001000
00010000
00000000
00010000
00000100
00000000
01000000
00000000
00001000
00000000
,
00010000
00000010
00000000
00000010
00000100
00000000
00000100
00000001
00000000
00000001
00001000
00000000
00000100
00000000
00000010
00000000
,
00000001
00000000
00000100
00000000
00000010
00001000
00000000
00000010
00010000
00000000
00001000
00010000
00000000
00001000
01000000
00010000
,
01000000
00100000
00000000
10000000
00010000
00000000
10000000
01000000
00000000
00100000
00010000
00000000
00100000
00000000
00001000
00000000
,
00010000
00010000
00000000
00001000
00001000
00000000
00010000
00010000
00000000
00000100
00000100
00000000
00001000
00000000
00000010
00000000
,
00001000
00000100
00000000
00000010
00000001
00000000
00001000
00000010
00000000
00010000
00001000
00000000
00000100
00000000
00001000
00000000
,
00010000
00000000
00100000
00000000
10000000
01000000
00000000
00100000
00010000
00000000
00001000
00000100
00000000
00000010
00000001
00000000
;

//---------------dance-single - J. Frederick----------------
#NOTES:
     dance-single:
     J. Frederick:
     Beginner:
     1:
     0.091,0.119,0.069,0.000,0.000,58.000,7.000,0.000,0.000,0.000,0.000,0.091,0.119,0.069,0.000,0.000,58.000,7.000,0.000,0.000,0.000,0.000:
0000
0000
0000
0000
,
0000
0000
0000
0000
,
0000
0000
0000
0000
,
0000
0000
0000
0000
,
1000
0000
0000
0000
,
0001
0000
0000
0000
,
0010
0000
0010
0000
,
0100
0000
0000
0000
,
1000
0000
0000
0000
,
0001
0000
0000
0000
,
0010
0000
0000
0000
,
0100
0000
0000
0000
,
1000
0000
0000
0000
,
0001
0000
0000
0000
,
0100
0000
0000
0000
,
0010
0000
0000
0000
,
1001
0000
0000
0000
,
0000
0000
0000
0000
,
1001
0000
0000
0000
,
0000
0000
0000
0000
,
0110
0000
0000
0000
,
0000
0000
0000
0000
,
0110
0000
0000
0000
,
1000
0000
0001
0000
,
1001
0000
0000
0000
,
0010
0000
0000
0000
,
0100
0000
0000
0000
,
1000
0000
0000
0000
,
0001
0000
0000
0000
,
0000
0000
0000
0000
,
0100
0000
0000
0000
,
0000
0000
0000
0000
,
0010
0000
0000
0000
,
1000
0000
0000
0000
,
0001
0000
0000
0000
,
0010
0000
0000
0000
,
0100
0000
0000
0000
,
0010
0000
0000
0000
,
0001
0000
1000
0000
,
1001
0000
0000
0000
,
0100
0000
0000
0000
,
0010
0000
0000
0000
,
1000
0000
0000
0000
,
0001
0000
0000
0000
,
0100
0000
0000
0000
,
0010
0000
0010
0000
,
0100
0000
0100
0000
,
1000
0000
0000
0000
,
1000
0000
0000
0000
,
0001
0000
0000
0000
,
0010
0000
0000
0000
,
0100
0000
0000
0000
,
1000
0000
0000
0000
,
0001
0000
0000
0000
,
0100
0000
0000
0000
,
0010
0000
0000
0000
,
1001
0000
0000
0000
,
0010
0000
0000
0000
,
0100
0000
0000
0000
,
1000
0000
0000
0000
,
0001
0000
1000
0000
;

//---------------dance-single - M. Calfin----------------
#NOTES:
     dance-single:
     M. Calfin:
     Edit:
     11:
     0.771,0.686,0.333,0.000,0.946,517.000,34.000,0.000,0.000,0.000,4.000,0.771,0.686,0.333,0.000,0.946,517.000,34.000,0.000,0.000,0.000,4.000: // measure 1
0000
0000
0000
0000
,  // measure 2
0000
0000
0000
0000
,  // measure 3
1001
0000
0000
1100
0000
0000
0110
0000
0000
0010
0001
0000
0001
0000
0100
0000
,  // measure 4
0010
0000
1000
0001
0000
0000
0001
0000
0000
1000
0001
0000
1000
0000
0100
0000
,  // measure 5
1100
0011
1100
1010
,  // measure 6
1001
0110
0011
0110
,  // measure 7
1000
0010
1000
0100
0010
0001
1000
0001
,  // measure 8
4000
0004
0000
0000
0000
0000
0000
0000
0000
0000
0000
0000
0000
0000
3003
0000
,  // measure 9
0001
0100
0000
0100
0001
0000
0001
0010
0000
0010
0100
0000
1000
0000
0010
0000
,  // measure 10
0100
0001
0000
0001
0010
0000
0010
1000
0000
1000
0010
0000
0001
0000
0100
0000
,  // measure 11
1000
0100
0000
0100
0001
0000
0010
0100
0000
1000
0100
0000
0010
0000
0001
0000
,  // measure 12
1000
0000
0100
0000
0010
0100
0000
0010
1000
0000
0010
0001
0000
0001
0100
0001
,  // measure 13
0010
0100
0000
0100
1000
0000
0100
0010
0000
0001
0010
0000
0100
0000
1000
0000
,  // measure 14
0100
0010
0000
1000
0010
0000
0001
0010
0000
0010
0100
0000
1000
0000
0100
0000
,  // measure 15
0010
0001
0000
0001
0100
0000
0100
1000
0000
1000
0100
0000
0010
0000
0100
0000
,  // measure 16
0001
0000
0001
0000
0010
0100
0000
0010
0100
0000
0010
0001
0000
0010
1000
0000
,  // measure 17
0011
0000
0000
0000
0101
0000
0000
0001
0000
0100
0010
0000
1000
0000
1000
0010
,  // measure 18
0100
0000
0000
0000
0101
0000
0000
0100
0000
0010
1000
0000
1000
0000
0100
0001
,  // measure 19
0100
0000
0000
0000
0001
0000
0000
0100
0000
1000
0010
0000
0100
0000
0001
0000
,  // measure 20
0010
0000
0001
0100
0000
1000
0100
0000
1000
0100
0000
0100
0001
0000
0100
0000
,  // measure 21
0001
0000
0000
0000
0110
0000
0000
0001
0000
0001
0010
0000
0100
0000
1000
0100
,  // measure 22
1000
0000
0000
0000
1010
0000
0000
0010
0000
0010
1000
0000
0100
0000
0100
1000
,  // measure 23
0010
0000
0000
0000
0101
0000
0000
1000
0000
0010
0001
0000
0010
0000
1000
0000
,  // measure 24
0110
0000
0010
0001
0000
0010
1000
0000
1000
0100
0000
0010
0001
0000
0010
0000
,  // measure 25
0110
0000
0000
0000
1100
0000
0000
1000
0000
0100
0010
0000
0010
0000
0100
1000
,  // measure 26
0001
0000
0000
0000
0110
0000
0000
0010
0000
1000
0010
0000
0001
0000
1000
0000
,  // measure 27
1100
0000
0000
0000
0101
0000
0000
0011
0000
0001
0010
0000
0010
0000
0100
0000
,  // measure 28
1000
0000
0100
0010
0000
0001
0100
0000
0001
0010
0000
0010
0100
0000
0010
0000
,  // measure 29
0011
0000
0001
0000
0100
0010
0000
0100
1000
0000
0001
0100
0000
0010
1000
0001
,  // measure 30
0100
0000
0100
0000
0001
0010
0000
0010
0100
0000
1000
0001
0000
0100
0010
1000
,  // measure 31
0100
0000
0010
0000
0001
0010
0000
0010
0100
0000
1000
0010
0000
1000
0100
0001
,  // measure 32
0100
0000
1000
0000
0000
0010
0000
0100
0000
0010
1000
0000
0100
0000
0010
0000
,  // measure 33
0100
0000
1000
0000
0100
0010
0000
0100
0001
0000
0100
0010
0000
0001
1000
0100
,  // measure 34
0010
0000
0100
0000
0010
1000
0000
0010
0001
0000
1000
0001
0000
0001
1000
0100
,  // measure 35
0010
0000
0001
0000
0010
0100
0000
0010
0001
0000
0010
1000
0000
0010
0001
0100
,  // measure 36
0001
0000
0100
0000
0000
1000
0000
0100
0000
0001
0010
0000
0100
0000
0010
0000
,  // measure 37
0001
0000
0010
0000
0100
1000
0000
0001
0100
0000
0001
0100
0000
0100
0001
0010
,  // measure 38
0001
0000
0100
0000
0001
0100
0000
0001
0100
0000
0001
0010
0000
0001
0100
1000
,  // measure 39
0100
0000
0010
0000
0000
1000
0000
0100
0000
0010
0001
0000
1000
0010
0000
0100
,  // measure 40
0001
0000
0000
0011
0000
0000
0010
0000
0000
0100
1000
0000
0100
0000
0010
0000
,  // measure 41
0001
0000
0000
0100
0000
0000
1000
0000
0000
0100
0001
0000
0010
0000
1000
0000
,  // measure 42
0010
0000
0000
0001
0000
0000
0100
0000
0000
1000
0100
0000
0010
0000
0100
0000
,  // measure 43
0001
0000
0000
0010
0000
0000
0001
0000
0000
0100
0010
0000
0100
0000
0010
0000
,  // measure 44
1010
1001
1100
0110
,  // measure 45
0011
0110
0101
0110
,  // measure 46
1000
0000
0100
0000
0010
0001
0000
0010
0100
0000
0010
0001
0000
0100
0001
0000
,  // measure 47
0100
1000
0000
0100
0001
0000
0010
0000
0100
0000
1000
0100
0000
0010
0001
0000
,  // measure 48
0010
0100
1000
0100
0001
0100
1000
0001
,  // measure 49
4000
0004
0000
0000
0000
0000
0000
0000
0000
0000
3003
0000
1000
0001
1000
0001
,  // measure 50
1000
0001
0000
0010
1000
0000
0010
0001
0000
0001
0100
0000
0010
0000
1000
0000
,  // measure 51
0100
0010
0000
0010
0001
0000
0001
0010
0000
0100
1000
0000
0100
0000
0001
0000
,  // measure 52
0100
1000
0000
1000
0100
0000
0100
0010
0000
0010
0100
0000
1000
0000
0010
0000
,  // measure 53
0001
0000
1000
0000
0100
0001
0000
0100
1000
0000
0100
0001
0000
0100
0001
0100
,  // measure 54
0001
0010
0000
0001
0100
0000
0100
0010
0000
1000
0001
0000
0010
0000
0001
0000
,  // measure 55
0001
0010
0000
0010
0100
0000
1000
0001
0000
0001
0010
0000
0100
0000
0010
0000
,  // measure 56
0001
0100
0000
0010
1000
0000
0100
0010
0000
0100
0001
0000
0100
0000
1000
0000
,  // measure 57
0010
0000
0100
0000
0001
0010
0000
0001
0100
0000
0010
0001
0000
1000
0100
0001
,  // measure 58
0100
0010
0000
1000
0001
0000
1000
0100
0000
0010
0001
0000
0010
0000
1000
0000
,  // measure 59
0001
0100
0000
0100
0010
0000
0010
1000
0000
1000
0100
0000
0100
0000
0010
0000
,  // measure 60
0001
0001
0000
0100
0100
0000
0010
0010
0000
1000
1000
0000
0100
0000
0010
0000
,  // measure 61
0001
0000
0100
0000
1000
0100
0000
0100
0001
0000
0001
0010
0000
0010
0100
0000
;
