h#TITLE:Pink Fuzzy Bunnies;
#SUBTITLE:;
#ARTIST:Wonderboy;
#TITLETRANSLIT:;
#SUBTITLETRANSLIT:;
#ARTISTTRANSLIT:;
#GENRE:Silly Pop;
#CREDIT:;
#BANNER:Pink Fuzzy Bunnies-bn.png;
#BACKGROUND:Pink Fuzzy Bunnies-bg.png;
#LYRICSPATH:;
#CDTITLE:;
#MUSIC:Pink Fuzzy Bunnies.ogg;
#OFFSET:-0.167;
#SAMPLESTART:27.320;
#SAMPLELENGTH:11.840;
#SELECTABLE:YES;
#BPMS:0.000=211.000,160.000=128.000,192.000=211.000,297.000=200.000,297.250=180.000,297.500=160.000,297.750=140.000,298.000=119.500,299.000=211.000;
#STOPS:;
#BGCHANGES:-0.141=Pink Fuzzy Bunnies.mpg=1.000=1=0=0=StretchNoLoop==CrossFade==,
99999=-nosongbg-=1.000=0=0=0 // don't automatically add -songbackground-;
#KEYSOUNDS:;

//---------------dance-single - K. Ward----------------
#NOTES:
     dance-single:
     K. Ward:
     Easy:
     5:
     0.413,0.000,0.102,0.240,0.000:
0000
0000
0000
0000
,
0000
0000
0000
0000
,
0000
0000
0000
0000
,
0000
0000
0000
0000
,
1000
0001
1000
0001
,
0100
0010
0100
0100
,
1000
0100
0010
0100
,
0002
0000
0000
0003
,
1000
1000
0001
0001
,
0010
0000
0100
0000
0010
0000
0010
0100
,
1000
0001
0100
1000
,
0100
0100
0100
0000
,
0001
1000
0100
0100
,
0010
0000
0100
0000
1000
0000
0001
0100
,
0010
0100
0001
1000
,
0001
0000
1000
0100
1000
0000
0000
0000
,
0100
0100
0100
0100
,
0200
0000
0000
0300
,
0010
0010
0010
0010
,
0020
0000
0000
0030
,
0100
1000
0010
0100
,
0200
0000
0000
0300
,
0010
0001
0100
1000
,
0001
1000
1001
0000
,
0100
0100
0010
0M00
,
0010
0010
0100
00M0
,
0001
1000
0001
1000
,
0001
0001
0001
0000
,
0010
0010
0001
00M0
,
0001
0001
0010
000M
,
0100
1000
0010
0001
,
1000
0001
1001
0000
,
0200
0010
0000
0310
,
0002
1000
0000
1003
,
0200
0010
0000
0310
,
0002
1000
0000
1003
,
0010
0100
0010
0100
,
0001
1000
0001
1000
,
0100
0100
0100
0100
,
0200
0000
0000
0300
,
0010
0001
0010
0001
,
0100
0100
0200
0000
,
0310
1000
0010
1000
,
0001
0001
0002
0000
,
0003
1000
0000
0001
0000
0100
0000
0010
,
0000
1000
0000
0001
0000
1000
0001
1000
,
0100
0100
0100
0100
,
0200
0000
0000
0300
,
0010
0001
0100
0010
,
0100
0010
1000
1000
,
0010
0100
0001
0010
,
0100
0010
0010
0000
,
0001
0001
1000
1000
,
0001
0001
0001
0000
,
0100
1000
0010
0001
,
1000
0001
1001
0000
,
0100
0100
0100
0100
,
0100
0100
0100
0M00
,
1000
1000
1000
1000
,
1000
1000
1000
M000
,
0001
0001
0001
0001
,
0001
0001
0001
000M
,
1000
1000
0001
0001
,
0100
0010
0100
1000
,
0200
0000
0302
0000
,
0023
0000
0001
0031
,
2000
0000
3020
0000
,
0230
0000
0001
0301
,
2000
0000
3200
0000
,
0320
0000
0100
0130
,
2000
0000
3002
0000
,
0103
0010
1000
0100
,
1001
0000
0110
0000
,
0001
0100
0010
00M0
,
0100
0002
0000
0103
,
0010
0100
0001
1000
,
1000
1000
0000
0100
,
0010
0100
0010
0001
,
1000
1001
0000
0100
,
0010
0100
0010
1000
,
0001
0010
0010
0100
,
0010
0001
0100
1000
,
0100
0010
1000
0001
,
1000
0001
0010
0100
,
0100
0100
0100
2002
,
0000
0000
0000
3003
,
0000
1001
1001
0000
,
0000
0000
0000
0000
,
0000
1001
1001
0000
;

//---------------dance-single - K. Ward----------------
#NOTES:
     dance-single:
     K. Ward:
     Beginner:
     1:
     0.099,0.000,0.065,0.000,0.000:
0000
0000
0000
0000
,
0000
0000
0000
0000
,
0000
0000
0000
0000
,
0000
0000
0000
0000
,
1000
0000
0000
0000
,
0000
0000
0000
0000
,
0001
0000
0000
0000
,
0000
0000
0000
0000
,
0100
0000
0000
0000
,
0000
0000
0000
0000
,
0010
0000
0000
0000
,
0000
0000
0000
0000
,
1000
0000
0000
0000
,
0000
0000
0000
0000
,
0001
0000
0000
0000
,
1000
0000
0000
0000
,
0001
0000
0000
0000
,
0001
0000
0000
0000
,
1000
0000
0000
0000
,
1000
0000
0000
0000
,
0100
0000
0000
0000
,
0100
0000
0000
0000
,
1000
0000
1000
0000
,
1000
0000
0000
0000
,
0010
0000
0000
0000
,
0100
0000
0000
0000
,
0001
0000
0000
0000
,
0001
0000
0000
0000
,
1000
0000
0000
0000
,
1000
0000
0000
0000
,
0100
0000
0100
0000
,
0100
0000
0000
0000
,
1000
0000
0000
0000
,
0000
0000
0000
0000
,
0001
0000
0000
0000
,
0000
0000
0000
0000
,
1000
0000
0000
0000
,
0001
0000
0000
0000
,
0100
0000
0000
0000
,
0100
0000
0000
0000
,
1001
0000
0000
0000
,
0000
0000
0000
0000
,
0100
0000
0000
0000
,
0000
0000
0000
0000
,
0010
0000
0100
0000
,
0001
0000
1000
0000
,
0100
0000
0010
0000
,
0100
0000
0000
0000
,
1000
0000
0000
0000
,
0000
0000
0000
0000
,
0100
0000
0000
0000
,
0000
0000
0000
0000
,
1000
0000
0000
0000
,
0000
0000
0000
0000
,
0001
0000
0000
0000
,
0000
0000
0000
0000
,
1000
0000
0000
0000
,
0000
0000
0000
0000
,
0001
0000
0000
0000
,
0000
0000
0000
0000
,
0100
0000
0000
0000
,
0000
0000
0000
0000
,
0010
0000
0000
0000
,
0100
0000
0000
0000
,
1001
0000
0000
0000
,
0000
0000
0000
0000
,
1000
0000
0000
0000
,
0000
0000
0000
0000
,
0001
0000
0000
0000
,
0000
0000
0000
0000
,
0010
0000
0010
0000
,
0010
0000
0000
0000
,
1001
0000
0000
0000
,
1001
0000
0000
0000
,
0000
0000
0000
0010
,
0000
0000
0000
0000
,
0000
0000
0000
0100
,
0000
0000
0000
0000
,
0000
0000
0000
0001
,
0000
0000
0000
0000
,
0000
0000
0000
1000
,
0000
0000
0000
0100
,
0000
0000
0000
0010
,
0000
0100
0000
0010
,
0000
0000
0000
1001
,
0000
0000
0000
0000
,
0000
1001
0000
0000
,
0000
0000
0000
0000
,
0000
1001
0000
0000
;

//---------------dance-single - R. McKanna----------------
#NOTES:
     dance-single:
     R. McKanna:
     Hard:
     9:
     0.716,0.000,0.424,0.212,0.014:
0000
0000
0000
0000
,
0000
0000
0000
0000
,
0000
0000
0000
0000
,
0000
0000
0000
0000
,
1000
0000
0010
0100
0001
0000
0010
0100
,
1000
1000
0001
0001
1000
0000
0001
0000
,
0001
0010
0100
1000
0001
0010
0100
1000
,
0002
0100
1000
0103
,
1000
0100
0010
0100
1000
0010
0100
0010
,
0001
0010
0100
0001
0001
0010
0100
1000
,
0001
0010
0001
0010
0100
1000
0100
1000
,
0010
0000
1001
0000
0001
1000
0001
1000
,
0001
0100
0010
0100
0001
0010
0100
0010
,
1000
0010
0100
1000
1000
0010
0100
0001
,
1000
0010
1000
0010
0100
0001
0100
0001
,
1000
0001
1001
0000
0001
1000
1001
0000
,
0010
0011
0100
1100
,
0001
0010
0001
0200
0010
0000
0010
1300
,
0100
1100
0001
0011
,
1000
0001
0100
0020
1000
0000
1000
0031
,
0100
1010
0010
0101
,
0010
1000
0001
0200
0010
0000
0310
1000
,
0100
0000
0011
0000
1000
0100
0001
0000
,
2200
0000
0000
3300
,
1000
0000
0010
0100
0001
0000
0010
0100
,
1000
1000
0001
0001
1000
0000
0100
0000
,
0010
0001
1000
0010
0100
0001
1000
0010
,
0100
1000
0100
0010
2000
0000
3000
0000
,
0001
0000
0010
0100
1000
0000
0010
0100
,
0001
0001
1000
1000
0001
0000
0100
0000
,
0010
1000
0001
0010
0100
1000
0001
0010
,
0200
1000
0001
1300
,
0001
0000
0001
0000
1000
0000
0000
0100
0000
0000
0100
0000
1000
0000
0000
0000
,
0010
0010
1000
0001
0010
0100
1000
0000
,
1000
0000
1000
0000
0001
0000
0000
1000
0000
0000
1000
0000
0001
0000
0000
0000
,
0100
0100
0001
1000
0100
0010
0001
0000
,
0001
0000
0001
0000
1000
0000
0000
0010
0000
0000
0010
0000
1000
0000
0000
0000
,
0001
0001
1000
0010
0100
0001
1000
0000
,
1000
0100
0001
0100
1000
0100
0001
0100
,
0010
0001
0100
1000
0100
0001
0010
0000
,
1001
0001
0011
0010
,
0110
0100
0100
4200
0000
0000
3300
0000
,
1001
1000
1100
0100
,
0110
0010
0010
0024
0000
0000
0133
0000
,
0001
0100
1000
0100
0001
0100
1000
0100
,
0001
0010
0100
2004
0000
0000
3003
0000
,
0001
0100
1000
0100
0001
0001
0002
0000
,
4000
0000
0000
3003
,
0100
0001
1000
0100
0010
0100
1000
0100
,
0001
0100
1000
0020
0100
0000
0130
0000
,
0001
1000
0010
0100
0001
0100
0001
0020
,
0000
0000
0031
1000
0010
0100
0010
0000
,
1000
0001
0100
0010
1000
0100
0010
0002
,
0000
2000
0000
0000
0000
3003
0000
0001
,
0000
0100
0000
0001
1000
0001
0000
0001
,
2000
0010
0001
3010
,
0001
0000
0000
0001
0000
0100
0000
1000
,
0000
0100
0000
0001
0000
0010
0011
0000
,
0001
0000
0000
1000
0000
0100
0000
0001
,
0000
0100
0000
1000
1100
0000
1100
0000
,
0010
0000
0000
1000
0000
0100
0000
1000
,
0000
0010
0000
0100
0000
0001
0101
0000
,
0100
0000
0000
0001
0000
0010
0000
0001
,
0000
0100
0000
0010
1010
0000
1010
0000
,
0001
0101
1000
1100
,
0001
1000
0001
2000
0000
0000
3001
0000
,
1000
1100
0001
0101
,
1000
0001
1000
0002
0000
0000
1003
0000
,
1000
0100
0001
0100
1000
0100
0001
0100
,
1000
0010
0100
0002
0000
0000
1003
0000
,
0001
0010
1000
0010
1000
0010
0001
0100
,
0020
0100
0001
0130
,
1100
1010
1001
0100
,
0001
0000
0010
0100
1000
0000
0010
0100
,
0001
0100
0010
0200
0000
0300
1001
0000
,
0001
0010
0100
0000
0001
0010
0100
0100
,
1000
1000
0010
0000
0100
0000
0010
0100
,
0001
1000
0010
0100
0001
1000
0001
0100
,
0010
1000
0002
0000
0000
0003
1001
0000
,
1000
0100
0010
0000
1000
0100
0010
0010
,
0001
0001
0010
0000
0100
0000
1100
0100
,
0010
0001
1000
0100
0010
0000
1001
1000
,
0100
0010
0001
1000
0100
0000
0011
0001
,
1000
0000
1100
1000
0001
0000
1001
0001
,
1000
0001
1001
0000
0110
0000
0001
0000
,
0001
0000
0001
0001
0001
0000
1000
0001
,
1000
0001
1001
0000
1001
0000
0000
0000
,
0000
0000
0000
0000
,
0000
1001
1001
0000
;

//---------------dance-single - M. Calfin----------------
#NOTES:
     dance-single:
     M. Calfin:
     Challenge:
     12:
     1.000,0.000,0.572,0.092,0.664:
0000
0000
0000
0000
,
0000
0000
0000
0000
,
0001
1000
0100
0010
0001
0010
0100
1000
,
0100
1000
0100
0010
0001
0000
0011
0000
,
0101
0000
M11M
0100
0010
M000
1000
0010
,
0100
0001
0100
0010
0100
0000
0101
0000
,
0001
1000
0100
0010
0001
1000
0010
1000
,
2002
0000
0000
3003
,
1000
0001
0100
0000
0010
1000
0001
0000
0010
0001
0010
0000
0001
0100
0001
0000
,
1000
0001
1000
0001
0100
0010
0100
0000
0010
0100
0010
0100
0001
1000
0001
0000
,
0100
0010
1000
0001
0010
0100
1000
0100
,
0010
0001
0100
0000
0010
1000
0100
0000
1000
0000
0100
0000
1001
0000
0000
0000
,
1000
0010
1000
0000
0001
0100
0001
0000
1000
0100
1000
0000
0001
0010
0001
0000
,
1000
0001
1000
0010
1000
0100
1000
0000
0001
1000
0001
0100
0001
0010
0001
0000
,
1000
0010
1000
0010
0100
0001
0100
0001
,
1000
0100
0010
0000
0001
0010
0100
1000
0100
0000
0010
0000
0001
0000
0000
0000
,
1001
1100
1001
0101
,
0001
0000
0100
0000
0010
0000
1000
0000
0100
0000
0010
0000
0001
1000
0001
1000
,
0100
0010
0001
0000
1000
0001
0100
0000
0001
0100
0010
0000
0100
0010
1000
0000
,
0001
0000
1000
0000
0100
0000
0010
0000
0001
0010
0001
0010
0100
1000
0100
1000
,
0100
1001
1010
1001
,
0101
0000
0001
0000
0100
0000
0001
0000
0100
0000
0001
0000
0100
0010
0100
0010
,
1000
0010
1000
0000
0010
1000
0100
0000
1000
0100
0010
0000
0001
0010
0001
0000
,
1000
0100
1000
0100
0010
0000
0001
0000
0100
0000
001M
0000
1M0M
0000
0M0M
0000
,
1M1M
0000
0010
1000
0100
M00M
1000
0100
,
0010
0001
0010
0100
1000
0000
1100
0000
,
1000
0100
0010
0000
0001
0000
0100
0000
0010
1000
0010
0000
1000
0000
0100
0000
,
1000
0100
1000
0000
0100
0000
0010
0000
0001
0000
0000
0000
1100
0000
0000
0000
,
0011
0000
0001
0100
0010
0MM0
1000
0010
,
0100
0001
1000
0010
0100
0001
0101
0000
,
1000
0100
1000
0000
0100
0000
0010
0000
0001
0010
0001
0000
0001
0000
0100
0000
,
0010
0000
1000
0000
0100
0000
0010
0100
0010
0100
0010
0000
0001
0000
0100
0000
,
0010
0000
1000
0000
0010
0000
0000
1000
0000
0100
1000
0000
0100
0000
00MM
0000
,
0001
0000
0010
0000
0100
0000
1000
0100
1000
0000
0100
0000
0010
0000
0000
0000
,
0001
0000
0100
0000
0001
0000
0000
0100
0000
0001
0100
0000
0001
0000
M0M0
0000
,
0010
0000
1000
0000
0100
0000
0010
0100
0010
0000
0100
0000
1000
0000
0000
0000
,
1000
0000
0001
0000
0100
0000
0000
0100
0000
0001
0100
0000
0010
0000
M00M
0000
,
0001
0000
1000
0000
0001
0000
1000
0001
1000
0000
0100
0000
0010
0000
0000
0000
,
0011
0110
1100
0110
,
0001
0010
0001
0010
0001
0000
0010
0000
0100
0000
1000
0000
0001
0000
0000
0000
,
1001
0110
1001
0110
,
0001
1000
0001
1000
0000
1100
1100
0000
,
2002
0010
0100
3013
,
0100
0010
0100
0010
0000
0011
0011
0000
,
0202
0010
1000
0313
,
1000
0100
1000
0100
0000
0100
0110
0000
,
2002
0000
3113
0000
0001
0100
0010
0000
,
1000
0000
0010
0000
0100
0000
0001
0100
0001
0000
0100
0000
0010
0000
1000
0000
,
1010
0000
0000
1001
0000
1100
0000
0011
,
0000
0110
0000
0100
0010
0000
0001
0000
,
1000
0000
0000
0000
0000
0000
0001
0000
0100
0000
0010
0000
1000
0010
0100
0000
,
0MM0
0000
0001
0000
0M0M
0000
1000
0000
0100
0000
0010
0001
0010
0000
00MM
0000
,
0001
0000
0010
0000
0100
0000
1000
0000
0100
0000
0010
0001
0010
0000
0001
0000
,
0000
0000
0100
0000
0000
0000
0010
0000
1000
0010
0100
0000
0MM0
0000
0010
0000
,
1000
0001
M00M
0010
0100
10MM
0000
0001
,
0010
0000
0110
0010
0100
0010
0100
1000
,
0100
0000
0010
0100
1000
0000
0001
1000
0100
0000
1000
0000
0000
0000
1001
0000
,
0000
1100
0000
0001
1100
0000
1100
0000
,
0001
1000
0100
0000
0010
0001
0100
0000
0010
1000
0100
0000
0010
0001
0010
0000
,
0100
0000
1000
0100
1000
0000
0001
1000
0100
0000
0010
0001
0010
0000
0100
0000
,
0010
0000
0001
0100
0010
0000
1000
0010
0100
0000
0010
0000
M0M0
0000
1010
0000
,
0000
0101
0000
0100
1010
0000
1100
0000
,
1000
0100
0010
0000
0001
0010
0100
0000
1000
0100
0010
0000
0001
0010
0100
0000
,
1000
0000
0010
0100
0001
0000
0100
0010
1000
0000
0100
0010
0001
0000
0010
0000
,
0100
1000
0100
1000
0010
1000
0010
0000
1000
0010
1000
0010
1000
0001
1000
0000
,
0001
0010
0100
0000
0010
0100
1000
0000
0100
0010
0001
0000
0010
0000
0100
0000
,
1000
0010
1000
0001
1000
0010
1000
0000
0001
1000
0001
0100
0001
1000
0001
0000
,
1000
0100
0010
0000
0001
0010
0100
0000
0010
0100
1000
0000
0100
0010
0001
0000
,
1000
0001
1000
0001
1000
0001
1000
0000
0010
0100
0010
0100
0010
0100
0010
0000
,
1000
0010
0100
0000
0001
0010
0100
0000
1000
0010
0100
0000
0010
0000
1000
0000
,
0010
1000
0010
1000
0010
0100
0010
0100
0001
0010
0001
0010
0001
0100
0001
0100
,
0001
1000
0001
1000
0100
1000
0100
1000
0010
1000
0010
1000
0001
0000
0000
0000
,
0011
0000
0000
0000
1100
0000
0000
0000
0110
0000
0000
0000
0010
0001
0010
0001
,
0100
0000
0010
1000
0100
MM00
0010
0001
,
0100
0000
0010
0000
1000
0000
2020
0000
0000
0000
3030
MMMM
0010
0000
1000
0000
,
0100
0000
0000
0100
0000
0010
0001
0000
0010
0000
00MM
0000
0100
0000
1000
0000
,
0100
0000
0010
0001
0010
0000
0001
0000
0100
0000
0000
0000
0001
0000
0100
0000
,
0010
0000
0000
0010
0000
1000
0100
0000
0010
0000
0MM0
0000
0001
1000
0001
1000
,
0001
1000
0100
0010
0001
0100
0010
1000
,
0100
0000
0000
0010
0000
0001
0100
0000
0010
0000
0MM0
0000
1000
0000
0001
0000
,
0100
0000
0010
1000
0100
0000
0010
0000
0001
0000
0000
0000
0010
0000
0100
0000
,
1000
0000
0000
0001
0000
1000
0100
0000
1000
0000
MM00
0000
0010
0000
0100
0000
,
0001
0000
0100
0010
0100
0000
0010
0000
1000
0000
0000
0000
1010
0000
0000
0000
,
1100
0000
0000
0000
1010
0000
0000
0000
0110
0000
0000
0000
0001
0010
0001
0010
,
0001
0010
0100
1000
0100
MM00
0010
00MM
,
0100
MM00
0100
1000
0100
MM00
0010
0001
,
0010
0001
0000
0101
1001
MMMM
0000
0000
,
0000
0000
0000
0000
,
0000
0000
1001
0000
1001
MMMM
0000
0000
;

//---------------dance-double - M.Emirzian----------------
#NOTES:
     dance-double:
     M.Emirzian:
     Challenge:
     13:
     0.991,0.000,0.572,0.055,0.660:
00000000
00000000
00000000
00000000
,
00000000
00000000
00000000
00000000
,
10000000
01000000
00100000
00010000
10000000
00100000
01000000
00010000
,
10000000
01000000
00100000
00010000
00100000
00000000
00011000
00000000
,
00010010
00000000
00010000
00000100
00001000
0000MM00
00000001
00000100
,
00000010
00001000
00000010
00010000
00001000
00000000
01001000
00000000
,
00010000
01000000
00100000
10000000
00010000
10000000
01000000
00100000
,
20020000
00000000
00000000
30030000
,
10000000
00010000
01000000
00000000
00100000
10000000
00010000
00000000
00100000
00010000
00100000
00000000
00001000
00100000
00001000
00000000
,
00010000
00000100
00010000
00000100
00001000
00000001
00001000
00000000
00000010
00000100
00000010
00000100
00000001
00001000
00000001
00000000
,
00000100
00000010
00001000
00000001
00000010
00000100
00001000
00000100
,
00010000
00001000
01000000
00000000
00010000
01000000
00001000
00000000
01000000
00000000
00100000
00000000
10010000
00000000
00000000
00000000
,
00100000
10000000
00010000
00000000
01000000
00001000
00010000
00000000
00001000
00010000
00000100
00000000
00010000
00001000
00010000
00000000
,
00000100
00010000
00000100
00010000
00001000
00010000
00000010
00000000
00010000
00000010
00010000
00000010
00001000
00000010
00000100
00000000
,
00000001
00000010
00000100
00001000
00000001
00000100
00000010
00001000
,
00000001
00000010
00000100
00000000
00001000
00000010
00001000
00000010
00000100
00000000
00000001
00000000
00001000
00000000
00000000
00000000
,
00001001
00011000
01000100
00011000
,
00001000
00000000
01000000
00000000
00010000
00000000
10000000
00000000
00100000
00000000
01000000
00000000
00010000
10000000
00010000
10000000
,
01000000
00100000
00010000
00000000
10000000
00010000
01000000
00000000
00010000
01000000
00001000
00000000
01000000
00001000
00010000
00000000
,
00001000
00000000
00010000
00000000
00000100
00000000
00010000
00000000
00001000
00010000
00001000
00010000
00000010
00001000
00000010
00001000
,
00000001
00010010
00001100
00000011
,
00001000
00000000
00000010
00000000
00000100
00000000
00000001
00000000
00001000
00000000
00000100
00000000
00000010
00000001
00001000
00000010
,
00001000
00000010
00010000
00000000
00001000
00010000
00000010
00000000
00010000
00001000
00010000
00000000
00001000
01000000
00010000
00000000
,
01000000
00001000
01000000
00001000
00010000
00000000
00001000
00000000
01000000
00000000
00010000
00000000
10000000
00000000
MM000000
00000000
,
11000000
00000000
00100000
00010000
10000000
M00M0000
10000000
01000000
,
00100000
00010000
00100000
00001000
00010000
00000000
01000010
00000000
,
00010000
00001000
00010000
00000000
00000100
00000000
00001000
00000000
00000001
00000010
00000001
00000000
00001000
00000000
00000010
00000000
,
00000100
00000010
00000100
00000000
00000001
00000000
00001000
00000000
00000100
00000000
00000000
00000000
00010100
00000000
00000000
00000000
,
00001100
00000000
00000001
00000100
00000010
00000MM0
00001000
00000010
,
00010000
00001000
01000000
00010000
10000000
00000000
11000000
00000000
,
00100000
00010000
00100000
00000000
00001000
00000000
00100000
00000000
00010000
10000000
00010000
00000000
01000000
00000000
00100000
00000000
,
10000000
00000000
00010000
00000000
00100000
00000000
01000000
00100000
01000000
00100000
01000000
00000000
10000000
00000000
00010000
00000000
,
01000000
00000000
00001000
00000000
00010000
00000000
00000000
00010000
00000000
00001000
00010000
00000000
00001000
00000000
000MM000
00000000
,
00010000
00000000
00000100
00000000
00001000
00000000
00000010
00000100
00000001
00000000
00001000
00000000
00000010
00000000
00000000
00000000
,
00000100
00000000
00000001
00000000
00001000
00000000
00000000
00001000
00000000
00000100
00010000
00000000
00000100
00000000
000M0M00
00000000
,
00010000
00000000
00001000
00000000
01000000
00000000
00010000
10000000
00010000
00000000
00100000
00000000
01000000
00000000
00000000
00000000
,
00100000
00000000
00010000
00000000
10000000
00000000
00000000
10000000
00000000
00100000
01000000
00000000
00010000
00000000
0M0M0000
00000000
,
01000000
00000000
00001000
00000000
00010000
00000000
00000100
00010000
00000100
00000000
00001000
00000000
00000010
00000000
00000000
00000000
,
00010001
00011000
00100010
00011000
,
00001000
01000000
00001000
01000000
00001000
00000000
01000000
00000000
00010000
00000000
10000000
00000000
01000000
00000000
00000000
00000000
,
11000000
00101000
10001000
00010001
,
00000001
00010000
00001000
10000000
00000000
10001000
01001000
00000000
,
00102000
00000000
00000000
00000000
20000000
00000000
00000000
00000000
00010000
00000000
00000000
00000000
01000000
30003000
00000000
00000000
,
00100000
00001000
00010000
00000100
00000000
00010001
00010010
00000000
,
00001001
01000100
00001100
10100000
,
10000000
00100000
01000000
00010000
00000000
11000000
10001000
00000000
,
00011000
00000000
00000011
00000000
00001000
00000010
00000100
00000000
,
00000001
00000000
00010000
00000000
10000000
00000000
00010000
00001000
00010000
00000000
00001000
00000000
00000001
00000000
00000100
00000000
,
00001100
00000000
00000000
00010001
00000000
00001100
00000000
00110000
,
00000000
10001000
00000000
00010000
01000000
0M000000
00100000
0MM00000
,
10000000
00000000
M0M00000
00000000
00000000
00000000
01000000
00000000
00100000
00000000
00010000
00000000
10000000
00100000
01000000
00000000
,
0MM00000
00000000
00010000
00000000
0M0M0000
00000000
10000000
00000000
01000000
00000000
00100000
00010000
00100000
00000000
00MM0000
00000000
,
00001000
00000000
00010000
00000000
00000100
00000000
00010000
00000000
00001000
00000000
00010000
00000010
00010000
00000000
00001000
00000000
,
000MM000
00000000
01000000
00000000
0M00M000
00000000
00000100
00000000
00010000
00000010
00001000
00000000
0000M0M0
00000000
00000010
00000000
,
00001000
00000001
0000M00M
00000010
00000100
00001000
0000MM00
00000010
,
01000000
00000000
00011000
00000000
00001000
00010000
00001000
01000000
,
00010000
00000000
10000000
01000000
00100000
00000000
01000000
00100000
00010000
00000000
10000000
00000000
00000000
00000000
10001000
00000000
,
00000000
01001000
00000000
00010000
01000100
00000000
00011000
00000000
,
01000000
00001000
00010000
00000000
00001000
00010000
00000100
00000000
00001000
00000100
00010000
00000000
00000100
00001000
00000001
00000000
,
00000010
00000000
00000100
00001000
00000001
00000000
00000100
00000001
00001000
00000000
00000010
00001000
00000010
00000000
00010000
00000000
,
00001000
00000000
01000000
00001000
00010000
00000000
00001000
01000000
00010000
00000000
01000000
00000000
0M0M0000
00000000
10001000
00000000
,
00000000
00110000
00000000
01000000
01001000
00000000
01000100
00000000
,
00010000
00001000
01000000
00000000
00001000
00010000
00000010
00000000
00001000
00000010
00010000
00000000
00000010
00001000
00000001
00000000
,
00000010
00000000
00000100
00001000
00000001
00000000
00000010
00000100
00001000
00000000
00000100
00010000
00001000
00000000
00010000
00000000
,
00001000
01000000
00001000
01000000
00010000
01000000
00100000
00000000
10000000
01000000
10000000
01000000
00100000
00010000
10000000
00000000
,
01000000
10000000
00010000
00000000
01000000
00010000
10000000
00000000
00010000
00100000
00001000
00000000
00010000
00000000
00000100
00000000
,
00010000
00001000
00010000
00001000
01000000
00001000
00010000
00000000
00001000
00010000
00001000
00010000
00000010
00001000
00000001
00000000
,
00000100
00000001
00001000
00000000
00000100
00001000
00000001
00000000
00000100
00000010
00001000
00000000
00000100
00000000
00010000
00000000
,
00000100
00001000
00000100
00001000
00000001
00000100
00000001
00000000
00001000
00000100
00001000
00000100
00010000
00001000
00010000
00000000
,
00000100
00010000
00001000
00000000
00010000
00000010
00001000
00000000
00000010
00010000
00001000
00000000
01000000
00000000
00010000
00000000
,
01000000
00100000
01000000
00100000
10000000
00100000
10000000
00100000
01000000
00100000
01000000
00010000
01000000
00010000
01000000
00001000
,
01000000
00001000
00010000
00000010
00010000
00000010
00010000
00000010
00010000
00000010
00001000
00000010
00001000
00000000
00000000
00000000
,
00001100
00000000
00000000
00000000
01000100
00000000
00000000
00000000
01010000
00000000
00000000
00000000
00001000
00010000
00001000
00010000
,
00000100
00000000
00010000
00000100
00001000
0000MM00
00000001
00000100
,
00000010
00000000
00001000
00000000
00000001
00000000
00000220
00000000
00000000
00000000
00000330
0000MMMM
00001000
00000000
00000001
00000000
,
00000100
00000000
00000000
00000100
00000000
00000010
00001000
00000000
00000010
00000000
0000M0M0
00000000
00010000
00000000
00001000
00000000
,
01000000
00000000
00010000
01000000
00010000
00000000
10000000
00000000
00100000
00000000
00000000
00000000
10000000
00000000
01000000
00000000
,
00100000
00000000
00000000
00100000
00000000
00010000
10000000
00000000
01000000
00000000
MM000000
00000000
00100000
00010000
00100000
00010000
,
00100000
00001000
00010000
00000100
00010000
00000000
00001000
00010000
,
00000100
00000000
00000000
00000100
00000000
00001000
00000001
00000000
00000010
00000000
000000MM
00000000
00000100
00000000
00001000
00000000
,
00000001
00000000
00000100
00000010
00001000
00000000
00000010
00000000
00000100
00000000
00000000
00000000
00000001
00000000
00001000
00000000
,
00000100
00000000
00000000
00000100
00000000
00010000
00001000
00000000
00010000
00000000
000MM000
00000000
00001000
00000000
01000000
00000000
,
00010000
00000000
01000000
00100000
01000000
00000000
00100000
00000000
10000000
00000000
00000000
00000000
11000000
00000000
00000000
00000000
,
00101000
00000000
00000000
00000000
00010100
00000000
00000000
00000000
00000011
00000000
00000000
00000000
00001000
00000001
00001000
00000001
,
00001000
00000100
00000010
00000001
00001000
0000M00M
00000010
0000M0M0
,
00010000
000M00M0
00000010
00010000
00001000
000MM000
01000000
00100000
,
10000000
00010000
00000000
11000000
10010000
M00M0000
00000000
00000000
;

//---------------dance-double - M.Emirzian----------------
#NOTES:
     dance-double:
     M.Emirzian:
     Hard:
     9:
     0.717,0.000,0.498,0.046,0.032:
00000000
00000000
00000000
00000000
,
00000000
00000000
00000000
00000000
,
00000000
00000000
00000000
00000000
,
00000000
00000000
00000000
00000000
,
10000000
00000000
01000000
00100000
00010000
00000000
10000000
01000000
,
00100000
00010000
10000000
01000000
00100000
00000000
00001000
00000000
,
00010000
00000100
00001000
00000001
00000010
00000100
00001000
00000001
,
00000020
00000000
00000000
00000030
,
00000001
00001000
00000010
00000100
00001000
00000100
00000010
00001000
,
00000100
00000010
00000100
00001000
00000001
00000000
00000100
00000010
,
00010000
00001000
00010000
00100000
01000000
00100000
00010000
00100000
,
10000000
01000000
00100000
00000000
00010000
10000000
01000000
00100000
,
01000000
10000000
00100000
01000000
10000000
01000000
00100000
10000000
,
01000000
00100000
00001000
00010000
00001000
00000000
00001000
00000100
,
00000001
00000010
00000001
00000100
00001000
00000100
00000001
00000010
,
00000001
00000100
00000010
00001000
00000001
00000010
00000100
00000000
,
00001000
00010100
00010000
01001000
,
00010000
01000000
00100000
10000000
00000000
10000000
00100000
01000000
,
00010000
01001000
00010000
00010010
,
00001000
00000100
00000010
00000001
00000000
00000000
00001100
00000000
,
00000010
00010010
00001000
01001000
,
00010000
10000000
01000000
00100000
00000000
00100000
01000000
10000000
,
00010000
00000000
01000000
00000000
00100000
10000000
01000000
00000000
,
20020000
00000000
00000000
30030000
,
11000000
00000000
10000000
01000000
00100000
00000000
00100000
01000000
,
10000000
00010000
01000000
00001000
00010000
00000000
00010010
00000000
,
00010000
00001000
00010000
00000100
00010000
00001000
00010000
00000010
,
00001000
00000100
00000010
00000001
00000010
00000000
00001001
00000000
,
00001100
00000000
00000001
00000100
00000010
00000000
00000010
00000100
,
00000001
00000100
00000010
00001000
00000100
00000000
00011000
00000000
,
00001000
00010000
00001000
01000000
00001000
00010000
00001000
00100000
,
00010000
10000000
01000000
00100000
,
00010000
00000000
10000000
00000000
01000000
00000000
00000000
00100000
00000000
00000000
00010000
00000000
01000000
00000000
00000000
00000000
,
00001000
00010000
00000100
00001000
00001000
00000001
00000100
00000000
,
00000010
00000000
00001000
00000000
00000100
00000000
00000000
00000010
00000000
00000000
00000100
00000000
00001000
00000000
00000000
00000000
,
00000001
00000100
00000010
00001000
00001000
00000100
00010000
00000000
,
00001000
00000000
01000000
00000000
00010000
00000000
00000000
01000000
00000000
00000000
00001000
00000000
00010000
00000000
00000000
00000000
,
00100000
10000000
01000000
00100000
00100000
00010000
10000000
00000000
,
00100000
01010000
00001000
00001010
,
00000100
00000010
00000001
00001000
00000010
00000100
00000001
00000000
,
00001100
00010010
01001000
00110000
,
10000000
01000000
00010000
00000100
00000000
00000001
00000110
00000000
,
00010001
00011000
10001000
00011000
,
00000100
00010000
00100000
10000000
00000000
01000000
00100000
00001000
,
00011000
00100010
00011000
01000100
,
01000000
00001000
00000010
00000001
00000000
00001000
00000110
00000000
,
00010010
00000000
01001000
00000000
00001000
00010000
00000100
00000000
,
00010000
00101000
00010100
00101000
,
00010000
00000000
00000000
00001000
00000000
01000000
00000000
00100000
,
00000000
10000000
00000000
01000000
00100000
00000000
00010000
00000000
,
10000000
00000000
01000000
00000000
00100000
00010000
00100000
00001000
,
00000000
00001000
00000000
00010000
00000100
00000000
00001000
00000000
,
00000010
00000000
00000100
00000000
00000001
00001000
00000100
00000010
,
00000000
00000010
00000000
00000100
00001000
00000001
00000000
00000001
,
00000000
00000100
00000000
00000010
00001000
00000100
00000000
00000100
,
00010000
00001000
00000100
00001000
,
00010000
00000000
00001000
01000000
00000000
01010000
00000000
10010000
,
00000000
11000000
00000000
10000000
00100000
00000000
01000000
00000000
,
00010000
10000000
00000000
01100000
00000000
00110000
00000000
00101000
,
00000000
00001000
00010000
00000100
00001000
00000000
00000010
00000000
,
00000100
00000000
00000001
00001000
00000000
00000110
00000000
00011000
,
00000000
01100000
00000000
00010000
10000000
00000000
01000000
00000000
,
00100000
00010000
00000000
00010000
01000000
00001000
00000000
00001000
,
00010000
00000100
00011000
01000100
,
00010000
00001000
01000000
00001000
00010000
00001000
00100000
00001000
,
00010000
00000010
00010000
00001000
00010000
00000100
00010000
00001000
,
00010000
00000010
00001000
00000100
00000010
00000001
00000010
00000100
,
00001000
00000001
00000010
00000100
00001000
00000010
00000100
00001000
,
00000100
00000010
00001000
00000100
00010000
00001000
01000000
00010000
,
00100000
01000000
00100000
00010000
01000000
00100000
00010000
00100000
,
01000000
00010000
10000000
01000000
00100000
00010000
00100000
01000000
,
10000000
00100000
01000000
00010000
01000000
00001000
00010000
00000000
,
00000010
00010010
00011000
01001000
,
00010000
00000000
00001000
00010000
00000100
00000000
00000010
00000100
,
00001000
00000100
00000010
00000220
00000000
00000330
00000100
00000010
,
00000001
00000000
00000000
00000010
00000000
00000000
00000100
00000000
00001000
00000000
00000000
00000000
00000001
00000000
00000100
00000000
,
00000010
00001000
00001000
00000100
00010000
00000000
00001000
01000000
,
00010000
00000000
00000000
00100000
00000000
00000000
00010000
00000000
01000000
00000000
00000000
00000000
00100000
00000000
10000000
00000000
,
01000000
00100000
01000000
10000000
00100000
00000000
01000000
00010000
,
10000000
00000000
00000000
01000000
00000000
00000000
00100000
00000000
00001000
00000000
00000000
00000000
00010000
00000000
00000100
00000000
,
00001000
00000010
00000010
00000100
00000001
00000000
00000010
00000100
,
00001000
00000000
00000000
00000001
00000000
00000000
00000100
00000000
00000010
00000000
00000000
00000000
00010000
00000000
00001000
00000000
,
01000000
00010000
00010000
10000000
00100000
00000000
11000000
00000000
,
00110000
00000000
00101000
00000000
00010010
00000000
00001000
00000100
,
00000010
00000100
00001000
00000001
00000100
00000000
00000010
00000000
,
00000100
00000000
00001000
00010000
00000100
00000000
00010000
00001000
,
01000000
00100000
00000000
10000000
10010000
00000000
00000000
00000000
;

//---------------dance-single - J. Frederick----------------
#NOTES:
     dance-single:
     J. Frederick:
     Medium:
     7:
     0.529,0.000,0.175,0.240,0.000:
0000
0000
0000
0000
,
0000
0000
0000
0000
,
0000
0000
0000
0000
,
0000
0000
0000
0000
,
1000
0000
0001
0010
0001
0000
0010
0000
,
0001
0000
0100
0000
0001
0000
1000
0010
,
0100
0000
0100
0000
0010
1000
0100
0000
,
0020
0000
0000
0000
0000
0000
0000
0030
,
0001
0100
0001
1000
,
0010
0000
0100
0000
0010
1000
0010
0000
,
0100
0001
0010
0100
,
1000
0000
0100
0000
0010
0001
0010
0000
,
0001
0100
0001
1000
,
0001
0000
0100
0000
0010
0100
0010
0000
,
1000
0010
0100
0001
,
0010
0000
0100
0000
0220
0000
0000
0330
,
1000
0100
0010
0001
,
0010
0001
0010
0002
0000
0000
0000
0003
,
0100
0010
0100
0010
,
1000
0010
1000
0020
0000
0000
0000
0030
,
0100
0010
0100
0001
,
0010
0100
0010
0200
0000
0000
0000
0300
,
1000
0000
0010
0000
0100
0010
0100
0000
,
0220
0000
0000
0000
0000
0000
0000
0330
,
1000
0000
0010
1000
0010
0000
0100
0000
,
0001
0010
0100
1000
,
0100
0010
0001
0000
0010
0001
0010
0000
,
0100
1000
0020
0030
,
0100
0000
0010
0100
0010
0000
1000
0000
,
0100
0010
0001
0000
0010
0000
0001
0000
,
0100
0001
0100
0000
0001
1000
0001
0000
,
2002
0000
0000
3003
,
0100
0000
0010
0000
0100
0010
0100
0000
,
0010
0000
1000
0000
0100
1000
0100
0000
,
0010
0000
0001
0000
0100
0001
0100
0000
,
0001
1000
0001
1000
,
0001
0100
0001
0000
0100
0000
0010
0000
,
1000
0010
1000
0000
0010
0000
0100
0000
,
0001
0010
0100
0010
,
2002
0000
0000
0000
0000
0000
0000
3003
,
0100
0010
1000
0010
,
0100
0010
0100
0001
0000
1001
1001
0000
,
0010
0000
0100
0000
1000
0100
0010
0000
,
0010
0001
0100
0001
0000
1001
1001
0000
,
0100
0000
0010
0000
1000
0010
0100
0000
,
0100
0010
1000
0100
0000
1100
1100
0000
,
0010
0000
0001
0000
0100
0001
1000
0000
,
2002
0000
0000
3003
,
0100
0000
0010
1000
0000
0010
0000
0100
,
0000
0001
0000
0010
0100
0000
1000
0000
,
0100
0010
0000
0001
0000
0100
0000
0001
,
0000
1000
0000
0010
0100
0000
0010
0000
,
0000
1000
0001
0000
0010
0000
0100
0000
,
1000
0100
1000
0000
0100
0000
0010
0000
,
0001
0100
0001
1000
,
2002
0000
0000
3003
,
1000
0001
0100
0010
,
1000
0000
0010
0000
0100
0001
0100
0000
,
0001
0010
0100
1000
,
0100
0000
0010
0000
0100
0010
0000
0100
,
1000
0100
0010
0001
,
0100
0000
0001
0000
1000
0001
1000
0000
,
0001
0100
0010
1000
,
0010
0100
0010
1000
,
0100
1000
0100
0000
0010
0001
0010
0000
,
0001
0000
0100
0000
2002
0000
0000
3003
,
0010
0100
0010
0000
1000
0100
1000
0000
,
0100
0000
0001
0000
0022
0000
0000
0033
,
0010
0001
0010
0000
0100
0000
1000
0100
,
0010
0000
0001
0000
2002
0000
0000
3003
,
1000
0000
0010
0000
0100
0010
0100
0000
,
0020
0000
0000
0030
,
1000
0001
1000
0001
,
0010
0000
0100
1000
0100
0000
0010
0000
,
0001
0100
0001
1000
0000
0000
0010
0000
,
0100
0010
0100
0000
0010
0000
1000
0100
,
1000
0000
0100
0000
0010
0000
0001
0100
,
0001
0000
1000
0001
1000
0000
0010
0000
,
0100
0020
0030
1000
,
0100
0010
0100
0000
0010
0000
0001
0100
,
0001
0000
1000
0000
0001
0000
1000
0100
,
1000
0000
0001
0100
0001
0000
0010
0001
,
0010
0000
1000
0010
1000
0000
0010
0001
,
0100
0001
1000
0000
0001
0000
1000
0000
,
0001
1000
0001
2000
,
0000
0000
0000
0000
,
0000
3000
0110
0000
0110
0000
0000
0000
,
0000
0000
0000
0000
,
0000
1MM1
1MM1
M00M
;

//---------------dance-double - J. Frederick----------------
#NOTES:
     dance-double:
     J. Frederick:
     Easy:
     6:
     0.432,0.000,0.295,0.203,0.000:
00000000
00000000
00000000
00000000
,
00000000
00000000
00000000
00000000
,
00000000
00000000
00000000
00000000
,
00000000
00000000
00000000
00000000
,
00001000
00000000
00000001
00000000
,
00000100
00000010
00001000
00000100
,
00000001
00000010
00001000
00010000
,
00022000
00000000
00000000
00033000
,
00010000
00100000
00010000
00100000
,
10000000
01000000
00010000
00100000
,
01000000
00010000
00100000
00010000
,
00001000
00000010
00000100
00000001
,
00000010
00000001
00000100
00000010
,
00001000
00010000
00100000
00010000
,
00001000
00000100
00000001
00000010
,
00001001
00001001
00001001
00000000
,
00000010
00001000
00000001
00000100
,
00000010
00001000
00002000
00000000
,
00013000
00100000
00010000
00100000
,
01000000
10000000
00200000
00300000
,
01000000
00010000
00100000
00010000
,
00001000
00000100
00000001
00000000
,
00000010
00001000
00000010
00000100
,
00000202
00000000
00000000
00000303
,
00000001
00000010
00001000
00000001
,
00000100
00000001
00000010
00001000
,
00010000
00100000
00010000
00100000
,
10000000
01000000
00020000
00030000
,
00100000
01000000
10000000
00100000
,
01000000
00010000
00001000
00000010
,
00000100
00000001
00000010
00001000
,
00002002
00000000
00000000
00003003
,
00000001
00000100
00000001
00000000
,
00000010
00001000
00000010
00000000
,
00001000
00010000
00001000
00000000
,
00010000
00100000
00010000
00010000
,
00100000
10000000
00100000
00000000
,
01000000
10000000
01000000
00000000
,
01000000
00010000
00001000
00000100
,
00000001
00000010
00000001
00000100
,
00000010
00001000
00000100
00000001
,
00000010
00001000
00002000
00003000
,
00010000
00100000
01000000
10000000
,
01000000
00100000
00020000
00030000
,
01000000
00100000
00010000
00001000
,
00000100
00000001
00000020
00000030
,
00000001
00000100
00000010
00001000
,
00002020
00000000
00000000
00003030
,
00001000
00000000
00000010
00000000
,
00000001
00000000
00000100
00000010
,
00001000
00000000
00000100
00000000
,
00001000
00000000
00010000
00100000
,
00010000
00000000
10000000
00000000
,
01000000
00000000
00100000
00010000
,
10000000
00000000
01000000
00000000
,
10010000
00000000
00011000
00000000
,
00001001
00000000
00000101
00000000
,
00001010
00000101
00000011
00000000
,
00001010
00000000
00011000
00000000
,
00110000
11000000
11000000
00000000
,
00100000
00000000
00010000
00000000
,
10000000
01000000
00010000
00001000
,
00000100
00000001
00000010
00001000
,
00022000
00000000
00000000
00033000
,
00001000
00010000
00001000
00010000
,
00001000
00010000
00002000
00003000
,
00001000
00000010
00001000
00000010
,
00001000
00000010
00002000
00003000
,
00000001
00000100
00000001
00000100
,
00000001
00000100
00000002
00000003
,
00000001
00000010
00001000
00010000
,
00022000
00000000
00000000
00033000
,
00010000
00001000
00010000
00011000
,
00100000
00010000
00100000
10000000
,
01000000
00100000
00000000
00010000
,
00001000
00010000
00001000
00010000
,
00001000
00010000
00000001
00000100
,
00000010
00001000
00000100
00000001
,
00001000
00000020
00000030
00001000
,
00010000
00100000
10000000
01000000
,
00010000
00100000
00010000
00001000
,
00001000
00010000
00010000
00000100
,
00000100
00000001
00000001
00000010
,
00000001
00000100
00000010
00001000
,
00010000
00001000
00010000
00011000
,
00011000
10000001
10000001
00100010
,
00100010
01000100
01000100
00000000
,
00000000
00000000
00000000
00000000
,
00000000
00001001
10010000
00000000
;

//---------------dance-double - J. Frederick----------------
#NOTES:
     dance-double:
     J. Frederick:
     Medium:
     7:
     0.497,0.000,0.175,0.203,0.000:
00000000
00000000
00000000
00000000
,
00000000
00000000
00000000
00000000
,
00000000
00000000
00000000
00000000
,
00000000
00000000
00000000
00000000
,
10000000
00000000
00100000
01000000
00010000
00000000
00100000
00000000
,
00010000
10000000
00010000
00000000
01000000
00000000
00000000
00100000
,
10000000
00000000
10100000
00000000
00000000
01010000
00010000
00000000
,
00200000
00020000
00000000
00000000
00000000
00000000
00330000
00000000
,
00100000
00010000
00100000
00010000
,
00100000
00010000
00100000
00010000
,
00001000
00010000
00001000
00010000
,
00001000
00010000
00001000
00010000
,
00001000
00000010
00001000
00000010
,
00001000
00000010
00001000
00001000
,
00000001
00000000
00000100
00000000
00000010
00000000
00000000
00001000
,
00022000
00000000
00000000
00033000
,
00010000
00001000
00010000
00001000
,
00010000
00001000
00010000
00002000
00000000
00000000
00000000
00003000
,
00010000
00001000
00000010
00001000
,
00000001
00000100
00000010
00000000
00002000
00000000
00000000
00003000
,
00001000
00000010
00000100
00000001
,
00000010
00000001
00000100
00000020
00000000
00000000
00000000
00000030
,
00001000
00000000
00010000
00000000
00001000
00000000
00010000
00001000
,
00022000
00000000
00000000
00033000
,
00010000
00000000
00001000
00010000
00001000
00000000
00010000
00000000
,
00001000
00100000
00001000
00010000
,
00001000
00010000
00001000
00000000
00100000
00001000
00100000
00000000
,
00001000
00010000
00001000
00000000
00011000
00000000
00000000
00000000
,
00010000
00000000
00000010
00010000
00000010
00000000
00010000
00000000
,
00000100
00010000
00000001
00000000
00010000
00000000
00000010
00000000
,
10000000
00001000
10000000
00000000
00001000
01000000
00001000
00000000
,
00200000
00002000
00000000
00000000
00000000
00000000
00303000
00000000
,
00010000
00001000
00010000
00001000
,
01000000
00001000
01000000
00001000
,
00100000
00001000
00100000
00001000
,
00010000
00001000
00011000
00011000
,
00010000
00001000
00000100
00000001
,
00000010
00000001
00000100
00000010
,
00001000
00001000
00000001
00000001
,
00000100
00000010
00001000
00000001
,
00000100
00000010
00001000
00000100
,
00000001
00000010
00001000
00002000
00000000
00000000
00000000
00003000
,
00010000
00000000
00001000
00000000
00010000
00001000
00100000
00000000
,
00010000
00100000
01000000
20000000
00000000
00000000
30000000
00000000
,
01000000
00000000
00100000
00000000
00010000
00100000
00010000
00000000
,
00001000
00010000
00001000
00010000
00000000
00011000
00011000
00000000
,
00001000
00000000
00000001
00000000
00000100
00000010
00001000
00000000
,
00022000
00000000
00000000
00033000
,
00010000
00000000
00000000
00001000
00000000
00010000
00000000
00001000
,
00000000
00100000
00000000
00001000
00010000
00000000
00001000
00000000
,
00010000
00000000
00001000
00000000
00010000
00001000
00000000
00010000
,
00000000
00001000
00000000
00010000
00001000
00000000
00010000
00000000
,
00000001
00000100
00000010
00001000
,
00000001
00000000
00000100
00000000
00000000
00000001
00000000
00000010
,
00000001
00000001
00000100
00000010
,
00002020
00000000
00000000
00003030
,
00001000
00000010
00000001
00000100
,
00000010
00001000
00010000
00100000
,
00010000
10000000
01000000
00100000
,
00010000
00000000
10000000
00000000
00000000
01000000
01000000
00000000
,
00100000
00010000
10000000
01000000
,
00100000
00000000
00010000
00000000
00000000
00001000
00001000
00000000
,
00010000
00001000
00010000
00000000
00000000
00000000
00000100
00000001
,
00000000
00000010
00000000
00001000
00000000
00000010
00000000
00000000
,
00000001
00000001
00000100
00000010
,
00001000
00000000
00000001
00000000
00000200
00000000
00000000
00000300
,
00000010
00001000
00000001
00000100
,
00000010
00000000
00001000
00000000
00020000
00000000
00000000
00030000
,
00100000
00010000
00100000
10000000
,
01000000
00000000
00100000
00000000
00020000
00000000
00000000
00030000
,
00100000
01000000
10000000
11000000
,
00000000
00200000
00000000
00000000
00000000
00000000
00300000
00000000
,
01000000
00001000
00010000
00011000
,
00010000
00000000
00001000
00010000
00001000
00000000
00010000
00000000
,
00000010
00100000
00001000
00020000
00000000
00030000
00001000
00000000
,
00010000
00001000
00010000
00000000
00000010
00000000
00000100
00000000
,
00000001
00000010
00000001
00000100
,
00000101
00000000
00000000
00000010
00001010
00000000
00001000
00000000
,
00000010
00000100
00000000
00000001
,
00000010
00000000
00010000
00000000
00001000
00000000
00010000
00001000
,
00010000
00000000
00001000
00000000
00100000
00000000
00010000
00100000
,
00010000
00000000
10000000
01000000
10000000
00000000
00010000
01000000
,
00010000
00000000
00010000
00001000
00010000
00000000
00000100
00000001
,
00000100
00000000
00000001
00000010
00000001
00000000
00000000
00000010
,
00000010
00001000
00000100
00000001
,
00001000
00000010
00001000
00000001
,
00000100
00100010
00011000
00000000
,
00000000
00000000
00000000
00000000
,
00000000
1MM10000
1MM10000
M00M0000
;
