#TITLE:Partyman;
#SUBTITLE:;
#ARTIST:Hit 'N' Hide;
#TITLETRANSLIT:;
#SUBTITLETRANSLIT:;
#ARTISTTRANSLIT:;
#GENRE:Bubblegum Pop;
#CREDIT:;
#BANNER:Partyman-bn.png;
#BACKGROUND:Partyman-bg.png;
#LYRICSPATH:;
#CDTITLE:;
#MUSIC:Partyman.ogg;
#OFFSET:0.000;
#SAMPLESTART:28.200;
#SAMPLELENGTH:11.840;
#SELECTABLE:YES;
#BPMS:0.000=136.014;
#STOPS:;
#BGCHANGES:0.392=Partyman.mpg=1.000=1=0=0=StretchNoLoop==CrossFade==,
99999=-nosongbg-=1.000=0=0=0 // don't automatically add -songbackground-;
#KEYSOUNDS:;

//---------------dance-single - C. Foy----------------
#NOTES:
     dance-single:
     C. Foy:
     Easy:
     3:
     0.203,0.225,0.103,0.047,0.000,135.000,11.000,5.000,0.000,0.000,0.000,0.203,0.225,0.103,0.047,0.000,135.000,11.000,5.000,0.000,0.000,0.000:
0000
0000
0000
0000
,
0000
0000
0000
0000
,
0000
0000
0000
0000
,
0000
0000
0000
0000
,
1000
0000
0001
0000
,
0100
0000
0010
0010
,
0010
0000
1000
0000
,
0100
0000
1000
1000
,
1000
0000
0000
0000
,
0001
0000
0000
0000
,
0100
0000
0000
0000
,
0010
0000
0010
0000
,
1000
0000
0100
0000
,
0010
0010
0010
0000
,
0001
0000
0100
0000
,
0010
0000
1000
0000
,
0100
0000
0000
0000
,
1000
0001
1000
0001
,
0000
0000
0000
0000
,
0010
0100
0010
0100
,
0000
0000
0000
0000
,
1000
0100
1000
0100
,
0000
0000
0000
0000
,
0010
0001
0020
0030
,
0000
0000
0000
0000
,
1001
0000
0000
0000
,
0110
0000
0000
0000
,
1001
0000
0000
0000
,
1000
1000
0100
0100
,
0010
0010
0001
0000
,
1000
1000
0001
0001
,
0100
0100
0010
0000
,
1000
0001
1000
0001
,
0100
0010
0100
0000
,
0010
0100
0010
0100
,
0001
1000
0002
0003
,
1000
0100
1000
0100
,
1000
0100
1000
0000
,
0010
0001
0010
0001
,
0010
0001
0010
0000
,
0001
0001
1000
1000
,
0100
0100
0010
0000
,
0010
0010
0100
0100
,
1000
1000
0001
0000
,
0110
0000
0110
0000
,
1000
0100
1000
0100
,
0000
0000
1001
0000
,
0001
0100
0001
0100
,
0000
0000
0000
0000
,
1000
1000
0010
0010
,
0000
0000
0000
0000
,
1000
0010
2000
3000
,
1001
0000
1001
0000
,
0001
0001
1000
1000
,
0000
0000
0000
0000
,
0010
0100
0010
0000
,
0110
0000
0110
0000
,
1000
0100
1000
0100
,
0000
0000
0000
0000
,
1000
0001
2002
3003
;

//---------------dance-single - C. Foy----------------
#NOTES:
     dance-single:
     C. Foy:
     Medium:
     5:
     0.271,0.281,0.066,0.122,0.033,182.000,7.000,13.000,0.000,0.000,0.000,0.271,0.281,0.066,0.122,0.033,182.000,7.000,13.000,0.000,0.000,0.000:
0000
0000
0000
0000
,
0000
0000
0000
0000
,
0000
0000
0000
0000
,
0000
0000
0000
0000
,
1000
0100
1000
0100
,
0010
0001
0010
0001
,
1000
0001
1000
0001
,
0100
0010
0100
0010
,
0110
0000
0000
0000
0000
0000
0000
2000
,
0000
3002
0000
0203
0000
0300
0000
0000
,
0000
0000
0000
0000
0000
0000
0000
0020
,
0000
2030
0000
3002
0000
0003
0000
0000
,
0000
0000
0000
0000
0000
0000
1000
0001
,
0000
0200
0000
0320
0000
0030
0000
0000
,
1000
0000
1000
0000
0002
0000
1003
0001
,
0000
1000
0000
0100
0000
0000
0000
0000
,
1100
0000
0011
0000
,
1000
0001
1000
0000
0010
0100
0010
0000
,
1001
0000
1100
0000
,
1000
0100
1000
0000
0100
1000
0100
0000
,
0000
0000
0000
0000
,
0010
0001
0010
0000
0001
0010
0001
0000
,
0000
0000
0000
0000
,
1000
0100
1000
0100
2000
0000
3000
0000
,
0000
0000
0000
0000
0000
0000
0000
0000
0000
0000
1000
0100
0000
0000
0000
0000
,
0000
0000
0000
0000
0000
0000
0000
0000
0000
0000
0010
0001
0000
0000
0000
0000
,
0000
0000
0000
0000
0000
0000
0000
0000
0000
0000
0100
0010
0000
0000
0000
0000
,
0000
0000
1001
1001
,
1000
0100
0010
0001
,
0010
0100
1000
0000
,
0001
0010
0001
1000
,
0100
1000
0001
0000
,
0100
0001
0100
0010
,
0100
0001
1000
0000
,
0001
1000
0001
0010
,
0100
0010
0002
0003
,
0000
1000
0000
0100
0000
0010
0000
0001
,
0000
1000
0000
0100
0000
0010
0000
0001
,
0000
0010
0000
0100
0000
1000
0000
0001
,
0000
0010
0000
0100
0000
1000
0000
0001
,
0000
1000
0000
0100
0000
1000
0000
0001
,
0000
1000
0000
0010
0000
1000
0000
0001
,
0000
0010
0000
0001
0000
1000
0000
0001
,
0000
0100
0000
0001
0000
1000
0000
0000
,
1000
0000
0001
0000
1000
0001
1000
0000
,
0001
1000
0010
0000
,
1000
0000
0000
0100
0000
0000
0000
0000
0000
0000
0000
0000
0000
0000
0000
0000
,
1000
0001
0100
0000
,
0001
0000
0010
0000
0001
0010
0001
0000
,
1000
1000
0001
0000
,
1000
0000
0000
0100
0000
0000
0000
0000
0000
0000
0000
0000
0000
0000
0000
0000
,
1000
0000
0100
0000
2000
0001
3000
0000
,
0001
0000
1000
0000
0001
1000
0001
0000
,
1000
0001
0100
0000
,
0001
0000
0000
0010
0000
0000
0000
0000
0000
0000
0000
0000
0000
0000
0000
0000
,
0001
1000
0010
0000
,
1000
0000
0100
0000
1000
0100
1000
0000
,
0001
0001
1000
0000
,
0001
0000
0000
0010
0000
0000
0000
0000
0000
0000
0000
0000
0000
0000
0000
0000
,
0001
0000
0010
0000
0002
0010
0003
0000
;

//---------------dance-single - C. Foy----------------
#NOTES:
     dance-single:
     C. Foy:
     Hard:
     7:
     0.442,0.393,0.245,0.282,0.066,273.000,26.000,30.000,0.000,0.000,0.000,0.442,0.393,0.245,0.282,0.066,273.000,26.000,30.000,0.000,0.000,0.000:
0000
0000
0000
0000
,
0000
0000
0000
0000
,
0000
0000
0000
0000
,
0000
0000
0000
0000
,
0001
0000
0000
0000
0100
0000
0000
0000
0001
0000
1000
0100
0000
0000
0000
0000
,
0010
0000
0000
0000
0001
0000
0000
0000
0100
0000
0010
0100
0000
0000
0000
0000
,
0001
0000
0000
0000
0100
0000
0000
0000
0010
0000
0010
1000
0000
0000
0000
0000
,
1000
0000
0000
0000
0100
0000
0000
0000
0010
0000
0100
0010
0000
0000
0000
0000
,
0001
0000
1000
0000
0010
1000
0001
0200
,
0000
0000
0320
0000
0000
0000
2000
0000
0000
0000
0000
0000
0000
3030
0000
0000
,
0000
1000
0100
0010
0000
0100
1000
0200
,
0000
2300
0000
0020
0000
3030
0000
0000
,
1000
0000
0010
0000
0100
0010
1000
0002
,
0000
0000
0023
0000
0000
0000
0200
0000
0000
0000
0000
0330
0000
0000
0000
0000
,
1000
0000
0010
0000
0100
0000
0001
0100
,
0000
0101
0000
1010
0000
0000
0000
0000
,
1001
0000
1100
0000
0001
1000
0100
0000
,
0010
0001
0010
0000
0100
1000
0100
0000
,
1001
0000
0000
0100
0000
0000
0001
0000
1000
0000
0001
0000
0100
0000
0000
0000
,
0001
0010
0100
1000
0100
0010
0001
0000
,
0101
0000
1100
0000
0001
0100
0001
0000
,
0100
0010
0100
0000
0001
0010
0001
0000
,
1001
0000
0000
0100
0000
0000
0001
0000
0100
0000
0010
0000
1000
0000
0000
0000
,
0001
0010
0100
1000
0001
1000
0000
0000
,
1000
0000
0000
0000
1000
0000
0000
0000
0001
0000
1000
0001
0000
0000
0000
0000
,
0100
0000
0000
0000
0100
0000
0000
0000
0010
0000
0100
0010
0000
0000
0000
0000
,
0010
0000
0000
0000
0010
0000
0000
0000
0100
0000
0100
0001
0000
0000
0000
0000
,
0001
0000
0000
0000
0001
0000
0000
0000
0010
0000
0010
0100
0000
0000
0000
0000
,
1000
0100
1100
0010
,
0001
0100
0101
0000
,
0001
0010
0001
1000
0100
0000
0010
0000
,
1001
0110
1001
0000
,
1000
0010
0001
0010
,
1000
0100
1001
0000
,
1000
0010
0001
0010
,
1001
0100
2200
3300
,
2000
0000
3020
0000
1030
0100
1000
0002
,
0000
0000
0203
0000
0000
0000
0020
0000
0000
0000
0000
0000
0000
0330
0000
0000
,
0000
1000
0100
1000
0000
1000
0001
2000
,
0000
0000
3002
0000
0000
0000
0200
0000
0000
0000
0000
0303
0000
0000
0000
0000
,
0101
0000
1100
0000
1000
0100
0010
0002
,
0000
0000
0203
0000
0000
0000
0020
0000
0000
0000
0000
0330
0000
0000
0000
0000
,
1000
0000
0001
0000
0200
0000
0310
2000
,
0000
0000
3200
0000
0000
0000
0020
0000
0000
0000
0000
0330
0000
0000
0000
0000
,
0011
0000
1010
0000
1000
0010
0100
0000
,
0010
0100
0010
0000
1000
0100
1000
0000
,
0100
0000
0000
0100
0000
0000
0010
0000
0100
0000
0010
0000
0100
0000
0000
0000
,
1000
0010
1000
0001
1000
0100
1000
0000
,
1100
0000
0101
0000
0010
1000
0100
0000
,
1000
0001
1000
0000
0010
0100
0010
0000
,
0010
0000
0000
0010
0000
0000
1000
0000
0001
0000
0100
0000
0010
0000
0000
0000
,
1000
0100
0010
0100
1000
0100
0000
0000
,
1100
0000
0000
0000
0110
0000
0000
0000
0001
0000
1000
0000
0200
0000
0000
0300
,
0010
0100
1000
0000
0010
1000
0001
0000
,
0100
0000
0000
0100
0000
0000
0010
0000
1000
0000
0010
0000
0200
0000
0000
0300
,
0001
0010
0001
1000
0100
1000
0001
0000
,
1001
0000
0000
0000
0110
0000
0000
0000
0010
0000
1000
0000
0002
0000
0000
0003
,
1000
0100
1000
0000
0010
1000
0010
0000
,
0100
0000
0000
0100
0000
0000
0001
0000
0100
0000
0010
0000
2000
0000
0000
3000
,
0001
0100
0010
1000
0001
1000
0000
0000
;

//---------------dance-single - C. Foy----------------
#NOTES:
     dance-single:
     C. Foy:
     Challenge:
     9:
     0.637,0.618,0.282,0.442,0.367,397.000,30.000,47.000,0.000,0.000,0.000,0.637,0.618,0.282,0.442,0.367,397.000,30.000,47.000,0.000,0.000,0.000: // measure 1
0000
0000
0000
0000
,  // measure 2
0000
0000
0000
0000
,  // measure 3
0000
0000
0000
0000
,  // measure 4
0000
0000
0000
0000
,  // measure 5
0002
0000
0000
0003
0100
0000
0000
0000
0010
0000
1000
0100
0000
0000
0100
0000
,  // measure 6
0020
0000
0000
0030
0001
0000
0100
0000
0010
0000
0010
1000
0000
0000
0100
0000
,  // measure 7
0020
0000
0000
0030
0100
0000
1000
0000
0010
0000
0010
0100
0000
0000
0001
0000
,  // measure 8
2000
0000
0000
3000
0010
0000
1000
0000
0100
0000
0010
0001
0000
0000
0010
0000
,  // measure 9
0100
0000
0000
1000
0010
0000
1000
0000
0001
0000
0000
1000
0100
0000
1000
0000
,  // measure 10
0010
0000
0000
0010
0100
0000
0001
0000
0010
0000
0000
0000
0001
0010
0100
0000
,  // measure 11
0010
0000
0000
0010
0100
0000
1000
0000
0010
0000
0000
0010
1000
0000
0010
0000
,  // measure 12
0100
0000
0000
0100
0001
0000
0010
0000
0100
0000
0000
0000
1000
0001
0010
0000
,  // measure 13
0100
0000
0000
0100
1000
0000
0010
0000
0100
0000
0000
0001
0100
0000
0001
0000
,  // measure 14
0010
0000
0000
0010
0100
0000
0010
0000
0001
0000
0000
0000
1000
0010
0100
0000
,  // measure 15
0001
0000
0000
0010
0100
0000
0100
0000
1000
0000
0000
0001
0100
0000
0100
0000
,  // measure 16
0010
0000
0000
0010
1000
0000
0100
0000
0010
0000
0000
0000
0010
0001
1000
0000
,  // measure 17
0010
0000
0000
0010
0100
0000
0001
0000
0001
0000
0000
0001
0100
0000
0010
0000
,  // measure 18
0010
0000
0000
0100
0010
0000
1000
0000
0100
0000
0000
0000
0010
0100
1000
0000
,  // measure 19
1000
0000
0000
0001
0100
0000
0001
0000
0010
0000
0000
0001
0010
0000
0100
0000
,  // measure 20
0010
0000
0000
0100
0010
0000
0100
0000
1000
0000
0000
0000
0001
1000
0100
0000
,  // measure 21
1000
0000
0000
1000
0010
0000
0010
0000
0100
0000
0000
0100
0001
0000
0010
0000
,  // measure 22
0100
0000
0000
0010
0001
0000
1000
0000
0001
0000
0000
0000
0001
0100
0010
0000
,  // measure 23
0010
0000
0000
0100
0001
0000
1000
0000
0100
0000
0000
0100
1000
0000
0010
0000
,  // measure 24
0100
0000
0000
0100
0001
0000
0001
0000
0202
0000
0000
0303
0010
0100
0001
0000
,  // measure 25
0201
0000
0000
0300
1010
0000
0000
0000
1000
0000
0001
0100
0000
0000
0010
0000
,  // measure 26
1020
0000
0000
0030
0101
0000
0100
0000
0001
0000
0001
0100
0000
0000
0010
0000
,  // measure 27
0201
0000
0000
0300
1010
0000
0010
0000
1000
0000
1000
0100
0000
0000
0100
0000
,  // measure 28
1020
0000
0000
0030
0101
0000
0001
0000
0010
0000
0001
0100
0000
0000
0010
0000
,  // measure 29
1000
0000
0000
0010
0100
0000
0001
0000
1000
0000
0000
0010
0100
0000
0001
0000
,  // measure 30
0100
0000
0000
0010
1000
0000
0100
0000
1000
0000
0000
0101
0000
0000
0010
0000
,  // measure 31
1000
0000
0000
0100
1000
0000
0010
0000
1000
0000
0000
0010
0100
0000
0001
0000
,  // measure 32
0001
0000
0000
0001
0010
0000
0100
0000
1000
0000
0000
0100
1000
0000
0001
0000
,  // measure 33
0010
0000
0000
0001
0010
0000
0100
0000
1000
0000
0000
0100
1000
0000
1000
0000
,  // measure 34
0010
0000
0000
1000
0010
0000
0100
0000
0001
0000
0000
0101
0000
0000
0001
0000
,  // measure 35
0100
0000
0000
0010
1000
0000
0010
0000
1000
0000
0000
0001
0100
0000
0010
0000
,  // measure 36
1000
0000
0000
0010
1000
0000
1000
0000
0202
0000
0000
0000
0303
0000
0000
0000
,  // measure 37
2020
0000
0000
3030
0220
0000
0000
0330
0010
0000
1000
0000
0001
0000
0202
0000
,  // measure 38
0000
0003
0000
0000
0020
0000
0000
0000
0000
0300
0000
0000
2000
0000
0000
0000
0000
0000
0000
0000
3030
0000
0000
0000
1000
0000
0001
0000
0100
0000
0000
0000
,  // measure 39
0010
1000
0100
0010
0000
0010
0100
2020
,  // measure 40
0000
3000
0000
0000
0200
0000
0000
0000
0000
0030
0000
0000
0002
0000
0000
0000
0000
0000
0000
0000
0000
0000
0303
0000
0100
0000
0010
0000
1000
0000
0000
0000
,  // measure 41
0101
0000
1010
0000
0010
1000
0100
2002
,  // measure 42
0000
0003
0000
0000
0020
0000
0000
0000
0000
3000
0000
0000
0200
0000
0000
0000
0000
0000
0000
0000
0000
0000
0330
0000
0010
0000
1000
0000
0001
0000
0000
0000
,  // measure 43
0011
0000
1010
0000
1100
0000
0101
0202
,  // measure 44
0000
0003
0000
0000
0020
0000
0000
0000
0000
0300
0000
0000
2000
0000
0000
0000
0000
0000
0000
0000
0000
0000
3030
0000
0010
0000
0100
0000
0001
0000
0000
0000
,  // measure 45
0001
0000
0000
0001
0100
0000
0001
0000
1000
0000
0000
0001
0010
0000
0001
0000
,  // measure 46
0100
0000
0000
0100
0010
0000
1000
0000
0100
0000
0000
0000
1000
0100
0010
0000
,  // measure 47
0100
0000
0000
0100
0010
0000
0001
0000
0100
0000
0000
0100
0001
0000
0100
0000
,  // measure 48
0010
0000
0010
0100
0000
0000
0100
0000
0010
0000
0000
1000
0001
0100
0010
0000
,  // measure 49
0100
0000
0000
0100
0001
0000
0100
0000
0010
0000
0000
1000
0010
0000
1000
0000
,  // measure 50
0100
0000
0000
0100
0010
0000
0100
0000
1000
0000
0000
0010
0100
0000
0001
0000
,  // measure 51
0010
0000
0000
0010
0100
0000
1000
0000
0100
0000
0000
0100
0010
0000
0001
0000
,  // measure 52
0100
0000
0000
0100
0001
0000
0010
0000
0202
0000
0000
0303
0001
1000
0010
0000
,  // measure 53
1001
0000
0000
0000
0000
0000
0000
0000
0110
0000
0000
0000
0000
0000
0000
0000
0020
0000
0000
0000
0200
0030
0000
0000
0002
0000
0000
0000
0000
0000
0303
0000
,  // measure 54
0010
0100
1000
0000
0010
1000
0001
0000
,  // measure 55
0100
0000
0000
0100
0000
0000
0010
0000
2000
0000
0020
3000
0200
0000
0000
0330
,  // measure 56
0001
0100
0010
1000
0001
0100
0010
0000
,  // measure 57
1001
0000
0000
0000
0000
0000
0000
0000
0110
0000
0000
0000
0000
0000
0000
0000
0020
0000
0000
0000
2000
0030
0000
0000
0002
0000
0000
0000
0000
0000
3003
0000
,  // measure 58
1000
0010
0100
0000
0010
1000
0100
0000
,  // measure 59
1000
0000
0000
0000
0000
0000
1000
0000
0000
0000
0000
0000
0001
0000
0000
0000
0200
0000
0000
0000
0020
0300
0000
0000
2000
0000
0000
0000
0000
0000
3030
0000
,  // measure 60
0001
0000
0100
0000
0010
0000
1000
0000
1002
0000
0100
0003
0000
0000
0000
0000
;

//---------------dance-double - J.Felds----------------
#NOTES:
     dance-double:
     J.Felds:
     Hard:
     7:
     0.504,0.421,0.113,0.273,0.061,334.000,12.000,29.000,2.000,0.000,0.000,0.504,0.421,0.113,0.273,0.061,334.000,12.000,29.000,2.000,0.000,0.000:
00000000
00000000
00000000
00000000
,
00000000
00000000
00000000
00000000
,
10000000
00000000
00000000
00010000
00000000
00000000
01000000
00000000
00100000
00000000
10000000
00000000
01000000
00000000
00100000
00000000
,
00010000
00100000
01000000
10000000
00010000
10000000
M00M0000
00000000
,
10000000
00000000
01000000
00000000
00100000
00000000
00010000
00000000
01000000
00000000
00000000
00100000
00000000
00000000
00010000
00000000
,
00001000
00000000
00010000
00000000
00000100
00000000
00001000
00000000
00000010
00000000
00000000
00000100
00000000
00000000
00000001
00000000
,
00000100
00000000
00000010
00000000
00001000
00000000
00000001
00000000
00000100
00000000
00000000
00000010
00000000
00000000
00001000
00000000
,
00000100
00000000
00010000
00000000
00001000
00000000
01000000
00000000
00001000
00000000
00000000
00100000
00000000
00000000
00010000
00000000
,
01000000
00100000
10000000
01000000
00100000
00001000
00010000
00001000
,
00000100
00000010
00001000
00000100
00010000
00000010
00000100
00000000
,
00000000
00000001
00000010
00000100
00001000
00000010
00000100
00001000
,
00010000
00000100
00001000
00000100
00010000
00001000
00100000
00000000
,
00020000
00000000
20030000
00000000
31000000
00010000
00001000
00100000
,
00000000
00110000
00000000
11000000
00000000
00000000
00000000
00000000
,
00100000
00001000
00010000
00000100
00001000
00000010
00000100
00000001
,
00000000
00001010
00000000
00000101
00000000
00000000
00000000
00000000
,
00000010
00001000
00000100
00020000
,
00001000
00001000
00032000
00000000
01000000
01000000
01003000
00000000
,
00001000
00000000
00000000
00100000
00000000
00000000
00010000
00000000
01000000
00000000
00100000
00000000
20000000
00000000
00000000
00000000
,
01000000
00000000
00020000
30000000
01000000
01000000
01030000
00000000
,
10000000
01000000
00100000
00002000
,
00010000
00010000
00023000
00000000
00000100
00000100
00030100
00000000
,
00010000
00000000
00000000
00000100
00000000
00000000
00001000
00000000
00000001
00000000
00000010
00000000
00000200
00000000
00000000
00000000
,
00001000
00001000
00001000
00000300
00000100
00010000
00000000
00000000
,
00100000
00000000
00010000
00000000
01000000
00000000
00100000
00000000
10000000
00000000
00000000
00100000
00000000
00000000
01000000
00000000
,
00001000
00000000
00010000
00000000
00000100
00000000
00001000
00000000
00000010
00000000
00000000
00000100
00000000
00000000
00001000
00000000
,
00000100
00000000
00000010
00000000
00001000
00000000
00000001
00000000
00000010
00000000
00000000
00000100
00000000
00000000
00001000
00000000
,
00000010
00000000
00010000
00000000
00001000
00000000
01000000
00000000
00100000
00000000
00000000
10000000
00000000
00000000
00010000
00000000
,
00200000
10000000
01000000
00302000
,
00010000
00000100
00023000
00000000
,
00030200
00001000
00010000
00000320
,
00000001
00001000
00000230
00000000
,
00020300
00100000
00001000
00030200
,
00010000
00000010
00002300
00000000
,
00003200
00001000
00000010
00020300
,
00000010
00030100
00011000
00000000
,
00000100
00001000
00000010
00010000
00001000
00010000
00100000
01000000
,
00010000
00100000
00001000
00010000
01000000
10000000
00100000
00000000
,
00000000
01000000
00010000
00100000
00001000
00010000
00000100
00000010
,
00000001
00001000
00000010
00000100
00000001
00001000
00000010
00000000
,
00002000
00000000
00003002
00000000
00000103
00001000
00010000
00000010
,
00000000
00001010
00000000
00000101
00000000
00000000
00000000
00000000
,
00000100
00010000
00001000
00100000
00010000
01000000
00100000
10000000
,
00000000
11000000
00000000
00110000
00000000
00000000
00000000
00000000
,
00010000
01000000
00100000
00020000
,
00000100
00000100
00030200
00000000
00001000
00001000
00001300
00000000
,
00000100
00000000
00000000
00000010
00000000
00000000
00000001
00000000
00001000
00000000
00000100
00000000
00010000
00000000
00000020
00000000
,
00000100
00000000
00002000
00000030
00000001
00000001
00003001
00000000
,
00000100
00000010
00000100
00002000
,
00100000
00100000
00203000
00000000
00010000
00010000
00310000
00000000
,
00100000
00000000
00000000
01000000
00000000
00000000
10000000
00000000
00100000
00000000
01000000
00000000
00001000
00000000
00020000
00000000
,
00000100
00000100
00000100
00030000
00010000
00001000
00000000
00000000
,
00100000
00010000
01000000
00100000
10000000
01000000
00100000
00010000
,
01000000
01000000
01000000
00000000
00011000
00000000
00010000
00000100
,
00000010
00000001
00000100
00000010
00001000
00000100
00010000
00001000
,
00100000
00010000
00100000
00000000
00010000
10000000
00010000
01000000
,
00100000
10000000
00010000
00100000
00001000
00010000
00000100
00001000
,
00000010
00000010
00000010
00000000
00001001
00000000
00000001
00001000
,
00000100
00010000
00000010
00000100
00001000
00010000
01000000
00100000
,
00010000
10000000
00010000
01000000
01000000
01001000
00000000
00000000
;

//---------------dance-double - J.Casarino----------------
#NOTES:
     dance-double:
     J.Casarino:
     Medium:
     6:
     0.404,0.393,0.348,0.461,0.019,215.000,37.000,49.000,6.000,0.000,0.000,0.404,0.393,0.348,0.461,0.019,215.000,37.000,49.000,6.000,0.000,0.000:
00000000
00000000
00000000
00000000
,
00000000
00000000
00000000
00000000
,
00000000
00000000
00000000
00000000
,
00000000
00000000
00000000
00000000
,
10010000
00100000
10000000
01000000
,
10010000
00100000
00001000
00010000
,
00011000
00000010
00001000
00000100
,
00001001
00000010
00000001
00000100
,
00001001
00000000
00000000
00000000
00000020
00000000
00000030
00020000
,
00000000
00030200
00000000
00002300
00000000
00003000
00000000
00000000
,
00000000
00000100
00000000
00010000
00000000
00001000
00000000
00200000
,
00000000
00302000
00000000
00203000
00000000
00300000
00000000
00000000
,
01000000
00000000
00010000
00000000
01000000
00000000
10000000
02000000
,
00000000
03020000
00000000
02030000
00000000
03000000
00000000
00000000
,
20000000
00000000
30200000
00000000
00320000
00000000
00031000
00020000
,
00000000
00030020
00000000
00020030
00000000
00030000
00000000
00000000
,
00010010
00010000
00010010
00000000
,
00001000
00001000
00001000
00000000
00000001
00000001
00000001
00000000
,
00001001
00000100
00001000
00000010
,
00010000
00001000
00010000
00000000
00001000
00010000
00001000
00000000
,
00101000
00001000
00101000
00000000
,
00010000
00010000
00010000
00000000
10000000
10000000
10000000
00000000
,
10010000
01000000
00010000
00100000
,
00001000
00010000
00001000
00010000
00002000
00000000
00003000
00000000
,
01001000
00010000
00010100
00001000
,
01001000
00010000
10000000
00100000
,
00010000
00011000
00000010
00011000
,
00100000
00011000
00000010
00001000
,
00000002
00000203
00000320
00020030
,
00032000
02003000
03200000
00300000
,
20000000
32000000
03200000
00302000
,
00023000
00030200
00000320
00000030
,
00000002
00000203
00000320
00000230
,
00002300
00023000
00230000
00300000
,
20000000
32000000
03200000
02300000
,
03020000
00032000
00003200
00000300
,
00001001
00000000
00001001
00000000
00010010
00000000
00020000
00001000
,
00000000
00001000
00000000
00031000
00000000
00000000
00000000
00000000
,
00000000
00100000
00000000
00001000
00000000
00010000
00000000
00001000
,
00000000
01000000
00000000
00010000
00000000
00000000
00000000
00000000
,
10010000
00000000
10010000
00000000
10000000
01000000
00100000
00020000
,
00000000
10000000
00000000
10030000
00000000
00000000
00000000
00000000
,
00101000
00000000
00101000
00000000
00011000
00000000
00020000
00000100
,
00000000
00000100
00000000
00030100
00000000
00000000
00000000
00000000
,
00001001
00000101
00001001
00001100
,
00010000
00010000
00010000
00000000
00001000
00001000
00001000
00000000
,
00010000
00000000
00000000
00001000
00000000
00000000
00000000
00000000
00000000
00000000
00000000
00000000
000MM000
00000000
00000000
00000000
,
01000000
00010000
10000000
01000000
,
10010000
11000000
10010000
01010000
,
00001000
00001000
00001000
00000000
00010000
00010000
00010000
00000000
,
00001000
00000000
00000000
00010000
00000000
00000000
00000000
00000000
00000000
00000000
00000000
00000000
000MM000
00000000
00000000
00000000
,
00000100
00000000
00001000
00000000
00000002
00001000
00000003
00000000
,
00000101
00000000
00001010
00000000
00010000
00001000
00010000
00000000
,
00001000
00000000
01000000
00000000
,
00010000
00000000
00000000
00100000
00000000
00000000
00010000
00000000
00100000
00000000
00000000
00000000
00000000
00000000
00000000
00000000
,
00001000
01000000
00001000
01000000
00010000
00000000
0M0M0000
00000000
,
11000000
00000000
00110000
00000000
00001000
00010000
00001000
00000000
,
00010000
00000100
00000000
00000000
,
00001000
00000000
00000000
00000010
00000000
00000000
00001000
00000000
00000010
00000000
00000000
00000000
00000000
00000000
00000000
00000000
,
00001000
00000001
00001000
00000100
00000010
00000001
00000000
00000000
;

//---------------dance-double - J.Felds----------------
#NOTES:
     dance-double:
     J.Felds:
     Easy:
     3:
     0.212,0.280,0.150,0.113,0.000,130.000,16.000,12.000,0.000,0.000,0.000,0.212,0.280,0.150,0.113,0.000,130.000,16.000,12.000,0.000,0.000,0.000:
00000000
00000000
00000000
00000000
,
00000000
00000000
00000000
00000000
,
00000000
00000000
00000000
00000000
,
00000000
00000000
00000000
00000000
,
00000010
00001000
00010000
00000000
,
01000000
00010000
00001000
00000000
,
00000100
00001000
00010000
00000000
,
00100000
00010000
00001000
00000000
,
00000010
00000000
00000010
00000000
,
00000010
00000010
00000010
00000000
,
00000001
00000000
00000100
00000000
,
00001000
00001000
00001000
00000000
,
00010000
00000000
00010000
00000000
,
01000000
01000000
01000000
00000000
,
10000000
00010000
01000000
00001000
,
00010000
00000001
00001000
00000000
,
00000001
00000000
00001000
00000000
,
00000220
00000330
00000220
00000330
,
00001000
00000000
00000100
00000000
,
00010000
00000100
00010000
00010000
,
00001000
00000000
00100000
00000000
,
00011000
00000000
00011000
00000000
,
01000000
00000000
10000000
00000000
,
00010000
00100000
00022000
00033000
,
00100000
00010000
00001000
00000000
,
00000100
00001000
00010000
00000000
,
01000000
00010000
00001000
00000000
,
00000010
00001000
00010000
00000000
,
00000000
00000000
00000000
00000000
,
00000000
00000000
00000000
00000000
,
00000000
00000000
00000000
00000000
,
00000000
00000000
00000000
00000000
,
00000000
00000000
00000000
00000000
,
00000000
00000000
00000000
00000000
,
00000000
00000000
00000000
00000000
,
00000000
00000000
00000000
00000000
,
00100000
00000000
00100000
00000000
,
00100000
00100000
00100000
00000000
,
10000000
00000000
01000000
00000000
,
00010000
00010000
00010000
00000000
,
00001000
00000000
00001000
00000000
,
00000100
00000100
00000100
00000000
,
00000001
00001000
00000100
00010000
,
00001000
10000000
00010000
00000000
,
10000000
00000000
00010000
00000000
,
02200000
03300000
02200000
03300000
,
00010000
00000000
01000000
00000000
,
00001000
01000000
00001000
00001000
,
00010000
00000000
00000010
00000000
,
00011000
00000000
00011000
00000000
,
00000100
00000000
00000001
00000000
,
00001000
00000010
00022000
00033000
,
00011000
00000000
01010000
00000000
,
00100000
00100000
01000000
01000000
,
10010000
00000000
00010000
00000000
,
00100000
00001000
00010000
00000100
,
00011000
00000000
00010100
00000000
,
00000010
00000010
00000100
00000100
,
00001001
00000000
00001000
00000000
,
00000010
00000000
00010000
00000000
00001000
00001000
00000000
00000000
;

//---------------dance-double - J.Casarino----------------
#NOTES:
     dance-double:
     J.Casarino:
     Challenge:
     9:
     0.664,0.561,0.245,0.216,0.268,445.000,26.000,23.000,2.000,0.000,12.000,0.664,0.561,0.245,0.216,0.268,445.000,26.000,23.000,2.000,0.000,12.000:
00000000
00000000
00000000
00000000
,
00000000
00000000
00000000
00000000
,
00000001
00000000
00000000
00001000
00000000
00000000
00000100
00000000
00010000
00000000
00001000
00000000
00000100
00000000
00001000
00000000
,
00010000
00100000
00010000
00100000
10000000
01000000
MM000000
00000000
,
10000000
00000000
01000000
00000000
00010000
00000000
00001000
00000000
00000100
00000000
00000010
00000100
00000000
00000000
00000010
00000000
,
00000001
00000000
00000010
00000000
00000100
00000000
00001000
00000000
00010000
00000000
01000000
00100000
00000000
00000000
10000000
00000000
,
00100000
00000000
00010000
00000000
00001000
00000000
00000100
00000000
00000010
00000000
00000001
00000010
00000000
00000000
00000001
00000000
,
00000100
00000000
00000010
00000000
00001000
00000000
00010000
00000000
01000000
00000000
00100000
10000000
00000000
10000000
01000000
00000000
,
00100000
10000000
00100000
01000000
00100000
00010000
00100000
00001000
,
00010000
00000000
00000100
00000000
00001000
00000000
00000010
00000000
00000100
00000000
00000001
00000000
00000010
00000100
00000010
00000000
,
00000001
00000100
00000001
00001000
00000001
00010000
00000001
00000010
,
00001000
00000000
00010000
00000000
00001000
00000000
00010000
00000000
01000000
00000000
00100000
00000000
00100000
00001000
00010000
00000000
,
00001000
00000010
00001000
00010000
00001000
00100000
00001000
00000100
,
00000010
00000000
00001000
00000000
00000001
00000000
00000010
00000000
00001000
00000000
00010000
00000000
00001000
00100000
00001000
00000000
,
01000000
00000100
01000000
00001000
01000000
00010000
01000000
00100000
,
10000000
00000000
01000000
00000000
00100000
00000000
10000000
00000000
00100000
00000000
01000000
00000000
10000000
00010000
01000000
00000000
,
00001000
00000000
00000000
00001000
00010000
00000000
00010000
00000000
00000010
00000000
00001000
00000000
00000100
00000000
00000000
00000000
,
00000041
00000001
00000031
00000000
00001400
00001000
00001300
00000000
,
00010000
00000000
00010000
00001000
00000000
00001000
01000000
00000000
00100000
00000000
00010000
00000000
00100000
00000000
10000000
00000000
,
02000000
03020000
00032000
00003020
,
00001030
00000000
00000000
00001000
00010000
00000000
00010000
00000000
00100000
00000000
01000000
00000000
00010000
00000000
00000000
00000000
,
10040000
10000000
10030000
00000000
00401000
00001000
00301000
00000000
,
00001000
00000000
00001000
00010000
00000000
00010000
00000010
00000000
00001000
00000000
00000001
00000000
00000010
00000000
00000001
00000000
,
00000100
00000000
00000000
00000000
00001100
00000000
00000000
00000000
00000100
00000000
00000010
00000000
00000010
00001000
00000001
00000000
,
00000100
00000000
00001000
00000000
00010000
00000000
00001000
00000000
01000000
00000000
00001000
00010000
00000000
00000000
00100000
00000000
,
00010000
00000000
00001000
00000000
00000010
00000000
00000001
00000000
00000100
00000000
00000010
00000001
00000000
00000000
00000010
00000000
,
00001000
00000000
00010000
00000000
01000000
00000000
10000000
00000000
01000000
00000000
00100000
10000000
00000000
00000000
00010000
00000000
,
00100000
00000000
10000000
00000000
00100000
00000000
00010000
00000000
00001000
00000000
00000100
00000010
00000000
00000010
00000001
00000000
,
00000100
00000000
00000000
00000100
00000010
00000000
00020000
00000000
00001000
00000000
00030000
00001000
00000100
00000000
00002000
00000000
,
01000000
00000000
00003000
01000000
00010000
00000000
10000000
00000000
02000000
00000000
00000000
00000000
03100000
00010000
20000000
00000000
,
01000000
00000000
30000000
01000000
00010000
00000000
00000200
00000000
00001000
00000000
00000300
00001000
00000001
00000000
00000020
00000000
,
00000100
00000000
00000030
00000100
00001000
00000000
00000010
00000000
00020000
00000000
00000000
00000000
01030000
00100000
00010000
00000000
,
10000000
00000000
00000000
10000000
00100000
00000000
02000000
00000000
00001000
00000000
03000000
00001000
00100000
00000000
00000020
00000000
,
00001000
00000000
00000030
00001000
00000001
00000000
00000100
00000000
00000020
00000000
00000000
00000000
00010030
00001000
00010000
00000000
,
00000100
00000000
00000000
00000100
00001000
00000000
00000002
00000000
00000100
00000000
00000003
00000100
00000010
00000000
00020000
00000000
,
00001000
00000000
00030000
00001000
00100000
00000000
00001000
00000000
00020200
00000000
00000000
00000000
00030300
00000000
00000000
00000000
,
00000100
00000001
00000100
00001000
00000100
00000010
00000100
00010000
,
00001000
00000000
01000000
00000000
00100000
00000000
01000000
00000000
00001000
00000000
00100000
00000000
00010000
00100000
00001000
00000000
,
00010000
00001000
00010000
00000100
00010000
01000000
00010000
00001000
,
00000010
00000000
00000001
00000000
00000010
00000000
00000001
00000000
00000100
00000000
00000010
00000000
00010000
00001000
01000000
00000000
,
00100000
10000000
00100000
01000000
00100000
00010000
00100000
10000000
,
01000000
00000000
00010000
00000000
01000000
00000000
10000000
00000000
00001000
00000000
00010000
00000000
00001000
00010000
00001000
00000000
,
00010000
00000001
00010000
00000100
00010000
00001000
00010000
00100000
,
01000000
00000000
00001000
00000000
01000000
00000000
00000100
00000000
00010000
00000000
00000100
00000000
00001000
00000010
00000100
00000000
,
00001000
00000000
00000000
00001000
00010000
00000000
00001000
00000000
00010000
00000000
00100000
00000000
10000000
00000000
00000000
00000000
,
01040000
01000000
01030000
00000000
00401000
00001000
00301000
00000000
,
00010000
00000000
00000100
00001000
00000000
00000010
00001000
00000000
00000100
00000000
00000010
00000000
00000001
00000000
00000100
00000000
,
00002000
00203000
00300020
00020030
,
00031000
00000000
00000000
00001000
00010000
00000000
00100000
00000000
01000000
00000000
00001000
00000000
00010000
00000000
00000000
00000000
,
00040100
00000100
00030100
00000000
00001004
00001000
00001003
00000000
,
00000001
00000000
00000100
00000010
00000000
00001000
00000010
00000000
00010000
00000000
00001000
00000000
01000000
00000000
00010000
00000000
,
10010000
00000000
00000000
00000000
01100000
00000000
00000000
00000000
00010000
00000000
00000000
00000000
00001000
00100000
00010000
00000000
,
00110000
00000000
01000000
00000000
00001000
00000000
00010000
00000000
00000010
00000000
00001000
00000100
00000000
00000100
00000010
00000000
,
00000001
00001001
00001100
00000000
00000010
00011000
01001000
00000000
,
00100000
00000000
00001000
01000000
00000000
00001000
00100000
00000000
00010000
00000000
01000000
00000000
00100000
00000000
10000000
00000000
,
40040000
00000000
00000000
00000000
00000000
00000000
00000000
00000000
30030000
00000000
00000000
00000000
04002000
00000000
00000000
00000000
00000000
00000000
00000000
00000000
00000000
03000000
00000000
00000000
00040000
00000000
00000000
00000000
00000000
00000000
00000000
00000000
00000000
00030000
00000000
00000000
00013000
00000000
00000000
00000100
00000000
00000000
00001000
00000000
00000000
00000000
00000000
00000000
,
00000010
00000000
00000100
00000000
00000001
00000000
00000010
00000000
00000100
00000000
00001000
00000100
00000000
00000100
00001000
00000000
,
00000010
00001000
00010010
00000000
00001000
00011000
00010010
00000000
,
00000100
00000000
00000010
00001000
00000000
00001000
00000100
00000000
00000010
00000000
00000001
00000000
00000100
00000000
00000010
00000000
,
00010010
00010000
01001000
00010000
00010010
00011000
00000000
00000000
;

//---------------dance-single - J. Frederick----------------
#NOTES:
     dance-single:
     J. Frederick:
     Beginner:
     1:
     0.070,0.112,0.038,0.000,0.000,48.000,4.000,0.000,0.000,0.000,0.000,0.070,0.112,0.038,0.000,0.000,48.000,4.000,0.000,0.000,0.000,0.000:
0000
0000
0000
0000
,
0000
0000
0000
0000
,
0000
0000
0000
0000
,
0000
0000
0000
0000
,
1000
0000
0000
0000
,
0001
0000
0000
0000
,
0010
0000
0000
0000
,
0100
0000
0000
0000
,
1000
0000
0000
0000
,
0001
0000
0000
0000
,
0100
0000
0000
0000
,
0010
0000
0000
0000
,
1000
0000
0000
0000
,
0001
0000
0000
0000
,
0010
0000
0000
0000
,
0100
0000
0000
0000
,
1000
0000
0000
0000
,
0000
0000
0000
0000
,
0001
0000
0000
0000
,
0000
0000
0000
0000
,
0100
0000
0000
0000
,
0000
0000
0000
0000
,
0010
0000
0000
0000
,
1001
0000
0000
0000
,
1000
0000
0000
0000
,
0001
0000
0000
0000
,
0100
0000
0000
0000
,
0010
0000
0000
0000
,
1000
0000
0000
0000
,
0000
0000
0000
0000
,
0001
0000
0000
0000
,
0000
0000
0000
0000
,
0100
0000
0000
0000
,
0000
0000
0000
0000
,
0010
0000
0000
0000
,
0000
0000
1001
0000
,
1000
0000
0000
0000
,
0001
0000
0000
0000
,
0010
0000
0000
0000
,
0100
0000
0000
0000
,
1000
0000
0000
0000
,
0001
0000
0000
0000
,
0100
0000
0000
0000
,
0010
0000
0000
0000
,
1000
0000
0000
0000
,
0000
0000
0000
0000
,
0001
0000
0000
0000
,
0000
0000
0000
0000
,
0100
0000
0000
0000
,
0000
0000
0000
0000
,
0010
0000
0000
0000
,
0000
0000
1001
0000
,
1000
0000
0000
0000
,
0001
0000
0000
0000
,
0010
0000
0000
0000
,
0100
0000
0000
0000
,
1000
0000
0000
0000
,
0001
0000
0000
0000
,
0100
0000
0000
0000
,
0010
0000
1001
0000
;
