#TITLE:Online;
#SUBTITLE:;
#ARTIST:Lynn;
#TITLETRANSLIT:;
#SUBTITLETRANSLIT:;
#ARTISTTRANSLIT:;
#GENRE:Bubblegum Pop;
#CREDIT:;
#BANNER:Online-bn.png;
#BACKGROUND:Online-bg.png;
#LYRICSPATH:;
#CDTITLE:;
#MUSIC:Online.ogg;
#OFFSET:-0.002;
#SAMPLESTART:59.480;
#SAMPLELENGTH:11.860;
#SELECTABLE:YES;
#BPMS:0.000=136.000;
#STOPS:;
#BGCHANGES:0.179=Online.mpg=1.000=1=0=0=StretchNoLoop==CrossFade==,
99999=-nosongbg-=1.000=0=0=0 // don't automatically add -songbackground-;
#KEYSOUNDS:;

//---------------dance-single - J. Frederick----------------
#NOTES:
     dance-single:
     J. Frederick:
     Easy:
     2:
     0.219,0.000,0.131,0.244,0.000:
0000
0000
0000
0000
,
0000
0000
0000
0000
,
0000
0000
0000
0000
,
2000
0000
0000
3000
,
0002
0003
0020
0030
,
0200
0000
0000
0300
,
2000
0000
0000
3000
,
0020
0000
0000
0030
,
0200
0300
0020
0030
,
1000
0010
1000
0000
,
0001
0100
0001
0000
,
0010
0100
0010
0000
,
0001
1000
0001
0000
,
0110
0110
0000
0000
,
1000
0001
1001
0000
,
0010
0100
0010
0100
,
1000
0000
0001
0000
,
2002
0000
0000
3003
,
1000
0000
0001
0000
,
0100
0000
0010
0000
,
1000
1000
1000
0000
,
0001
0000
0010
0000
,
0100
0000
1000
0000
,
0001
0001
0001
0000
,
0100
0000
0010
0000
,
0110
0220
0000
0330
,
0100
0010
0100
0000
,
0001
1000
0001
0000
,
0010
0001
0010
0001
,
0020
0000
0000
0030
,
0001
0000
1000
0000
,
0010
0010
0010
0000
,
0100
0000
0010
0000
,
2002
0000
0000
3003
,
1000
0000
0001
0000
,
0100
0010
0100
0000
,
0010
0000
1000
0000
,
0001
0100
0001
0000
,
1001
2002
3003
0000
,
0100
0010
1000
0000
,
0100
0000
0010
0000
,
0001
0000
1000
0000
,
0020
0000
0030
0000
,
0100
0010
1000
0000
,
0002
0000
0000
0003
,
0000
0000
1000
0001
,
0200
0000
0000
0300
,
0010
0000
0100
0010
,
2002
0000
0000
3003
,
1000
0000
0001
0000
,
0220
0000
0000
0330
,
1000
0000
0001
0000
,
0100
0010
0100
0000
,
0010
0000
0100
0000
,
1000
0001
1000
0000
,
0110
1001
0000
0000
,
1000
0001
0100
0000
,
0010
0000
1000
0000
,
0001
0010
0100
0000
,
2002
3003
0000
0000
;

//---------------dance-single - K. Ward----------------
#NOTES:
     dance-single:
     K. Ward:
     Hard:
     7:
     0.411,0.000,0.234,0.084,0.056:
0000
0000
0000
0000
,
0000
0000
0000
0000
,
0000
0000
0000
0000
,
0000
0000
0000
0000
,
0000
0000
0000
0000
,
1001
0000
0000
0000
,
0000
0000
0000
0000
,
0200
0000
0000
0000
,
0310
0000
0000
0000
,
0001
1000
0010
1000
0100
1000
0010
1000
,
0001
0100
0001
0010
0001
0100
0001
0001
,
0100
0010
0100
1000
0100
0010
0100
0010
,
0001
0010
0100
0010
0100
0000
1001
0000
,
0100
0010
0100
1000
0100
0010
0100
1000
,
0100
0010
0100
0010
0001
0000
1000
0000
,
0100
0010
0100
0010
,
0101
0000
0000
0000
0100
0010
0100
0000
,
1001
0000
0000
0000
,
0100
0000
0000
0100
0000
0000
0010
0000
0000
0100
0000
0000
0001
0000
0000
0000
,
0010
0000
0000
0010
0000
0000
0100
0000
0000
0010
0000
0000
0001
0000
0000
0000
,
1000
0000
0000
1000
0000
0000
0100
0000
0000
0001
0000
0000
0010
0000
0000
0000
,
0100
0000
0000
0100
0000
0000
0001
0000
0000
0010
0000
0000
0100
0000
0000
0000
,
0010
0000
0000
0010
0000
0000
0101
0000
0000
0010
0000
0000
1001
0000
0000
0000
,
0100
0000
0000
0010
0000
0000
1100
0000
0000
0010
0000
0000
1001
0000
0000
0000
,
0000
0100
0010
0100
0001
0010
0100
0010
,
0001
0001
0000
0000
,
1000
0010
0001
0010
1000
0010
0001
0010
,
0100
0001
0010
0001
0100
0001
0010
0001
,
0010
0100
1000
0100
0001
0100
1000
0100
,
0010
0100
0010
0100
,
1001
0100
0010
1000
0001
0010
0100
1000
,
0010
0100
0001
0010
0100
0000
0010
0000
,
0100
1000
0100
0000
0010
0001
0010
0000
,
2002
0000
3003
0000
,
0001
1000
0010
1000
0100
0010
0100
0000
,
0100
0001
0010
0001
0010
0100
0010
0000
,
0100
0001
0100
0010
0100
1000
0100
0010
,
0100
0001
0010
0100
1000
0100
0010
0100
,
0010
0011
0100
1100
,
0010
1001
0100
1001
,
0100
0010
0001
0010
,
0200
0000
1000
0310
,
1001
0000
0000
0010
,
0010
0100
0100
0001
,
2000
0000
0000
0000
,
3100
0000
0010
0100
,
2001
0010
0100
3010
,
0210
1000
0010
0301
,
1002
0100
0010
0103
,
0021
0100
0001
0130
,
1001
0000
0000
0000
,
0010
0100
0001
0010
0001
0100
0010
0100
,
1000
0100
0010
0100
0001
0100
1000
0100
,
0001
1000
0001
0100
0001
0010
0001
0100
,
0001
1000
0001
0100
0001
0010
0100
0010
,
0001
0100
1000
0100
0001
0100
1000
0100
,
0001
1000
0100
0010
0001
1000
0100
0010
,
0001
1000
0001
1000
,
0110
0011
1100
0110
,
1001
0000
0000
0000
;

//---------------dance-double - J.Casarino----------------
#NOTES:
     dance-double:
     J.Casarino:
     Hard:
     7:
     0.464,0.000,0.140,0.225,0.000:
00000000
00000000
00000000
00000000
,
00000000
00000000
00000000
00000000
,
00010000
00001000
01000000
00000000
00001000
00010000
00000010
00000000
,
00010000
00001000
01000000
00000000
00100000
10000000
01000000
00000000
,
00100000
00001000
00010000
00000000
00100000
00000000
00100000
00000000
,
10010000
00100000
00000000
00000000
,
00001000
00000000
00010000
00000000
,
00000220
00000000
00000000
00000330
,
00001000
00010000
00000100
00001000
,
00000010
00010000
00001000
00000000
00000100
00000010
00010000
00001000
,
00000000
00000010
00000001
00001000
00000100
00000010
00001000
00010000
,
00001000
00010000
00100000
00000000
10000000
00010000
01000000
00100000
,
00000000
00010000
00100000
10000000
00010000
00000000
01100000
00000000
,
10000000
00100000
01000000
00000000
00010000
00100000
01000000
10000000
,
00000000
00100000
01000000
00100000
00010000
00000000
00001000
00000000
,
00010000
00000100
00010000
00000100
00010000
00001000
00100000
00001000
,
00010000
00000000
01001000
00000000
01000000
00010000
01000000
00000000
,
40040000
00000000
00000000
30030000
,
01000000
00000000
00010000
10000000
00010000
00000000
10000000
00100000
,
01000000
00010000
00100000
00001000
00000000
00000000
01000000
00001000
,
00011000
00000000
00101000
00000000
00011000
00000000
00010010
00010000
,
00000010
00002000
00000000
00003002
00000000
00000103
00000001
00001000
,
00000000
00000000
00000010
00000100
00000010
00000000
00000001
00000010
,
00000100
00000010
00001000
00000001
00000100
00000000
00001000
00000000
,
00000000
00010000
00100000
10000000
01000000
00100000
00010000
01000000
,
00001000
00010000
00002020
00003030
,
00000001
00000010
00000001
00000010
00000100
00010000
00000100
00010000
,
00001000
00100000
00001000
00100000
01000000
10000000
01000000
10000000
,
00100000
01000000
00100000
00010000
00100000
00010000
00001000
00010000
,
00001000
00000010
00000001
00000010
00000100
00001000
00000010
00000000
,
00001000
00000010
00000100
00000001
00000100
00000010
00010000
00001000
,
00100000
01000000
10000000
01000000
00100000
00000000
00101000
00000000
,
00010000
00001000
00010000
00000000
00001000
00010000
01000000
00000000
,
44000000
00000000
00000000
33000000
,
00100000
00010000
10000000
00000000
00100000
10000000
00010000
10000000
,
00000000
01000000
00100000
00001000
00010000
00001000
00100000
00001000
,
00010000
00000100
00010000
00000000
00000000
00001000
00010000
00001000
,
00000000
00010000
00000010
00010000
00001000
00010000
00000100
00000010
,
00000001
00000010
00000001
00000000
00001000
00000100
00010000
00001000
,
00000000
00000100
00000001
00001000
00000100
00000000
00010000
00000000
,
00001000
01000000
00010000
01000000
00001000
00010000
00000010
00010000
,
00001000
00000000
00010000
00000000
00001000
00010000
00000100
00010000
,
00002000
00000000
00000000
00023000
,
00230000
20300000
32000000
03200000
,
00302000
00000000
00000000
00000000
,
00000000
00000000
00003200
00000302
,
00000023
00000001
00000100
00000031
,
00020000
00000010
00000100
00031000
,
00200000
00001000
00320000
10000000
,
02030000
03002000
00023000
00030010
,
00000404
00000000
00000000
00000303
,
00001000
00000010
00001000
00000000
00000001
00000100
00000010
00001000
,
00000000
00000100
00010000
00001000
00100000
00001000
00010000
00001000
,
00010000
00000100
00001000
00000000
00000100
00010000
00001000
00010000
,
00000000
00100000
01000000
00010000
00100000
01000000
10000000
01000000
,
10000000
00010000
00100000
00000000
01000000
10000000
00100000
01000000
,
00000000
00010000
00100000
00001000
00010000
00000000
00001000
00000000
,
00010000
00000010
00010000
00001000
00000100
00000001
00000100
00000001
,
00001000
00000000
00010010
00000000
00001000
01000000
00001000
00010000
,
02002000
00000000
00000000
00000000
00000000
00000000
00000000
00000000
00000000
03003000
00000000
00000000
00000000
00000000
00000000
00000000
;

//---------------dance-double - J.Casarino----------------
#NOTES:
     dance-double:
     J.Casarino:
     Challenge:
     9:
     0.605,0.000,0.140,0.206,0.197:
00000000
00000000
00000000
00000000
,
00000000
00000000
00000000
00000000
,
00010000
00001000
01000000
00000000
00010000
00000010
00001000
00000000
,
00000010
00000100
00001000
00000000
00010000
00100000
01000000
00000000
,
00000100
00010000
00001000
00000000
10000000
00010000
00100000
00000000
,
00011000
01000000
00000100
01000000
00000100
01000000
00000100
01000000
,
00011000
00000010
00100000
00000010
00100000
00000010
00100000
00000010
,
00011000
00001000
10000000
00001000
00011000
00010000
00000001
00010000
,
00011000
00000000
00000000
00000000
01000100
00000000
00000000
00000100
01000000
00000000
00000000
00001000
01000000
00000000
00000000
00000000
,
00010000
00100000
01000000
10000000
01000000
10000000
00010000
00100000
,
00001000
00010000
01000000
00100000
00001000
00010000
00000100
00010000
,
00001000
00010000
00001000
00000010
00000100
00010000
00001000
00100000
,
01000000
00010000
00000100
00000010
00000001
00001000
00000010
00000100
,
00000001
00000100
00000010
00001000
00000010
00010000
00100000
01000000
,
00001000
00010000
00001000
00100000
01000000
00100000
00010000
01000000
,
10000000
00010000
10000000
01000000
00100000
00010000
00100000
00010000
,
00001000
01000000
00010000
00100000
00010000
10000000
01000000
00100000
,
44000000
00000000
00000000
00000000
00000000
00000000
00000000
00000000
00000000
00000000
30000000
03000000
10000000
01000000
10000000
01000000
,
10000000
00000000
00100000
00001000
01000000
00000000
00100000
00010000
,
10000000
01000000
00100000
00010000
00000000
00010000
00001000
00010000
,
00010010
00000000
01001000
00000000
00101000
00000000
00010100
00000001
,
00000010
00002000
00000000
00023000
00000000
00030100
02000000
00010000
,
00000000
03001000
00010000
00000010
00001000
00000000
00000100
00001000
,
00000001
00000010
00000100
00020000
00000000
00200000
00030000
10000000
,
00000000
10300000
00100000
00010000
10000000
01000000
00010000
00100000
,
00002000
00023000
00032000
00003200
,
00000301
00000000
00000010
00000000
00000100
00001000
00000000
00000100
00010000
00000000
00000100
01000000
00000000
00000100
00010000
00000000
,
00001000
00000000
00010000
00000000
00001000
01000000
00000000
00001000
10000000
00000000
00001000
00100000
00000000
00001000
00010000
00000000
,
00100000
00000000
10000000
00000000
01000000
00100000
00000000
01000000
00010000
00000000
01000000
00100000
00000000
01000000
00010000
00000000
,
00001000
00000000
00000010
00000000
00001000
00000010
00000000
00000100
00000010
00000000
00001000
00000010
00000000
00000100
00000010
00000000
,
00000100
00000000
00000000
00000000
00010000
00000000
00000000
00000000
00001000
00000000
00000100
0000M000
00000000
00000M00
00001000
00000000
00000100
00000000
0000M000
00000000
00000100
00000000
00001000
00000M00
00000000
0000M000
00000100
00000000
00001000
00000000
00000000
00000000
,
00010000
00000000
00000000
00000000
00100000
00000000
00000000
00000000
10000000
00000000
00100000
00000000
10000000
00000000
00000000
00000000
00100000
M0000000
00000000
00M00000
10000000
00000000
00100000
00000000
M0000000
00000000
00100000
00000000
10000000
00000000
00000000
00000000
,
10000000
00000000
01000000
00000000
10000000
01000000
00000000
01000000
00010000
00000000
00010000
00001000
00000000
00001000
00010000
00000000
,
00040040
00000000
00000000
00000000
00000000
00000000
00000000
00030030
00000010
00010000
00000010
00010000
00000010
00000000
00000100
00000000
,
00000001
00000010
00000001
00001000
00000100
00000001
00001000
00000010
,
00001000
00010000
00000100
00010000
00001000
01000000
00001000
00100000
,
00001000
00010000
00000100
00000010
00000100
00010000
00001000
00000100
,
00000010
00010000
01000000
00100000
00010000
10000000
00100000
01000000
,
00010000
00100000
00010000
10000000
00100000
01000000
00001000
00010000
,
00000100
01000000
00001000
00010000
00000010
00000100
00001000
00000100
,
00000001
00000100
00000001
00000100
00000010
00001000
00000010
00010000
,
00001000
00000100
00000010
00001000
00000100
00000010
00000001
00000000
,
00002001
00000000
00000000
00023000
,
20030000
32000000
03020000
00030010
,
00000100
00000001
00000100
00000001
00001000
00000100
00001000
00000100
,
00010000
00001000
00010000
00001000
00000100
00001000
00010000
00001000
,
01000000
00110000
00200000
00001000
,
00302000
01000000
00023000
00000010
,
00000200
00030000
00001000
00000000
00020300
00000000
10000000
00030000
,
00002000
01000000
00100000
10000000
,
00010000
00000000
00000000
00000000
00003010
00000000
00000000
00000000
00000001
00001000
00000001
00001000
00000001
00000000
00000100
00000000
,
00000010
00001000
00000100
00000010
00000100
00010000
00001000
01000000
,
00100000
00010000
00001000
00100000
00001000
01000000
00100000
00010000
,
00001000
10000000
00010000
01000000
00001000
10000000
00100000
01000000
,
00001000
10000000
00010000
01000000
00001000
10000000
01000000
00010000
,
00000100
00000010
00001000
00000010
00000100
00010000
00000100
00010000
,
00001000
01000000
00001000
00010000
00000100
00010000
00000001
00001000
,
00000100
00010000
00000001
00001000
00000100
00010000
00000001
00000100
,
00000010
00010000
00000001
00000100
00001000
00000100
00001000
00010000
,
02002000
00000000
00000000
00000000
00000000
00000000
00000000
00000000
00000000
03003000
00000000
00000000
00000000
00000000
00000000
00000000
;

//---------------dance-double - J.Casarino----------------
#NOTES:
     dance-double:
     J.Casarino:
     Medium:
     5:
     0.328,0.000,0.150,0.094,0.000:
00000000
00000000
00000000
00000000
,
00000000
00000000
00000000
00000000
,
00000000
00000000
00000000
00000000
,
00000000
00000000
00000000
00000000
,
00000000
00000000
00000000
10000000
,
10010000
00000000
00000000
00000000
,
00000000
00000000
00000000
00000000
,
02000000
00000000
00000000
00000000
,
03100000
00000000
00000000
00000000
,
00010000
00001000
00010000
00000000
00100000
00000000
10000000
00000000
,
00010000
01000000
00010000
00000000
00010000
01000000
00010000
00000000
,
00100000
00001000
00100000
00000000
00001000
00000000
00010000
00000000
,
00000010
00001000
00000010
00000000
00000010
00001000
00000010
00000000
,
00001010
00000001
00000010
00000100
,
00010000
00001000
00001000
00000000
00001000
00010000
00010000
00000000
,
00001000
00100000
00001000
00100000
00010000
00000000
01000000
00000000
,
00100000
10000000
01000000
00100000
,
40040000
00000000
30030000
00000000
,
10000000
00000000
00010000
01000000
00010000
00000000
00100000
00000000
,
01000000
00010000
00001000
00100000
,
00012000
00100000
00100000
00013000
,
00021000
00000010
00000010
00031000
,
00011000
00000000
00000100
00001000
00000100
00000000
00000010
00000000
,
00000001
00000100
00000001
00001000
00000000
00000000
00000000
00000000
,
00000000
00000001
00000010
00000001
00001000
00000000
00000100
00010000
,
00001000
00100000
00010000
00000000
00000000
00000000
00MM0000
00000000
,
10000000
00100000
10000000
00000000
01000000
00000000
01000000
00000000
,
00010000
00001000
00001000
00000000
00010000
00000000
00010000
00000000
,
00001000
00000100
00000010
00000000
00000010
00000100
00001000
00000000
,
00020000
00000000
00030000
00000000
,
00000010
00001000
00000100
00000000
00000010
00000000
00000010
00000000
,
00000001
00000100
00000010
00000000
00000100
00000000
00000000
00000000
,
00001000
00010000
00001000
00000000
00001000
00010000
00010000
00000000
,
00044000
00000000
00033000
00000000
,
00001000
00010000
00001000
00000000
00000010
00000000
00000001
00000000
,
00001000
00000100
00001000
00000000
00001000
00000100
00001000
00000000
,
00000010
00010000
00000010
00000000
00010000
00000000
00001000
00000000
,
00100000
00010000
00100000
00000000
00100000
00010000
00100000
00000000
,
00110000
10000000
00100000
01000000
,
00001000
00010000
00010000
00000000
00010000
00001000
00001000
00000000
,
00010000
00000010
00010000
00000010
00001000
00000000
00000100
00000000
,
00000010
00000001
00000100
00000010
,
00001001
00000000
00000000
00000001
,
00000001
00000100
00000100
00001000
,
00020000
00000000
00030000
00000000
,
01000000
00000000
00100000
01000000
,
20010000
00000000
00000000
31000000
,
10000000
00100000
00010000
00001000
,
00002000
00000000
00003000
00000000
,
00000020
00000000
00000030
00000000
,
00004004
00000000
00003003
00000000
,
00000001
00000100
00001000
00000000
00000100
00000000
00000001
00000000
,
00001000
00000010
00001000
00000000
00001000
00000001
00001000
00000000
,
00000100
00010000
00001000
00000000
00010000
00000000
00001000
00000000
,
00010000
00001000
00010000
00000000
00010000
01000000
00010000
00000000
,
01100000
10010000
01000000
00100000
,
10000000
00010000
00010000
00000000
01000000
01000000
00001000
00000000
,
00010000
00001000
00010000
00000010
00001000
00000000
00001001
00000000
,
00000110
00000100
00010000
00001000
,
00220000
00000000
00000000
00000000
00000000
00000000
00000000
00000000
00000000
00330000
00000000
00000000
00000000
00000000
00000000
00000000
;

//---------------dance-double - M.Emirzian----------------
#NOTES:
     dance-double:
     M.Emirzian:
     Easy:
     3:
     0.183,0.000,0.037,0.075,0.000:
00000000
00000000
00000000
00000000
,
00000000
00000000
00000000
00000000
,
00000000
00000000
00000000
00000000
,
00000000
00000000
00000000
00000000
,
00000000
00000000
00000000
00000000
,
00100000
00100000
00000000
00000000
,
00000000
00000000
00000000
00000000
,
00001000
00000000
00000000
00000000
,
00022000
00000000
00000000
00033000
,
00010000
00000000
00001000
00010000
,
00001000
00000000
00010000
00000000
,
00000100
00000000
00001000
00001000
,
00001000
00000000
00000010
00000000
,
00000100
00000000
00000001
00001000
,
00000001
00000000
00000010
00000000
,
00000100
00000000
00001000
00001000
,
00001000
00000000
00000010
00001000
,
00000100
00000000
00000000
00000000
,
00010000
00010000
00000000
00001000
,
00001000
00000000
01000000
00010000
,
00000000
10000000
00100000
00000000
,
01000000
01000000
00000000
00010000
,
00010000
00000000
00100000
00001000
,
00000000
00010000
00001000
00000000
,
00000100
00000100
00000000
00000001
,
00000001
00000000
00001000
00000100
,
00000000
00001000
00000010
00000000
,
00010000
00010000
00000000
00001000
,
00001000
00000000
01000000
00001000
,
00000000
01000000
00100000
00000000
,
10000000
10000000
00000000
01000000
,
01000000
00000000
00100000
00010000
,
01000000
00100000
10000000
01000000
,
20020000
00000000
00000000
30030000
,
00100000
00000000
00001000
00000000
,
00010000
00000000
00001000
00010000
,
00001000
00000000
00000100
00000000
,
00000010
00000000
00000001
00000001
,
00000001
00000000
00000100
00000000
,
00000010
00000000
00001000
00000100
,
00001000
00000000
00010000
00010000
,
00010000
00000000
01000000
10000000
,
01000000
00000000
00000000
00000000
,
10000000
00000000
00000000
00000000
,
00010000
00000000
00000000
00000000
,
00001000
00000000
00000000
00000000
,
00000001
00000000
00001000
00000000
,
00000100
00000000
00000010
00000000
,
00000100
00000000
00010000
00000000
,
00001000
00000000
01000000
00000000
,
00220000
00000000
00000000
00330000
,
00100000
00000000
10000000
00010000
,
01000000
00000000
00100000
00000000
,
10000000
00000000
01000000
01000000
,
01000000
00000000
00100000
00000000
,
00001000
00000000
00010000
00001000
,
00010000
00000000
00000100
00000000
,
00000010
00000000
00000001
00000001
,
00000001
00000000
00000100
00000010
,
00000220
00000000
00000000
00000000
00000000
00000000
00000000
00000000
00000000
00000330
00000000
00000000
00000000
00000000
00000000
00000000
;

//---------------dance-single - J. Frederick----------------
#NOTES:
     dance-single:
     J. Frederick:
     Beginner:
     1:
     0.080,0.000,0.066,0.000,0.000:
0000
0000
0000
0000
,
0000
0000
0000
0000
,
0000
0000
0000
0000
,
0001
0000
0000
0000
,
0100
0000
0000
0000
,
0010
0000
0000
0000
,
1000
0000
0000
0000
,
0001
0000
0000
0000
,
0110
0000
0000
0000
,
1000
0000
0000
0000
,
0001
0000
0000
0000
,
0010
0000
0000
0000
,
0100
0000
0000
0000
,
0001
0000
0000
0000
,
1000
0000
0000
0000
,
0010
0000
0000
0000
,
0100
0000
0000
0000
,
0110
0000
0000
0000
,
1000
0000
0000
0000
,
0001
0000
0000
0000
,
0010
0000
0000
0000
,
0100
0000
0000
0000
,
1000
0000
0000
0000
,
0001
0000
0000
0000
,
0100
0000
0000
0000
,
0010
0000
0000
0000
,
1000
0000
0000
0000
,
0001
0000
0000
0000
,
0010
0000
0000
0000
,
1001
0000
0000
0000
,
0100
0000
0000
0000
,
0010
0000
0000
0000
,
1000
0000
0000
0000
,
0001
0000
0000
0000
,
0110
0000
0000
0000
,
1000
0000
0000
0000
,
0001
0000
0000
0000
,
0100
0000
0000
0000
,
0010
0000
0000
0000
,
1000
0000
0000
0000
,
0001
0000
0000
0000
,
0010
0000
0000
0000
,
0100
0000
0000
0000
,
0000
0000
0000
0000
,
1000
0000
0000
0000
,
0000
0000
0000
0000
,
0001
0000
0000
0000
,
0000
0000
0000
0000
,
0100
0000
0000
0000
,
0000
0000
0000
0000
,
1001
0000
0000
0000
,
0110
0000
0000
0000
,
1000
0000
0000
0000
,
0001
0000
0000
0000
,
0010
0000
0000
0000
,
0100
0000
0000
0000
,
1000
0000
0000
0000
,
0001
0000
0000
0000
,
0100
0000
0000
0000
,
1001
0000
0000
0000
;

//---------------dance-single - J. Frederick----------------
#NOTES:
     dance-single:
     J. Frederick:
     Medium:
     5:
     0.339,0.000,0.169,0.337,0.005:
0000
0000
0000
0000
,
0000
0000
0000
0000
,
0000
0000
0000
0000
,
1000
0100
2000
0000
0000
0000
3000
0000
,
0001
0100
0002
0000
0000
0000
0003
0000
,
0010
0100
0020
0000
0000
0000
0000
0030
,
0100
1000
0200
0000
0000
0000
0000
0300
,
1000
0010
0200
0000
0000
0000
0300
0000
,
0220
0000
0000
0330
,
1000
0010
1000
0000
0001
0000
0100
0000
,
0001
0010
0100
1000
,
0100
0010
0001
0000
0100
0000
0001
0000
,
1000
0001
0100
0010
,
0110
2002
0000
3003
,
0010
0100
0010
0000
0100
0000
1000
0000
,
0010
0000
0100
0001
0010
0000
0001
0000
,
2000
0000
0002
3003
,
0220
0000
0000
0330
,
1000
0010
0100
0001
,
0010
0100
0010
0000
0100
0000
1000
0000
,
1100
0011
0101
1001
,
0100
0010
0100
0000
0010
0000
1000
0000
,
1001
0010
0100
1000
,
0100
0000
0010
0001
0100
0000
0001
0000
,
1000
0000
0001
1000
0001
0000
1000
0000
,
1010
0202
0000
0303
,
0100
0001
0100
0000
0002
0000
0003
0000
,
1000
0010
1000
0000
0020
0000
0030
0000
,
0100
0010
0100
0000
0010
0000
1000
0000
,
0200
0000
0000
0300
,
0010
0001
0010
0000
0002
0000
0003
0000
,
0100
0010
0100
0000
0020
0000
0030
0000
,
1000
0010
1000
0000
0001
0100
0001
0000
,
2002
0000
0000
3003
,
1000
0001
1000
0000
0001
0000
0010
0000
,
0100
1000
0100
0010
,
0001
0100
0001
0000
1000
0000
0010
0000
,
0100
0001
0010
0100
,
0110
2002
0000
3003
,
0100
0010
0100
0000
0020
0000
0030
0000
,
1000
0100
0010
0000
0001
0000
0100
0000
,
0001
0001
1000
1000
,
0020
0000
0030
0100
,
0010
1000
0100
0010
,
0002
0000
0000
0003
,
1000
0000
0001
0010
,
0200
0000
0300
1000
,
0010
0100
0010
1000
,
0002
0000
0000
0000
,
2000
0000
0000
3003
,
0220
0000
0000
0330
,
1000
0010
1000
0000
0010
0000
0100
0000
,
0001
0010
0001
0100
,
0001
1000
0001
0000
0100
0000
0010
0000
,
1000
0100
0010
0001
,
0011
2200
0000
3300
,
0010
0001
0010
0000
0001
0000
0100
0000
,
0010
0100
0010
0000
1000
0000
0001
0000
,
0010
0100
1000
0100
,
0220
0000
0000
0000
0330
0000
0000
0000
000M
M000
0000
0000
0000
0000
0000
0000
;

//---------------dance-single - J. Frederick----------------
#NOTES:
     dance-single:
     J. Frederick:
     edit:
     9:
     0.665,0.223,0.234,0.103,0.253:
0000
0000
0000
0000
,
1000
0001
0010
0100
0010
0100
1000
0010
,
0100
0001
0010
0001
1000
0010
0100
0010
,
1000
0001
0010
1000
0010
0100
0010
0001
,
0100
0001
1000
0010
0100
0001
0010
0001
,
1000
1000
0001
0001
0010
0010
0100
0100
,
1000
1000
0010
0010
0100
0100
0001
0001
,
0010
0001
1000
0100
0010
0001
1000
0010
0100
0001
0010
0100
1000
0001
0100
0001
,
1000
0000
1000
0010
0100
0000
0001
0000
0010
0100
1000
0100
0010
0000
0001
0000
,
0100
0010
0001
0000
0100
0000
0010
0000
0100
0000
0010
0000
1000
0000
0001
0000
,
0010
0001
0100
0010
1000
0010
0100
0001
,
1000
0001
1000
0000
0010
0000
0100
0000
0001
0000
0010
0000
0100
0000
1000
0000
,
0100
0010
0001
0100
0010
1000
0010
1000
,
1010
0000
0101
0000
0010
0100
1000
0100
,
0010
0000
0001
0000
0100
0000
0001
0000
1000
0000
0000
0010
0100
0000
0010
0000
,
1000
0100
0001
0000
0010
0000
0100
0000
1000
0000
0010
0000
0100
0000
0001
0000
,
0010
0001
1000
0010
0100
0001
0010
0001
,
1000
0000
0000
1000
0000
0000
0010
0000
0100
0000
0000
0000
0110
0000
0000
0000
,
1000
0001
0010
0100
1000
0100
0010
0001
,
0100
0010
1000
0010
0100
0001
0010
0001
,
0011
0000
1100
0000
1010
0000
0101
0010
,
0001
0010
0100
1000
0000
1000
0010
0100
,
1001
0010
0001
1000
0010
0100
0001
0010
,
0100
1000
0100
0010
0000
0010
0001
0100
,
0001
0000
1000
0000
0010
0000
0100
0000
0010
0001
0010
0000
0001
0000
0010
0000
,
2002
0000
0110
0000
3003
0000
0010
0100
,
1000
0000
0010
0000
0100
0001
0000
0001
0010
0000
0100
1000
0000
1000
0100
0000
,
0010
0000
0001
0000
0100
0001
0000
1000
0001
0000
0100
0010
0000
1000
0010
0000
,
0100
0000
0001
0000
0010
0001
0000
1000
0010
0000
0100
0010
0000
0001
0010
0000
,
1000
0000
0010
0000
0100
0010
0000
0010
0100
0000
1000
0100
0000
0010
0001
0000
,
0110
0000
0001
0000
1000
0010
0000
0100
0010
0000
1000
0001
0000
0010
0100
0000
,
1000
0000
0010
0000
0100
0001
0000
0010
0001
0000
1000
0001
0000
0100
0010
0000
,
1000
0000
0010
0000
0100
0001
0000
0010
0100
0000
1000
0100
0000
0010
0001
0000
,
2002
0000
0000
0000
3103
0000
0010
0000
1000
0000
0010
0100
0001
0000
0010
0000
,
0100
0010
0100
0000
1000
0000
0001
0000
0010
0000
0100
0000
1000
0000
0100
0000
,
0010
0001
0100
0010
1000
0010
0100
0001
,
0010
0001
0010
0000
0100
0000
1000
0000
0010
0000
0100
0000
0010
0000
1000
0000
,
0001
0010
0100
1000
0010
0100
0001
0100
,
0101
0000
1010
0000
0100
0010
1000
0100
,
0010
0001
0010
0000
0100
0000
1000
0000
0100
0000
0010
0000
0001
0000
0100
0000
,
0010
1000
0001
0100
0001
0010
0100
1000
,
0100
0010
0001
0100
0001
1000
0010
0100
,
0120
0000
0000
0000
1000
0000
0000
0000
0100
0000
0000
0000
1000
0030
0000
0000
,
0021
0000
0000
0000
0100
0000
0000
0000
1000
0000
0000
0000
0100
0030
0000
0000
,
1000
0010
0100
0001
0010
0001
1000
0010
,
0100
0010
0001
0010
1010
0000
0101
0000
,
0021
0000
0000
0000
0100
0000
0000
0000
1000
0000
0000
0000
0100
0030
0000
0000
,
2001
0010
0001
3100
,
0210
0000
0000
0000
0010
0000
0000
0000
1000
0000
0000
0000
0010
0300
0000
0000
,
0010
0001
0100
0010
1000
0010
0100
0001
,
2002
0000
0000
0000
0000
0000
3003
0000
0010
0000
0100
1000
0100
0000
0010
0000
,
0100
0001
0100
0000
0010
0000
1000
0000
0010
0000
0100
0000
0001
0000
0010
0000
,
0100
1000
0100
0010
0001
0100
0010
1000
,
0010
1000
0010
0000
0100
0000
0001
0000
0010
0000
0100
0000
1000
0000
0100
0000
,
0010
0001
0100
0001
1000
0010
0100
0010
,
1010
0000
0101
0000
0010
0100
1000
0100
,
0010
0001
0010
0000
0001
0000
0100
0000
0010
0000
1000
0000
0010
0000
0100
0000
,
0001
0001
0010
0010
0100
0100
1000
0010
,
0100
0001
0010
0100
1000
0100
0010
0100
,
1001
0000
M00M
0000
0000
0000
1000
0001
1000
0000
0000
0000
0000
0000
0000
0000
;

//---------------dance-single - D. Renzetti----------------
#NOTES:
     dance-single:
     D. Renzetti:
     challenge:
     9:
     -1.000,-1.000,-1.000,-1.000,-1.000:
// measure 1
0000
0000
0000
0000
,  // measure 2
0000
0000
0000
0000
,  // measure 3
0100
0001
0010
0000
0001
0100
1000
0000
,  // measure 4
0100
0010
1000
0001
0100
0001
0010
0100
,  // measure 5
1000
0010
0001
0000
0010
1000
0100
0000
,  // measure 6
0010
0001
0100
0010
0100
0001
0010
0001
,  // measure 7
0110
1000
0010
0100
0010
1000
0001
1000
,  // measure 8
0110
0001
0010
0100
1001
0010
0100
0001
,  // measure 9
0110
0000
0000
0000
1001
0000
0000
1000
0010
0000
0100
0001
0010
0000
0000
0000
,  // measure 10
0001
0100
1000
0100
0010
1000
0100
0010
,  // measure 11
0001
1000
0010
0100
0010
1000
0001
0010
,  // measure 12
0001
0100
0010
1000
0010
0001
0010
0100
,  // measure 13
0001
0010
0100
1000
0001
0010
0001
0200
,  // measure 14
0301
0000
0101
0000
0100
0010
1000
0100
,  // measure 15
1000
0010
1000
0010
0100
0001
0010
0100
,  // measure 16
0001
0100
1000
0010
0100
0001
0020
0000
,  // measure 17
0031
0000
0200
0000
0010
0310
1000
0100
,  // measure 18
0044
0000
0000
0000
0000
0000
0000
0000
0000
0000
0030
0000
0013
0001
0010
0001
,  // measure 19
0010
0001
0100
0010
,  // measure 20
1000
0100
1000
0020
0000
0100
0130
0001
,  // measure 21
0010
0000
0100
0000
1000
0000
0002
0010
,  // measure 22
0013
0100
1000
0010
0000
0100
0001
0010
,  // measure 23
0000
0001
0001
0100
0100
0000
0010
1000
,  // measure 24
0100
0010
0100
0010
0000
0001
0100
0010
,  // measure 25
1000
0000
1010
0000
0001
0000
0101
0100
,  // measure 26
0020
0000
1030
0000
0200
0000
1300
0001
,  // measure 27
0010
0000
0001
0000
1000
0010
0000
0100
0001
0000
0010
0001
0000
0100
0010
0000
,  // measure 28
1000
0000
0100
0000
0010
0001
0000
1000
0100
0000
1000
0010
0000
0100
0001
0000
,  // measure 29
0010
0000
0001
0000
0100
0010
0000
0010
1000
0000
1000
0100
0000
0100
0010
0000
,  // measure 30
0001
0000
0100
0000
0010
1000
0000
1000
0010
0000
0010
0100
0000
0100
0001
0000
,  // measure 31
0010
0000
0001
0000
0100
1000
0000
0100
0001
0000
0010
1000
0000
0010
0001
0000
,  // measure 32
0100
0000
1000
0000
0100
0001
0000
0010
1000
0000
0010
0001
0000
0100
1000
0000
,  // measure 33
0100
0000
0010
0000
0010
0001
0000
0001
0010
0000
0010
1000
0000
1000
0100
0000
,  // measure 34
4400
0000
0000
0000
0000
0000
0000
0000
0000
0000
0300
3000
0100
1000
0100
1000
,  // measure 35
0100
1000
0010
0100
0010
0001
0010
0100
,  // measure 36
0001
0010
0100
1000
0100
0001
0100
1000
,  // measure 37
0010
0100
0001
0010
0100
0001
0100
1000
,  // measure 38
0010
0100
0001
0100
0010
0001
0010
2000
,  // measure 39
3010
0000
1010
0000
0010
0001
0010
0100
,  // measure 40
0001
0010
0100
0010
0001
1000
1001
0000
,  // measure 41
0001
0100
0010
1000
1100
0000
0110
0000
,  // measure 42
0011
0000
0100
0010
2000
3020
0230
0301
,  // measure 43
1002
1000
0010
0103
,  // measure 44
0120
0100
0001
0130
,  // measure 45
2010
0010
0001
3100
,  // measure 46
1200
1000
0001
0310
,  // measure 47
0011
0100
0010
1000
0100
1000
0001
0100
,  // measure 48
0110
0001
1000
0001
0100
0010
1000
0100
,  // measure 49
1100
1000
0001
0010
0011
0100
0010
1000
,  // measure 50
1010
0010
0101
0001
0011
1000
1100
0010
,  // measure 51
4000
0004
0000
0000
0000
0000
0000
0000
0000
0000
0000
0000
0000
0000
3000
0000
,  // measure 52
1003
0010
0001
0010
1000
0010
0100
0001
,  // measure 53
0010
1000
0010
0001
0010
0100
0010
0001
,  // measure 54
0100
1000
0100
0010
1000
0100
0010
0001
,  // measure 55
0100
0010
0100
0001
1000
0100
0010
0100
,  // measure 56
0001
0100
0010
0001
0100
0010
0100
1000
,  // measure 57
0100
0010
0001
0010
1000
0010
0100
0001
,  // measure 58
0010
0001
0100
0010
1100
0000
0110
0000
,  // measure 59
0011
0000
0200
0000
0310
1000
0100
1000
,  // measure 60
2002
0000
0000
3000
0003
1000
0001
0000
0000
0000
0000
0000
;
